  0
SECTION
  2
HEADER
  9
$ACADVER
  1
AC1014
  9
$ACADMAINTVER
 70
     9
  9
$DWGCODEPAGE
  3
ANSI_932
  9
$INSBASE
 10
0.0
 20
0.0
 30
0.0
  9
$EXTMIN
 10
-200.300001
 20
-53.5000030544809
 30
-0.00000001
  9
$EXTMAX
 10
36.62778662512892
 20
35.35852223132709
 30
0.00000001
  9
$LIMMIN
 10
-212.4283160478946
 20
-92.01098889734623
  9
$LIMMAX
 10
49.45840178964954
 20
64.30738472477009
  9
$ORTHOMODE
 70
     0
  9
$REGENMODE
 70
     1
  9
$FILLMODE
 70
     1
  9
$QTEXTMODE
 70
     0
  9
$MIRRTEXT
 70
     0
  9
$DRAGMODE
 70
     2
  9
$LTSCALE
 40
1.0
  9
$OSMODE
 70
    55
  9
$ATTMODE
 70
     1
  9
$TEXTSIZE
 40
2.5
  9
$TRACEWID
 40
1.0
  9
$TEXTSTYLE
  7
STANDARD
  9
$CLAYER
  8
AM_0
  9
$CELTYPE
  6
BYLAYER
  9
$CECOLOR
 62
   256
  9
$CELTSCALE
 40
1.0
  9
$DELOBJ
 70
     1
  9
$DISPSILH
 70
     0
  9
$DIMSCALE
 40
1.0
  9
$DIMASZ
 40
2.5
  9
$DIMEXO
 40
1.0
  9
$DIMDLI
 40
12.0
  9
$DIMRND
 40
0.0
  9
$DIMDLE
 40
0.0
  9
$DIMEXE
 40
1.0
  9
$DIMTP
 40
0.1
  9
$DIMTM
 40
0.1
  9
$DIMTXT
 40
3.2
  9
$DIMCEN
 40
0.0
  9
$DIMTSZ
 40
0.0
  9
$DIMTOL
 70
     0
  9
$DIMLIM
 70
     0
  9
$DIMTIH
 70
     0
  9
$DIMTOH
 70
     0
  9
$DIMSE1
 70
     0
  9
$DIMSE2
 70
     0
  9
$DIMTAD
 70
     3
  9
$DIMZIN
 70
     8
  9
$DIMBLK
  1
OPEN30
  9
$DIMASO
 70
     1
  9
$DIMSHO
 70
     1
  9
$DIMPOST
  1

  9
$DIMAPOST
  1
"
  9
$DIMALT
 70
     0
  9
$DIMALTD
 70
     2
  9
$DIMALTF
 40
0.0393701
  9
$DIMLFAC
 40
1.0
  9
$DIMTOFL
 70
     1
  9
$DIMTVP
 40
0.0
  9
$DIMTIX
 70
     0
  9
$DIMSOXD
 70
     0
  9
$DIMSAH
 70
     0
  9
$DIMBLK1
  1

  9
$DIMBLK2
  1

  9
$DIMSTYLE
  2
AM_JIS
  9
$DIMCLRD
 70
   256
  9
$DIMCLRE
 70
   256
  9
$DIMCLRT
 70
     2
  9
$DIMTFAC
 40
0.71
  9
$DIMGAP
 40
1.5
  9
$DIMJUST
 70
     0
  9
$DIMSD1
 70
     0
  9
$DIMSD2
 70
     0
  9
$DIMTOLJ
 70
     0
  9
$DIMTZIN
 70
     0
  9
$DIMALTZ
 70
     0
  9
$DIMALTTZ
 70
     0
  9
$DIMFIT
 70
     3
  9
$DIMUPT
 70
     0
  9
$DIMUNIT
 70
     2
  9
$DIMDEC
 70
     3
  9
$DIMTDEC
 70
     3
  9
$DIMALTU
 70
     2
  9
$DIMALTTD
 70
     2
  9
$DIMTXSTY
  7
ASAMI
  9
$DIMAUNIT
 70
     0
  9
$LUNITS
 70
     2
  9
$LUPREC
 70
     2
  9
$SKETCHINC
 40
1.0
  9
$FILLETRAD
 40
2.5
  9
$AUNITS
 70
     0
  9
$AUPREC
 70
     0
  9
$MENU
  1
.
  9
$ELEVATION
 40
0.0
  9
$PELEVATION
 40
0.0
  9
$THICKNESS
 40
0.0
  9
$LIMCHECK
 70
     0
  9
$BLIPMODE
 70
     0
  9
$CHAMFERA
 40
0.5
  9
$CHAMFERB
 40
0.5
  9
$CHAMFERC
 40
20.0
  9
$CHAMFERD
 40
0.0
  9
$SKPOLY
 70
     0
  9
$TDCREATE
 40
2452800.443498622
  9
$TDUPDATE
 40
2453151.668478715
  9
$TDINDWG
 40
0.0910248380
  9
$TDUSRTIMER
 40
0.0910248380
  9
$USRTIMER
 70
     1
  9
$ANGBASE
 50
0.0
  9
$ANGDIR
 70
     0
  9
$PDMODE
 70
     3
  9
$PDSIZE
 40
0.0
  9
$PLINEWID
 40
0.0
  9
$COORDS
 70
     1
  9
$SPLFRAME
 70
     0
  9
$SPLINETYPE
 70
     6
  9
$SPLINESEGS
 70
     8
  9
$ATTDIA
 70
     1
  9
$ATTREQ
 70
     1
  9
$HANDLING
 70
 12289
  9
$HANDSEED
  5
41FC
  9
$SURFTAB1
 70
     6
  9
$SURFTAB2
 70
     6
  9
$SURFTYPE
 70
     6
  9
$SURFU
 70
     6
  9
$SURFV
 70
     6
  9
$UCSNAME
  2

  9
$UCSORG
 10
0.0
 20
0.0
 30
0.0
  9
$UCSXDIR
 10
1.0
 20
0.0000000000000027
 30
0.0
  9
$UCSYDIR
 10
-0.0000000000000027
 20
1.0
 30
0.0
  9
$PUCSNAME
  2

  9
$PUCSORG
 10
0.0
 20
0.0
 30
0.0
  9
$PUCSXDIR
 10
1.0
 20
0.0
 30
0.0
  9
$PUCSYDIR
 10
0.0
 20
1.0
 30
0.0
  9
$USERI1
 70
     0
  9
$USERI2
 70
     0
  9
$USERI3
 70
     0
  9
$USERI4
 70
     0
  9
$USERI5
 70
     0
  9
$USERR1
 40
0.0
  9
$USERR2
 40
0.0
  9
$USERR3
 40
0.0
  9
$USERR4
 40
0.0
  9
$USERR5
 40
0.0
  9
$WORLDVIEW
 70
     1
  9
$SHADEDGE
 70
     3
  9
$SHADEDIF
 70
    70
  9
$TILEMODE
 70
     1
  9
$MAXACTVP
 70
    64
  9
$PINSBASE
 10
0.0
 20
0.0
 30
0.0
  9
$PLIMCHECK
 70
     0
  9
$PEXTMIN
 10
1.000000000000000E+20
 20
1.000000000000000E+20
 30
1.000000000000000E+20
  9
$PEXTMAX
 10
-1.000000000000000E+20
 20
-1.000000000000000E+20
 30
-1.000000000000000E+20
  9
$PLIMMIN
 10
0.0
 20
0.0
  9
$PLIMMAX
 10
841.0
 20
594.0
  9
$UNITMODE
 70
     0
  9
$VISRETAIN
 70
     1
  9
$PLINEGEN
 70
     0
  9
$PSLTSCALE
 70
     0
  9
$TREEDEPTH
 70
  3020
  9
$PICKSTYLE
 70
     0
  9
$CMLSTYLE
  2
STANDARD
  9
$CMLJUST
 70
     0
  9
$CMLSCALE
 40
20.0
  9
$PROXYGRAPHICS
 70
     1
  9
$MEASUREMENT
 70
     1
  0
ENDSEC
  0
SECTION
  2
CLASSES
  0
CLASS
  1
ACDBDICTIONARYWDFLT
  2
AcDbDictionaryWithDefault
  3
AutoCAD 2000
 90
        0
280
     0
281
     0
  0
CLASS
  1
ACDBPLACEHOLDER
  2
AcDbPlaceHolder
  3
AutoCAD 2000
 90
        0
280
     0
281
     0
  0
CLASS
  1
LAYOUT
  2
AcDbLayout
  3
AutoCAD 2000
 90
        0
280
     0
281
     0
  0
CLASS
  1
AMGSETTINGSOBJ
  2
AmgSettingsObj
  3
"AcadM|Product Description: AutoCAD Mechanical 2000|Company: Autodesk"
 90
        0
280
     0
281
     0
  0
CLASS
  1
ACME_DOCUMENT
  2
AcMeDbDoc
  3
AcMeServices
 90
        0
280
     0
281
     0
  0
CLASS
  1
ACMESCOPE
  2
AcMeScope
  3
AcMeServices
 90
        0
280
     0
281
     0
  0
CLASS
  1
ACMECOMMANDHISTORY
  2
AcMeCommandHistory
  3
AcMeServices
 90
        0
280
     0
281
     0
  0
CLASS
  1
DICTIONARYVAR
  2
AcDbDictionaryVar
  3
AutoCAD 2000
 90
        0
280
     0
281
     0
  0
CLASS
  1
ACIMSYSVARMAN
  2
AcImSysVarManager
  3
AcMeServices
 90
        0
280
     0
281
     0
  0
CLASS
  1
ACIMREALSYSVAR
  2
AcImRealSysVar
  3
AcMeServices
 90
        0
280
     0
281
     0
  0
CLASS
  1
ACIMINTSYSVAR
  2
AcImIntSysVar
  3
AcMeServices
 90
        0
280
     0
281
     0
  0
CLASS
  1
ACMEDRAWINGMAN
  2
AcMeDrawingMan
  3
AcMeServices
 90
        0
280
     0
281
     0
  0
CLASS
  1
ACMEVIEW
  2
AcMeView
  3
AcMeServices
 90
        0
280
     0
281
     0
  0
CLASS
  1
ACDBENTITYCACHE
  2
AcMeEntityCache
  3
AcMeServices
 90
        0
280
     0
281
     0
  0
CLASS
  1
GSMANAGER
  2
AcMeGSManager
  3
AcMeServices
 90
        0
280
     0
281
     0
  0
CLASS
  1
AmdtInternalReactor
  2
AmdtInternalReactor
  3
AcMeServices
 90
        0
280
     0
281
     0
  0
CLASS
  1
ACMESTATEMGR
  2
AcMeStateMgr
  3
AcMeServices
 90
        0
280
     0
281
     0
  0
CLASS
  1
ACME_DATABASE
  2
AcMeDbDatabase
  3
AcMeServices
 90
        0
280
     0
281
     0
  0
CLASS
  1
ACRFINSADJUSTERMGR
  2
AcRfInsAdjusterMgr
  3
AcMeServices
 90
        0
280
     0
281
     0
  0
CLASS
  1
ACMDATADICTIONARY
  2
AcmDataDictionary
  3
"AcmSymBB|Product Description: AutoCAD Mechanical 2000|Company: Autodesk"
 90
        0
280
     0
281
     0
  0
CLASS
  1
ACMDATAENTRYBLOCK
  2
AcmDataEntryBlock
  3
"AcmSymBB|Product Description: AutoCAD Mechanical 2000|Company: Autodesk"
 90
        0
280
     0
281
     0
  0
CLASS
  1
AMGOBJPROPCFG
  2
AmgObjPropCfg
  3
"AmgLay|Product Description: AutoCAD Mechanical 2000|Company: Autodesk"
 90
        1
280
     0
281
     0
  0
CLASS
  1
ACAMGFILTERDAT
  2
AcAmgFilterDat
  3
"AcadM|Product Description: AutoCAD Mechanical 2000|Company: Autodesk"
 90
        0
280
     0
281
     0
  0
CLASS
  1
LAYER_INDEX
  2
AcDbLayerIndex
  3
AutoCAD 2000
 90
        0
280
     0
281
     0
  0
CLASS
  1
IDBUFFER
  2
AcDbIdBuffer
  3
AutoCAD 2000
 90
        0
280
     0
281
     0
  0
CLASS
  1
ACIMSTRSYSVAR
  2
AcImStrSysVar
  3
AcMeServices
 90
        0
280
     0
281
     0
  0
CLASS
  1
ACMSTANDARDJIS
  2
AcmStandardJIS
  3
"AcmSymBB|Product Description: AutoCAD Mechanical 2000|Company: Autodesk"
 90
        0
280
     0
281
     0
  0
CLASS
  1
ACMSURFSTANDARDJIS
  2
AcmSurfTextStdJIS
  3
"AcmSymBB|Product Description: AutoCAD Mechanical 2000|Company: Autodesk"
 90
        0
280
     0
281
     0
  0
CLASS
  1
ACMFCFSTANDARDJIS
  2
AcmFCFStdJIS
  3
"AcmSymBB|Product Description: AutoCAD Mechanical 2000|Company: Autodesk"
 90
        0
280
     0
281
     0
  0
CLASS
  1
ACMWELDSTANDARDJIS
  2
AcmWeldingStdJIS
  3
"AcmSymBB|Product Description: AutoCAD Mechanical 2000|Company: Autodesk"
 90
        0
280
     0
281
     0
  0
CLASS
  1
ACMIDSTANDARDJIS
  2
AcmIdStdJIS
  3
"AcmSymBB|Product Description: AutoCAD Mechanical 2000|Company: Autodesk"
 90
        0
280
     0
281
     0
  0
CLASS
  1
ACMDATUMSTANDARDJIS
  2
AcmDatumStdJIS
  3
"AcmSymBB|Product Description: AutoCAD Mechanical 2000|Company: Autodesk"
 90
        0
280
     0
281
     0
  0
CLASS
  1
ACMBOMSTANDARDJIS
  2
AcmBOMStdJIS
  3
"AcmSymBB|Product Description: AutoCAD Mechanical 2000|Company: Autodesk"
 90
        0
280
     0
281
     0
  0
CLASS
  1
ACMSTANDARDANSI
  2
AcmStandardANSI
  3
"AcmSymBB|Product Description: AutoCAD Mechanical 2000|Company: Autodesk"
 90
        0
280
     0
281
     0
  0
CLASS
  1
ACMSURFSTANDARDANSI
  2
AcmSurfTextStdANSI
  3
"AcmSymBB|Product Description: AutoCAD Mechanical 2000|Company: Autodesk"
 90
        0
280
     0
281
     0
  0
CLASS
  1
ACMFCFSTANDARDANSI
  2
AcmFCFStdANSI
  3
"AcmSymBB|Product Description: AutoCAD Mechanical 2000|Company: Autodesk"
 90
        0
280
     0
281
     0
  0
CLASS
  1
ACMWELDSTANDARDANSI
  2
AcmWeldingStdANSI
  3
"AcmSymBB|Product Description: AutoCAD Mechanical 2000|Company: Autodesk"
 90
        0
280
     0
281
     0
  0
CLASS
  1
ACMIDSTANDARDANSI
  2
AcmIdStdANSI
  3
"AcmSymBB|Product Description: AutoCAD Mechanical 2000|Company: Autodesk"
 90
        0
280
     0
281
     0
  0
CLASS
  1
ACMDATUMSTANDARDANSI
  2
AcmDatumStdANSI
  3
"AcmSymBB|Product Description: AutoCAD Mechanical 2000|Company: Autodesk"
 90
        0
280
     0
281
     0
  0
CLASS
  1
ACMBOMSTANDARDANSI
  2
AcmBOMStdANSI
  3
"AcmSymBB|Product Description: AutoCAD Mechanical 2000|Company: Autodesk"
 90
        0
280
     0
281
     0
  0
CLASS
  1
ACMSTANDARDBSI
  2
AcmStandardBSI
  3
"AcmSymBB|Product Description: AutoCAD Mechanical 2000|Company: Autodesk"
 90
        0
280
     0
281
     0
  0
CLASS
  1
ACMSURFSTANDARDBSI
  2
AcmSurfTextStdBSI
  3
"AcmSymBB|Product Description: AutoCAD Mechanical 2000|Company: Autodesk"
 90
        0
280
     0
281
     0
  0
CLASS
  1
ACMFCFSTANDARDBSI
  2
AcmFCFStdBSI
  3
"AcmSymBB|Product Description: AutoCAD Mechanical 2000|Company: Autodesk"
 90
        0
280
     0
281
     0
  0
CLASS
  1
ACMWELDSTANDARDBSI
  2
AcmWeldingStdBSI
  3
"AcmSymBB|Product Description: AutoCAD Mechanical 2000|Company: Autodesk"
 90
        0
280
     0
281
     0
  0
CLASS
  1
ACMIDSTANDARDBSI
  2
AcmIdStdBSI
  3
"AcmSymBB|Product Description: AutoCAD Mechanical 2000|Company: Autodesk"
 90
        0
280
     0
281
     0
  0
CLASS
  1
ACMDATUMSTANDARDBSI
  2
AcmDatumStdBSI
  3
"AcmSymBB|Product Description: AutoCAD Mechanical 2000|Company: Autodesk"
 90
        0
280
     0
281
     0
  0
CLASS
  1
ACMBOMSTANDARDBSI
  2
AcmBOMStdBSI
  3
"AcmSymBB|Product Description: AutoCAD Mechanical 2000|Company: Autodesk"
 90
        0
280
     0
281
     0
  0
CLASS
  1
LONG_TRANSACTION
  2
AcDbLongTransaction
  3
AutoCAD 2000
 90
        0
280
     0
281
     0
  0
CLASS
  1
LWPOLYLINE
  2
AcDbPolyline
  3
AutoCAD 2000
 90
        0
280
     0
281
     1
  0
CLASS
  1
HATCH
  2
AcDbHatch
  3
AutoCAD 2000
 90
        0
280
     0
281
     1
  0
CLASS
  1
XRECORD
  2
AcDbXrecord
  3
AutoCAD 2000
 90
        0
280
     0
281
     0
  0
ENDSEC
  0
SECTION
  2
TABLES
  0
TABLE
  2
VPORT
  5
8
330
0
100
AcDbSymbolTable
 70
     3
  0
VPORT
  5
41C6
330
8
100
AcDbSymbolTableRecord
100
AcDbViewportTableRecord
  2
*ACTIVE
 70
     0
 10
0.0
 20
0.0
 11
1.0
 21
1.0
 12
-77.44407975235792
 22
-9.069417391929249
 13
0.0
 23
0.0
 14
2.5
 24
2.5
 15
10.0
 25
10.0
 16
0.0
 26
0.0
 36
1.0
 17
0.0
 27
0.0
 37
0.0
 40
157.6964305161639
 41
1.56570841889117
 42
50.0
 43
0.0
 44
0.0
 50
0.0
 51
0.0
 71
     0
 72
   100
 73
     1
 74
     1
 75
     0
 76
     0
 77
     0
 78
     0
  0
ENDTAB
  0
TABLE
  2
LTYPE
  5
5
330
0
100
AcDbSymbolTable
 70
    10
  0
LTYPE
  5
14
330
5
100
AcDbSymbolTableRecord
100
AcDbLinetypeTableRecord
  2
BYBLOCK
 70
     0
  3

 72
    65
 73
     0
 40
0.0
  0
LTYPE
  5
15
330
5
100
AcDbSymbolTableRecord
100
AcDbLinetypeTableRecord
  2
BYLAYER
 70
     0
  3

 72
    65
 73
     0
 40
0.0
  0
LTYPE
  5
16
330
5
100
AcDbSymbolTableRecord
100
AcDbLinetypeTableRecord
  2
CONTINUOUS
 70
     0
  3
Solid line
 72
    65
 73
     0
 40
0.0
  0
LTYPE
  5
4B
330
5
100
AcDbSymbolTableRecord
100
AcDbLinetypeTableRecord
  2
AM_ISO02W050
 70
     0
  3
__ __ __ __ __ __ __ __ __ __ __ __ __ __ __
 72
    65
 73
     2
 40
7.5
 49
6.0
 74
     0
 49
-1.5
 74
     0
  0
LTYPE
  5
4C
330
5
100
AcDbSymbolTableRecord
100
AcDbLinetypeTableRecord
  2
AM_ISO08W050
 70
     0
  3
____ . ____ . ____ . ____ . ____ . ____ . ____
 72
    65
 73
     4
 40
18.0
 49
12.0
 74
     0
 49
-1.5
 74
     0
 49
3.0
 74
     0
 49
-1.5
 74
     0
  0
LTYPE
  5
4D
330
5
100
AcDbSymbolTableRecord
100
AcDbLinetypeTableRecord
  2
AM_ISO09W050
 70
     0
  3
_____ . . _____ . . _____ . . ____ .. ____
 72
    65
 73
     6
 40
22.5
 49
12.0
 74
     0
 49
-1.5
 74
     0
 49
3.0
 74
     0
 49
-1.5
 74
     0
 49
3.0
 74
     0
 49
-1.5
 74
     0
  0
LTYPE
  5
4E
330
5
100
AcDbSymbolTableRecord
100
AcDbLinetypeTableRecord
  2
AMCONSTR
 70
     0
  3
_______________________
 72
    65
 73
     2
 40
9999.0
 49
9999.0
 74
     0
 49
0.0
 74
     0
  0
LTYPE
  5
4F
330
5
100
AcDbSymbolTableRecord
100
AcDbLinetypeTableRecord
  2
AM_ISO02W050X2
 70
     0
  3
 _ _ _ _ _ _ _ _ _ _ _ _
 72
    65
 73
     2
 40
3.75
 49
3.0
 74
     0
 49
-0.75
 74
     0
  0
LTYPE
  5
50
330
5
100
AcDbSymbolTableRecord
100
AcDbLinetypeTableRecord
  2
AM_ISO08W050X2
 70
     0
  3
__ . __ . __ . __ . __ . __
 72
    65
 73
     4
 40
9.0
 49
6.0
 74
     0
 49
-0.75
 74
     0
 49
1.5
 74
     0
 49
-0.75
 74
     0
  0
LTYPE
  5
53
330
5
100
AcDbSymbolTableRecord
100
AcDbLinetypeTableRecord
  2
AMZIGZAG
 70
     0
  3
/\/-/\/-/\/-/\/-/\/-/\/
 72
    65
 73
     2
 40
11.00009999999999
 49
0.0001
 74
     4
 75
   135
340
52
 46
0.04
 50
0.0
 44
0.0
 45
0.0
 49
-11.0
 74
     0
  0
LTYPE
  5
166
330
5
100
AcDbSymbolTableRecord
100
AcDbLinetypeTableRecord
  2
ACJISTGL
 70
     0
  3
_ _ _ _ _
 72
    65
 73
     2
 40
3.0
 49
2.0
 74
     0
 49
-1.0
 74
     0
  0
LTYPE
  5
26A
330
5
100
AcDbSymbolTableRecord
100
AcDbLinetypeTableRecord
  2
ACJISTGB
 70
     0
  3
__ . . __ . .
 72
    65
 73
     6
 40
9.0
 49
4.0
 74
     0
 49
-1.0
 74
     0
 49
1.0
 74
     0
 49
-1.0
 74
     0
 49
1.0
 74
     0
 49
-1.0
 74
     0
  0
ENDTAB
  0
TABLE
  2
LAYER
  5
2
330
0
100
AcDbSymbolTable
 70
     8
  0
LAYER
  5
10
330
2
100
AcDbSymbolTableRecord
100
AcDbLayerTableRecord
  2
0
 70
     0
 62
     7
  6
CONTINUOUS
  0
LAYER
  5
3F9
330
2
100
AcDbSymbolTableRecord
100
AcDbLayerTableRecord
  2
AM_0
 70
     0
 62
     7
  6
CONTINUOUS
  0
LAYER
  5
C7C
330
2
100
AcDbSymbolTableRecord
100
AcDbLayerTableRecord
  2
AM_7
 70
     0
 62
     4
  6
AM_ISO08W050
  0
LAYER
  5
C97
330
2
100
AcDbSymbolTableRecord
100
AcDbLayerTableRecord
  2
AM_11
 70
     0
 62
     3
  6
AM_ISO09W050
  0
LAYER
  5
CC5
330
2
100
AcDbSymbolTableRecord
100
AcDbLayerTableRecord
  2
AM_5
 70
     0
 62
     3
  6
CONTINUOUS
  0
LAYER
  5
CC7
330
2
100
AcDbSymbolTableRecord
100
AcDbLayerTableRecord
  2
DEFPOINTS
 70
     0
 62
     7
  6
CONTINUOUS
  0
LAYER
  5
19BC
330
2
100
AcDbSymbolTableRecord
100
AcDbLayerTableRecord
  2
AM_6
 70
     0
 62
     2
  6
CONTINUOUS
  0
LAYER
  5
4030
330
2
100
AcDbSymbolTableRecord
100
AcDbLayerTableRecord
  2
AM_CL
 70
     0
 62
     1
  6
AMCONSTR
  0
ENDTAB
  0
TABLE
  2
STYLE
  5
3
330
0
100
AcDbSymbolTable
 70
     5
  0
STYLE
  5
11
330
3
100
AcDbSymbolTableRecord
100
AcDbTextStyleTableRecord
  2
STANDARD
 70
     0
 40
0.0
 41
1.0
 50
0.0
 71
     0
 42
2.5
  3
simplex.shx
  4
EXTFONT.SHX
  0
STYLE
  5
52
330
3
100
AcDbSymbolTableRecord
100
AcDbTextStyleTableRecord
  2

 70
     1
 40
0.0
 41
1.0
 50
0.0
 71
     0
 42
2.5
  3
ltypeshp.shx
  4

  0
STYLE
  5
6B
330
3
100
AcDbSymbolTableRecord
100
AcDbTextStyleTableRecord
  2
ASAMI
 70
     0
 40
0.0
 41
1.0
 50
0.0
 71
     0
 42
2.5
  3
simplex.shx
  4
EXTFONT.SHX
  0
STYLE
  5
262
330
3
100
AcDbSymbolTableRecord
100
AcDbTextStyleTableRecord
  2
ACJISTS
 70
     0
 40
1.0
 41
1.0
 50
0.0
 71
     0
 42
2.5
  3
simplex.shx
  4
bigfont.shx
  0
STYLE
  5
269
330
3
100
AcDbSymbolTableRecord
100
AcDbTextStyleTableRecord
  2
ACJISGDT
 70
     0
 40
0.0
 41
1.0
 50
0.0
 71
     0
 42
2.5
  3
amgdtans.shx
  4

  0
ENDTAB
  0
TABLE
  2
VIEW
  5
6
330
0
100
AcDbSymbolTable
 70
     0
  0
ENDTAB
  0
TABLE
  2
UCS
  5
7
330
0
100
AcDbSymbolTable
 70
     0
  0
ENDTAB
  0
TABLE
  2
APPID
  5
9
330
0
100
AcDbSymbolTable
 70
    16
  0
APPID
  5
12
330
9
100
AcDbSymbolTableRecord
100
AcDbRegAppTableRecord
  2
ACAD
 70
     0
  0
APPID
  5
30
330
9
100
AcDbSymbolTableRecord
100
AcDbRegAppTableRecord
  2
MCAD_NO_VIS
 70
     0
  0
APPID
  5
31
330
9
100
AcDbSymbolTableRecord
100
AcDbRegAppTableRecord
  2
ACAD_TEMP_GRAPHIC
 70
     0
  0
APPID
  5
2C2
330
9
100
AcDbSymbolTableRecord
100
AcDbRegAppTableRecord
  2
GENIUS_GENDTOL_13
 70
     0
  0
APPID
  5
339
330
9
100
AcDbSymbolTableRecord
100
AcDbRegAppTableRecord
  2
GENIUS_GENODEF_13
 70
     0
  0
APPID
  5
33A
330
9
100
AcDbSymbolTableRecord
100
AcDbRegAppTableRecord
  2
GENIUS_GENOBJ-N-RSBK_13
 70
     0
  0
APPID
  5
33B
330
9
100
AcDbSymbolTableRecord
100
AcDbRegAppTableRecord
  2
GENIUS_GENOBJ-N-LIB_13
 70
     0
  0
APPID
  5
33C
330
9
100
AcDbSymbolTableRecord
100
AcDbRegAppTableRecord
  2
GENIUS_GENSCALE_13
 70
     0
  0
APPID
  5
378
330
9
100
AcDbSymbolTableRecord
100
AcDbRegAppTableRecord
  2
GENIUS_GENDIMSH_14
 70
     0
  0
APPID
  5
C82
330
9
100
AcDbSymbolTableRecord
100
AcDbRegAppTableRecord
  2
GENIUS_GENOBJ-N-CRS_13
 70
     0
  0
APPID
  5
C83
330
9
100
AcDbSymbolTableRecord
100
AcDbRegAppTableRecord
  2
GENIUS_GENOENT_13
 70
     0
  0
APPID
  5
C84
330
9
100
AcDbSymbolTableRecord
100
AcDbRegAppTableRecord
  2
GENIUS_GENOREF_13
 70
     0
  0
APPID
  5
C85
330
9
100
AcDbSymbolTableRecord
100
AcDbRegAppTableRecord
  2
GENIUS_GENOLIS_13
 70
     0
  0
APPID
  5
CA0
330
9
100
AcDbSymbolTableRecord
100
AcDbRegAppTableRecord
  2
GENIUS_GENOBJ-N-CEN_13
 70
     0
  0
APPID
  5
1E1E
330
9
100
AcDbSymbolTableRecord
100
AcDbRegAppTableRecord
  2
GENIUS_GENFIL_13
 70
     0
  0
APPID
  5
1E1F
330
9
100
AcDbSymbolTableRecord
100
AcDbRegAppTableRecord
  2
GENIUS_GENOBJ-N-CHA_13
 70
     0
  0
ENDTAB
  0
TABLE
  2
DIMSTYLE
  5
A
330
0
100
AcDbSymbolTable
 70
     9
  0
DIMSTYLE
105
58
330
A
100
AcDbSymbolTableRecord
100
AcDbDimStyleTableRecord
  2
AM_JIS
 70
     0
  3

  4
"
  5
OPEN30
  6

  7

 40
1.0
 41
2.5
 42
1.0
 43
12.0
 44
1.0
 45
0.0
 46
0.0
 47
0.1
 48
0.1
140
3.2
141
0.0
142
0.0
143
0.0393701
144
1.0
145
0.0
146
0.71
147
1.5
 71
     0
 72
     0
 73
     0
 74
     0
 75
     0
 76
     0
 77
     3
 78
     8
170
     0
171
     2
172
     1
173
     0
174
     0
175
     0
176
   256
177
   256
178
     2
270
     2
271
     3
272
     3
273
     2
274
     2
340
6B
275
     0
280
     0
281
     0
282
     0
283
     0
284
     0
285
     0
286
     0
287
     3
288
     0
  0
DIMSTYLE
105
5F
330
A
100
AcDbSymbolTableRecord
100
AcDbDimStyleTableRecord
  2
AM_JIS$3
 70
     0
  3

  4
"
  5
OPEN30
  6

  7

 40
1.0
 41
2.5
 42
1.0
 43
10.0
 44
1.0
 45
0.0
 46
0.0
 47
0.1
 48
0.1
140
3.2
141
0.0
142
0.0
143
0.0393701
144
1.0
145
0.0
146
0.71
147
1.5
 71
     0
 72
     0
 73
     0
 74
     1
 75
     0
 76
     0
 77
     3
 78
     8
170
     0
171
     2
172
     0
173
     0
174
     0
175
     0
176
   256
177
   256
178
     2
270
     2
271
     2
272
     3
273
     2
274
     2
340
6B
275
     0
280
     0
281
     0
282
     0
283
     0
284
     0
285
     0
286
     0
287
     0
288
     1
  0
DIMSTYLE
105
60
330
A
100
AcDbSymbolTableRecord
100
AcDbDimStyleTableRecord
  2
AM_JIS$4
 70
     0
  3

  4
"
  5
OPEN30
  6

  7

 40
1.0
 41
2.5
 42
1.0
 43
10.0
 44
1.0
 45
0.0
 46
0.0
 47
0.1
 48
0.1
140
3.2
141
0.0
142
0.0
143
0.0393701
144
1.0
145
0.0
146
0.71
147
1.5
 71
     0
 72
     0
 73
     0
 74
     1
 75
     0
 76
     0
 77
     3
 78
     8
170
     0
171
     2
172
     0
173
     0
174
     0
175
     0
176
   256
177
   256
178
     2
270
     2
271
     2
272
     3
273
     2
274
     2
340
6B
275
     0
280
     0
281
     0
282
     0
283
     0
284
     0
285
     0
286
     0
287
     0
288
     1
  0
DIMSTYLE
105
61
330
A
100
AcDbSymbolTableRecord
100
AcDbDimStyleTableRecord
  2
AM_JIS$6
 70
     0
  3

  4
"
  5
OPEN30
  6

  7

 40
1.0
 41
2.5
 42
1.0
 43
10.0
 44
1.0
 45
0.0
 46
0.0
 47
0.1
 48
0.1
140
3.2
141
0.0
142
0.0
143
0.0393701
144
1.0
145
0.0
146
0.71
147
1.5
 71
     0
 72
     0
 73
     0
 74
     0
 75
     0
 76
     0
 77
     0
 78
     8
170
     0
171
     2
172
     1
173
     0
174
     0
175
     0
176
   256
177
   256
178
     2
270
     2
271
     2
272
     2
273
     2
274
     2
340
6B
275
     0
280
     0
281
     0
282
     0
283
     0
284
     0
285
     0
286
     0
287
     3
288
     0
  0
DIMSTYLE
105
62
330
A
100
AcDbSymbolTableRecord
100
AcDbDimStyleTableRecord
  2
AM_JIS$7
 70
     0
  3

  4
"
  5
OPEN30
  6

  7

 40
1.0
 41
2.5
 42
1.0
 43
10.0
 44
1.0
 45
0.0
 46
0.0
 47
0.1
 48
0.1
140
3.2
141
0.0
142
0.0
143
0.0393701
144
1.0
145
0.0
146
0.71
147
1.5
 71
     0
 72
     0
 73
     0
 74
     0
 75
     0
 76
     0
 77
     3
 78
     8
170
     0
171
     2
172
     1
173
     0
174
     0
175
     0
176
   256
177
   256
178
     2
270
     2
271
     2
272
     3
273
     2
274
     2
340
6B
275
     0
280
     0
281
     0
282
     0
283
     0
284
     0
285
     0
286
     0
287
     3
288
     0
  0
DIMSTYLE
105
63
330
A
100
AcDbSymbolTableRecord
100
AcDbDimStyleTableRecord
  2
AM_JIS$SF
 70
     0
  3

  4
"
  5
OPEN30
  6

  7

 40
1.0
 41
2.5
 42
1.0
 43
10.0
 44
1.0
 45
0.0
 46
0.0
 47
0.1
 48
0.1
140
3.2
141
0.0
142
0.0
143
0.0393701
144
1.0
145
0.0
146
0.71
147
1.5
 71
     0
 72
     0
 73
     0
 74
     0
 75
     1
 76
     1
 77
     3
 78
     8
170
     0
171
     2
172
     1
173
     0
174
     0
175
     0
176
   256
177
   256
178
     2
270
     2
271
     2
272
     2
273
     2
274
     2
340
6B
275
     0
280
     0
281
     0
282
     0
283
     0
284
     0
285
     0
286
     0
287
     3
288
     0
  0
DIMSTYLE
105
68
330
A
100
AcDbSymbolTableRecord
100
AcDbDimStyleTableRecord
  2
AM_JIS$SH
 70
     0
  3

  4
"
  5

  6
GENAXEH
  7
OPEN30
 40
1.0
 41
2.5
 42
1.0
 43
10.0
 44
1.0
 45
0.0
 46
0.0
 47
0.1
 48
0.1
140
3.2
141
0.0
142
0.0
143
0.0393701
144
2.0
145
0.0
146
0.71
147
1.5
 71
     0
 72
     0
 73
     0
 74
     0
 75
     1
 76
     1
 77
     3
 78
     8
170
     0
171
     2
172
     1
173
     1
174
     0
175
     0
176
   256
177
   256
178
     2
270
     2
271
     2
272
     2
273
     2
274
     2
340
6B
275
     0
280
     0
281
     0
282
     0
283
     0
284
     0
285
     0
286
     0
287
     3
288
     0
  0
DIMSTYLE
105
B34
102
{ACAD_REACTORS
330
4087
102
}
330
A
100
AcDbSymbolTableRecord
100
AcDbDimStyleTableRecord
  2
AM_JIS$2
 70
     0
  3

  4
"
  5
OPEN30
  6

  7

 40
1.0
 41
2.5
 42
1.0
 43
12.0
 44
1.0
 45
0.0
 46
0.0
 47
0.1
 48
0.1
140
3.2
141
0.0
142
0.0
143
0.0393701
144
1.0
145
0.0
146
0.71
147
1.5
 71
     0
 72
     0
 73
     0
 74
     0
 75
     0
 76
     0
 77
     3
 78
     8
170
     0
171
     2
172
     1
173
     0
174
     0
175
     0
176
   256
177
   256
178
     2
270
     2
271
     3
272
     3
273
     2
274
     2
340
6B
275
     0
280
     0
281
     0
282
     0
283
     0
284
     0
285
     0
286
     0
287
     3
288
     0
  0
DIMSTYLE
105
BA5
102
{ACAD_REACTORS
330
CC6
330
DF5
330
1FB6
330
2216
102
}
330
A
100
AcDbSymbolTableRecord
100
AcDbDimStyleTableRecord
  2
AM_JIS$0
 70
     0
  3

  4
"
  5
OPEN30
  6

  7

 40
1.0
 41
2.5
 42
0.0
 43
10.0
 44
1.0
 45
0.0
 46
0.0
 47
0.1
 48
0.1000000001
140
3.799999999999999
141
0.0
142
0.0
143
0.0393701
144
1.0
145
0.0
146
0.71
147
1.5
 71
     0
 72
     0
 73
     0
 74
     0
 75
     0
 76
     0
 77
     3
 78
     1
170
     0
171
     2
172
     1
173
     0
174
     0
175
     0
176
     3
177
     3
178
     2
270
     2
271
     2
272
     2
273
     2
274
     2
340
11
275
     1
280
     0
281
     0
282
     0
283
     0
284
     8
285
     0
286
     0
287
     0
288
     0
  0
ENDTAB
  0
TABLE
  2
BLOCK_RECORD
  5
1
330
0
100
AcDbSymbolTable
 70
    10
  0
BLOCK_RECORD
  5
1F
102
{ACAD_XDICTIONARY
360
74
102
}
330
1
100
AcDbSymbolTableRecord
100
AcDbBlockTableRecord
  2
*MODEL_SPACE
  0
BLOCK_RECORD
  5
101
102
{ACAD_XDICTIONARY
360
41EF
102
}
330
1
100
AcDbSymbolTableRecord
100
AcDbBlockTableRecord
  2
*PAPER_SPACE
  0
BLOCK_RECORD
  5
59
330
1
100
AcDbSymbolTableRecord
100
AcDbBlockTableRecord
  2
_OPEN30
  0
BLOCK_RECORD
  5
64
330
1
100
AcDbSymbolTableRecord
100
AcDbBlockTableRecord
  2
GENAXEH
  0
BLOCK_RECORD
  5
CC8
330
1
100
AcDbSymbolTableRecord
100
AcDbBlockTableRecord
  2
*D5
  0
BLOCK_RECORD
  5
DF6
330
1
100
AcDbSymbolTableRecord
100
AcDbBlockTableRecord
  2
*D6
  0
BLOCK_RECORD
  5
1FB7
330
1
100
AcDbSymbolTableRecord
100
AcDbBlockTableRecord
  2
*D7
  0
BLOCK_RECORD
  5
2217
330
1
100
AcDbSymbolTableRecord
100
AcDbBlockTableRecord
  2
*D8
  0
BLOCK_RECORD
  5
4088
330
1
100
AcDbSymbolTableRecord
100
AcDbBlockTableRecord
  2
*D9
  0
ENDTAB
  0
ENDSEC
  0
SECTION
  2
BLOCKS
  0
BLOCK
  5
20
330
1F
100
AcDbEntity
  8
0
100
AcDbBlockBegin
  2
*MODEL_SPACE
 70
     0
 10
0.0
 20
0.0
 30
0.0
  3
*MODEL_SPACE
  1

  0
ENDBLK
  5
21
330
1F
100
AcDbEntity
  8
0
100
AcDbBlockEnd
  0
BLOCK
  5
103
330
101
100
AcDbEntity
 67
     1
  8
0
100
AcDbBlockBegin
  2
*PAPER_SPACE
 70
     0
 10
0.0
 20
0.0
 30
0.0
  3
*PAPER_SPACE
  1

  0
ENDBLK
  5
104
330
101
100
AcDbEntity
 67
     1
  8
0
100
AcDbBlockEnd
  0
BLOCK
  5
5D
330
59
100
AcDbEntity
  8
0
100
AcDbBlockBegin
  2
_OPEN30
 70
     0
 10
0.0
 20
0.0
 30
0.0
  3
_OPEN30
  1

  0
LINE
  5
5A
330
59
100
AcDbEntity
  8
0
 62
     0
100
AcDbLine
 10
-1.0
 20
0.26794919
 30
0.0
 11
0.0
 21
0.0
 31
0.0
  0
LINE
  5
5B
330
59
100
AcDbEntity
  8
0
 62
     0
100
AcDbLine
 10
0.0
 20
0.0
 30
0.0
 11
-1.0
 21
-0.26794919
 31
0.0
  0
LINE
  5
5C
330
59
100
AcDbEntity
  8
0
 62
     0
100
AcDbLine
 10
0.0
 20
0.0
 30
0.0
 11
-1.0
 21
0.0
 31
0.0
  0
ENDBLK
  5
5E
330
59
100
AcDbEntity
  8
0
100
AcDbBlockEnd
  0
BLOCK
  5
66
330
64
100
AcDbEntity
  8
0
100
AcDbBlockBegin
  2
GENAXEH
 70
     0
 10
0.0
 20
0.0
 30
0.0
  3
GENAXEH
  1

  0
LINE
  5
65
330
64
100
AcDbEntity
  8
0
100
AcDbLine
 10
-1.0
 20
0.0
 30
0.0
 11
1.0
 21
0.0
 31
0.0
  0
ENDBLK
  5
67
330
64
100
AcDbEntity
  8
0
100
AcDbBlockEnd
  0
BLOCK
  5
CD2
330
CC8
100
AcDbEntity
  8
0
100
AcDbBlockBegin
  2
*D5
 70
     1
 10
0.0
 20
0.0
 30
0.0
  3
*D5
  1

  0
LINE
  5
4052
330
CC8
100
AcDbEntity
  8
AM_5
 62
     3
100
AcDbLine
 10
-179.0
 20
-6.500002054481049
 30
0.0
 11
-179.0
 21
-32.00000305448085
 31
0.0
  0
LINE
  5
4053
330
CC8
100
AcDbEntity
  8
AM_5
 62
     3
100
AcDbLine
 10
-2.999999999999391
 20
-6.900000602030921
 30
0.0
 11
-2.999999999999392
 21
-32.00000305448084
 31
0.0
  0
LINE
  5
4054
330
CC8
100
AcDbEntity
  8
AM_5
 62
     3
100
AcDbLine
 10
-176.5
 20
-31.00000305448084
 30
0.0
 11
-5.499999999999392
 21
-31.00000305448084
 31
0.0
  0
INSERT
  5
4055
330
CC8
100
AcDbEntity
  8
AM_5
 62
     3
100
AcDbBlockReference
  2
_OPEN30
 10
-179.0
 20
-31.00000305448084
 30
0.0
 41
2.5
 42
2.5
 43
2.5
 50
180.0
  0
INSERT
  5
4056
330
CC8
100
AcDbEntity
  8
AM_5
 62
     3
100
AcDbBlockReference
  2
_OPEN30
 10
-2.999999999999392
 20
-31.00000305448084
 30
0.0
 41
2.5
 42
2.5
 43
2.5
  0
MTEXT
  5
4057
330
CC8
100
AcDbEntity
  8
AM_5
 62
     2
100
AcDbMText
 10
-90.99999999999971
 20
-27.60000305448084
 30
0.0
 40
3.799999999999999
 41
0.0
 71
     5
 72
     1
  1
176
1001
ACAD
1000
MTEXTBEGIN
1070
    73
1070
     1
1070
    44
1040
1.0
1070
    74
1070
     0
1000
MTEXTEND
  0
POINT
  5
4058
330
CC8
100
AcDbEntity
  8
DEFPOINTS
 62
     0
100
AcDbPoint
 10
-179.0
 20
-6.500002054481049
 30
0.0
  0
POINT
  5
4059
330
CC8
100
AcDbEntity
  8
DEFPOINTS
 62
     0
100
AcDbPoint
 10
-2.999999999999391
 20
-6.900000602030921
 30
0.0
  0
POINT
  5
405A
330
CC8
100
AcDbEntity
  8
DEFPOINTS
 62
     0
100
AcDbPoint
 10
-2.999999999999392
 20
-31.00000305448084
 30
0.0
  0
ENDBLK
  5
CD3
330
CC8
100
AcDbEntity
  8
0
100
AcDbBlockEnd
  0
BLOCK
  5
E00
330
DF6
100
AcDbEntity
  8
0
100
AcDbBlockBegin
  2
*D6
 70
     1
 10
0.0
 20
0.0
 30
0.0
  3
*D6
  1

  0
LINE
  5
4049
330
DF6
100
AcDbEntity
  8
AM_5
 62
     3
100
AcDbLine
 10
-114.9999999999993
 20
-7.000002054481066
 30
0.0
 11
-114.9999999999993
 21
-22.00000305448076
 31
0.0
  0
LINE
  5
404A
330
DF6
100
AcDbEntity
  8
AM_5
 62
     3
100
AcDbLine
 10
-2.999999999999402
 20
-6.900000602030942
 30
0.0
 11
-2.999999999999403
 21
-22.00000305448076
 31
0.0
  0
LINE
  5
404B
330
DF6
100
AcDbEntity
  8
AM_5
 62
     3
100
AcDbLine
 10
-112.4999999999993
 20
-21.00000305448076
 30
0.0
 11
-5.499999999999403
 21
-21.00000305448076
 31
0.0
  0
INSERT
  5
404C
330
DF6
100
AcDbEntity
  8
AM_5
 62
     3
100
AcDbBlockReference
  2
_OPEN30
 10
-114.9999999999993
 20
-21.00000305448076
 30
0.0
 41
2.5
 42
2.5
 43
2.5
 50
180.0
  0
INSERT
  5
404D
330
DF6
100
AcDbEntity
  8
AM_5
 62
     3
100
AcDbBlockReference
  2
_OPEN30
 10
-2.999999999999403
 20
-21.00000305448076
 30
0.0
 41
2.5
 42
2.5
 43
2.5
  0
MTEXT
  5
404E
330
DF6
100
AcDbEntity
  8
AM_5
 62
     2
100
AcDbMText
 10
-58.99999999999936
 20
-17.60000305448077
 30
0.0
 40
3.799999999999999
 41
0.0
 71
     5
 72
     1
  1
112
1001
ACAD
1000
MTEXTBEGIN
1070
    73
1070
     1
1070
    44
1040
1.0
1070
    74
1070
     0
1000
MTEXTEND
  0
POINT
  5
404F
330
DF6
100
AcDbEntity
  8
DEFPOINTS
 62
     0
100
AcDbPoint
 10
-114.9999999999993
 20
-7.000002054481066
 30
0.0
  0
POINT
  5
4050
330
DF6
100
AcDbEntity
  8
DEFPOINTS
 62
     0
100
AcDbPoint
 10
-2.999999999999402
 20
-6.900000602030942
 30
0.0
  0
POINT
  5
4051
330
DF6
100
AcDbEntity
  8
DEFPOINTS
 62
     0
100
AcDbPoint
 10
-2.999999999999403
 20
-21.00000305448076
 30
0.0
  0
ENDBLK
  5
E01
330
DF6
100
AcDbEntity
  8
0
100
AcDbBlockEnd
  0
BLOCK
  5
1FC3
330
1FB7
100
AcDbEntity
  8
0
100
AcDbBlockBegin
  2
*D7
 70
     1
 10
0.0
 20
0.0
 30
0.0
  3
*D7
  1

  0
LINE
  5
4154
330
1FB7
100
AcDbEntity
  8
AM_5
 62
     3
100
AcDbLine
 10
-2.999999999999437
 20
-6.900000602030999
 30
0.0
 11
17.55592102485802
 21
-6.900000602031004
 31
0.0
  0
LINE
  5
4155
330
1FB7
100
AcDbEntity
  8
AM_5
 62
     3
100
AcDbLine
 10
-2.999999999999193
 20
6.899999397968668
 30
0.0
 11
17.55592102485802
 21
6.899999397968662
 31
0.0
  0
LINE
  5
4156
330
1FB7
100
AcDbEntity
  8
AM_5
 62
     3
100
AcDbLine
 10
16.55592102485801
 20
-9.400000602031004
 30
0.0
 11
16.55592102485801
 21
-11.900000602031
 31
0.0
  0
LINE
  5
4157
330
1FB7
100
AcDbEntity
  8
AM_5
 62
     3
100
AcDbLine
 10
16.55592102485802
 20
9.399999397968663
 30
0.0
 11
16.55592102485802
 21
29.19523749320676
 31
0.0
  0
LINE
  5
4158
330
1FB7
100
AcDbEntity
  8
AM_5
 62
     3
100
AcDbLine
 10
16.55592102485802
 20
-6.900000602031004
 30
0.0
 11
16.55592102485802
 21
6.899999397968662
 31
0.0
  0
INSERT
  5
4159
330
1FB7
100
AcDbEntity
  8
AM_5
 62
     3
100
AcDbBlockReference
  2
_OPEN30
 10
16.55592102485802
 20
-6.900000602031004
 30
0.0
 41
2.5
 42
2.5
 43
2.5
 50
90.0
  0
INSERT
  5
415A
330
1FB7
100
AcDbEntity
  8
AM_5
 62
     3
100
AcDbBlockReference
  2
_OPEN30
 10
16.55592102485802
 20
6.899999397968662
 30
0.0
 41
2.5
 42
2.5
 43
2.5
 50
270.0
  0
MTEXT
  5
415B
330
1FB7
100
AcDbEntity
  8
AM_5
 62
     2
100
AcDbMText
 10
13.15592102485802
 20
20.54761844558771
 30
0.0
 40
3.799999999999999
 41
0.0
 71
     5
 72
     1
  1
%%c13.8
 11
0.0000000000000001
 21
1.0
 31
0.0
1001
ACAD
1000
MTEXTBEGIN
1070
    73
1070
     1
1070
    44
1040
1.0
1070
    74
1070
     0
1000
MTEXTEND
  0
POINT
  5
415C
330
1FB7
100
AcDbEntity
  8
DEFPOINTS
 62
     0
100
AcDbPoint
 10
-2.999999999999437
 20
-6.900000602030999
 30
0.0
  0
POINT
  5
415D
330
1FB7
100
AcDbEntity
  8
DEFPOINTS
 62
     0
100
AcDbPoint
 10
-2.999999999999193
 20
6.899999397968668
 30
0.0
  0
POINT
  5
415E
330
1FB7
100
AcDbEntity
  8
DEFPOINTS
 62
     0
100
AcDbPoint
 10
16.55592102485802
 20
6.899999397968662
 30
0.0
  0
ENDBLK
  5
1FC4
330
1FB7
100
AcDbEntity
  8
0
100
AcDbBlockEnd
  0
BLOCK
  5
2221
330
2217
100
AcDbEntity
  8
0
100
AcDbBlockBegin
  2
*D8
 70
     1
 10
0.0
 20
0.0
 30
0.0
  3
*D8
  1

  0
LINE
  5
405B
330
2217
100
AcDbEntity
  8
AM_5
 62
     3
100
AcDbLine
 10
-178.5000000000005
 20
6.999999999998738
 30
0.0
 11
-196.000001
 21
6.999999999998689
 31
0.0
  0
LINE
  5
405C
330
2217
100
AcDbEntity
  8
AM_5
 62
     3
100
AcDbLine
 10
-178.5000000000004
 20
-7.000002054481086
 30
0.0
 11
-196.0000009999999
 21
-7.000002054481136
 31
0.0
  0
LINE
  5
405D
330
2217
100
AcDbEntity
  8
AM_5
 62
     3
100
AcDbLine
 10
-195.000001
 20
4.499999999998691
 30
0.0
 11
-195.000001
 21
-4.500002054481133
 31
0.0
  0
INSERT
  5
405E
330
2217
100
AcDbEntity
  8
AM_5
 62
     3
100
AcDbBlockReference
  2
_OPEN30
 10
-195.000001
 20
6.999999999998691
 30
0.0
 41
2.5
 42
2.5
 43
2.5
 50
90.00000000000017
  0
INSERT
  5
405F
330
2217
100
AcDbEntity
  8
AM_5
 62
     3
100
AcDbBlockReference
  2
_OPEN30
 10
-195.0000009999999
 20
-7.000002054481133
 30
0.0
 41
2.5
 42
2.5
 43
2.5
 50
270.0000000000001
  0
MTEXT
  5
4060
330
2217
100
AcDbEntity
  8
AM_5
 62
     2
100
AcDbMText
 10
-198.400001
 20
-0.0000010272412227
 30
0.0
 40
3.799999999999999
 41
0.0
 71
     5
 72
     1
  1
%%c14
 11
-0.0000000000000028
 21
1.0
 31
0.0
1001
ACAD
1000
MTEXTBEGIN
1070
    73
1070
     1
1070
    44
1040
1.0
1070
    74
1070
     0
1000
MTEXTEND
  0
POINT
  5
4061
330
2217
100
AcDbEntity
  8
DEFPOINTS
 62
     0
100
AcDbPoint
 10
-178.5000000000004
 20
6.999999999999293
 30
0.0
  0
POINT
  5
4062
330
2217
100
AcDbEntity
  8
DEFPOINTS
 62
     0
100
AcDbPoint
 10
-178.5000000000005
 20
-7.000002054480531
 30
0.0
  0
POINT
  5
4063
330
2217
100
AcDbEntity
  8
DEFPOINTS
 62
     0
100
AcDbPoint
 10
-195.000001
 20
-7.000002054480527
 30
0.0
  0
ENDBLK
  5
2222
330
2217
100
AcDbEntity
  8
0
100
AcDbBlockEnd
  0
BLOCK
  5
4096
330
4088
100
AcDbEntity
  8
0
100
AcDbBlockBegin
  2
*D9
 70
     1
 10
0.0
 20
0.0
 30
0.0
  3
*D9
  1

  0
LINE
  5
41F1
330
4088
100
AcDbEntity
  8
AM_5
100
AcDbLine
 10
0.3420201408161121
 20
-0.9396926216992239
 30
0.0
 11
12.86946088013549
 21
-35.35855346253466
 31
0.0
  0
LINE
  5
41F2
330
4088
100
AcDbEntity
  8
AM_5
100
AcDbLine
 10
0.3420224212243546
 20
0.9396917916955418
 30
0.0
 11
12.86954668685027
 21
35.35852223132709
 31
0.0
  0
ARC
  5
41F3
330
4088
100
AcDbEntity
  8
AM_5
100
AcDbCircle
 10
-0.0000000000000303
 20
0.0000000000000834
 30
0.0
 40
36.62778662515596
100
AcDbArc
 50
293.9114365114354
 51
66.08842444541098
  0
INSERT
  5
41F4
330
4088
100
AcDbEntity
  8
AM_5
100
AcDbBlockReference
  2
_OPEN30
 10
12.52744073931935
 20
-34.41886084083535
 30
0.0
 41
2.5
 42
2.5
 43
2.5
 50
201.955718179211
  0
INSERT
  5
41F5
330
4088
100
AcDbEntity
  8
AM_5
100
AcDbBlockReference
  2
_OPEN30
 10
12.52752426562588
 20
34.41883043963164
 30
0.0
 41
2.5
 42
2.5
 43
2.5
 50
158.0441427776352
  0
MTEXT
  5
41F6
330
4088
100
AcDbEntity
  8
AM_5
 62
     2
100
AcDbMText
 10
33.52778662513125
 20
-0.0000406819596195
 30
0.0
 40
3.2
 41
0.0
 71
     5
 72
     1
  1
140°
  7
ASAMI
 11
0.0000012133804164
 21
0.999999999999264
 31
0.0
  0
POINT
  5
41F7
330
4088
100
AcDbEntity
  8
DEFPOINTS
 62
     0
100
AcDbPoint
 10
33.63221189023517
 20
-14.5075523927461
 30
0.0
  0
POINT
  5
41F8
330
4088
100
AcDbEntity
  8
DEFPOINTS
 62
     0
100
AcDbPoint
 10
-0.0000000000000284
 20
0.0000000000000887
 30
0.0
  0
POINT
  5
41F9
330
4088
100
AcDbEntity
  8
DEFPOINTS
 62
     0
100
AcDbPoint
 10
-0.0000000000000284
 20
0.0000000000000781
 30
0.0
  0
POINT
  5
41FA
330
4088
100
AcDbEntity
  8
DEFPOINTS
 62
     0
100
AcDbPoint
 10
-0.5872917675983729
 20
1.613570883515912
 30
0.0
  0
POINT
  5
41FB
330
4088
100
AcDbEntity
  8
DEFPOINTS
 62
     0
100
AcDbPoint
 10
-0.5873037318976897
 20
-1.613591571338073
 30
0.0
  0
ENDBLK
  5
4097
330
4088
100
AcDbEntity
  8
0
100
AcDbBlockEnd
  0
ENDSEC
  0
SECTION
  2
ENTITIES
  0
LINE
  5
C9F
330
1F
100
AcDbEntity
  8
AM_7
100
AcDbLine
 10
-181.0
 20
-0.000000000000223
 30
0.0
 11
0.5559200248580254
 21
0.0000000000000896
 31
0.0
1001
GENIUS_GENODEF_13
1002
{
1000
HIER
1070
     0
1002
}
1002
{
1000
MANEDIT
1070
     0
1002
}
1002
{
1000
NOSEL
1070
     0
1002
}
1002
{
1000
BEHIND
1070
     0
1002
}
1002
{
1000
REACTOR
1002
}
1001
GENIUS_GENOBJ-N-CEN_13
1002
{
1000
OWNER
1000
GEN
1002
}
  0
DIMENSION
  5
CC6
330
1F
100
AcDbEntity
  8
AM_5
100
AcDbDimension
  2
*D5
 10
-2.999999999999392
 20
-31.00000305448084
 30
0.0
 11
-90.99999999999971
 21
-27.60000305448084
 31
0.0
 70
    32
  1
<>
  3
AM_JIS$0
100
AcDbAlignedDimension
 13
-179.0
 23
-6.500002054481049
 33
0.0
 14
-2.999999999999391
 24
-6.900000602030921
 34
0.0
 50
0.0000000000001132
100
AcDbRotatedDimension
1001
GENIUS_GENDTOL_13
1000

1000
h7
1000

1040
0.0
1001
ACAD
1000
DSTYLE
1002
{
1070
   271
1070
     0
1002
}
  0
DIMENSION
  5
DF5
330
1F
100
AcDbEntity
  8
AM_5
100
AcDbDimension
  2
*D6
 10
-2.999999999999403
 20
-21.00000305448076
 30
0.0
 11
-58.99999999999936
 21
-17.60000305448077
 31
0.0
 70
    32
  1
<>
  3
AM_JIS$0
100
AcDbAlignedDimension
 13
-114.9999999999993
 23
-7.000002054481066
 33
0.0
 14
-2.999999999999402
 24
-6.900000602030942
 34
0.0
 50
0.0000000000001527
100
AcDbRotatedDimension
1001
GENIUS_GENDTOL_13
1000

1000
h7
1000

1040
0.0
1001
ACAD
1000
DSTYLE
1002
{
1070
   271
1070
     0
1002
}
  0
TEXT
  5
19BD
330
1F
100
AcDbEntity
  8
AM_6
100
AcDbText
 10
-112.1904761904758
 20
-53.5000030544809
 30
0.0
 40
5.0
  1
MDW138LHK
 50
0.0000000000001527
 72
     4
 11
-90.99999999999964
 21
-51.00000305448084
 31
0.0
100
AcDbText
  0
LINE
  5
1E25
330
1F
100
AcDbEntity
  8
AM_0
100
AcDbLine
 10
-114.9999999999993
 20
-7.000002054481067
 30
0.0
 11
-114.8267104441238
 21
-6.899953282748612
 31
0.0
  0
LINE
  5
1E26
330
1F
100
AcDbEntity
  8
AM_0
100
AcDbLine
 10
-114.8267689830825
 20
6.899985025750899
 30
0.0
 11
-115.0000192404462
 21
7.000011108477001
 31
0.0
  0
DIMENSION
  5
1FB6
330
1F
100
AcDbEntity
  8
AM_5
100
AcDbDimension
  2
*D7
 10
16.55592102485802
 20
6.899999397968662
 30
0.0
 11
16.55592102485802
 21
20.54761844558771
 31
0.0
 70
   160
  1
%%c<>
  3
AM_JIS$0
100
AcDbAlignedDimension
 13
-2.999999999999437
 23
-6.900000602030999
 33
0.0
 14
-2.999999999999193
 24
6.899999397968668
 34
0.0
 50
89.99999999999969
100
AcDbRotatedDimension
1001
ACAD
1000
DSTYLE
1002
{
1070
   271
1070
     1
1002
}
1001
GENIUS_GENDTOL_13
1000

1000
h7
1000

1040
0.0
  0
LINE
  5
1FD9
330
1F
100
AcDbEntity
  8
AM_0
100
AcDbLine
 10
-114.8267640269954
 20
-6.899984218833926
 30
0.0
 11
-114.8267645636247
 21
-5.405767358851996
 31
0.0
  0
LINE
  5
21D7
330
1F
100
AcDbEntity
  8
AM_0
 48
0.5
100
AcDbLine
 10
-114.9999999999993
 20
-7.000002054481053
 30
0.0
 11
-114.9999999999993
 21
6.999999999999777
 31
0.0
  0
LINE
  5
21D8
330
1F
100
AcDbEntity
  8
AM_0
 48
0.5
100
AcDbLine
 10
-178.5
 20
6.999999999999777
 30
0.0
 11
-114.9999999999993
 21
6.999999999999777
 31
0.0
1001
GENIUS_GENODEF_13
1002
{
1000
HIER
1070
     0
1002
}
1002
{
1000
MANEDIT
1070
     0
1002
}
1002
{
1000
NOSEL
1070
     0
1002
}
1002
{
1000
BEHIND
1070
     0
1002
}
1002
{
1000
REACTOR
1002
}
1001
GENIUS_GENOBJ-N-CEN_13
1002
{
1000
OWNER
1000
GEN
1002
}
  0
LINE
  5
21D9
330
1F
100
AcDbEntity
  8
AM_0
 48
0.5
100
AcDbLine
 10
-178.5
 20
-7.000002054481053
 30
0.0
 11
-114.9999999999993
 21
-7.000002054481053
 31
0.0
1001
GENIUS_GENODEF_13
1002
{
1000
HIER
1070
     0
1002
}
1002
{
1000
MANEDIT
1070
     0
1002
}
1002
{
1000
NOSEL
1070
     0
1002
}
1002
{
1000
BEHIND
1070
     0
1002
}
1002
{
1000
REACTOR
1002
}
1001
GENIUS_GENOBJ-N-CEN_13
1002
{
1000
OWNER
1000
GEN
1002
}
  0
LINE
  5
21DC
330
1F
100
AcDbEntity
  8
AM_0
100
AcDbLine
 10
-178.5000000000005
 20
-7.000002054480527
 30
0.0
 11
-178.5000000000004
 21
6.999999999999293
 31
0.0
  0
LINE
  5
21DD
330
1F
100
AcDbEntity
  8
AM_0
 48
0.5
100
AcDbLine
 10
-179.0
 20
-6.500002054481053
 30
0.0
 11
-179.0
 21
6.499999999999791
 31
0.0
  0
DIMENSION
  5
2216
330
1F
100
AcDbEntity
  8
AM_5
100
AcDbDimension
  2
*D8
 10
-195.000001
 20
-7.000002054480527
 30
0.0
 11
-198.400001
 21
-0.0000010272406455
 31
0.0
 70
    32
  1
%%c<>
 51
359.9999999999998
  3
AM_JIS$0
100
AcDbAlignedDimension
 13
-178.5000000000004
 23
6.999999999999293
 33
0.0
 14
-178.5000000000005
 24
-7.000002054480531
 34
0.0
 50
269.9999999999999
100
AcDbRotatedDimension
1001
ACAD
1000
DSTYLE
1002
{
1070
   271
1070
     0
1002
}
1001
GENIUS_GENDTOL_13
1000

1000
h7
1000

1040
0.0
  0
ELLIPSE
  5
2694
330
1F
100
AcDbEntity
  8
AM_0
 48
0.5
100
AcDbEllipse
 10
8.240586575836466
 20
6.617376299159006
 30
0.0
 11
10.17240772368207
 21
0.0000000000010035
 31
0.0
210
0.0
220
0.0
230
1.0
 40
0.9899999999999971
 41
3.323896559076802
 42
3.661579236128986
  0
LINE
  5
2695
330
1F
100
AcDbEntity
  8
AM_0
 48
0.5
100
AcDbLine
 10
-1.763250261309863
 20
4.791603860799689
 30
0.0
 11
-2.999999999999193
 21
6.899999397968668
 31
0.0
  0
LINE
  5
2696
330
1F
100
AcDbEntity
  8
AM_0
 48
0.5
100
AcDbLine
 10
-0.0000000000000284
 20
0.0000000000000781
 30
0.0
 11
-0.5872917675983729
 21
1.613570883515912
 31
0.0
  0
LINE
  5
2699
330
1F
100
AcDbEntity
  8
AM_0
 48
0.5
100
AcDbLine
 10
-0.0000000000000284
 20
0.0000000000000887
 30
0.0
 11
-0.5873037318976897
 21
-1.613591571338073
 31
0.0
  0
LINE
  5
2CB4
330
1F
100
AcDbEntity
  8
AM_0
 48
0.5
100
AcDbLine
 10
-179.0
 20
6.499999999999777
 30
0.0
 11
-178.5
 21
6.999999999999777
 31
0.0
1001
GENIUS_GENFIL_13
1070
     0
1040
0.5
1040
0.5
1040
20.0
1040
0.0
1002
{
1002
}
1001
GENIUS_GENODEF_13
1002
{
1000
HIER
1070
     0
1002
}
1002
{
1000
MANEDIT
1070
     0
1002
}
1002
{
1000
NOSEL
1070
     0
1002
}
1002
{
1000
BEHIND
1070
     0
1002
}
1002
{
1000
REACTOR
1002
}
1001
GENIUS_GENOBJ-N-CHA_13
1002
{
1000
OWNER
1000
GEN
1002
}
  0
LINE
  5
2CB7
330
1F
100
AcDbEntity
  8
AM_0
 48
0.5
100
AcDbLine
 10
-178.5
 20
-7.000002054481053
 30
0.0
 11
-179.0
 21
-6.500002054481053
 31
0.0
1001
GENIUS_GENFIL_13
1070
     0
1040
0.5
1040
0.5
1040
20.0
1040
0.0
1002
{
1002
}
1001
GENIUS_GENODEF_13
1002
{
1000
HIER
1070
     0
1002
}
1002
{
1000
MANEDIT
1070
     0
1002
}
1002
{
1000
NOSEL
1070
     0
1002
}
1002
{
1000
BEHIND
1070
     0
1002
}
1002
{
1000
REACTOR
1002
}
1001
GENIUS_GENOBJ-N-CHA_13
1002
{
1000
OWNER
1000
GEN
1002
}
  0
ELLIPSE
  5
3366
330
1F
100
AcDbEntity
  8
AM_0
 48
0.5
100
AcDbEllipse
 10
8.240586575836488
 20
-6.617376299158808
 30
0.0
 11
10.17240772368207
 21
-0.0000000000009696
 31
0.0
210
0.0
220
0.0
230
-1.0
 40
0.9899999999999971
 41
3.323896559076802
 42
3.661579236128986
  0
LINE
  5
3367
330
1F
100
AcDbEntity
  8
AM_0
 48
0.5
100
AcDbLine
 10
-1.763250261309849
 20
-4.791603860799533
 30
0.0
 11
-2.999999999999437
 21
-6.900000602030999
 31
0.0
  0
LINE
  5
3EF1
330
1F
100
AcDbEntity
  8
AM_0
100
AcDbLine
 10
-114.8267650852613
 20
-3.953297298014371
 30
0.0
 11
-114.826766605547
 21
0.2798600934916528
 31
0.0
  0
LINE
  5
3EF2
330
1F
100
AcDbEntity
  8
AM_0
100
AcDbLine
 10
-114.8267666431429
 20
0.384543687244489
 30
0.0
 11
-114.8267689830825
 21
6.899985025750904
 31
0.0
  0
ELLIPSE
  5
3F3B
330
1F
100
AcDbEntity
  8
AM_0
 48
0.5
100
AcDbEllipse
 10
-112.38901475547
 20
-4.587990411823875
 30
0.0
 11
-2.607368850329644
 21
0.1771394024798881
 31
0.0
210
0.0
220
0.0
230
1.0
 40
0.8869834910709954
 41
0.0893846422335401
 42
1.572479842831713
  0
ELLIPSE
  5
3F3C
330
1F
100
AcDbEntity
  8
AM_0
 48
0.5
100
AcDbEllipse
 10
-112.9416475519233
 20
-4.544770137750505
 30
0.0
 11
2.031857578956258
 21
0.3990644298781469
 31
0.0
210
0.0
220
0.0
230
1.0
 40
0.8358305523098913
 41
1.00957951867482
 42
2.952789454340607
  0
LINE
  5
3FC5
330
1F
100
AcDbEntity
  8
AM_0
100
AcDbLine
 10
-106.589981912731
 20
6.899999397972475
 30
0.0
 11
-114.826793876501
 21
6.899999397972788
 31
0.0
  0
LINE
  5
3FC6
330
1F
100
AcDbEntity
  8
AM_0
100
AcDbLine
 10
-112.5229662613683
 20
-6.900138820450886
 30
0.0
 11
-114.8267104441238
 21
-6.899953282748612
 31
0.0
  0
LINE
  5
3FC7
330
1F
100
AcDbEntity
  8
AM_0
 48
0.5
100
AcDbLine
 10
-96.74193860121945
 20
4.318028792559227
 30
0.0
 11
-114.9999999999993
 21
0.3468650968062088
 31
0.0
  0
SPLINE
  5
3FC8
330
1F
100
AcDbEntity
  8
AM_0
 48
0.5
100
AcDbSpline
210
0.0
220
0.0
230
1.0
 70
     8
 71
     3
 72
    26
 73
    22
 74
     0
 42
0.0000000001
 43
0.0000000001
 40
0.0
 40
0.0
 40
0.0
 40
0.0
 40
0.4211432018735474
 40
0.8428473235286537
 40
1.265657898956934
 40
1.690088643751428
 40
2.116607084860617
 40
2.545625100287603
 40
2.977483884449724
 40
3.412450195918404
 40
3.850709593302191
 40
4.292362208965671
 40
4.737427885281768
 40
5.185826256336565
 40
5.637431371058531
 40
6.092003378174421
 40
6.549257520372505
 40
7.008843368271169
 40
7.470358728297647
 40
7.933358849736796
 40
8.383035712276667
 40
8.383035712276667
 40
8.383035712276667
 40
8.383035712276667
 10
-86.69111855679785
 20
-6.900350952146527
 30
0.0
 10
-87.1309018476316
 20
-6.896245619488121
 30
0.0
 10
-88.01105417577748
 20
-6.888029486287043
 30
0.0
 10
-89.33096236283256
 20
-6.821798223343054
 30
0.0
 10
-90.65081421181531
 20
-6.716507831339962
 30
0.0
 10
-91.97058436047933
 20
-6.568939289480244
 30
0.0
 10
-93.29025970836687
 20
-6.381092666443132
 30
0.0
 10
-94.6098139624255
 20
-6.153802411766831
 30
0.0
 10
-95.92924624481453
 20
-5.888604186601081
 30
0.0
 10
-97.24854755703502
 20
-5.587108671401047
 30
0.0
 10
-98.56771478013076
 20
-5.251186595464265
 30
0.0
 10
-99.88675877089725
 20
-4.882928765732276
 30
0.0
 10
-101.2056740636473
 20
-4.484609055601647
 30
0.0
 10
-102.2585969582583
 20
-4.328459480806831
 30
0.0
 10
-103.5783591049179
 20
-3.876499403873466
 30
0.0
 10
-105.0440679800989
 20
-3.341585453926605
 30
0.0
 10
-105.9713167148873
 20
-3.158794011832327
 30
0.0
 10
-107.5246444912385
 20
-2.563430897901632
 30
0.0
 10
-108.6942601901158
 20
-2.163809671371229
 30
0.0
 10
-110.430182341821
 20
-1.46517538595596
 30
0.0
 10
-111.4399482497432
 20
-1.029761590671852
 30
0.0
 10
-114.9999999999993
 20
0.3468650968062088
 30
0.0
  0
SPLINE
  5
3FC9
330
1F
100
AcDbEntity
  8
AM_0
100
AcDbSpline
210
0.0
220
0.0
230
1.0
 70
     8
 71
     3
 72
    13
 73
     9
 74
     0
 42
0.0000000001
 43
0.0000000001
 40
16.03460056234195
 40
16.03460056234195
 40
16.03460056234195
 40
16.03460056234195
 40
16.35212717791071
 40
17.38177067057215
 40
18.41822498539278
 40
19.46214186516937
 40
20.5139635832251
 40
21.34083983469381
 40
21.34083983469381
 40
21.34083983469381
 40
21.34083983469381
 10
-112.5417447132315
 20
-6.900978476735986
 30
0.0
 10
-112.0159860216288
 20
-6.877685977828889
 30
0.0
 10
-111.4412347440937
 20
-6.776253496601314
 30
0.0
 10
-110.4288055687242
 20
-6.577504256792513
 30
0.0
 10
-109.1177062565394
 20
-6.281970580578267
 30
0.0
 10
-107.8078249645924
 20
-5.950134380644674
 30
0.0
 10
-106.5957538588367
 20
-5.610968001133393
 30
0.0
 10
-105.8224738378211
 20
-5.37742781162139
 30
0.0
 10
-105.1217578950976
 20
-5.148720964118245
 30
0.0
  0
SPLINE
  5
3FCA
330
1F
100
AcDbEntity
  8
AM_0
 48
0.5
100
AcDbSpline
210
0.0
220
0.0
230
1.0
 70
     8
 71
     3
 72
    19
 73
    15
 74
     0
 42
0.0000000001
 43
0.0000000001
 40
3.111699631838226
 40
3.111699631838226
 40
3.111699631838226
 40
3.111699631838226
 40
4.056212471389632
 40
5.079857945358201
 40
6.109499720892564
 40
7.145961650132166
 40
8.189873411961459
 40
9.241710626092514
 40
10.30166235592959
 40
11.36982472628033
 40
12.44598212828784
 40
13.52983440361964
 40
14.62080578343036
 40
14.90544694398022
 40
14.90544694398022
 40
14.90544694398022
 40
14.90544694398022
 10
-96.60849362879961
 20
-6.900060530908848
 30
0.0
 10
-97.4222761629101
 20
-6.795310975981802
 30
0.0
 10
-98.19727334915285
 20
-6.664045675215753
 30
0.0
 10
-99.59980102242724
 20
-6.450308631389784
 30
0.0
 10
-100.8046621096059
 20
-6.153807243689185
 30
0.0
 10
-102.1240886471358
 20
-5.888599381492566
 30
0.0
 10
-103.4433920028486
 20
-5.587099501255567
 30
0.0
 10
-104.7625602944758
 20
-5.251190117826462
 30
0.0
 10
-106.0816004158612
 20
-4.88291561355079
 30
0.0
 10
-107.4005208699674
 20
-4.484619487476392
 30
0.0
 10
-108.7193206661302
 20
-4.058669593211665
 30
0.0
 10
-110.0380245105101
 20
-3.607779424433317
 30
0.0
 10
-111.0291226064244
 20
-3.252203741839647
 30
0.0
 10
-111.5813970511946
 20
-3.048968111341927
 30
0.0
 10
-112.1426452602012
 20
-2.894596387699895
 30
0.0
  0
LINE
  5
3FCB
330
1F
100
AcDbEntity
  8
AM_0
 48
0.5
100
AcDbLine
 10
-7.796128460450705
 20
6.899999397968848
 30
0.0
 11
-2.999999999999193
 21
6.899999397968668
 31
0.0
  0
LINE
  5
3FCC
330
1F
100
AcDbEntity
  8
AM_0
 48
0.5
100
AcDbLine
 10
-7.796128460451197
 20
-6.900000602031159
 30
0.0
 11
-2.9999999999994
 21
-6.900000602031024
 31
0.0
  0
LINE
  5
3FCD
330
1F
100
AcDbEntity
  8
AM_11
 48
0.5
100
AcDbLine
 10
-28.19777885313778
 20
-6.900000602030349
 30
0.0
 11
-7.796128460451197
 21
-6.900000602031159
 31
0.0
  0
LINE
  5
3FCE
330
1F
100
AcDbEntity
  8
AM_11
 48
0.5
100
AcDbLine
 10
-28.19777885313728
 20
6.899999397969641
 30
0.0
 11
-7.796128460450705
 21
6.899999397968848
 31
0.0
  0
LINE
  5
3FCF
330
1F
100
AcDbEntity
  8
AM_11
 48
0.5
100
AcDbLine
 10
-66.75372440868537
 20
-6.900000602028992
 30
0.0
 11
-46.3520740160014
 21
-6.900980872251783
 31
0.0
  0
LINE
  5
3FD0
330
1F
100
AcDbEntity
  8
AM_11
 48
0.5
100
AcDbLine
 10
-64.10924570372009
 20
6.900979668193063
 30
0.0
 11
-51.08969459050976
 21
6.899999397970534
 31
0.0
  0
LINE
  5
3FD1
330
1F
100
AcDbEntity
  8
AM_0
 48
0.5
100
AcDbLine
 10
-46.3520740160014
 20
-6.900000602029787
 30
0.0
 11
-28.19777885313778
 21
-6.900000602030349
 31
0.0
  0
LINE
  5
3FD2
330
1F
100
AcDbEntity
  8
AM_0
 48
0.5
100
AcDbLine
 10
-51.08971216233126
 20
6.899999397970534
 30
0.0
 11
-28.19777885313728
 21
6.899999397969641
 31
0.0
  0
LINE
  5
3FD3
330
1F
100
AcDbEntity
  8
AM_0
 48
0.5
100
AcDbLine
 10
-0.0000000000000304
 20
0.0000000000000834
 30
0.0
 11
-5.147426701678973
 21
2.649389809345201
 31
0.0
  0
SPLINE
  5
3FD4
330
1F
100
AcDbEntity
  8
AM_0
100
AcDbSpline
210
0.0
220
0.0
230
1.0
 70
     8
 71
     3
 72
    46
 73
    42
 74
     0
 42
0.0000000001
 43
0.0000000001
 40
0.0
 40
0.0
 40
0.0
 40
0.0
 40
1.348332046947657
 40
2.024828967632895
 40
2.703918159304097
 40
3.386347665078124
 40
4.072776489761952
 40
4.763750544421347
 40
5.459696642770596
 40
6.160921452191754
 40
6.867565637253344
 40
7.579665907256596
 40
8.297112853413899
 40
9.019671552060676
 40
9.746986763446127
 40
10.47859339096366
 40
11.21393074760089
 40
11.95235532364328
 40
12.69315551794651
 40
13.43556823304427
 40
14.1787950170388
 40
14.92202180103393
 40
15.66443451613169
 40
16.40523471043432
 40
17.14365928647669
 40
17.87899664311455
 40
18.61060327063121
 40
19.3379184820169
 40
20.06048192311554
 40
20.77792886927283
 40
21.49002913927608
 40
22.19667332433747
 40
22.89788836015233
 40
23.59383445850158
 40
24.28480851316097
 40
24.97123685067576
 40
25.65366676154838
 40
26.33276604526152
 40
27.00926273560555
 40
27.68398960851751
 40
28.357818684969
 40
28.357818684969
 40
28.357818684969
 40
28.357818684969
 10
-4.764357480028364
 20
-6.900000602031273
 30
0.0
 10
-5.486593432609637
 20
-6.884281868654932
 30
0.0
 10
-6.57119590984295
 20
-6.860676595201
 30
0.0
 10
-8.013439121421917
 20
-6.715343263064739
 30
0.0
 10
-9.09637567686426
 20
-6.568808603891292
 30
0.0
 10
-10.17921966701089
 20
-6.380682992751915
 30
0.0
 10
-11.26196823927996
 20
-6.153468004038711
 30
0.0
 10
-12.34461583137971
 20
-5.888249918966861
 30
0.0
 10
-13.42716063003809
 20
-5.58675646500118
 30
0.0
 10
-14.5095978175484
 20
-5.250838856579612
 30
0.0
 10
-15.59192955744294
 20
-4.882580579282448
 30
0.0
 10
-16.67415293857846
 20
-4.48425244295374
 30
0.0
 10
-17.75628534745257
 20
-4.058328800282749
 30
0.0
 10
-18.83833204344511
 20
-3.60742803101656
 30
0.0
 10
-19.92030297698459
 20
-3.134330616096898
 30
0.0
 10
-21.0022101716147
 20
-2.641955265751202
 30
0.0
 10
-22.08406310922489
 20
-2.133329818643215
 30
0.0
 10
-23.16587231897378
 20
-1.611582589013282
 30
0.0
 10
-24.24764927112302
 20
-1.07992462533703
 30
0.0
 10
-25.32940384777562
 20
-0.5416252503682988
 30
0.0
 10
-26.4111493310083
 20
-0.0000006021400135
 30
0.0
 10
-27.49289481400332
 20
0.5416240467464557
 30
0.0
 10
-28.57464939136876
 20
1.079923419741602
 30
0.0
 10
-29.65642634091252
 20
1.611581390630431
 30
0.0
 10
-30.73823556032261
 20
2.133328593511527
 30
0.0
 10
-31.82008846211003
 20
2.641954139801519
 30
0.0
 10
-32.90199578940399
 20
3.134329122841328
 30
0.0
 10
-33.98396858438065
 20
3.607428924922496
 30
0.0
 10
-35.06601948468463
 20
4.05832559752663
 30
0.0
 10
-36.14815382391707
 20
4.484251424188198
 30
0.0
 10
-37.23037717985533
 20
4.882579679040707
 30
0.0
 10
-38.31270447365408
 20
5.250834572359016
 30
0.0
 10
-39.39513444910799
 20
5.58675737714144
 30
0.0
 10
-40.47767482889113
 20
5.888252062740875
 30
0.0
 10
-41.56032179441131
 20
6.15345279585322
 30
0.0
 10
-42.64307116048538
 20
6.380733685866814
 30
0.0
 10
-43.72592206142591
 20
6.568590651221207
 30
0.0
 10
-44.80885303677072
 20
6.716156887097064
 30
0.0
 10
-45.891851012528
 20
6.821437626129077
 30
0.0
 10
-46.97488830030617
 20
6.887686758954243
 30
0.0
 10
-47.69708926976387
 20
6.895897006946431
 30
0.0
 10
-48.05794935309358
 20
6.89999939797042
 30
0.0
  0
SPLINE
  5
3FD5
330
1F
100
AcDbEntity
  8
AM_0
100
AcDbSpline
210
0.0
220
0.0
230
1.0
 70
     8
 71
     3
 72
    17
 73
    13
 74
     0
 42
0.0000000001
 43
0.0000000001
 40
1.580019955310467
 40
1.580019955310467
 40
1.580019955310467
 40
1.580019955310467
 40
2.030549285115227
 40
3.082371838836284
 40
4.126290986361125
 40
5.162752068350215
 40
6.192395305374981
 40
7.216039564037012
 40
8.234688489606833
 40
9.249433870634691
 40
10.26152376260694
 40
11.27226744710342
 40
11.27226744710342
 40
11.27226744710342
 40
11.27226744710352
 10
-17.99615779452519
 20
-5.092403783504237
 30
0.0
 10
-18.1493896191508
 20
-5.144851305821105
 30
0.0
 10
-18.66123539350062
 20
-5.316755065582597
 30
0.0
 10
-19.53508306275582
 20
-5.586392263591755
 30
0.0
 10
-20.61747267333341
 20
-5.888350155540898
 30
0.0
 10
-21.70016026475739
 20
-6.153429093226137
 30
0.0
 10
-22.78289746454887
 20
-6.380738881997394
 30
0.0
 10
-23.86575262661774
 20
-6.568626059473697
 30
0.0
 10
-24.94868260004249
 20
-6.716018436379972
 30
0.0
 10
-26.03168000535617
 20
-6.821960860795789
 30
0.0
 10
-27.11471816030728
 20
-6.885771369031873
 30
0.0
 10
-27.83691883876051
 20
-6.900000641512536
 30
0.0
 10
-28.19777885313769
 20
-6.900000602030354
 30
0.0
  0
SPLINE
  5
3FD6
330
1F
100
AcDbEntity
  8
AM_0
100
AcDbSpline
210
0.0
220
0.0
230
1.0
 70
     8
 71
     3
 72
    22
 73
    18
 74
     0
 42
0.0000000001
 43
0.0000000001
 40
17.17441611292
 40
17.17441611292
 40
17.17441611292
 40
17.17441611292
 40
17.38177636558528
 40
18.41823744757437
 40
19.46215659509824
 40
20.51397914882054
 40
21.57394542641293
 40
22.64209583141747
 40
23.71826625065247
 40
24.80210429862395
 40
25.8930771157021
 40
26.99048705697709
 40
28.09349309193389
 40
29.20112995599786
 40
30.31233024745139
 40
31.42594771747373
 40
32.5407895042663
 40
32.54078950426994
 40
32.54078950426994
 40
32.54078950426994
 10
-32.3314956543824
 20
-6.196250541808698
 30
0.0
 10
-32.40401743321098
 20
-6.180277718572906
 30
0.0
 10
-32.83874589083805
 20
-6.082985506371096
 30
0.0
 10
-33.63514392835984
 20
-5.887901958043104
 30
0.0
 10
-34.71768422607002
 20
-5.586407730648816
 30
0.0
 10
-35.80011421519624
 20
-5.250484777966576
 30
0.0
 10
-36.88244153763356
 20
-4.882230014360163
 30
0.0
 10
-37.9646647637028
 20
-4.483901386001978
 30
0.0
 10
-39.04679721431698
 20
-4.05797787601182
 30
0.0
 10
-40.12884390005356
 20
-3.607077073240895
 30
0.0
 10
-41.21081483241741
 20
-3.133979658233378
 30
0.0
 10
-42.29272204223933
 20
-2.641604342374973
 30
0.0
 10
-43.3745749198211
 20
-2.132978756372687
 30
0.0
 10
-44.45638435576106
 20
-1.611232050779005
 30
0.0
 10
-45.53815993935817
 20
-1.079572377250014
 30
0.0
 10
-46.61991769617711
 20
-0.5412803633376968
 30
0.0
 10
-47.340947976661
 20
-0.1802593279251189
 30
0.0
 10
-47.70166118911212
 20
0.0003503501197294
 30
0.0
  0
SPLINE
  5
3FD7
330
1F
100
AcDbEntity
  8
AM_0
100
AcDbSpline
210
0.0
220
0.0
230
1.0
 70
     8
 71
     3
 72
    11
 73
     7
 74
     0
 42
0.0000000001
 43
0.0000000001
 40
11.27226913003534
 40
11.27226913003534
 40
11.27226913003534
 40
11.2722691300354
 40
12.28301561507924
 40
13.29510212255852
 40
14.30984805882082
 40
15.18258238371378
 40
15.18258238371378
 40
15.18258238371378
 40
15.18258238371378
 10
-28.19777885313775
 20
-6.900000602030354
 30
0.0
 10
-28.55726670008494
 20
-6.866229996903435
 30
0.0
 10
-29.27556433154095
 20
-6.784472831647917
 30
0.0
 10
-30.3493016236661
 20
-6.619548406740661
 30
0.0
 10
-31.36829724682954
 20
-6.422564264446886
 30
0.0
 10
-32.02732380204857
 20
-6.271136691641515
 30
0.0
 10
-32.33102200445749
 20
-6.196335653255935
 30
0.0
  0
SPLINE
  5
3FD8
330
1F
100
AcDbEntity
  8
AM_0
100
AcDbSpline
210
0.0
220
0.0
230
1.0
 70
     8
 71
     3
 72
    55
 73
    51
 74
     0
 42
0.0000000001
 43
0.0000000001
 40
0.0
 40
0.0
 40
0.0
 40
0.0
 40
1.010743684496582
 40
2.022833576467832
 40
3.037578957496688
 40
4.056212745003489
 40
5.079857003664532
 40
6.109500240690281
 40
7.145961322679372
 40
8.189895241603872
 40
9.241717795325891
 40
10.30168407291828
 40
11.36983447792315
 40
12.44600489715814
 40
13.52984294512926
 40
14.62081576220742
 40
15.7182257034828
 40
16.82123173843959
 40
17.92886860250316
 40
19.0400688939571
 40
20.15368796660465
 40
21.26852814259644
 40
22.38336992938901
 40
23.49698739941135
 40
24.6081876908653
 40
25.71582455492886
 40
26.81883757994213
 40
27.91624752121713
 40
29.00722033829659
 40
30.09105838626677
 40
31.16722880550176
 40
32.23537921050758
 40
33.29534548809967
 40
34.347168041821
 40
35.39108718934584
 40
36.42754827133493
 40
37.45720575381954
 40
38.48085062012849
 40
39.49948440763516
 40
40.51422944315121
 40
41.52631975251916
 40
42.53706336719636
 40
43.54780698187354
 40
44.55989729124051
 40
45.57464232675757
 40
46.59327611426424
 40
47.6169209805722
 40
48.64656348684535
 40
49.68302456883444
 40
50.58557219878025
 40
50.58557219878025
 40
50.58557219878025
 40
50.58557219878025
 10
-7.796128460451198
 20
-6.900000602031153
 30
0.0
 10
-8.156988479589196
 20
-6.895895269193859
 30
0.0
 10
-8.87918914659682
 20
-6.887679135634762
 30
0.0
 10
-9.962227324519778
 20
-6.821447875380944
 30
0.0
 10
-11.04521927162646
 20
-6.716157473112837
 30
0.0
 10
-12.12814419216412
 20
-6.568588969838576
 30
0.0
 10
-13.21099128024675
 20
-6.380742201704565
 30
0.0
 10
-14.29373917372239
 20
-6.153452493353269
 30
0.0
 10
-15.37639149433472
 20
-5.888250949273057
 30
0.0
 10
-16.45893864114567
 20
-5.586761536830688
 30
0.0
 10
-17.54137324003622
 20
-5.250835382728994
 30
0.0
 10
-18.62370068634442
 20
-4.882581060712149
 30
0.0
 10
-19.70592387875903
 20
-4.484252312476764
 30
0.0
 10
-20.788056338792
 20
-4.058328835662988
 30
0.0
 10
-21.87010302084877
 20
-3.607428021292657
 30
0.0
 10
-22.95207395846464
 20
-3.134330619282942
 30
0.0
 10
-24.03398115084372
 20
-2.64195526279565
 30
0.0
 10
-25.11583409338115
 20
-2.133329827313288
 30
0.0
 10
-26.197643285583
 20
-1.611582557124243
 30
0.0
 10
-27.27942030326738
 20
-1.079924744689858
 30
0.0
 10
-28.36117463464843
 20
-0.5416248037487634
 30
0.0
 10
-29.44292155577297
 20
-0.0000020098809508
 30
0.0
 10
-30.52466362075896
 20
0.5416305335346956
 30
0.0
 10
-31.60642157794474
 20
1.079922091721872
 30
0.0
 10
-32.68819726016085
 20
1.611581513454188
 30
0.0
 10
-33.77000838121654
 20
2.133330771267779
 30
0.0
 10
-34.85186581179894
 20
2.641951866051364
 30
0.0
 10
-35.93377471171342
 20
3.134329719566793
 30
0.0
 10
-37.01574580552991
 20
3.607426737943292
 30
0.0
 10
-38.09779244821448
 20
4.058327647136369
 30
0.0
 10
-39.17992491101831
 20
4.48425112457318
 30
0.0
 10
-40.262148130998
 20
4.882579777562154
 30
0.0
 10
-41.34447546559821
 20
5.25083447560054
 30
0.0
 10
-42.42690541258247
 20
5.586757663478596
 30
0.0
 10
-43.50944586508969
 20
5.888251024680074
 30
0.0
 10
-44.59209778409419
 20
6.153457901629701
 30
0.0
 10
-45.67485340875268
 20
6.380721650341193
 30
0.0
 10
-46.75770407425612
 20
6.568626561020957
 30
0.0
 10
-47.84062931582115
 20
6.716020140881637
 30
0.0
 10
-48.92362201542357
 20
6.821949933407192
 30
0.0
 10
-50.0066592750592
 20
6.885780463826415
 30
0.0
 10
-51.08972033378183
 20
6.907104131947811
 30
0.0
 10
-52.17278139091086
 20
6.885780463793059
 30
0.0
 10
-53.25581865533652
 20
6.821949933541463
 30
0.0
 10
-54.33881133730352
 20
6.716020140376384
 30
0.0
 10
-55.42173664498803
 20
6.56862656292068
 30
0.0
 10
-56.50458178282003
 20
6.380722559265899
 30
0.0
 10
-57.58733314183348
 20
6.153460225279151
 30
0.0
 10
-58.62075922762205
 20
5.90028973785912
 30
0.0
 10
-59.29125784107245
 20
5.715143767017708
 30
0.0
 10
-59.60233011822779
 20
5.624913103462305
 30
0.0
  0
SPLINE
  5
3FD9
330
1F
100
AcDbEntity
  8
AM_0
 48
0.5
100
AcDbSpline
210
0.0
220
0.0
230
1.0
 70
     8
 71
     3
 72
    10
 73
     6
 74
     0
 42
0.0000000001
 43
0.0000000001
 40
0.0
 40
0.0
 40
0.0
 40
0.0
 40
2.69986029516136
 40
4.147722969032201
 40
6.285750005020438
 40
6.285750005020438
 40
6.285750005020438
 40
6.285750005020438
 10
-9.059050416487512
 20
1.248862618183611
 30
0.0
 10
-8.288230279273427
 20
0.6078049370346035
 30
0.0
 10
-7.104039973632371
 20
-0.3770347872065227
 30
0.0
 10
-4.303588975938037
 20
0.0997433762349391
 30
0.0
 10
-4.830995354943197
 20
1.705595317847364
 30
0.0
 10
-5.179471792815347
 20
2.684411535168724
 30
0.0
  0
SPLINE
  5
3FDA
330
1F
100
AcDbEntity
  8
AM_0
 48
0.5
100
AcDbSpline
210
0.0
220
0.0
230
1.0
 70
     8
 71
     3
 72
    25
 73
    21
 74
     0
 42
0.0000000001
 43
0.0000000001
 40
6.846175049578289
 40
6.846175049578289
 40
6.846175049578289
 40
6.846175049578289
 40
7.604337694224321
 40
8.711974558287883
 40
9.814980593243754
 40
10.91239053451967
 40
12.0033633515982
 40
13.08720139956839
 40
14.16337181880432
 40
15.23152222380919
 40
16.29148850140128
 40
17.34331105512262
 40
18.38723020264746
 40
19.42369128463655
 40
20.45333379090873
 40
21.47697865721768
 40
22.49561244472435
 40
23.5103574802404
 40
24.52244778960836
 40
25.53320666051913
 40
25.53320666051913
 40
25.53320666051913
 40
25.53320666051913
 10
-9.059223570448196
 20
1.248944571239682
 30
0.0
 10
-9.3052527708716
 20
1.370096299634869
 30
0.0
 10
-9.911235835026259
 20
1.667032174933761
 30
0.0
 10
-10.87807331818765
 20
2.133328390944668
 30
0.0
 10
-11.95992613664517
 20
2.64195412067033
 30
0.0
 10
-13.04183336218357
 20
3.134329398257552
 30
0.0
 10
-14.12380429040222
 20
3.607426823605345
 30
0.0
 10
-15.20585097712737
 20
4.058327622994329
 30
0.0
 10
-16.28798342789209
 20
4.484251136233663
 30
0.0
 10
-17.37020665239972
 20
4.882579755046785
 30
0.0
 10
-18.45253398086405
 20
5.250834553227221
 30
0.0
 10
-19.53496394768473
 20
5.586757378516672
 30
0.0
 10
-20.61750432772905
 20
5.888252076002518
 30
0.0
 10
-21.7001513006622
 20
6.15345274200861
 30
0.0
 10
-22.78290063711796
 20
6.380733886194515
 30
0.0
 10
-23.86574631210521
 20
6.568588983715119
 30
0.0
 10
-24.94867147698
 20
6.71615827201114
 30
0.0
 10
-26.03166419680798
 20
6.821437394020823
 30
0.0
 10
-27.11470689135388
 20
6.887687162191815
 30
0.0
 10
-27.83691331786221
 20
6.895897120640746
 30
0.0
 10
-28.19777885313728
 20
6.899999397969643
 30
0.0
  0
SPLINE
  5
3FDC
330
1F
100
AcDbEntity
  8
AM_0
 48
0.5
100
AcDbSpline
210
0.0
220
0.0
230
1.0
 70
     8
 71
     3
 72
    17
 73
    13
 74
     0
 42
0.0000000001
 43
0.0000000001
 40
0.0
 40
0.0
 40
0.0
 40
0.0
 40
1.010743614677189
 40
2.022833924044153
 40
3.037578959561199
 40
4.056212747067873
 40
5.079857613375832
 40
6.109500119648989
 40
7.14596120163808
 40
8.18989512056258
 40
9.241717674284874
 40
9.693948937866434
 40
9.693948937866434
 40
9.693948937866434
 40
9.693948937866434
 10
-7.796128460450707
 20
6.899999397968845
 30
0.0
 10
-8.156988545260919
 20
6.895897023634041
 30
0.0
 10
-8.879189517681329
 20
6.887686809042528
 30
0.0
 10
-9.962226783194383
 20
6.821437425237903
 30
0.0
 10
-11.04521946069187
 20
6.716158167142677
 30
0.0
 10
-12.1281447852614
 20
6.568589374257515
 30
0.0
 10
-13.21098985957612
 20
6.380732418137332
 30
0.0
 10
-14.29374145775384
 20
6.153458270861958
 30
0.0
 10
-15.37638504744838
 20
5.888229971279605
 30
0.0
 10
-16.45896263957689
 20
5.586833104609983
 30
0.0
 10
-17.33284750153665
 20
5.315320087356242
 30
0.0
 10
-17.84604392929245
 20
5.145585406292329
 30
0.0
 10
-18.00007796357601
 20
5.093630756672496
 30
0.0
  0
SPLINE
  5
3FDD
330
1F
100
AcDbEntity
  8
AM_0
100
AcDbSpline
210
0.0
220
0.0
230
1.0
 70
     8
 71
     3
 72
    17
 73
    13
 74
     0
 42
0.0000000001
 43
0.0000000001
 40
1.580019955310467
 40
1.580019955310467
 40
1.580019955310467
 40
1.580019955310467
 40
2.030549285115227
 40
3.082371838836284
 40
4.126290986361125
 40
5.162752068350215
 40
6.192395305374981
 40
7.216039564037012
 40
8.234688489606833
 40
9.249433870634691
 40
10.26152376260694
 40
11.27226744710342
 40
11.27226744710342
 40
11.27226744710342
 40
11.27226744710352
 10
-56.55210335007541
 20
-5.092403783502875
 30
0.0
 10
-56.70533517470102
 20
-5.144851305819737
 30
0.0
 10
-57.21718094905082
 20
-5.316755065581236
 30
0.0
 10
-58.09102861830602
 20
-5.586392263590389
 30
0.0
 10
-59.1734182288836
 20
-5.88835015553954
 30
0.0
 10
-60.25610582030758
 20
-6.153429093224778
 30
0.0
 10
-61.33884302009904
 20
-6.38073888199603
 30
0.0
 10
-62.4216981821679
 20
-6.568626059472332
 30
0.0
 10
-63.50462815559265
 20
-6.716018436378607
 30
0.0
 10
-64.58762556090632
 20
-6.821960860794425
 30
0.0
 10
-65.67066371585744
 20
-6.885771369030505
 30
0.0
 10
-66.39286439431069
 20
-6.900000641511166
 30
0.0
 10
-66.75372440868786
 20
-6.900000602028991
 30
0.0
  0
SPLINE
  5
3FDE
330
1F
100
AcDbEntity
  8
AM_0
100
AcDbSpline
210
0.0
220
0.0
230
1.0
 70
     8
 71
     3
 72
    11
 73
     7
 74
     0
 42
0.0000000001
 43
0.0000000001
 40
11.27226913003534
 40
11.27226913003534
 40
11.27226913003534
 40
11.2722691300354
 40
12.28301561507924
 40
13.29510212255852
 40
14.30984805882082
 40
15.18258238371378
 40
15.18258238371378
 40
15.18258238371378
 40
15.18258238371378
 10
-66.75372440868793
 20
-6.900000602028991
 30
0.0
 10
-67.1132122556351
 20
-6.86622999690207
 30
0.0
 10
-67.8315098870911
 20
-6.78447283164655
 30
0.0
 10
-68.90524717921625
 20
-6.6195484067393
 30
0.0
 10
-69.92424280237971
 20
-6.422564264445527
 30
0.0
 10
-70.58326935759875
 20
-6.271136691640153
 30
0.0
 10
-70.88696756000768
 20
-6.196335653254574
 30
0.0
  0
SPLINE
  5
3FDF
330
1F
100
AcDbEntity
  8
AM_0
100
AcDbSpline
210
0.0
220
0.0
230
1.0
 70
     8
 71
     3
 72
    23
 73
    19
 74
     0
 42
0.0000000001
 43
0.0000000001
 40
16.03460024169435
 40
16.03460024169435
 40
16.03460024169435
 40
16.03460024169435
 40
16.35212704903564
 40
17.38177054169784
 40
18.41822485651776
 40
19.46214173629503
 40
20.51396345435107
 40
21.57393551351153
 40
22.64208202342361
 40
23.7182574881101
 40
24.80209208578934
 40
25.89306333925047
 40
26.99048218457928
 40
28.09348763352352
 40
29.20111863782268
 40
30.31232390128032
 40
31.42594612798585
 40
32.5407912310448
 40
32.5407912310486
 40
32.5407912310486
 40
32.5407912310486
 10
-64.10924570372009
 20
6.900979668193061
 30
0.0
 10
-63.99797684095418
 20
6.877686483280405
 30
0.0
 10
-63.52637050725368
 20
6.776251218996216
 30
0.0
 10
-62.69563087158807
 20
6.577504299604293
 30
0.0
 10
-61.6198208686514
 20
6.281969803943648
 30
0.0
 10
-60.5450101286481
 20
5.950133825929931
 30
0.0
 10
-59.47113514015441
 20
5.58391686294991
 30
0.0
 10
-58.39815778944394
 20
5.1853605827707
 30
0.0
 10
-57.32601606099735
 20
4.756743301166231
 30
0.0
 10
-56.25463529493972
 20
4.300559463202896
 30
0.0
 10
-55.18395461156796
 20
3.819392411357879
 30
0.0
 10
-54.1138881705292
 20
3.316041944591422
 30
0.0
 10
-53.04434925490461
 20
2.793433753288113
 30
0.0
 10
-51.97526660436675
 20
2.254572615456547
 30
0.0
 10
-50.90655077006867
 20
1.702591934819189
 30
0.0
 10
-49.83810276629035
 20
1.140714873586418
 30
0.0
 10
-48.76983559120326
 20
0.5721973571771382
 30
0.0
 10
-48.05784876527226
 20
0.1910374486412193
 30
0.0
 10
-47.70166118910732
 20
0.0003503501172503
 30
0.0
  0
ELLIPSE
  5
3FE0
330
1F
100
AcDbEntity
  8
AM_0
 48
0.5
100
AcDbEllipse
 10
-19.90251556268567
 20
47.36322374483729
 30
0.0
 11
0.0034926590487145
 21
51.73218869949258
 31
0.0
210
0.0
220
0.0
230
1.0
 40
0.9565283488677092
 41
3.480522802813379
 42
3.555589029044155
  0
ELLIPSE
  5
3FE1
330
1F
100
AcDbEntity
  8
AM_0
 48
0.5
100
AcDbEllipse
 10
-13.11315099232023
 20
11.58070084450173
 30
0.0
 11
-0.0000000000076714
 21
16.63663105964577
 31
0.0
210
0.0
220
0.0
230
1.0
 40
0.931316098707356
 41
3.652175978817695
 42
3.7406707564972
  0
ELLIPSE
  5
3FE2
330
1F
100
AcDbEntity
  8
AM_0
 48
0.5
100
AcDbEllipse
 10
2.112920074665129
 20
8.283873909687173
 30
0.0
 11
0.0000000000007484
 21
13.90656881332367
 31
0.0
210
0.0
220
0.0
230
1.0
 40
0.931316098707405
 41
2.101163880029002
 42
2.5092848102239
  0
ELLIPSE
  5
3FE3
330
1F
100
AcDbEntity
  8
AM_0
 48
0.5
100
AcDbEllipse
 10
-3.903882710023284
 20
-1.79823992850881
 30
0.0
 11
-0.915011574803173
 21
0.5961030374985356
 31
0.0
210
0.0
220
0.0
230
1.0
 40
0.5163870132975744
 41
4.527320193773191
 42
7.670760535102701
  0
ELLIPSE
  5
3FE4
330
1F
100
AcDbEntity
  8
AM_0
 48
0.5
100
AcDbEllipse
 10
-3.903882710023284
 20
-1.79823992850881
 30
0.0
 11
-0.1782722329602104
 21
1.133861583373473
 31
0.0
210
0.0
220
0.0
230
1.0
 40
0.4674487271148098
 41
1.820433591221196
 42
4.955775480933175
  0
ELLIPSE
  5
3FE5
330
1F
100
AcDbEntity
  8
AM_0
 48
0.5
100
AcDbEllipse
 10
4.657214521661035
 20
-1.533775550151329
 30
0.0
 11
10.15562501341218
 21
1.719802448723433
 31
0.0
210
0.0
220
0.0
230
1.0
 40
0.6805118186684284
 41
3.095610459230424
 42
3.751056910087807
  0
LINE
  5
3FE6
330
1F
100
AcDbEntity
  8
AM_11
 48
0.5
100
AcDbLine
 10
-112.5229662613683
 20
-6.900138820450886
 30
0.0
 11
-89.64580643195587
 21
-6.900000602028101
 31
0.0
  0
LINE
  5
3FE7
330
1F
100
AcDbEntity
  8
AM_11
 48
0.5
100
AcDbLine
 10
-106.589981912731
 20
6.899999397972475
 30
0.0
 11
-89.64580643195548
 21
6.899999397971904
 31
0.0
  0
SPLINE
  5
3FE8
330
1F
100
AcDbEntity
  8
AM_0
100
AcDbSpline
210
0.0
220
0.0
230
1.0
 70
     8
 71
     3
 72
    23
 73
    19
 74
     0
 42
0.0000000001
 43
0.0000000001
 40
16.03460024169435
 40
16.03460024169435
 40
16.03460024169435
 40
16.03460024169435
 40
16.35212704903564
 40
17.38177054169784
 40
18.41822485651776
 40
19.46214173629503
 40
20.51396345435107
 40
21.57393551351153
 40
22.64208202342361
 40
23.7182574881101
 40
24.80209208578934
 40
25.89306333925047
 40
26.99048218457928
 40
28.09348763352352
 40
29.20111863782268
 40
30.31232390128032
 40
31.42594612798585
 40
32.5407912310448
 40
32.5407912310486
 40
32.5407912310486
 40
32.5407912310486
 10
-106.589981912731
 20
6.899999397972475
 30
0.0
 10
-106.1173707653231
 20
6.877336133163333
 30
0.0
 10
-105.5426199633825
 20
6.775900868879144
 30
0.0
 10
-104.530190236122
 20
6.57715394948724
 30
0.0
 10
-103.219091088933
 20
6.281619453826581
 30
0.0
 10
-101.9092097523019
 20
5.949783475812876
 30
0.0
 10
-100.6004688242957
 20
5.583566512832867
 30
0.0
 10
-99.29282185537985
 20
5.185010232653669
 30
0.0
 10
-97.98619326669339
 20
4.756392951049209
 30
0.0
 10
-96.68049206958754
 20
4.30020911308591
 30
0.0
 10
-95.37564406943081
 20
3.81904206124087
 30
0.0
 10
-94.07154465182761
 20
3.315691594474416
 30
0.0
 10
-92.76808813410337
 20
2.793083403171123
 30
0.0
 10
-91.46518767066796
 20
2.254222265339569
 30
0.0
 10
-90.16273424942189
 20
1.702241584702199
 30
0.0
 10
-88.86060723559445
 20
1.140364523469469
 30
0.0
 10
-87.55870059928936
 20
0.5718470070601749
 30
0.0
 10
-86.69099596953158
 20
0.1906870985242582
 30
0.0
 10
-86.25690702624753
 20
0.0000000000003057
 30
0.0
  0
SPLINE
  5
3FE9
330
1F
100
AcDbEntity
  8
AM_0
100
AcDbSpline
210
0.0
220
0.0
230
1.0
 70
     8
 71
     3
 72
    46
 73
    42
 74
     0
 42
0.0000000001
 43
0.0000000001
 40
0.0
 40
0.0
 40
0.0
 40
0.0
 40
1.348332046947654
 40
2.024828967632893
 40
2.703918159304094
 40
3.386347665078122
 40
4.072776489761951
 40
4.763750544421345
 40
5.459696642770595
 40
6.160921452191748
 40
6.867565637253344
 40
7.579665907256597
 40
8.297112853413899
 40
9.019671552060666
 40
9.746986763446125
 40
10.47859339096365
 40
11.21393074760088
 40
11.95235532364327
 40
12.69315551794651
 40
13.43556823304427
 40
14.1787950170388
 40
14.92202180103393
 40
15.66443451613169
 40
16.40523471043432
 40
17.14365928647669
 40
17.87899664311455
 40
18.61060327063121
 40
19.33791848201689
 40
20.06048192311554
 40
20.77792886927282
 40
21.49002913927608
 40
22.19667332433747
 40
22.89788836015233
 40
23.59383445850157
 40
24.28480851316097
 40
24.97123685067575
 40
25.65366676154837
 40
26.33276604526151
 40
27.00926273560554
 40
27.68398960851752
 40
28.35781868496899
 40
28.35781868496899
 40
28.35781868496899
 40
28.35781868496899
 10
-43.32030303557856
 20
-6.900000602029904
 30
0.0
 10
-44.04253898815983
 20
-6.884281868653569
 30
0.0
 10
-45.12714146539314
 20
-6.860676595199633
 30
0.0
 10
-46.56938467697209
 20
-6.715343263063379
 30
0.0
 10
-47.65232123241444
 20
-6.568808603889929
 30
0.0
 10
-48.73516522256108
 20
-6.380682992750546
 30
0.0
 10
-49.81791379483016
 20
-6.153468004037347
 30
0.0
 10
-50.90056138692991
 20
-5.8882499189655
 30
0.0
 10
-51.98310618558828
 20
-5.586756464999812
 30
0.0
 10
-53.06554337309862
 20
-5.250838856578239
 30
0.0
 10
-54.14787511299318
 20
-4.882580579281083
 30
0.0
 10
-55.23009849412868
 20
-4.484252442952379
 30
0.0
 10
-56.31223090300277
 20
-4.058328800281389
 30
0.0
 10
-57.39427759899528
 20
-3.607428031015184
 30
0.0
 10
-58.47624853253481
 20
-3.134330616095547
 30
0.0
 10
-59.55815572716494
 20
-2.641955265749825
 30
0.0
 10
-60.64000866477508
 20
-2.13332981864186
 30
0.0
 10
-61.721817874524
 20
-1.611582589011911
 30
0.0
 10
-62.80359482667316
 20
-1.079924625335671
 30
0.0
 10
-63.88534940332583
 20
-0.5416252503669333
 30
0.0
 10
-64.96709488655852
 20
-0.0000006021386475
 30
0.0
 10
-66.04884036955354
 20
0.5416240467478194
 30
0.0
 10
-67.13059494691901
 20
1.079923419742966
 30
0.0
 10
-68.2123718964628
 20
1.611581390631794
 30
0.0
 10
-69.2941811158729
 20
2.133328593512889
 30
0.0
 10
-70.37603401766031
 20
2.641954139802887
 30
0.0
 10
-71.4579413449541
 20
3.134329122842693
 30
0.0
 10
-72.53991413993077
 20
3.607428924923863
 30
0.0
 10
-73.62196504023477
 20
4.058325597527994
 30
0.0
 10
-74.70409937946726
 20
4.484251424189562
 30
0.0
 10
-75.78632273540555
 20
4.882579679042078
 30
0.0
 10
-76.86865002920427
 20
5.250834572360378
 30
0.0
 10
-77.95108000465822
 20
5.586757377142805
 30
0.0
 10
-79.03362038444136
 20
5.88825206274224
 30
0.0
 10
-80.11626734996154
 20
6.153452795854583
 30
0.0
 10
-81.19901671603562
 20
6.380733685868174
 30
0.0
 10
-82.28186761697612
 20
6.56859065122257
 30
0.0
 10
-83.36479859232095
 20
6.71615688709843
 30
0.0
 10
-84.44779656807824
 20
6.821437626130447
 30
0.0
 10
-85.53083385585644
 20
6.887686758955603
 30
0.0
 10
-86.25303482531412
 20
6.895897006947795
 30
0.0
 10
-86.61389490864383
 20
6.899999397971788
 30
0.0
  0
SPLINE
  5
3FEA
330
1F
100
AcDbEntity
  8
AM_0
100
AcDbSpline
210
0.0
220
0.0
230
1.0
 70
     8
 71
     3
 72
    22
 73
    18
 74
     0
 42
0.0000000001
 43
0.0000000001
 40
17.17441611292
 40
17.17441611292
 40
17.17441611292
 40
17.17441611292
 40
17.38177636558528
 40
18.41823744757437
 40
19.46215659509824
 40
20.51397914882054
 40
21.57394542641293
 40
22.64209583141747
 40
23.71826625065247
 40
24.80210429862395
 40
25.8930771157021
 40
26.99048705697709
 40
28.09349309193389
 40
29.20112995599786
 40
30.31233024745139
 40
31.42594771747373
 40
32.5407895042663
 40
32.54078950426994
 40
32.54078950426994
 40
32.54078950426994
 10
-70.88744120993259
 20
-6.196250541807333
 30
0.0
 10
-70.95996298876115
 20
-6.180277718571541
 30
0.0
 10
-71.39469144638827
 20
-6.082985506369727
 30
0.0
 10
-72.19108948391006
 20
-5.887901958041744
 30
0.0
 10
-73.27362978162025
 20
-5.586407730647454
 30
0.0
 10
-74.35605977074645
 20
-5.250484777965208
 30
0.0
 10
-75.43838709318375
 20
-4.882230014358794
 30
0.0
 10
-76.52061031925303
 20
-4.483901386000614
 30
0.0
 10
-77.60274276986726
 20
-4.057977876010458
 30
0.0
 10
-78.68478945560385
 20
-3.607077073239531
 30
0.0
 10
-79.76676038796772
 20
-3.133979658232015
 30
0.0
 10
-80.84866759778947
 20
-2.641604342373611
 30
0.0
 10
-81.9305204753712
 20
-2.132978756371324
 30
0.0
 10
-83.01232991131115
 20
-1.611232050777639
 30
0.0
 10
-84.09410549490837
 20
-1.079572377248649
 30
0.0
 10
-85.17586325172732
 20
-0.5412803633363316
 30
0.0
 10
-85.89689353221123
 20
-0.1802593279237546
 30
0.0
 10
-86.25760674466233
 20
0.0003503501210938
 30
0.0
  0
SPLINE
  5
3FEB
330
1F
100
AcDbEntity
  8
AM_0
100
AcDbSpline
210
0.0
220
0.0
230
1.0
 70
     8
 71
     3
 72
    55
 73
    51
 74
     0
 42
0.0000000001
 43
0.0000000001
 40
0.0
 40
0.0
 40
0.0
 40
0.0
 40
1.010743684496582
 40
2.022833576467832
 40
3.037578957496688
 40
4.056212745003489
 40
5.079857003664532
 40
6.109500240690281
 40
7.145961322679372
 40
8.189895241603872
 40
9.241717795325891
 40
10.30168407291828
 40
11.36983447792315
 40
12.44600489715814
 40
13.52984294512926
 40
14.62081576220742
 40
15.7182257034828
 40
16.82123173843959
 40
17.92886860250316
 40
19.0400688939571
 40
20.15368796660465
 40
21.26852814259644
 40
22.38336992938901
 40
23.49698739941135
 40
24.6081876908653
 40
25.71582455492886
 40
26.81883757994213
 40
27.91624752121713
 40
29.00722033829659
 40
30.09105838626677
 40
31.16722880550176
 40
32.23537921050758
 40
33.29534548809967
 40
34.347168041821
 40
35.39108718934584
 40
36.42754827133493
 40
37.45720575381954
 40
38.48085062012849
 40
39.49948440763516
 40
40.51422944315121
 40
41.52631975251916
 40
42.53706336719636
 40
43.54780698187354
 40
44.55989729124051
 40
45.57464232675757
 40
46.59327611426424
 40
47.6169209805722
 40
48.64656348684535
 40
49.68302456883444
 40
50.58557219878025
 40
50.58557219878025
 40
50.58557219878025
 40
50.58557219878025
 10
-46.3520740160014
 20
-6.900000602029789
 30
0.0
 10
-46.71293403513939
 20
-6.895895269192489
 30
0.0
 10
-47.43513470214702
 20
-6.887679135633391
 30
0.0
 10
-48.51817288006998
 20
-6.821447875379579
 30
0.0
 10
-49.60116482717665
 20
-6.716157473111475
 30
0.0
 10
-50.68408974771431
 20
-6.568588969837211
 30
0.0
 10
-51.76693683579695
 20
-6.380742201703201
 30
0.0
 10
-52.84968472927259
 20
-6.153452493351908
 30
0.0
 10
-53.93233704988491
 20
-5.8882509492717
 30
0.0
 10
-55.01488419669586
 20
-5.586761536829318
 30
0.0
 10
-56.09731879558643
 20
-5.250835382727627
 30
0.0
 10
-57.17964624189465
 20
-4.882581060710791
 30
0.0
 10
-58.26186943430927
 20
-4.484252312475401
 30
0.0
 10
-59.34400189434217
 20
-4.058328835661626
 30
0.0
 10
-60.42604857639897
 20
-3.607428021291293
 30
0.0
 10
-61.50801951401486
 20
-3.134330619281578
 30
0.0
 10
-62.58992670639394
 20
-2.641955262794287
 30
0.0
 10
-63.67177964893135
 20
-2.133329827311926
 30
0.0
 10
-64.75358884113319
 20
-1.611582557122879
 30
0.0
 10
-65.83536585881756
 20
-1.079924744688492
 30
0.0
 10
-66.91712019019863
 20
-0.5416248037473995
 30
0.0
 10
-67.9988671113232
 20
-0.0000020098795864
 30
0.0
 10
-69.08060917630916
 20
0.5416305335360599
 30
0.0
 10
-70.16236713349499
 20
1.079922091723237
 30
0.0
 10
-71.24414281571114
 20
1.611581513455552
 30
0.0
 10
-72.32595393676684
 20
2.133330771269142
 30
0.0
 10
-73.40781136734921
 20
2.641951866052731
 30
0.0
 10
-74.48972026726353
 20
3.134329719568157
 30
0.0
 10
-75.57169136108001
 20
3.607426737944657
 30
0.0
 10
-76.65373800376463
 20
4.058327647137733
 30
0.0
 10
-77.73587046656849
 20
4.484251124574547
 30
0.0
 10
-78.81809368654822
 20
4.882579777563521
 30
0.0
 10
-79.9004210211484
 20
5.250834475601902
 30
0.0
 10
-80.98285096813269
 20
5.586757663479964
 30
0.0
 10
-82.06539142063991
 20
5.888251024681443
 30
0.0
 10
-83.14804333964442
 20
6.153457901631072
 30
0.0
 10
-84.23079896430293
 20
6.380721650342553
 30
0.0
 10
-85.31364962980635
 20
6.568626561022322
 30
0.0
 10
-86.3965748713714
 20
6.716020140883001
 30
0.0
 10
-87.47956757097382
 20
6.821949933408556
 30
0.0
 10
-88.56260483060944
 20
6.885780463827774
 30
0.0
 10
-89.64566588933205
 20
6.907104131949173
 30
0.0
 10
-90.72872694646113
 20
6.885780463794425
 30
0.0
 10
-91.81176421088677
 20
6.821949933542834
 30
0.0
 10
-92.89475689285376
 20
6.716020140377747
 30
0.0
 10
-93.97768220053826
 20
6.568626562922051
 30
0.0
 10
-95.06052733837025
 20
6.380722559267262
 30
0.0
 10
-96.14327869738367
 20
6.153460225280515
 30
0.0
 10
-97.17670478317224
 20
5.900289737860478
 30
0.0
 10
-97.84720339662264
 20
5.715143767019068
 30
0.0
 10
-99.30058246278134
 20
5.182401186053521
 30
0.0
  0
LINE
  5
3FEC
330
1F
100
AcDbEntity
  8
AM_0
 48
0.5
100
AcDbLine
 10
-89.64581460317852
 20
-6.900000602027996
 30
0.0
 11
-66.75372140285365
 21
-6.900000602028828
 31
0.0
  0
LINE
  5
3FED
330
1F
100
AcDbEntity
  8
AM_0
100
AcDbLine
 10
-89.64580643195548
 20
6.899999397971904
 30
0.0
 11
-64.10924570372009
 21
6.900979668193063
 31
0.0
  0
DIMENSION
  5
4087
330
1F
100
AcDbEntity
  8
AM_5
100
AcDbDimension
  2
*D9
 10
-0.5873037318976897
 20
-1.613591571338073
 30
0.0
 11
33.52778662513125
 21
-0.000040681959715
 31
0.0
 70
    34
  1
<>
 51
359.9999999999998
  3
AM_JIS$2
100
AcDb2LineAngularDimension
 13
-0.0000000000000284
 23
0.0000000000000781
 33
0.0
 14
-0.5872917675983729
 24
1.613570883515912
 34
0.0
 15
-0.0000000000000284
 25
0.0000000000000887
 35
0.0
 16
33.63221189023517
 26
-14.5075523927461
 36
0.0
1001
GENIUS_GENDTOL_13
1000

1000
h7
1000

1040
0.0
1001
ACAD
1000
DSTYLE
1002
{
1070
   271
1070
     0
1002
}
  0
ELLIPSE
  5
4192
330
1F
100
AcDbEntity
  8
AM_11
 48
0.5
100
AcDbEllipse
 10
3.310487223358705
 20
27.82689745097796
 30
0.0
 11
-31.07765833536794
 21
0.0000000000288672
 31
0.0
210
0.0
220
0.0
230
1.0
 40
0.9899999999999861
 41
1.130070686341231
 42
1.291800737381917
  0
ELLIPSE
  5
4193
330
1F
100
AcDbEntity
  8
AM_11
 48
0.5
100
AcDbEllipse
 10
-23.20466429179299
 20
-27.82687566608712
 30
0.0
 11
-31.07765833536737
 21
0.0000000000017409
 31
0.0
210
0.0
220
0.0
230
1.0
 40
0.9900000000000009
 41
4.271664206181739
 42
5.153113667165048
  0
ELLIPSE
  5
4194
330
1F
100
AcDbEntity
  8
AM_11
 48
0.5
100
AcDbEllipse
 10
-23.20466429179279
 20
27.82689745097805
 30
0.0
 11
-31.0776583353674
 21
0.0000000000010094
 31
0.0
210
0.0
220
0.0
230
1.0
 40
0.9899999999999995
 41
1.130070686340335
 42
2.011520147323624
  0
ELLIPSE
  5
4195
330
1F
100
AcDbEntity
  8
AM_11
 48
0.5
100
AcDbEllipse
 10
-49.71981580694446
 20
-27.82687566608708
 30
0.0
 11
-31.07765833536731
 21
0.000000000001451
 31
0.0
210
0.0
220
0.0
230
1.0
 40
0.9900000000000032
 41
4.271664206181728
 42
5.153113667165039
  0
ELLIPSE
  5
4196
330
1F
100
AcDbEntity
  8
AM_11
 48
0.5
100
AcDbEllipse
 10
-76.23490313694005
 20
27.82689745097781
 30
0.0
 11
-31.0776583353674
 21
0.0000000000010094
 31
0.0
210
0.0
220
0.0
230
1.0
 40
0.9899999999999995
 41
1.130070686340335
 42
2.011520147323624
  0
ELLIPSE
  5
4197
330
1F
100
AcDbEntity
  8
AM_11
 48
0.5
100
AcDbEllipse
 10
-76.23490313694024
 20
-27.82687566608736
 30
0.0
 11
-31.07765833536737
 21
0.0000000000017409
 31
0.0
210
0.0
220
0.0
230
1.0
 40
0.9900000000000009
 41
4.271664206181739
 42
5.153113667165048
  0
ELLIPSE
  5
4198
330
1F
100
AcDbEntity
  8
AM_11
 48
0.5
100
AcDbEllipse
 10
-49.71981580694436
 20
27.8268974509781
 30
0.0
 11
-31.0776583353674
 21
0.000000000000133
 31
0.0
210
0.0
220
0.0
230
1.0
 40
0.9900000000000002
 41
1.130070686340306
 42
2.011520147323597
  0
ELLIPSE
  5
4199
330
1F
100
AcDbEntity
  8
AM_11
 48
0.5
100
AcDbEllipse
 10
-129.2651992383652
 20
27.82692418676175
 30
0.0
 11
-31.0776583353674
 21
0.0000000000010094
 31
0.0
210
0.0
220
0.0
230
1.0
 40
0.9899999999999995
 41
1.130070686340335
 42
2.011520147323624
  0
ELLIPSE
  5
419A
330
1F
100
AcDbEntity
  8
AM_11
 48
0.5
100
AcDbEllipse
 10
-129.2651992383654
 20
-27.82684893030342
 30
0.0
 11
-31.07765833536737
 21
0.0000000000017409
 31
0.0
210
0.0
220
0.0
230
1.0
 40
0.9900000000000009
 41
4.271664206181739
 42
5.153113667165048
  0
ELLIPSE
  5
419B
330
1F
100
AcDbEntity
  8
AM_11
 48
0.5
100
AcDbEllipse
 10
-102.7500546520917
 20
-27.82687566608731
 30
0.0
 11
-31.07765833536731
 21
0.000000000001451
 31
0.0
210
0.0
220
0.0
230
1.0
 40
0.9900000000000032
 41
4.271664206181728
 42
5.153113667165039
  0
ELLIPSE
  5
419C
330
1F
100
AcDbEntity
  8
AM_11
 48
0.5
100
AcDbEllipse
 10
-102.7500546520916
 20
27.82689745097787
 30
0.0
 11
-31.0776583353674
 21
0.000000000000133
 31
0.0
210
0.0
220
0.0
230
1.0
 40
0.9900000000000002
 41
1.130070686340306
 42
2.011520147323597
  0
ELLIPSE
  5
419D
330
1F
100
AcDbEntity
  8
AM_11
 48
0.5
100
AcDbEllipse
 10
-182.2954953397904
 20
27.8269509225457
 30
0.0
 11
-31.0776583353674
 21
0.0000000000010094
 31
0.0
210
0.0
220
0.0
230
1.0
 40
0.9899999999999995
 41
1.677036728370183
 42
2.011520147323624
  0
ELLIPSE
  5
419E
330
1F
100
AcDbEntity
  8
AM_11
 48
0.5
100
AcDbEllipse
 10
-182.2954953397906
 20
-27.82682219451947
 30
0.0
 11
-31.07765833536737
 21
0.0000000000017409
 31
0.0
210
0.0
220
0.0
230
1.0
 40
0.9900000000000009
 41
4.271664206181739
 42
4.606148578809484
  0
ELLIPSE
  5
419F
330
1F
100
AcDbEntity
  8
AM_11
 48
0.5
100
AcDbEllipse
 10
-155.7803507535169
 20
-27.82684893030337
 30
0.0
 11
-31.07765833536731
 21
0.000000000001451
 31
0.0
210
0.0
220
0.0
230
1.0
 40
0.9900000000000032
 41
4.271664206181728
 42
5.153113667165039
  0
ELLIPSE
  5
41A0
330
1F
100
AcDbEntity
  8
AM_11
 48
0.5
100
AcDbEllipse
 10
-155.7803507535168
 20
27.82692418676182
 30
0.0
 11
-31.0776583353674
 21
0.000000000000133
 31
0.0
210
0.0
220
0.0
230
1.0
 40
0.9900000000000002
 41
1.130070686340306
 42
2.011520147323597
  0
VIEWPORT
  5
110
330
101
100
AcDbEntity
 67
     1
  8
0
100
AcDbViewport
 10
420.5
 20
297.0
 30
0.0
 40
948.9782706766916
 41
628.452
 68
     1
 69
     1
1001
ACAD
1000
MVIEW
1002
{
1070
    16
1010
0.0
1020
0.0
1030
0.0
1010
0.0
1020
0.0
1030
1.0
1040
0.0
1040
628.452
1040
420.5
1040
297.0
1040
50.0
1040
0.0
1040
0.0
1070
     0
1070
   100
1070
     1
1070
     1
1070
     0
1070
     0
1070
     0
1070
     0
1040
0.0
1040
0.0
1040
0.0
1040
10.0
1040
10.0
1040
10.0
1040
10.0
1070
     0
1002
{
1002
}
1002
}
  0
ENDSEC
  0
SECTION
  2
OBJECTS
  0
DICTIONARY
  5
C
330
0
100
AcDbDictionary
  3
ACAD_GROUP
350
D
  3
ACAD_LAYOUT
350
1A
  3
ACAD_MLINESTYLE
350
17
  3
ACAD_PLOTSETTINGS
350
19
  3
ACAD_PLOTSTYLENAME
350
E
  3
ACDBVARIABLEDICTIONARY
350
34
  3
ACMDICTIONARY
350
43
  3
AMG
350
2B
  3
AMGSNAPSETTINGS
350
6E
  3
DWGPROPS
350
41BA
  3
ACDBHEADERROUNDTRIPXREC
350
41C7
  0
DICTIONARY
  5
74
330
1F
100
AcDbDictionary
280
     1
  3
ACAD_INDEX
360
41BC
  3
ACAD_LAYOUTSELFREF
360
41EA
  0
DICTIONARY
  5
41EF
330
101
100
AcDbDictionary
280
     1
  3
ACAD_LAYOUTSELFREF
360
41F0
  0
DICTIONARY
  5
D
102
{ACAD_REACTORS
330
C
102
}
330
C
100
AcDbDictionary
  0
DICTIONARY
  5
1A
102
{ACAD_REACTORS
330
C
102
}
330
C
100
AcDbDictionary
  0
DICTIONARY
  5
17
102
{ACAD_REACTORS
330
C
102
}
330
C
100
AcDbDictionary
  3
STANDARD
350
18
  0
DICTIONARY
  5
19
102
{ACAD_REACTORS
330
C
102
}
330
C
100
AcDbDictionary
  0
ACDBDICTIONARYWDFLT
  5
E
102
{ACAD_REACTORS
330
C
102
}
330
C
100
AcDbDictionary
281
     1
  3
Normal
350
F
100
AcDbDictionaryWithDefault
340
F
  0
DICTIONARY
  5
34
102
{ACAD_REACTORS
330
C
102
}
330
C
100
AcDbDictionary
  3
INDEXCTL
350
35
  3
SORTENTS
350
B5E
  0
DICTIONARY
  5
43
102
{ACAD_REACTORS
330
C
102
}
330
C
100
AcDbDictionary
  3
ACMSTDDICTIONARY
350
260
  0
DICTIONARY
  5
2B
102
{ACAD_REACTORS
330
C
102
}
330
C
100
AcDbDictionary
  3
ACMGSETTINGS
350
2C
  0
DICTIONARY
  5
6E
102
{ACAD_REACTORS
330
C
102
}
330
C
100
AcDbDictionary
  0
XRECORD
  5
41BA
102
{ACAD_REACTORS
330
C
102
}
330
C
100
AcDbXrecord
  1
DWGPROPS COOKIE
  2

  3

  4

  6

  7

  8

  9

300
AmdtFileType=82
301
=
302
=
303
=
304
=
305
=
306
=
307
=
308
=
309
=
 40
0.0908749189814815
 41
2452800.443498622
 42
2452948.662950475
  1

 90
        1
  0
DICTIONARY
  5
41C7
102
{ACAD_REACTORS
330
C
102
}
330
C
100
AcDbDictionary
  3
TSTACKALIGN
350
41C8
  3
TSTACKSIZE
350
41C9
  3
HYPERLINKBASE
350
41CA
  3
STYLESHEET
350
41CB
  3
LAYOUTDICT
350
41CC
  3
PLOTSETDICT
350
41CD
  3
PLOTSTYLNAMDICT
350
41CE
  3
LWETCUNION
350
41CF
  3
INSUNITS
350
41D0
  3
CEPSNTYPE
350
41D1
  3
FINGERPRINTGUID
350
41D2
  3
VERSIONGUID
350
41D3
  3
PSVPSCALE
350
41D4
  3
DIMSTYLEDATA
350
41D5
  3
PUCSORTHOREF
350
41D6
  3
PUCSORTHOVIEW
350
41D7
  3
PUCSBASE
350
41D8
  3
PUCSORGTOP
350
41D9
  3
PUCSORGBOTTOM
350
41DA
  3
PUCSORGLEFT
350
41DB
  3
PUCSORGRIGHT
350
41DC
  3
PUCSORGFRONT
350
41DD
  3
PUCSORGBACK
350
41DE
  3
UCSORTHOREF
350
41DF
  3
UCSORTHOVIEW
350
41E0
  3
UCSBASE
350
41E1
  3
UCSORGTOP
350
41E2
  3
UCSORGBOTTOM
350
41E3
  3
UCSORGLEFT
350
41E4
  3
UCSORGRIGHT
350
41E5
  3
UCSORGFRONT
350
41E6
  3
UCSORGBACK
350
41E7
  0
DICTIONARY
  5
41BC
102
{ACAD_REACTORS
330
74
102
}
330
74
100
AcDbDictionary
  3
*A1
350
41BD
  0
XRECORD
  5
41EA
102
{ACAD_REACTORS
330
74
102
}
330
74
100
AcDbXrecord
340
1F
  0
XRECORD
  5
41F0
102
{ACAD_REACTORS
330
41EF
102
}
330
41EF
100
AcDbXrecord
340
101
  0
MLINESTYLE
  5
18
102
{ACAD_REACTORS
330
17
102
}
330
17
100
AcDbMlineStyle
  2
STANDARD
 70
     0
  3

 62
   256
 51
90.0
 52
90.0
 71
     2
 49
0.5
 62
   256
  6
BYLAYER
 49
-0.5
 62
   256
  6
BYLAYER
  0
ACDBPLACEHOLDER
  5
F
102
{ACAD_REACTORS
330
E
102
}
330
E
100
AcDbPlaceHolder
280
     0
  0
DICTIONARYVAR
  5
35
102
{ACAD_REACTORS
330
34
102
}
330
34
100
DictionaryVariables
280
     0
  1
1
  0
DICTIONARYVAR
  5
B5E
102
{ACAD_REACTORS
330
34
102
}
330
34
100
DictionaryVariables
280
     0
  1
96
  0
DICTIONARY
  5
260
102
{ACAD_REACTORS
330
43
102
}
330
43
100
AcDbDictionary
  0
DICTIONARY
  5
2C
102
{ACAD_REACTORS
330
2B
102
}
330
2B
100
AcDbDictionary
  3
DWGSETTINGS
350
2D
  0
XRECORD
  5
41C8
102
{ACAD_REACTORS
330
41C7
102
}
330
41C7
100
AcDbXrecord
 90
        1
  0
XRECORD
  5
41C9
102
{ACAD_REACTORS
330
41C7
102
}
330
41C7
100
AcDbXrecord
 90
       70
  0
XRECORD
  5
41CA
102
{ACAD_REACTORS
330
41C7
102
}
330
41C7
100
AcDbXrecord
  1

  0
XRECORD
  5
41CB
102
{ACAD_REACTORS
330
41C7
102
}
330
41C7
100
AcDbXrecord
  1
ASAMI.ctb
  0
XRECORD
  5
41CC
102
{ACAD_REACTORS
330
41C7
102
}
330
41C7
100
AcDbXrecord
340
1A
  0
XRECORD
  5
41CD
102
{ACAD_REACTORS
330
41C7
102
}
330
41C7
100
AcDbXrecord
340
19
  0
XRECORD
  5
41CE
102
{ACAD_REACTORS
330
41C7
102
}
330
41C7
100
AcDbXrecord
340
E
  0
XRECORD
  5
41CF
102
{ACAD_REACTORS
330
41C7
102
}
330
41C7
100
AcDbXrecord
 90
    10781
  0
XRECORD
  5
41D0
102
{ACAD_REACTORS
330
41C7
102
}
330
41C7
100
AcDbXrecord
 90
        4
  0
XRECORD
  5
41D1
102
{ACAD_REACTORS
330
41C7
102
}
330
41C7
100
AcDbXrecord
 90
        0
  0
XRECORD
  5
41D2
102
{ACAD_REACTORS
330
41C7
102
}
330
41C7
100
AcDbXrecord
  1
{AFB28963-8C59-40AE-9337-C84526B81ACE}
  0
XRECORD
  5
41D3
102
{ACAD_REACTORS
330
41C7
102
}
330
41C7
100
AcDbXrecord
  1
{FB2DBD98-89AE-4D46-87FD-608A1C6FCAF0}
  0
XRECORD
  5
41D4
102
{ACAD_REACTORS
330
41C7
102
}
330
41C7
100
AcDbXrecord
 40
0.0
  0
XRECORD
  5
41D5
102
{ACAD_REACTORS
330
41C7
102
}
330
41C7
100
AcDbXrecord
1000
DSTYLE
1002
{
1070
    79
 70
     2
1070
   341
340
59
1070
   342
340
59
1070
   371
 70
    -1
1070
   372
 70
    -1
1002
}
  0
XRECORD
  5
41D6
102
{ACAD_REACTORS
330
41C7
102
}
330
41C7
100
AcDbXrecord
340
0
  0
XRECORD
  5
41D7
102
{ACAD_REACTORS
330
41C7
102
}
330
41C7
100
AcDbXrecord
 70
     0
  0
XRECORD
  5
41D8
102
{ACAD_REACTORS
330
41C7
102
}
330
41C7
100
AcDbXrecord
340
0
  0
XRECORD
  5
41D9
102
{ACAD_REACTORS
330
41C7
102
}
330
41C7
100
AcDbXrecord
 10
0.0
 20
0.0
 30
0.0
  0
XRECORD
  5
41DA
102
{ACAD_REACTORS
330
41C7
102
}
330
41C7
100
AcDbXrecord
 10
0.0
 20
0.0
 30
0.0
  0
XRECORD
  5
41DB
102
{ACAD_REACTORS
330
41C7
102
}
330
41C7
100
AcDbXrecord
 10
0.0
 20
0.0
 30
0.0
  0
XRECORD
  5
41DC
102
{ACAD_REACTORS
330
41C7
102
}
330
41C7
100
AcDbXrecord
 10
0.0
 20
0.0
 30
0.0
  0
XRECORD
  5
41DD
102
{ACAD_REACTORS
330
41C7
102
}
330
41C7
100
AcDbXrecord
 10
0.0
 20
0.0
 30
0.0
  0
XRECORD
  5
41DE
102
{ACAD_REACTORS
330
41C7
102
}
330
41C7
100
AcDbXrecord
 10
0.0
 20
0.0
 30
0.0
  0
XRECORD
  5
41DF
102
{ACAD_REACTORS
330
41C7
102
}
330
41C7
100
AcDbXrecord
340
0
  0
XRECORD
  5
41E0
102
{ACAD_REACTORS
330
41C7
102
}
330
41C7
100
AcDbXrecord
 70
     0
  0
XRECORD
  5
41E1
102
{ACAD_REACTORS
330
41C7
102
}
330
41C7
100
AcDbXrecord
340
0
  0
XRECORD
  5
41E2
102
{ACAD_REACTORS
330
41C7
102
}
330
41C7
100
AcDbXrecord
 10
0.0
 20
0.0
 30
0.0
  0
XRECORD
  5
41E3
102
{ACAD_REACTORS
330
41C7
102
}
330
41C7
100
AcDbXrecord
 10
0.0
 20
0.0
 30
0.0
  0
XRECORD
  5
41E4
102
{ACAD_REACTORS
330
41C7
102
}
330
41C7
100
AcDbXrecord
 10
0.0
 20
0.0
 30
0.0
  0
XRECORD
  5
41E5
102
{ACAD_REACTORS
330
41C7
102
}
330
41C7
100
AcDbXrecord
 10
0.0
 20
0.0
 30
0.0
  0
XRECORD
  5
41E6
102
{ACAD_REACTORS
330
41C7
102
}
330
41C7
100
AcDbXrecord
 10
0.0
 20
0.0
 30
0.0
  0
XRECORD
  5
41E7
102
{ACAD_REACTORS
330
41C7
102
}
330
41C7
100
AcDbXrecord
 10
0.0
 20
0.0
 30
0.0
  0
LAYER_INDEX
  5
41BD
102
{ACAD_REACTORS
330
41BC
102
}
330
41BC
100
AcDbIndex
 40
2453151.668478715
100
AcDbLayerIndex
  8
0
360
41BE
 90
        0
  8
AM_0
360
41BF
 90
       54
  8
AM_7
360
41C0
 90
        1
  8
AM_11
360
41C1
 90
       21
  8
AM_5
360
41C2
 90
        5
  8
Defpoints
360
41C3
 90
        0
  8
AM_6
360
41C4
 90
        1
  8
AM_CL
360
41C5
 90
        0
  0
XRECORD
  5
2D
102
{ACAD_REACTORS
330
2C
102
}
330
2C
100
AcDbXrecord
  1
VERSION
140
15.0
  1
PRODUCT
  2
AutoCAD Mechanical 2000
  0
IDBUFFER
  5
41BE
330
0
100
AcDbIdBuffer
  0
IDBUFFER
  5
41BF
330
0
100
AcDbIdBuffer
330
3FE8
330
3FE9
330
3FEA
330
3FEB
330
3FEC
330
3FED
330
1E25
330
1E26
330
1FD9
330
21D7
330
21D8
330
21D9
330
21DC
330
21DD
330
2694
330
2695
330
2696
330
2699
330
2CB4
330
2CB7
330
3366
330
3367
330
3EF1
330
3EF2
330
3F3B
330
3F3C
330
3FC5
330
3FC6
330
3FC7
330
3FC8
330
3FC9
330
3FCA
330
3FCB
330
3FCC
330
3FD1
330
3FD2
330
3FD3
330
3FD4
330
3FD5
330
3FD6
330
3FD7
330
3FD8
330
3FD9
330
3FDA
330
3FDC
330
3FDD
330
3FDE
330
3FDF
330
3FE0
330
3FE1
330
3FE2
330
3FE3
330
3FE4
330
3FE5
  0
IDBUFFER
  5
41C0
330
0
100
AcDbIdBuffer
330
C9F
  0
IDBUFFER
  5
41C1
330
0
100
AcDbIdBuffer
330
419C
330
419D
330
419E
330
419F
330
41A0
330
3FCD
330
3FCE
330
3FCF
330
3FD0
330
3FE6
330
3FE7
330
4192
330
4193
330
4194
330
4195
330
4196
330
4197
330
4198
330
4199
330
419A
330
419B
  0
IDBUFFER
  5
41C2
330
0
100
AcDbIdBuffer
330
CC6
330
DF5
330
1FB6
330
2216
330
4087
  0
IDBUFFER
  5
41C3
330
0
100
AcDbIdBuffer
  0
IDBUFFER
  5
41C4
330
0
100
AcDbIdBuffer
330
19BD
  0
IDBUFFER
  5
41C5
330
0
100
AcDbIdBuffer
  0
ENDSEC
  0
EOF
