  0
SECTION
  2
HEADER
  9
$ACADVER
  1
AC1014
  9
$ACADMAINTVER
 70
     9
  9
$DWGCODEPAGE
  3
ANSI_932
  9
$INSBASE
 10
0.0
 20
0.0
 30
0.0
  9
$EXTMIN
 10
-149.150001
 20
-30.25000099999974
 30
-0.00000001
  9
$EXTMAX
 10
13.98299130850142
 20
13.65957798971896
 30
0.00000001
  9
$LIMMIN
 10
-156.1444050923396
 20
-44.51020785580943
  9
$LIMMAX
 10
20.31336096277607
 20
28.16015358894219
  9
$ORTHOMODE
 70
     0
  9
$REGENMODE
 70
     1
  9
$FILLMODE
 70
     1
  9
$QTEXTMODE
 70
     0
  9
$MIRRTEXT
 70
     0
  9
$DRAGMODE
 70
     2
  9
$LTSCALE
 40
1.0
  9
$OSMODE
 70
    55
  9
$ATTMODE
 70
     1
  9
$TEXTSIZE
 40
2.5
  9
$TRACEWID
 40
1.0
  9
$TEXTSTYLE
  7
STANDARD
  9
$CLAYER
  8
AM_0
  9
$CELTYPE
  6
BYLAYER
  9
$CECOLOR
 62
   256
  9
$CELTSCALE
 40
1.0
  9
$DELOBJ
 70
     1
  9
$DISPSILH
 70
     0
  9
$DIMSCALE
 40
0.5
  9
$DIMASZ
 40
2.5
  9
$DIMEXO
 40
1.0
  9
$DIMDLI
 40
12.0
  9
$DIMRND
 40
0.0
  9
$DIMDLE
 40
0.0
  9
$DIMEXE
 40
1.0
  9
$DIMTP
 40
0.1
  9
$DIMTM
 40
0.1
  9
$DIMTXT
 40
3.2
  9
$DIMCEN
 40
0.0
  9
$DIMTSZ
 40
0.0
  9
$DIMTOL
 70
     0
  9
$DIMLIM
 70
     0
  9
$DIMTIH
 70
     0
  9
$DIMTOH
 70
     0
  9
$DIMSE1
 70
     0
  9
$DIMSE2
 70
     0
  9
$DIMTAD
 70
     3
  9
$DIMZIN
 70
     8
  9
$DIMBLK
  1
OPEN30
  9
$DIMASO
 70
     1
  9
$DIMSHO
 70
     1
  9
$DIMPOST
  1

  9
$DIMAPOST
  1
"
  9
$DIMALT
 70
     0
  9
$DIMALTD
 70
     2
  9
$DIMALTF
 40
0.0393701
  9
$DIMLFAC
 40
1.0
  9
$DIMTOFL
 70
     1
  9
$DIMTVP
 40
0.0
  9
$DIMTIX
 70
     0
  9
$DIMSOXD
 70
     0
  9
$DIMSAH
 70
     0
  9
$DIMBLK1
  1

  9
$DIMBLK2
  1

  9
$DIMSTYLE
  2
AM_JIS
  9
$DIMCLRD
 70
   256
  9
$DIMCLRE
 70
   256
  9
$DIMCLRT
 70
     2
  9
$DIMTFAC
 40
0.71
  9
$DIMGAP
 40
1.5
  9
$DIMJUST
 70
     0
  9
$DIMSD1
 70
     0
  9
$DIMSD2
 70
     0
  9
$DIMTOLJ
 70
     0
  9
$DIMTZIN
 70
     0
  9
$DIMALTZ
 70
     0
  9
$DIMALTTZ
 70
     0
  9
$DIMFIT
 70
     3
  9
$DIMUPT
 70
     0
  9
$DIMUNIT
 70
     2
  9
$DIMDEC
 70
     3
  9
$DIMTDEC
 70
     3
  9
$DIMALTU
 70
     2
  9
$DIMALTTD
 70
     2
  9
$DIMTXSTY
  7
ASAMI
  9
$DIMAUNIT
 70
     0
  9
$LUNITS
 70
     2
  9
$LUPREC
 70
     2
  9
$SKETCHINC
 40
1.0
  9
$FILLETRAD
 40
2.5
  9
$AUNITS
 70
     0
  9
$AUPREC
 70
     0
  9
$MENU
  1
.
  9
$ELEVATION
 40
0.0
  9
$PELEVATION
 40
0.0
  9
$THICKNESS
 40
0.0
  9
$LIMCHECK
 70
     0
  9
$BLIPMODE
 70
     0
  9
$CHAMFERA
 40
0.75
  9
$CHAMFERB
 40
0.75
  9
$CHAMFERC
 40
20.0
  9
$CHAMFERD
 40
0.0
  9
$SKPOLY
 70
     0
  9
$TDCREATE
 40
2452800.443498622
  9
$TDUPDATE
 40
2453151.564538646
  9
$TDINDWG
 40
0.0871836806
  9
$TDUSRTIMER
 40
0.0871836806
  9
$USRTIMER
 70
     1
  9
$ANGBASE
 50
0.0
  9
$ANGDIR
 70
     0
  9
$PDMODE
 70
     0
  9
$PDSIZE
 40
0.0
  9
$PLINEWID
 40
0.0
  9
$COORDS
 70
     1
  9
$SPLFRAME
 70
     0
  9
$SPLINETYPE
 70
     6
  9
$SPLINESEGS
 70
     8
  9
$ATTDIA
 70
     1
  9
$ATTREQ
 70
     1
  9
$HANDLING
 70
 12289
  9
$HANDSEED
  5
4049
  9
$SURFTAB1
 70
     6
  9
$SURFTAB2
 70
     6
  9
$SURFTYPE
 70
     6
  9
$SURFU
 70
     6
  9
$SURFV
 70
     6
  9
$UCSNAME
  2

  9
$UCSORG
 10
0.0
 20
0.0
 30
0.0
  9
$UCSXDIR
 10
1.0
 20
0.0000000000000027
 30
0.0
  9
$UCSYDIR
 10
-0.0000000000000027
 20
1.0
 30
0.0
  9
$PUCSNAME
  2

  9
$PUCSORG
 10
0.0
 20
0.0
 30
0.0
  9
$PUCSXDIR
 10
1.0
 20
0.0
 30
0.0
  9
$PUCSYDIR
 10
0.0
 20
1.0
 30
0.0
  9
$USERI1
 70
     0
  9
$USERI2
 70
     0
  9
$USERI3
 70
     0
  9
$USERI4
 70
     0
  9
$USERI5
 70
     0
  9
$USERR1
 40
0.0
  9
$USERR2
 40
0.0
  9
$USERR3
 40
0.0
  9
$USERR4
 40
0.0
  9
$USERR5
 40
0.0
  9
$WORLDVIEW
 70
     1
  9
$SHADEDGE
 70
     3
  9
$SHADEDIF
 70
    70
  9
$TILEMODE
 70
     1
  9
$MAXACTVP
 70
    64
  9
$PINSBASE
 10
0.0
 20
0.0
 30
0.0
  9
$PLIMCHECK
 70
     0
  9
$PEXTMIN
 10
1.000000000000000E+20
 20
1.000000000000000E+20
 30
1.000000000000000E+20
  9
$PEXTMAX
 10
-1.000000000000000E+20
 20
-1.000000000000000E+20
 30
-1.000000000000000E+20
  9
$PLIMMIN
 10
0.0
 20
0.0
  9
$PLIMMAX
 10
841.0
 20
594.0
  9
$UNITMODE
 70
     0
  9
$VISRETAIN
 70
     1
  9
$PLINEGEN
 70
     0
  9
$PSLTSCALE
 70
     0
  9
$TREEDEPTH
 70
  3020
  9
$PICKSTYLE
 70
     0
  9
$CMLSTYLE
  2
STANDARD
  9
$CMLJUST
 70
     0
  9
$CMLSCALE
 40
20.0
  9
$PROXYGRAPHICS
 70
     1
  9
$MEASUREMENT
 70
     1
  0
ENDSEC
  0
SECTION
  2
CLASSES
  0
CLASS
  1
ACDBDICTIONARYWDFLT
  2
AcDbDictionaryWithDefault
  3
AutoCAD 2000
 90
        0
280
     0
281
     0
  0
CLASS
  1
ACDBPLACEHOLDER
  2
AcDbPlaceHolder
  3
AutoCAD 2000
 90
        0
280
     0
281
     0
  0
CLASS
  1
LAYOUT
  2
AcDbLayout
  3
AutoCAD 2000
 90
        0
280
     0
281
     0
  0
CLASS
  1
AMGSETTINGSOBJ
  2
AmgSettingsObj
  3
"AcadM|Product Description: AutoCAD Mechanical 2000|Company: Autodesk"
 90
        0
280
     0
281
     0
  0
CLASS
  1
ACME_DOCUMENT
  2
AcMeDbDoc
  3
AcMeServices
 90
        0
280
     0
281
     0
  0
CLASS
  1
ACMESCOPE
  2
AcMeScope
  3
AcMeServices
 90
        0
280
     0
281
     0
  0
CLASS
  1
ACMECOMMANDHISTORY
  2
AcMeCommandHistory
  3
AcMeServices
 90
        0
280
     0
281
     0
  0
CLASS
  1
DICTIONARYVAR
  2
AcDbDictionaryVar
  3
AutoCAD 2000
 90
        0
280
     0
281
     0
  0
CLASS
  1
ACIMSYSVARMAN
  2
AcImSysVarManager
  3
AcMeServices
 90
        0
280
     0
281
     0
  0
CLASS
  1
ACIMREALSYSVAR
  2
AcImRealSysVar
  3
AcMeServices
 90
        0
280
     0
281
     0
  0
CLASS
  1
ACIMINTSYSVAR
  2
AcImIntSysVar
  3
AcMeServices
 90
        0
280
     0
281
     0
  0
CLASS
  1
ACMEDRAWINGMAN
  2
AcMeDrawingMan
  3
AcMeServices
 90
        0
280
     0
281
     0
  0
CLASS
  1
ACMEVIEW
  2
AcMeView
  3
AcMeServices
 90
        0
280
     0
281
     0
  0
CLASS
  1
ACDBENTITYCACHE
  2
AcMeEntityCache
  3
AcMeServices
 90
        0
280
     0
281
     0
  0
CLASS
  1
GSMANAGER
  2
AcMeGSManager
  3
AcMeServices
 90
        0
280
     0
281
     0
  0
CLASS
  1
AmdtInternalReactor
  2
AmdtInternalReactor
  3
AcMeServices
 90
        0
280
     0
281
     0
  0
CLASS
  1
ACMESTATEMGR
  2
AcMeStateMgr
  3
AcMeServices
 90
        0
280
     0
281
     0
  0
CLASS
  1
ACME_DATABASE
  2
AcMeDbDatabase
  3
AcMeServices
 90
        0
280
     0
281
     0
  0
CLASS
  1
ACRFINSADJUSTERMGR
  2
AcRfInsAdjusterMgr
  3
AcMeServices
 90
        0
280
     0
281
     0
  0
CLASS
  1
ACMDATADICTIONARY
  2
AcmDataDictionary
  3
"AcmSymBB|Product Description: AutoCAD Mechanical 2000|Company: Autodesk"
 90
        0
280
     0
281
     0
  0
CLASS
  1
ACMDATAENTRYBLOCK
  2
AcmDataEntryBlock
  3
"AcmSymBB|Product Description: AutoCAD Mechanical 2000|Company: Autodesk"
 90
        0
280
     0
281
     0
  0
CLASS
  1
AMGOBJPROPCFG
  2
AmgObjPropCfg
  3
"AmgLay|Product Description: AutoCAD Mechanical 2000|Company: Autodesk"
 90
        1
280
     0
281
     0
  0
CLASS
  1
ACAMGFILTERDAT
  2
AcAmgFilterDat
  3
"AcadM|Product Description: AutoCAD Mechanical 2000|Company: Autodesk"
 90
        0
280
     0
281
     0
  0
CLASS
  1
LAYER_INDEX
  2
AcDbLayerIndex
  3
AutoCAD 2000
 90
        0
280
     0
281
     0
  0
CLASS
  1
IDBUFFER
  2
AcDbIdBuffer
  3
AutoCAD 2000
 90
        0
280
     0
281
     0
  0
CLASS
  1
ACIMSTRSYSVAR
  2
AcImStrSysVar
  3
AcMeServices
 90
        0
280
     0
281
     0
  0
CLASS
  1
ACMSTANDARDJIS
  2
AcmStandardJIS
  3
"AcmSymBB|Product Description: AutoCAD Mechanical 2000|Company: Autodesk"
 90
        0
280
     0
281
     0
  0
CLASS
  1
ACMSURFSTANDARDJIS
  2
AcmSurfTextStdJIS
  3
"AcmSymBB|Product Description: AutoCAD Mechanical 2000|Company: Autodesk"
 90
        0
280
     0
281
     0
  0
CLASS
  1
ACMFCFSTANDARDJIS
  2
AcmFCFStdJIS
  3
"AcmSymBB|Product Description: AutoCAD Mechanical 2000|Company: Autodesk"
 90
        0
280
     0
281
     0
  0
CLASS
  1
ACMWELDSTANDARDJIS
  2
AcmWeldingStdJIS
  3
"AcmSymBB|Product Description: AutoCAD Mechanical 2000|Company: Autodesk"
 90
        0
280
     0
281
     0
  0
CLASS
  1
ACMIDSTANDARDJIS
  2
AcmIdStdJIS
  3
"AcmSymBB|Product Description: AutoCAD Mechanical 2000|Company: Autodesk"
 90
        0
280
     0
281
     0
  0
CLASS
  1
ACMDATUMSTANDARDJIS
  2
AcmDatumStdJIS
  3
"AcmSymBB|Product Description: AutoCAD Mechanical 2000|Company: Autodesk"
 90
        0
280
     0
281
     0
  0
CLASS
  1
ACMBOMSTANDARDJIS
  2
AcmBOMStdJIS
  3
"AcmSymBB|Product Description: AutoCAD Mechanical 2000|Company: Autodesk"
 90
        0
280
     0
281
     0
  0
CLASS
  1
ACMSTANDARDANSI
  2
AcmStandardANSI
  3
"AcmSymBB|Product Description: AutoCAD Mechanical 2000|Company: Autodesk"
 90
        0
280
     0
281
     0
  0
CLASS
  1
ACMSURFSTANDARDANSI
  2
AcmSurfTextStdANSI
  3
"AcmSymBB|Product Description: AutoCAD Mechanical 2000|Company: Autodesk"
 90
        0
280
     0
281
     0
  0
CLASS
  1
ACMFCFSTANDARDANSI
  2
AcmFCFStdANSI
  3
"AcmSymBB|Product Description: AutoCAD Mechanical 2000|Company: Autodesk"
 90
        0
280
     0
281
     0
  0
CLASS
  1
ACMWELDSTANDARDANSI
  2
AcmWeldingStdANSI
  3
"AcmSymBB|Product Description: AutoCAD Mechanical 2000|Company: Autodesk"
 90
        0
280
     0
281
     0
  0
CLASS
  1
ACMIDSTANDARDANSI
  2
AcmIdStdANSI
  3
"AcmSymBB|Product Description: AutoCAD Mechanical 2000|Company: Autodesk"
 90
        0
280
     0
281
     0
  0
CLASS
  1
ACMDATUMSTANDARDANSI
  2
AcmDatumStdANSI
  3
"AcmSymBB|Product Description: AutoCAD Mechanical 2000|Company: Autodesk"
 90
        0
280
     0
281
     0
  0
CLASS
  1
ACMBOMSTANDARDANSI
  2
AcmBOMStdANSI
  3
"AcmSymBB|Product Description: AutoCAD Mechanical 2000|Company: Autodesk"
 90
        0
280
     0
281
     0
  0
CLASS
  1
ACMSTANDARDBSI
  2
AcmStandardBSI
  3
"AcmSymBB|Product Description: AutoCAD Mechanical 2000|Company: Autodesk"
 90
        0
280
     0
281
     0
  0
CLASS
  1
ACMSURFSTANDARDBSI
  2
AcmSurfTextStdBSI
  3
"AcmSymBB|Product Description: AutoCAD Mechanical 2000|Company: Autodesk"
 90
        0
280
     0
281
     0
  0
CLASS
  1
ACMFCFSTANDARDBSI
  2
AcmFCFStdBSI
  3
"AcmSymBB|Product Description: AutoCAD Mechanical 2000|Company: Autodesk"
 90
        0
280
     0
281
     0
  0
CLASS
  1
ACMWELDSTANDARDBSI
  2
AcmWeldingStdBSI
  3
"AcmSymBB|Product Description: AutoCAD Mechanical 2000|Company: Autodesk"
 90
        0
280
     0
281
     0
  0
CLASS
  1
ACMIDSTANDARDBSI
  2
AcmIdStdBSI
  3
"AcmSymBB|Product Description: AutoCAD Mechanical 2000|Company: Autodesk"
 90
        0
280
     0
281
     0
  0
CLASS
  1
ACMDATUMSTANDARDBSI
  2
AcmDatumStdBSI
  3
"AcmSymBB|Product Description: AutoCAD Mechanical 2000|Company: Autodesk"
 90
        0
280
     0
281
     0
  0
CLASS
  1
ACMBOMSTANDARDBSI
  2
AcmBOMStdBSI
  3
"AcmSymBB|Product Description: AutoCAD Mechanical 2000|Company: Autodesk"
 90
        0
280
     0
281
     0
  0
CLASS
  1
LONG_TRANSACTION
  2
AcDbLongTransaction
  3
AutoCAD 2000
 90
        0
280
     0
281
     0
  0
CLASS
  1
LWPOLYLINE
  2
AcDbPolyline
  3
AutoCAD 2000
 90
        0
280
     0
281
     1
  0
CLASS
  1
HATCH
  2
AcDbHatch
  3
AutoCAD 2000
 90
        0
280
     0
281
     1
  0
CLASS
  1
XRECORD
  2
AcDbXrecord
  3
AutoCAD 2000
 90
        0
280
     0
281
     0
  0
ENDSEC
  0
SECTION
  2
TABLES
  0
TABLE
  2
VPORT
  5
8
330
0
100
AcDbSymbolTable
 70
     3
  0
VPORT
  5
4013
330
8
100
AcDbSymbolTableRecord
100
AcDbViewportTableRecord
  2
*ACTIVE
 70
     0
 10
0.0
 20
0.0
 11
1.0
 21
1.0
 12
-64.5313115879318
 22
-8.294229598884484
 13
0.0
 23
0.0
 14
2.5
 24
2.5
 15
10.0
 25
10.0
 16
0.0
 26
0.0
 36
1.0
 17
0.0
 27
0.0
 37
0.0
 40
108.6158170565287
 41
1.56570841889117
 42
50.0
 43
0.0
 44
0.0
 50
0.0
 51
0.0
 71
     0
 72
   100
 73
     1
 74
     1
 75
     0
 76
     0
 77
     0
 78
     0
  0
ENDTAB
  0
TABLE
  2
LTYPE
  5
5
330
0
100
AcDbSymbolTable
 70
    10
  0
LTYPE
  5
14
330
5
100
AcDbSymbolTableRecord
100
AcDbLinetypeTableRecord
  2
BYBLOCK
 70
     0
  3

 72
    65
 73
     0
 40
0.0
  0
LTYPE
  5
15
330
5
100
AcDbSymbolTableRecord
100
AcDbLinetypeTableRecord
  2
BYLAYER
 70
     0
  3

 72
    65
 73
     0
 40
0.0
  0
LTYPE
  5
16
330
5
100
AcDbSymbolTableRecord
100
AcDbLinetypeTableRecord
  2
CONTINUOUS
 70
     0
  3
Solid line
 72
    65
 73
     0
 40
0.0
  0
LTYPE
  5
4B
330
5
100
AcDbSymbolTableRecord
100
AcDbLinetypeTableRecord
  2
AM_ISO02W050
 70
     0
  3
__ __ __ __ __ __ __ __ __ __ __ __ __ __ __
 72
    65
 73
     2
 40
7.5
 49
6.0
 74
     0
 49
-1.5
 74
     0
  0
LTYPE
  5
4C
330
5
100
AcDbSymbolTableRecord
100
AcDbLinetypeTableRecord
  2
AM_ISO08W050
 70
     0
  3
____ . ____ . ____ . ____ . ____ . ____ . ____
 72
    65
 73
     4
 40
18.0
 49
12.0
 74
     0
 49
-1.5
 74
     0
 49
3.0
 74
     0
 49
-1.5
 74
     0
  0
LTYPE
  5
4D
330
5
100
AcDbSymbolTableRecord
100
AcDbLinetypeTableRecord
  2
AM_ISO09W050
 70
     0
  3
_____ . . _____ . . _____ . . ____ .. ____
 72
    65
 73
     6
 40
22.5
 49
12.0
 74
     0
 49
-1.5
 74
     0
 49
3.0
 74
     0
 49
-1.5
 74
     0
 49
3.0
 74
     0
 49
-1.5
 74
     0
  0
LTYPE
  5
4E
330
5
100
AcDbSymbolTableRecord
100
AcDbLinetypeTableRecord
  2
AMCONSTR
 70
     0
  3
_______________________
 72
    65
 73
     2
 40
9999.0
 49
9999.0
 74
     0
 49
0.0
 74
     0
  0
LTYPE
  5
4F
330
5
100
AcDbSymbolTableRecord
100
AcDbLinetypeTableRecord
  2
AM_ISO02W050X2
 70
     0
  3
 _ _ _ _ _ _ _ _ _ _ _ _
 72
    65
 73
     2
 40
3.75
 49
3.0
 74
     0
 49
-0.75
 74
     0
  0
LTYPE
  5
50
330
5
100
AcDbSymbolTableRecord
100
AcDbLinetypeTableRecord
  2
AM_ISO08W050X2
 70
     0
  3
__ . __ . __ . __ . __ . __
 72
    65
 73
     4
 40
9.0
 49
6.0
 74
     0
 49
-0.75
 74
     0
 49
1.5
 74
     0
 49
-0.75
 74
     0
  0
LTYPE
  5
53
330
5
100
AcDbSymbolTableRecord
100
AcDbLinetypeTableRecord
  2
AMZIGZAG
 70
     0
  3
/\/-/\/-/\/-/\/-/\/-/\/
 72
    65
 73
     2
 40
11.00009999999999
 49
0.0001
 74
     4
 75
   135
340
52
 46
0.04
 50
0.0
 44
0.0
 45
0.0
 49
-11.0
 74
     0
  0
LTYPE
  5
166
330
5
100
AcDbSymbolTableRecord
100
AcDbLinetypeTableRecord
  2
ACJISTGL
 70
     0
  3
_ _ _ _ _
 72
    65
 73
     2
 40
3.0
 49
2.0
 74
     0
 49
-1.0
 74
     0
  0
LTYPE
  5
26A
330
5
100
AcDbSymbolTableRecord
100
AcDbLinetypeTableRecord
  2
ACJISTGB
 70
     0
  3
__ . . __ . .
 72
    65
 73
     6
 40
9.0
 49
4.0
 74
     0
 49
-1.0
 74
     0
 49
1.0
 74
     0
 49
-1.0
 74
     0
 49
1.0
 74
     0
 49
-1.0
 74
     0
  0
ENDTAB
  0
TABLE
  2
LAYER
  5
2
330
0
100
AcDbSymbolTable
 70
     7
  0
LAYER
  5
10
330
2
100
AcDbSymbolTableRecord
100
AcDbLayerTableRecord
  2
0
 70
     0
 62
     7
  6
CONTINUOUS
  0
LAYER
  5
3F9
330
2
100
AcDbSymbolTableRecord
100
AcDbLayerTableRecord
  2
AM_0
 70
     0
 62
     7
  6
CONTINUOUS
  0
LAYER
  5
C7C
330
2
100
AcDbSymbolTableRecord
100
AcDbLayerTableRecord
  2
AM_7
 70
     0
 62
     4
  6
AM_ISO08W050
  0
LAYER
  5
C97
330
2
100
AcDbSymbolTableRecord
100
AcDbLayerTableRecord
  2
AM_11
 70
     0
 62
     3
  6
AM_ISO09W050
  0
LAYER
  5
CC5
330
2
100
AcDbSymbolTableRecord
100
AcDbLayerTableRecord
  2
AM_5
 70
     0
 62
     3
  6
CONTINUOUS
  0
LAYER
  5
CC7
330
2
100
AcDbSymbolTableRecord
100
AcDbLayerTableRecord
  2
DEFPOINTS
 70
     0
 62
     7
  6
CONTINUOUS
  0
LAYER
  5
19BC
330
2
100
AcDbSymbolTableRecord
100
AcDbLayerTableRecord
  2
AM_6
 70
     0
 62
     2
  6
CONTINUOUS
  0
ENDTAB
  0
TABLE
  2
STYLE
  5
3
330
0
100
AcDbSymbolTable
 70
     5
  0
STYLE
  5
11
330
3
100
AcDbSymbolTableRecord
100
AcDbTextStyleTableRecord
  2
STANDARD
 70
     0
 40
0.0
 41
1.0
 50
0.0
 71
     0
 42
2.5
  3
simplex.shx
  4
EXTFONT.SHX
  0
STYLE
  5
52
330
3
100
AcDbSymbolTableRecord
100
AcDbTextStyleTableRecord
  2

 70
     1
 40
0.0
 41
1.0
 50
0.0
 71
     0
 42
2.5
  3
ltypeshp.shx
  4

  0
STYLE
  5
6B
330
3
100
AcDbSymbolTableRecord
100
AcDbTextStyleTableRecord
  2
ASAMI
 70
     0
 40
0.0
 41
1.0
 50
0.0
 71
     0
 42
2.5
  3
simplex.shx
  4
EXTFONT.SHX
  0
STYLE
  5
262
330
3
100
AcDbSymbolTableRecord
100
AcDbTextStyleTableRecord
  2
ACJISTS
 70
     0
 40
1.0
 41
1.0
 50
0.0
 71
     0
 42
2.5
  3
simplex.shx
  4
bigfont.shx
  0
STYLE
  5
269
330
3
100
AcDbSymbolTableRecord
100
AcDbTextStyleTableRecord
  2
ACJISGDT
 70
     0
 40
0.0
 41
1.0
 50
0.0
 71
     0
 42
2.5
  3
amgdtans.shx
  4

  0
ENDTAB
  0
TABLE
  2
VIEW
  5
6
330
0
100
AcDbSymbolTable
 70
     0
  0
ENDTAB
  0
TABLE
  2
UCS
  5
7
330
0
100
AcDbSymbolTable
 70
     0
  0
ENDTAB
  0
TABLE
  2
APPID
  5
9
330
0
100
AcDbSymbolTable
 70
    16
  0
APPID
  5
12
330
9
100
AcDbSymbolTableRecord
100
AcDbRegAppTableRecord
  2
ACAD
 70
     0
  0
APPID
  5
30
330
9
100
AcDbSymbolTableRecord
100
AcDbRegAppTableRecord
  2
MCAD_NO_VIS
 70
     0
  0
APPID
  5
31
330
9
100
AcDbSymbolTableRecord
100
AcDbRegAppTableRecord
  2
ACAD_TEMP_GRAPHIC
 70
     0
  0
APPID
  5
2C2
330
9
100
AcDbSymbolTableRecord
100
AcDbRegAppTableRecord
  2
GENIUS_GENDTOL_13
 70
     0
  0
APPID
  5
339
330
9
100
AcDbSymbolTableRecord
100
AcDbRegAppTableRecord
  2
GENIUS_GENODEF_13
 70
     0
  0
APPID
  5
33A
330
9
100
AcDbSymbolTableRecord
100
AcDbRegAppTableRecord
  2
GENIUS_GENOBJ-N-RSBK_13
 70
     0
  0
APPID
  5
33B
330
9
100
AcDbSymbolTableRecord
100
AcDbRegAppTableRecord
  2
GENIUS_GENOBJ-N-LIB_13
 70
     0
  0
APPID
  5
33C
330
9
100
AcDbSymbolTableRecord
100
AcDbRegAppTableRecord
  2
GENIUS_GENSCALE_13
 70
     0
  0
APPID
  5
378
330
9
100
AcDbSymbolTableRecord
100
AcDbRegAppTableRecord
  2
GENIUS_GENDIMSH_14
 70
     0
  0
APPID
  5
C82
330
9
100
AcDbSymbolTableRecord
100
AcDbRegAppTableRecord
  2
GENIUS_GENOBJ-N-CRS_13
 70
     0
  0
APPID
  5
C83
330
9
100
AcDbSymbolTableRecord
100
AcDbRegAppTableRecord
  2
GENIUS_GENOENT_13
 70
     0
  0
APPID
  5
C84
330
9
100
AcDbSymbolTableRecord
100
AcDbRegAppTableRecord
  2
GENIUS_GENOREF_13
 70
     0
  0
APPID
  5
C85
330
9
100
AcDbSymbolTableRecord
100
AcDbRegAppTableRecord
  2
GENIUS_GENOLIS_13
 70
     0
  0
APPID
  5
CA0
330
9
100
AcDbSymbolTableRecord
100
AcDbRegAppTableRecord
  2
GENIUS_GENOBJ-N-CEN_13
 70
     0
  0
APPID
  5
2796
330
9
100
AcDbSymbolTableRecord
100
AcDbRegAppTableRecord
  2
GENIUS_GENFIL_13
 70
     0
  0
APPID
  5
2797
330
9
100
AcDbSymbolTableRecord
100
AcDbRegAppTableRecord
  2
GENIUS_GENOBJ-N-CHA_13
 70
     0
  0
ENDTAB
  0
TABLE
  2
DIMSTYLE
  5
A
330
0
100
AcDbSymbolTable
 70
     9
  0
DIMSTYLE
105
58
330
A
100
AcDbSymbolTableRecord
100
AcDbDimStyleTableRecord
  2
AM_JIS
 70
     0
  3

  4
"
  5
OPEN30
  6

  7

 40
0.5
 41
2.5
 42
1.0
 43
12.0
 44
1.0
 45
0.0
 46
0.0
 47
0.1
 48
0.1
140
3.2
141
0.0
142
0.0
143
0.0393701
144
1.0
145
0.0
146
0.71
147
1.5
 71
     0
 72
     0
 73
     0
 74
     0
 75
     0
 76
     0
 77
     3
 78
     8
170
     0
171
     2
172
     1
173
     0
174
     0
175
     0
176
   256
177
   256
178
     2
270
     2
271
     3
272
     3
273
     2
274
     2
340
6B
275
     0
280
     0
281
     0
282
     0
283
     0
284
     0
285
     0
286
     0
287
     3
288
     0
  0
DIMSTYLE
105
5F
330
A
100
AcDbSymbolTableRecord
100
AcDbDimStyleTableRecord
  2
AM_JIS$3
 70
     0
  3

  4
"
  5
OPEN30
  6

  7

 40
0.5
 41
2.5
 42
1.0
 43
10.0
 44
1.0
 45
0.0
 46
0.0
 47
0.1
 48
0.1
140
3.2
141
0.0
142
0.0
143
0.0393701
144
1.0
145
0.0
146
0.71
147
1.5
 71
     0
 72
     0
 73
     0
 74
     1
 75
     0
 76
     0
 77
     3
 78
     8
170
     0
171
     2
172
     0
173
     0
174
     0
175
     0
176
   256
177
   256
178
     2
270
     2
271
     2
272
     3
273
     2
274
     2
340
6B
275
     0
280
     0
281
     0
282
     0
283
     0
284
     0
285
     0
286
     0
287
     0
288
     1
  0
DIMSTYLE
105
60
330
A
100
AcDbSymbolTableRecord
100
AcDbDimStyleTableRecord
  2
AM_JIS$4
 70
     0
  3

  4
"
  5
OPEN30
  6

  7

 40
0.5
 41
2.5
 42
1.0
 43
10.0
 44
1.0
 45
0.0
 46
0.0
 47
0.1
 48
0.1
140
3.2
141
0.0
142
0.0
143
0.0393701
144
1.0
145
0.0
146
0.71
147
1.5
 71
     0
 72
     0
 73
     0
 74
     1
 75
     0
 76
     0
 77
     3
 78
     8
170
     0
171
     2
172
     0
173
     0
174
     0
175
     0
176
   256
177
   256
178
     2
270
     2
271
     2
272
     3
273
     2
274
     2
340
6B
275
     0
280
     0
281
     0
282
     0
283
     0
284
     0
285
     0
286
     0
287
     0
288
     1
  0
DIMSTYLE
105
61
330
A
100
AcDbSymbolTableRecord
100
AcDbDimStyleTableRecord
  2
AM_JIS$6
 70
     0
  3

  4
"
  5
OPEN30
  6

  7

 40
0.5
 41
2.5
 42
1.0
 43
10.0
 44
1.0
 45
0.0
 46
0.0
 47
0.1
 48
0.1
140
3.2
141
0.0
142
0.0
143
0.0393701
144
1.0
145
0.0
146
0.71
147
1.5
 71
     0
 72
     0
 73
     0
 74
     0
 75
     0
 76
     0
 77
     0
 78
     8
170
     0
171
     2
172
     1
173
     0
174
     0
175
     0
176
   256
177
   256
178
     2
270
     2
271
     2
272
     2
273
     2
274
     2
340
6B
275
     0
280
     0
281
     0
282
     0
283
     0
284
     0
285
     0
286
     0
287
     3
288
     0
  0
DIMSTYLE
105
62
330
A
100
AcDbSymbolTableRecord
100
AcDbDimStyleTableRecord
  2
AM_JIS$7
 70
     0
  3

  4
"
  5
OPEN30
  6

  7

 40
0.5
 41
2.5
 42
1.0
 43
10.0
 44
1.0
 45
0.0
 46
0.0
 47
0.1
 48
0.1
140
3.2
141
0.0
142
0.0
143
0.0393701
144
1.0
145
0.0
146
0.71
147
1.5
 71
     0
 72
     0
 73
     0
 74
     0
 75
     0
 76
     0
 77
     3
 78
     8
170
     0
171
     2
172
     1
173
     0
174
     0
175
     0
176
   256
177
   256
178
     2
270
     2
271
     2
272
     3
273
     2
274
     2
340
6B
275
     0
280
     0
281
     0
282
     0
283
     0
284
     0
285
     0
286
     0
287
     3
288
     0
  0
DIMSTYLE
105
63
330
A
100
AcDbSymbolTableRecord
100
AcDbDimStyleTableRecord
  2
AM_JIS$SF
 70
     0
  3

  4
"
  5
OPEN30
  6

  7

 40
0.5
 41
2.5
 42
1.0
 43
10.0
 44
1.0
 45
0.0
 46
0.0
 47
0.1
 48
0.1
140
3.2
141
0.0
142
0.0
143
0.0393701
144
1.0
145
0.0
146
0.71
147
1.5
 71
     0
 72
     0
 73
     0
 74
     0
 75
     1
 76
     1
 77
     3
 78
     8
170
     0
171
     2
172
     1
173
     0
174
     0
175
     0
176
   256
177
   256
178
     2
270
     2
271
     2
272
     2
273
     2
274
     2
340
6B
275
     0
280
     0
281
     0
282
     0
283
     0
284
     0
285
     0
286
     0
287
     3
288
     0
  0
DIMSTYLE
105
68
330
A
100
AcDbSymbolTableRecord
100
AcDbDimStyleTableRecord
  2
AM_JIS$SH
 70
     0
  3

  4
"
  5

  6
GENAXEH
  7
OPEN30
 40
0.5
 41
2.5
 42
1.0
 43
10.0
 44
1.0
 45
0.0
 46
0.0
 47
0.1
 48
0.1
140
3.2
141
0.0
142
0.0
143
0.0393701
144
2.0
145
0.0
146
0.71
147
1.5
 71
     0
 72
     0
 73
     0
 74
     0
 75
     1
 76
     1
 77
     3
 78
     8
170
     0
171
     2
172
     1
173
     1
174
     0
175
     0
176
   256
177
   256
178
     2
270
     2
271
     2
272
     2
273
     2
274
     2
340
6B
275
     0
280
     0
281
     0
282
     0
283
     0
284
     0
285
     0
286
     0
287
     3
288
     0
  0
DIMSTYLE
105
B34
102
{ACAD_REACTORS
330
39C8
102
}
330
A
100
AcDbSymbolTableRecord
100
AcDbDimStyleTableRecord
  2
AM_JIS$2
 70
     0
  3

  4
"
  5
OPEN30
  6

  7

 40
0.5
 41
2.5
 42
1.0
 43
12.0
 44
1.0
 45
0.0
 46
0.0
 47
0.1
 48
0.1
140
3.2
141
0.0
142
0.0
143
0.0393701
144
1.0
145
0.0
146
0.71
147
1.5
 71
     0
 72
     0
 73
     0
 74
     0
 75
     0
 76
     0
 77
     3
 78
     8
170
     0
171
     2
172
     1
173
     0
174
     0
175
     0
176
   256
177
   256
178
     2
270
     2
271
     3
272
     3
273
     2
274
     2
340
6B
275
     0
280
     0
281
     0
282
     0
283
     0
284
     0
285
     0
286
     0
287
     3
288
     0
  0
DIMSTYLE
105
BA5
102
{ACAD_REACTORS
330
CC6
330
2069
330
2D60
330
324F
102
}
330
A
100
AcDbSymbolTableRecord
100
AcDbDimStyleTableRecord
  2
AM_JIS$0
 70
     0
  3

  4
"
  5
OPEN30
  6

  7

 40
0.5
 41
2.5
 42
0.0
 43
10.0
 44
1.0
 45
0.0
 46
0.0
 47
0.1
 48
0.1000000001
140
3.799999999999999
141
0.0
142
0.0
143
0.0393701
144
1.0
145
0.0
146
0.71
147
1.5
 71
     0
 72
     0
 73
     0
 74
     0
 75
     0
 76
     0
 77
     3
 78
     1
170
     0
171
     2
172
     1
173
     0
174
     0
175
     0
176
     3
177
     3
178
     2
270
     2
271
     2
272
     2
273
     2
274
     2
340
11
275
     1
280
     0
281
     0
282
     0
283
     0
284
     8
285
     0
286
     0
287
     0
288
     0
  0
ENDTAB
  0
TABLE
  2
BLOCK_RECORD
  5
1
330
0
100
AcDbSymbolTable
 70
    10
  0
BLOCK_RECORD
  5
1F
102
{ACAD_XDICTIONARY
360
74
102
}
330
1
100
AcDbSymbolTableRecord
100
AcDbBlockTableRecord
  2
*MODEL_SPACE
  0
BLOCK_RECORD
  5
101
102
{ACAD_XDICTIONARY
360
403C
102
}
330
1
100
AcDbSymbolTableRecord
100
AcDbBlockTableRecord
  2
*PAPER_SPACE
  0
BLOCK_RECORD
  5
59
330
1
100
AcDbSymbolTableRecord
100
AcDbBlockTableRecord
  2
_OPEN30
  0
BLOCK_RECORD
  5
64
330
1
100
AcDbSymbolTableRecord
100
AcDbBlockTableRecord
  2
GENAXEH
  0
BLOCK_RECORD
  5
CC8
330
1
100
AcDbSymbolTableRecord
100
AcDbBlockTableRecord
  2
*D5
  0
BLOCK_RECORD
  5
206A
330
1
100
AcDbSymbolTableRecord
100
AcDbBlockTableRecord
  2
*D6
  0
BLOCK_RECORD
  5
2D61
330
1
100
AcDbSymbolTableRecord
100
AcDbBlockTableRecord
  2
*D7
  0
BLOCK_RECORD
  5
3250
330
1
100
AcDbSymbolTableRecord
100
AcDbBlockTableRecord
  2
*D8
  0
BLOCK_RECORD
  5
39C9
330
1
100
AcDbSymbolTableRecord
100
AcDbBlockTableRecord
  2
*D9
  0
ENDTAB
  0
ENDSEC
  0
SECTION
  2
BLOCKS
  0
BLOCK
  5
20
330
1F
100
AcDbEntity
  8
0
100
AcDbBlockBegin
  2
*MODEL_SPACE
 70
     0
 10
0.0
 20
0.0
 30
0.0
  3
*MODEL_SPACE
  1

  0
ENDBLK
  5
21
330
1F
100
AcDbEntity
  8
0
100
AcDbBlockEnd
  0
BLOCK
  5
103
330
101
100
AcDbEntity
 67
     1
  8
0
100
AcDbBlockBegin
  2
*PAPER_SPACE
 70
     0
 10
0.0
 20
0.0
 30
0.0
  3
*PAPER_SPACE
  1

  0
ENDBLK
  5
104
330
101
100
AcDbEntity
 67
     1
  8
0
100
AcDbBlockEnd
  0
BLOCK
  5
5D
330
59
100
AcDbEntity
  8
0
100
AcDbBlockBegin
  2
_OPEN30
 70
     0
 10
0.0
 20
0.0
 30
0.0
  3
_OPEN30
  1

  0
LINE
  5
5A
330
59
100
AcDbEntity
  8
0
 62
     0
100
AcDbLine
 10
-1.0
 20
0.26794919
 30
0.0
 11
0.0
 21
0.0
 31
0.0
  0
LINE
  5
5B
330
59
100
AcDbEntity
  8
0
 62
     0
100
AcDbLine
 10
0.0
 20
0.0
 30
0.0
 11
-1.0
 21
-0.26794919
 31
0.0
  0
LINE
  5
5C
330
59
100
AcDbEntity
  8
0
 62
     0
100
AcDbLine
 10
0.0
 20
0.0
 30
0.0
 11
-1.0
 21
0.0
 31
0.0
  0
ENDBLK
  5
5E
330
59
100
AcDbEntity
  8
0
100
AcDbBlockEnd
  0
BLOCK
  5
66
330
64
100
AcDbEntity
  8
0
100
AcDbBlockBegin
  2
GENAXEH
 70
     0
 10
0.0
 20
0.0
 30
0.0
  3
GENAXEH
  1

  0
LINE
  5
65
330
64
100
AcDbEntity
  8
0
100
AcDbLine
 10
-1.0
 20
0.0
 30
0.0
 11
1.0
 21
0.0
 31
0.0
  0
ENDBLK
  5
67
330
64
100
AcDbEntity
  8
0
100
AcDbBlockEnd
  0
BLOCK
  5
CD2
330
CC8
100
AcDbEntity
  8
0
100
AcDbBlockBegin
  2
*D5
 70
     1
 10
0.0
 20
0.0
 30
0.0
  3
*D5
  1

  0
LINE
  5
3FC1
330
CC8
100
AcDbEntity
  8
AM_5
 62
     3
100
AcDbLine
 10
-137.0
 20
-6.24999999999957
 30
0.0
 11
-137.0
 21
-19.50000099999972
 31
0.0
  0
LINE
  5
3FC2
330
CC8
100
AcDbEntity
  8
AM_5
 62
     3
100
AcDbLine
 10
-3.000000000000096
 20
-6.950000000000385
 30
0.0
 11
-3.000000000000097
 21
-19.50000099999972
 31
0.0
  0
LINE
  5
3FC3
330
CC8
100
AcDbEntity
  8
AM_5
 62
     3
100
AcDbLine
 10
-135.75
 20
-19.00000099999972
 30
0.0
 11
-4.250000000000097
 21
-19.00000099999972
 31
0.0
  0
INSERT
  5
3FC4
330
CC8
100
AcDbEntity
  8
AM_5
 62
     3
100
AcDbBlockReference
  2
_OPEN30
 10
-137.0
 20
-19.00000099999972
 30
0.0
 41
1.25
 42
1.25
 43
1.25
 50
180.0
  0
INSERT
  5
3FC5
330
CC8
100
AcDbEntity
  8
AM_5
 62
     3
100
AcDbBlockReference
  2
_OPEN30
 10
-3.000000000000097
 20
-19.00000099999972
 30
0.0
 41
1.25
 42
1.25
 43
1.25
  0
MTEXT
  5
3FC6
330
CC8
100
AcDbEntity
  8
AM_5
 62
     2
100
AcDbMText
 10
-70.00000000000008
 20
-17.30000099999972
 30
0.0
 40
1.9
 41
0.0
 71
     5
 72
     1
  1
134
1001
ACAD
1000
MTEXTBEGIN
1070
    73
1070
     1
1070
    44
1040
1.0
1070
    74
1070
     0
1000
MTEXTEND
  0
POINT
  5
3FC7
330
CC8
100
AcDbEntity
  8
DEFPOINTS
 62
     0
100
AcDbPoint
 10
-137.0
 20
-6.24999999999957
 30
0.0
  0
POINT
  5
3FC8
330
CC8
100
AcDbEntity
  8
DEFPOINTS
 62
     0
100
AcDbPoint
 10
-3.000000000000096
 20
-6.950000000000385
 30
0.0
  0
POINT
  5
3FC9
330
CC8
100
AcDbEntity
  8
DEFPOINTS
 62
     0
100
AcDbPoint
 10
-3.000000000000097
 20
-19.00000099999972
 30
0.0
  0
ENDBLK
  5
CD3
330
CC8
100
AcDbEntity
  8
0
100
AcDbBlockEnd
  0
BLOCK
  5
2074
330
206A
100
AcDbEntity
  8
0
100
AcDbBlockBegin
  2
*D6
 70
     1
 10
0.0
 20
0.0
 30
0.0
  3
*D6
  1

  0
LINE
  5
3FDE
330
206A
100
AcDbEntity
  8
AM_5
 62
     3
100
AcDbLine
 10
-72.9999999999996
 20
-6.999999999999827
 30
0.0
 11
-72.99999999999958
 21
-14.50000099999984
 31
0.0
  0
LINE
  5
3FDF
330
206A
100
AcDbEntity
  8
AM_5
 62
     3
100
AcDbLine
 10
-3.000000000000076
 20
-6.950000000000394
 30
0.0
 11
-3.000000000000055
 21
-14.50000099999964
 31
0.0
  0
LINE
  5
3FE0
330
206A
100
AcDbEntity
  8
AM_5
 62
     3
100
AcDbLine
 10
-71.74999999999958
 20
-14.00000099999984
 30
0.0
 11
-4.250000000000056
 21
-14.00000099999964
 31
0.0
  0
INSERT
  5
3FE1
330
206A
100
AcDbEntity
  8
AM_5
 62
     3
100
AcDbBlockReference
  2
_OPEN30
 10
-72.99999999999958
 20
-14.00000099999984
 30
0.0
 41
1.25
 42
1.25
 43
1.25
 50
180.0000000000001
  0
INSERT
  5
3FE2
330
206A
100
AcDbEntity
  8
AM_5
 62
     3
100
AcDbBlockReference
  2
_OPEN30
 10
-3.000000000000056
 20
-14.00000099999964
 30
0.0
 41
1.25
 42
1.25
 43
1.25
 50
0.0000000000001527
  0
MTEXT
  5
3FE3
330
206A
100
AcDbEntity
  8
AM_5
 62
     2
100
AcDbMText
 10
-37.99999999999982
 20
-12.30000099999974
 30
0.0
 40
1.9
 41
0.0
 71
     5
 72
     1
  1
70
1001
ACAD
1000
MTEXTBEGIN
1070
    73
1070
     1
1070
    44
1040
1.0
1070
    74
1070
     0
1000
MTEXTEND
  0
POINT
  5
3FE4
330
206A
100
AcDbEntity
  8
DEFPOINTS
 62
     0
100
AcDbPoint
 10
-72.99999999999961
 20
-6.999999999999615
 30
0.0
  0
POINT
  5
3FE5
330
206A
100
AcDbEntity
  8
DEFPOINTS
 62
     0
100
AcDbPoint
 10
-3.000000000000096
 20
-6.950000000000385
 30
0.0
  0
POINT
  5
3FE6
330
206A
100
AcDbEntity
  8
DEFPOINTS
 62
     0
100
AcDbPoint
 10
-3.000000000000097
 20
-14.00000099999963
 30
0.0
  0
ENDBLK
  5
2075
330
206A
100
AcDbEntity
  8
0
100
AcDbBlockEnd
  0
BLOCK
  5
2D6B
330
2D61
100
AcDbEntity
  8
0
100
AcDbBlockBegin
  2
*D7
 70
     1
 10
0.0
 20
0.0
 30
0.0
  3
*D7
  1

  0
LINE
  5
3FE7
330
2D61
100
AcDbEntity
  8
AM_5
 62
     3
100
AcDbLine
 10
-2.99999999999992
 20
6.949999999999843
 30
0.0
 11
8.819925426555622
 21
6.949958510220485
 31
0.0
  0
LINE
  5
3FE8
330
2D61
100
AcDbEntity
  8
AM_5
 62
     3
100
AcDbLine
 10
-3.00000000000018
 20
-6.950000000000541
 30
0.0
 11
8.819876635390516
 21
-6.950041489608634
 31
0.0
  0
LINE
  5
3FE9
330
2D61
100
AcDbEntity
  8
AM_5
 62
     3
100
AcDbLine
 10
8.319921038864002
 20
5.699960265306068
 30
0.0
 11
8.319881023088301
 21
-5.700039734538452
 31
0.0
  0
INSERT
  5
3FEA
330
2D61
100
AcDbEntity
  8
AM_5
 62
     3
100
AcDbBlockReference
  2
_OPEN30
 10
8.319925426558706
 20
6.949960265298368
 30
0.0
 41
1.25
 42
1.25
 43
1.25
 50
89.99979888288931
  0
INSERT
  5
3FEB
330
2D61
100
AcDbEntity
  8
AM_5
 62
     3
100
AcDbBlockReference
  2
_OPEN30
 10
8.319876635393598
 20
-6.950039734530752
 30
0.0
 41
1.25
 42
1.25
 43
1.25
 50
269.9997988828893
  0
MTEXT
  5
3FEC
330
2D61
100
AcDbEntity
  8
AM_5
 62
     2
100
AcDbMText
 10
6.619901030986624
 20
-0.000033767351395
 30
0.0
 40
1.9
 41
0.0
 71
     5
 72
     1
  1
%%c13.9
 11
0.0000035101557632
 21
0.9999999999938395
 31
0.0
1001
ACAD
1000
MTEXTBEGIN
1070
    73
1070
     1
1070
    44
1040
1.0
1070
    74
1070
     0
1000
MTEXTEND
  0
POINT
  5
3FED
330
2D61
100
AcDbEntity
  8
DEFPOINTS
 62
     0
100
AcDbPoint
 10
-2.9999999999999
 20
6.949999999999852
 30
0.0
  0
POINT
  5
3FEE
330
2D61
100
AcDbEntity
  8
DEFPOINTS
 62
     0
100
AcDbPoint
 10
-3.000000000000201
 20
-6.950000000000533
 30
0.0
  0
POINT
  5
3FEF
330
2D61
100
AcDbEntity
  8
DEFPOINTS
 62
     0
100
AcDbPoint
 10
8.319876635393578
 20
-6.950039734530776
 30
0.0
  0
ENDBLK
  5
2D6C
330
2D61
100
AcDbEntity
  8
0
100
AcDbBlockEnd
  0
BLOCK
  5
325A
330
3250
100
AcDbEntity
  8
0
100
AcDbBlockBegin
  2
*D8
 70
     1
 10
0.0
 20
0.0
 30
0.0
  3
*D8
  1

  0
LINE
  5
3FCA
330
3250
100
AcDbEntity
  8
AM_5
 62
     3
100
AcDbLine
 10
-136.2499999999994
 20
-7.000000000000834
 30
0.0
 11
-147.000001
 21
-7.000000000000881
 31
0.0
  0
LINE
  5
3FCB
330
3250
100
AcDbEntity
  8
AM_5
 62
     3
100
AcDbLine
 10
-136.25
 20
6.999999999999792
 30
0.0
 11
-147.0000010000001
 21
6.999999999999745
 31
0.0
  0
LINE
  5
3FCC
330
3250
100
AcDbEntity
  8
AM_5
 62
     3
100
AcDbLine
 10
-146.500001
 20
-5.75000000000088
 30
0.0
 11
-146.5000010000001
 21
5.749999999999746
 31
0.0
  0
INSERT
  5
3FCD
330
3250
100
AcDbEntity
  8
AM_5
 62
     3
100
AcDbBlockReference
  2
_OPEN30
 10
-146.500001
 20
-7.00000000000088
 30
0.0
 41
1.25
 42
1.25
 43
1.25
 50
270.0000000000002
  0
INSERT
  5
3FCE
330
3250
100
AcDbEntity
  8
AM_5
 62
     3
100
AcDbBlockReference
  2
_OPEN30
 10
-146.5000010000001
 20
6.999999999999746
 30
0.0
 41
1.25
 42
1.25
 43
1.25
 50
90.00000000000026
  0
MTEXT
  5
3FCF
330
3250
100
AcDbEntity
  8
AM_5
 62
     2
100
AcDbMText
 10
-148.2000010000001
 20
0.000012900065686
 30
0.0
 40
1.9
 41
0.0
 71
     5
 72
     1
  1
%%c14
 11
-0.0000000000000046
 21
1.0
 31
0.0
1001
ACAD
1000
MTEXTBEGIN
1070
    73
1070
     1
1070
    44
1040
1.0
1070
    74
1070
     0
1000
MTEXTEND
  0
POINT
  5
3FD0
330
3250
100
AcDbEntity
  8
DEFPOINTS
 62
     0
100
AcDbPoint
 10
-136.2499999999994
 20
-7.000000000000199
 30
0.0
  0
POINT
  5
3FD1
330
3250
100
AcDbEntity
  8
DEFPOINTS
 62
     0
100
AcDbPoint
 10
-136.25
 20
7.000000000000427
 30
0.0
  0
POINT
  5
3FD2
330
3250
100
AcDbEntity
  8
DEFPOINTS
 62
     0
100
AcDbPoint
 10
-146.5000010000001
 20
7.00000000000043
 30
0.0
  0
ENDBLK
  5
325B
330
3250
100
AcDbEntity
  8
0
100
AcDbBlockEnd
  0
BLOCK
  5
39D7
330
39C9
100
AcDbEntity
  8
0
100
AcDbBlockBegin
  2
*D9
 70
     1
 10
0.0
 20
0.0
 30
0.0
  3
*D9
  1

  0
LINE
  5
403E
330
39C9
100
AcDbEntity
  8
AM_5
100
AcDbLine
 10
0.1710100704080031
 20
-0.4698463108498469
 30
0.0
 11
4.971683767991204
 21
-13.65958900272818
 31
0.0
  0
LINE
  5
403F
330
39C9
100
AcDbEntity
  8
AM_5
100
AcDbLine
 10
0.1710111111829169
 20
0.4698459320370804
 30
0.0
 11
4.9717140258803
 21
13.65957798971896
 31
0.0
  0
ARC
  5
4040
330
39C9
100
AcDbEntity
  8
AM_5
100
AcDbCircle
 10
-0.0000000000000683
 20
-0.0000000000001875
 30
0.0
 40
14.03623098373011
100
AcDbArc
 50
295.1041772050756
 51
64.89569587675413
  0
INSERT
  5
4041
330
39C9
100
AcDbEntity
  8
AM_5
100
AcDbBlockReference
  2
_OPEN30
 10
4.800673697583135
 20
-13.18974269187853
 30
0.0
 41
1.25
 42
1.25
 43
1.25
 50
202.552088526031
  0
INSERT
  5
4042
330
39C9
100
AcDbEntity
  8
AM_5
100
AcDbBlockReference
  2
_OPEN30
 10
4.800702914697319
 20
13.1897320576817
 30
0.0
 41
1.25
 42
1.25
 43
1.25
 50
157.4477845557987
  0
MTEXT
  5
4043
330
39C9
100
AcDbEntity
  8
AM_5
 62
     2
100
AcDbMText
 10
12.48623098372239
 20
-0.0000138293747353
 30
0.0
 40
1.6
 41
0.0
 71
     5
 72
     1
  1
140°
  7
ASAMI
 11
0.0000011075699751
 21
0.9999999999993868
 31
0.0
  0
POINT
  5
4044
330
39C9
100
AcDbEntity
  8
DEFPOINTS
 62
     0
100
AcDbPoint
 10
12.88828925920111
 20
-5.559476612037048
 30
0.0
  0
POINT
  5
4045
330
39C9
100
AcDbEntity
  8
DEFPOINTS
 62
     0
100
AcDbPoint
 10
-0.0000000000000655
 20
-0.0000000000001797
 30
0.0
  0
POINT
  5
4046
330
39C9
100
AcDbEntity
  8
DEFPOINTS
 62
     0
100
AcDbPoint
 10
-0.0000000000000655
 20
-0.0000000000001952
 30
0.0
  0
POINT
  5
4047
330
39C9
100
AcDbEntity
  8
DEFPOINTS
 62
     0
100
AcDbPoint
 10
-0.8156548808969144
 20
2.240993385953164
 30
0.0
  0
POINT
  5
4048
330
39C9
100
AcDbEntity
  8
DEFPOINTS
 62
     0
100
AcDbPoint
 10
-0.8156711850108665
 20
-2.241022735343177
 30
0.0
  0
ENDBLK
  5
39D8
330
39C9
100
AcDbEntity
  8
0
100
AcDbBlockEnd
  0
ENDSEC
  0
SECTION
  2
ENTITIES
  0
LINE
  5
C1D
330
1F
100
AcDbEntity
  8
AM_0
 48
0.5
100
AcDbLine
 10
-0.0000000000000655
 20
-0.0000000000001952
 30
0.0
 11
-0.8156548808969144
 21
2.240993385953164
 31
0.0
  0
LINE
  5
C20
330
1F
100
AcDbEntity
  8
AM_0
 48
0.5
100
AcDbLine
 10
-0.0000000000000655
 20
-0.0000000000001797
 30
0.0
 11
-0.8156711850108663
 21
-2.241022735343177
 31
0.0
  0
DIMENSION
  5
CC6
330
1F
100
AcDbEntity
  8
AM_5
100
AcDbDimension
  2
*D5
 10
-3.000000000000097
 20
-19.00000099999972
 30
0.0
 11
-70.00000000000008
 21
-17.30000099999972
 31
0.0
 70
    32
  1
<>
  3
AM_JIS$0
100
AcDbAlignedDimension
 13
-137.0
 23
-6.24999999999957
 33
0.0
 14
-3.000000000000096
 24
-6.950000000000385
 34
0.0
 50
0.0000000000001132
100
AcDbRotatedDimension
1001
GENIUS_GENDTOL_13
1000

1000
h7
1000

1040
0.0
1001
ACAD
1000
DSTYLE
1002
{
1070
   271
1070
     0
1002
}
  0
TEXT
  5
19BD
330
1F
100
AcDbEntity
  8
AM_6
100
AcDbText
 10
-81.01190476190476
 20
-30.25000099999974
 30
0.0
 40
2.5
  1
MDW139MHK
 50
0.0000000000001527
 72
     4
 11
-70.0
 21
-29.00000099999972
 31
0.0
100
AcDbText
  0
DIMENSION
  5
2069
330
1F
100
AcDbEntity
  8
AM_5
100
AcDbDimension
  2
*D6
 10
-3.000000000000097
 20
-14.00000099999963
 30
0.0
 11
-37.99999999999986
 21
-12.30000099999963
 31
0.0
 70
    32
  1
<>
 51
359.9999999999998
  3
AM_JIS$0
100
AcDbAlignedDimension
 13
-72.99999999999961
 23
-6.999999999999615
 33
0.0
 14
-3.000000000000096
 24
-6.950000000000385
 34
0.0
 50
0.0000000000001527
100
AcDbRotatedDimension
1001
ACAD
1000
DSTYLE
1002
{
1070
   271
1070
     0
1070
   174
1070
     1
1002
}
1001
GENIUS_GENDTOL_13
1000

1000
h7
1000

1040
0.0
  0
LINE
  5
23EF
330
1F
100
AcDbEntity
  8
AM_7
100
AcDbLine
 10
-139.5
 20
0.0000000000004481
 30
0.0
 11
1.319900031072483
 21
-0.0000000000001832
 31
0.0
1001
GENIUS_GENODEF_13
1002
{
1000
HIER
1070
     0
1002
}
1002
{
1000
MANEDIT
1070
     0
1002
}
1002
{
1000
NOSEL
1070
     0
1002
}
1002
{
1000
BEHIND
1070
     0
1002
}
1002
{
1000
REACTOR
1002
}
1001
GENIUS_GENOBJ-N-CEN_13
1002
{
1000
OWNER
1000
GEN
1002
}
  0
LINE
  5
24A7
330
1F
100
AcDbEntity
  8
AM_0
 48
0.5
100
AcDbLine
 10
-2.035492642576057
 20
5.23813700325287
 30
0.0
 11
-2.9999999999999
 21
6.949999999999851
 31
0.0
  0
ELLIPSE
  5
24B7
330
1F
100
AcDbEntity
  8
AM_11
 48
0.5
100
AcDbEllipse
 10
-23.32861992899429
 20
25.57825854459637
 30
0.0
 11
-29.52377541859904
 21
0.0000000000002247
 31
0.0
210
0.0
220
0.0
230
1.0
 40
0.9578947368421056
 41
1.130070686340284
 42
2.011520147323574
  0
ELLIPSE
  5
24B8
330
1F
100
AcDbEntity
  8
AM_11
 48
0.5
100
AcDbEllipse
 10
-23.32861992899569
 20
-25.57823997715042
 30
0.0
 11
-29.523775418599
 21
0.0000000000001329
 31
0.0
210
0.0
220
0.0
230
1.0
 40
0.9578947368421054
 41
4.271664206181664
 42
5.153113667164971
  0
ELLIPSE
  5
24BE
330
1F
100
AcDbEntity
  8
AM_0
 48
0.5
100
AcDbEllipse
 10
6.427941069841702
 20
6.822151504816154
 30
0.0
 11
-4.125194819159457
 21
8.273242462115604
 31
0.0
210
0.0
220
0.0
230
1.0
 40
0.9264225005910461
 41
1.312765717361252
 42
1.664773036319176
  0
ELLIPSE
  5
24C7
330
1F
100
AcDbEntity
  8
AM_11
 48
0.5
100
AcDbEllipse
 10
-98.89680174716902
 20
25.5782585445983
 30
0.0
 11
-29.52377541859904
 21
0.0000000000006574
 31
0.0
210
0.0
220
0.0
230
1.0
 40
0.9578947368421056
 41
1.130070686340301
 42
2.011520147323591
  0
ELLIPSE
  5
24C8
330
1F
100
AcDbEntity
  8
AM_11
 48
0.5
100
AcDbEllipse
 10
-98.89680174717048
 20
-25.5782399771485
 30
0.0
 11
29.523775418599
 21
0.0000000000004935
 31
0.0
210
0.0
220
0.0
230
1.0
 40
0.957894736842107
 41
1.13007155259185
 42
2.011521013575156
  0
ELLIPSE
  5
24D4
330
1F
100
AcDbEntity
  8
AM_11
 48
0.5
100
AcDbEllipse
 10
-73.70740780777509
 20
25.57825854459768
 30
0.0
 11
-29.52377541859908
 21
0.0000000000001723
 31
0.0
210
0.0
220
0.0
230
1.0
 40
0.9578947368421049
 41
1.130070686340283
 42
2.011520147323574
  0
ELLIPSE
  5
24D5
330
1F
100
AcDbEntity
  8
AM_11
 48
0.5
100
AcDbEllipse
 10
-73.70740780777651
 20
-25.57823997714911
 30
0.0
 11
-29.52377541859895
 21
0.0000000000005328
 31
0.0
210
0.0
220
0.0
230
1.0
 40
0.9578947368421083
 41
4.271664206181676
 42
5.153113667164986
  0
ELLIPSE
  5
24E6
330
1F
100
AcDbEntity
  8
AM_11
 48
0.5
100
AcDbEllipse
 10
-48.51801386838963
 20
-25.57823997714979
 30
0.0
 11
-29.52377541859899
 21
0.0000000000008016
 31
0.0
210
0.0
220
0.0
230
1.0
 40
0.957894736842106
 41
4.271664206181685
 42
5.153113667164993
  0
ELLIPSE
  5
24E7
330
1F
100
AcDbEntity
  8
AM_11
 48
0.5
100
AcDbEllipse
 10
-48.51801386838822
 20
25.57825854459702
 30
0.0
 11
29.52377541859905
 21
0.0000000000000477
 31
0.0
210
0.0
220
0.0
230
1.0
 40
0.9578947368421053
 41
4.271663339930067
 42
5.153112800913361
  0
ELLIPSE
  5
2BF3
330
1F
100
AcDbEntity
  8
AM_11
 48
0.5
100
AcDbEllipse
 10
-124.0861956865525
 20
25.57825854459752
 30
0.0
 11
-29.52377541859908
 21
0.0000000000001723
 31
0.0
210
0.0
220
0.0
230
1.0
 40
0.9578947368421049
 41
1.130070686340283
 42
2.011520147323574
  0
ELLIPSE
  5
2BF5
330
1F
100
AcDbEntity
  8
AM_11
 48
0.5
100
AcDbEllipse
 10
-124.086195686554
 20
-25.57823997714928
 30
0.0
 11
-29.52377541859895
 21
0.0000000000005328
 31
0.0
210
0.0
220
0.0
230
1.0
 40
0.9578947368421083
 41
4.271664206181676
 42
5.153113667164986
  0
LINE
  5
2C0E
330
1F
100
AcDbEntity
  8
AM_0
 48
0.5
100
AcDbLine
 10
-73.0
 20
-6.999999999999615
 30
0.0
 11
-73.0
 21
7.000000000000381
 31
0.0
  0
DIMENSION
  5
2D60
330
1F
100
AcDbEntity
  8
AM_5
100
AcDbDimension
  2
*D7
 10
8.319876635393578
 20
-6.950039734530776
 30
0.0
 11
6.619901030986624
 21
-0.0000337673514143
 31
0.0
 70
    32
  1
%%c<>
 51
359.9999999999998
  3
AM_JIS$0
100
AcDbAlignedDimension
 13
-2.9999999999999
 23
6.949999999999851
 33
0.0
 14
-3.0000000000002
 24
-6.950000000000532
 34
0.0
 50
89.99979888288933
100
AcDbRotatedDimension
1001
ACAD
1000
DSTYLE
1002
{
1070
   271
1070
     1
1002
}
1001
GENIUS_GENDTOL_13
1000

1000
h7
1000

1040
0.0
  0
LINE
  5
2FB7
330
1F
100
AcDbEntity
  8
AM_0
100
AcDbLine
 10
-73.0
 20
7.000000000000359
 30
0.0
 11
-72.91346178682302
 21
6.950037139327441
 31
0.0
  0
LINE
  5
2FB9
330
1F
100
AcDbEntity
  8
AM_0
100
AcDbLine
 10
-72.99999999999997
 20
-6.999999999999817
 30
0.0
 11
-72.91339706152069
 21
-6.949999770156205
 31
0.0
  0
LINE
  5
324C
330
1F
100
AcDbEntity
  8
AM_0
100
AcDbLine
 10
-136.25
 20
-6.999999999999571
 30
0.0
 11
-73.0
 21
-6.999999999999615
 31
0.0
  0
DIMENSION
  5
324F
330
1F
100
AcDbEntity
  8
AM_5
100
AcDbDimension
  2
*D8
 10
-146.5000010000001
 20
7.00000000000043
 30
0.0
 11
-146.5000010000001
 21
0.0000129000663802
 31
0.0
 70
   160
  1
%%c<>
 51
359.9999999999997
  3
AM_JIS$0
100
AcDbAlignedDimension
 13
-136.2499999999994
 23
-7.000000000000199
 33
0.0
 14
-136.25
 24
7.000000000000427
 34
0.0
 50
270.0
100
AcDbRotatedDimension
1001
ACAD
1000
DSTYLE
1002
{
1070
   271
1070
     0
1002
}
1001
GENIUS_GENDTOL_13
1000

1000
h7
1000

1040
0.0
  0
LINE
  5
325C
330
1F
100
AcDbEntity
  8
AM_0
 48
0.5
100
AcDbLine
 10
-136.25
 20
-6.999999999999571
 30
0.0
 11
-136.25
 21
7.000000000000427
 31
0.0
  0
LINE
  5
325D
330
1F
100
AcDbEntity
  8
AM_0
 48
0.5
100
AcDbLine
 10
-137.0
 20
-6.24999999999957
 30
0.0
 11
-137.0
 21
6.250000000000428
 31
0.0
  0
LINE
  5
325E
330
1F
100
AcDbEntity
  8
AM_0
100
AcDbLine
 10
-73.0
 20
7.000000000000381
 30
0.0
 11
-136.25
 21
7.000000000000427
 31
0.0
  0
ELLIPSE
  5
353A
330
1F
100
AcDbEntity
  8
AM_11
 48
0.5
100
AcDbEllipse
 10
-149.2755360592991
 20
-25.57823997714867
 30
0.0
 11
29.523775418599
 21
0.0000000000004935
 31
0.0
210
0.0
220
0.0
230
1.0
 40
0.957894736842107
 41
1.13007155259185
 42
1.141990804268679
  0
ELLIPSE
  5
353B
330
1F
100
AcDbEntity
  8
AM_11
 48
0.5
100
AcDbEllipse
 10
-149.2755360592977
 20
25.57825854459813
 30
0.0
 11
-29.52377541859904
 21
0.0000000000006574
 31
0.0
210
0.0
220
0.0
230
1.0
 40
0.9578947368421056
 41
1.999601849321064
 42
2.011520147323591
  0
LINE
  5
3921
330
1F
100
AcDbEntity
  8
AM_0
 48
0.5
100
AcDbLine
 10
-136.25
 20
7.000000000000427
 30
0.0
 11
-137.0
 21
6.250000000000428
 31
0.0
1001
GENIUS_GENFIL_13
1070
     0
1040
0.75
1040
0.75
1040
20.0
1040
0.0
1002
{
1002
}
1001
GENIUS_GENODEF_13
1002
{
1000
HIER
1070
     0
1002
}
1002
{
1000
MANEDIT
1070
     0
1002
}
1002
{
1000
NOSEL
1070
     0
1002
}
1002
{
1000
BEHIND
1070
     0
1002
}
1002
{
1000
REACTOR
1002
}
1001
GENIUS_GENOBJ-N-CHA_13
1002
{
1000
OWNER
1000
GEN
1002
}
  0
LINE
  5
3924
330
1F
100
AcDbEntity
  8
AM_0
100
AcDbLine
 10
-137.0
 20
-6.24999999999957
 30
0.0
 11
-136.25
 21
-6.999999999999571
 31
0.0
1001
GENIUS_GENFIL_13
1070
     0
1040
0.75
1040
0.75
1040
20.0
1040
0.0
1002
{
1002
}
1001
GENIUS_GENODEF_13
1002
{
1000
HIER
1070
     0
1002
}
1002
{
1000
MANEDIT
1070
     0
1002
}
1002
{
1000
NOSEL
1070
     0
1002
}
1002
{
1000
BEHIND
1070
     0
1002
}
1002
{
1000
REACTOR
1002
}
1001
GENIUS_GENOBJ-N-CHA_13
1002
{
1000
OWNER
1000
GEN
1002
}
  0
ELLIPSE
  5
3976
330
1F
100
AcDbEntity
  8
AM_0
 48
0.5
100
AcDbEllipse
 10
6.427941069842352
 20
-6.822151504816035
 30
0.0
 11
-4.125194819158669
 21
-8.273242462115996
 31
0.0
210
0.0
220
0.0
230
-1.0
 40
0.9264225005910461
 41
1.312765717361252
 42
1.664773036319176
  0
LINE
  5
3977
330
1F
100
AcDbEntity
  8
AM_0
 48
0.5
100
AcDbLine
 10
-2.035492642575558
 20
-5.238137003253557
 30
0.0
 11
-3.0000000000002
 21
-6.950000000000532
 31
0.0
  0
DIMENSION
  5
39C8
330
1F
100
AcDbEntity
  8
AM_5
100
AcDbDimension
  2
*D9
 10
-0.8156711850108663
 20
-2.241022735343177
 30
0.0
 11
12.48623098372239
 21
-0.0000138293747723
 31
0.0
 70
    34
  1
<>
 51
359.9999999999998
  3
AM_JIS$2
100
AcDb2LineAngularDimension
 13
-0.0000000000000655
 23
-0.0000000000001952
 33
0.0
 14
-0.8156548808969144
 24
2.240993385953164
 34
0.0
 15
-0.0000000000000655
 25
-0.0000000000001797
 35
0.0
 16
12.88828925920111
 26
-5.559476612037048
 36
0.0
1001
GENIUS_GENDTOL_13
1000

1000
h7
1000

1040
0.0
1001
ACAD
1000
DSTYLE
1002
{
1070
   271
1070
     1
1070
   179
1070
     1
1002
}
  0
ELLIPSE
  5
3D65
330
1F
100
AcDbEntity
  8
AM_11
 48
0.5
100
AcDbEllipse
 10
1.86077401039981
 20
25.96293718039545
 30
0.0
 11
-29.52377541860006
 21
0.0000000000180494
 31
0.0
210
0.0
220
0.0
230
1.0
 40
0.9723007856340966
 41
1.13007068634088
 42
1.291800737381565
  0
SPLINE
  5
3F45
330
1F
100
AcDbEntity
  8
AM_0
 48
0.5
100
AcDbSpline
210
0.0
220
0.0
230
1.0
 70
     8
 71
     3
 72
    26
 73
    22
 74
     0
 42
0.0000000001
 43
0.0000000001
 40
0.0
 40
0.0
 40
0.0
 40
0.0
 40
0.8422864037471089
 40
1.685694647057321
 40
2.531315797913884
 40
3.380177287502886
 40
4.233214169721234
 40
5.09125020057522
 40
5.954967768899448
 40
6.824900391836836
 40
7.701419186604396
 40
8.584724417931369
 40
9.47485577056355
 40
10.37165251267315
 40
11.27486274211709
 40
12.18400675634887
 40
13.09851504074504
 40
14.01768673654235
 40
14.94071745659532
 40
15.8667176994736
 40
16.58504726436246
 40
16.58504726436246
 40
16.58504726436246
 40
16.58504726436246
 10
-49.73435900326821
 20
-6.950353495278239
 30
0.0
 10
-50.12687864861574
 20
-6.946218413832458
 30
0.0
 10
-50.91244073543506
 20
-6.937942743434247
 30
0.0
 10
-52.09049798379485
 20
-6.871231543802235
 30
0.0
 10
-53.26850494875213
 20
-6.765178177943997
 30
0.0
 10
-54.44643899374911
 20
-6.616540298824415
 30
0.0
 10
-55.6242884262381
 20
-6.427332468373982
 30
0.0
 10
-56.80202977888928
 20
-6.198395182866662
 30
0.0
 10
-57.97966226820379
 20
-5.931275231431571
 30
0.0
 10
-59.15717786275392
 20
-5.627594966121367
 30
0.0
 10
-60.33457377877886
 20
-5.289238672242963
 30
0.0
 10
-61.51185970629094
 20
-4.918312307512898
 30
0.0
 10
-62.68903076700178
 20
-4.517106222671146
 30
0.0
 10
-63.86610029859095
 20
-4.088081515330699
 30
0.0
 10
-65.04308403928925
 20
-3.633926404874887
 30
0.0
 10
-66.21998453211664
 20
-3.157395913241052
 30
0.0
 10
-67.3968105502476
 20
-2.661450615294011
 30
0.0
 10
-68.57358370470743
 20
-2.149150386446796
 30
0.0
 10
-69.75028454801343
 20
-1.623580509489258
 30
0.0
 10
-70.83819008051313
 20
-1.128650081546127
 30
0.0
 10
-71.53343747263043
 20
-0.8083696939523827
 30
0.0
 10
-73.0
 20
-0.148284649515953
 30
0.0
  0
LINE
  5
3F46
330
1F
100
AcDbEntity
  8
AM_0
 48
0.5
100
AcDbLine
 10
-72.91339706152069
 20
-6.949999770156204
 30
0.0
 11
-70.58583774446191
 21
-6.949999911262485
 31
0.0
  0
ELLIPSE
  5
3F47
330
1F
100
AcDbEntity
  8
AM_0
 48
0.5
100
AcDbEllipse
 10
-70.67019212651205
 20
-4.633686828610582
 30
0.0
 11
-1.812535554740813
 21
1.536643792134684
 31
0.0
210
0.0
220
0.0
230
1.0
 40
0.9562910650896551
 41
0.7365747984440647
 42
2.2882050289566
  0
LINE
  5
3F48
330
1F
100
AcDbEntity
  8
AM_0
100
AcDbLine
 10
-72.91350085830075
 20
-5.172309390493309
 30
0.0
 11
-72.91350658797634
 21
-6.950002923521064
 31
0.0
  0
LINE
  5
3F49
330
1F
100
AcDbEntity
  8
AM_0
100
AcDbLine
 10
-72.9134847909088
 20
-0.1872280914707941
 30
0.0
 11
-72.91349728051148
 21
-4.062261752422888
 31
0.0
  0
ELLIPSE
  5
3F4A
330
1F
100
AcDbEntity
  8
AM_0
 48
0.5
100
AcDbEllipse
 10
-71.17692627981748
 20
-4.469398235617046
 30
0.0
 11
1.41766083747849
 21
1.246632927034221
 31
0.0
210
0.0
220
0.0
230
1.0
 40
0.9200826768380382
 41
0.6562670789076855
 42
2.484513261169501
  0
LINE
  5
3F4B
330
1F
100
AcDbEntity
  8
AM_0
100
AcDbLine
 10
-72.91346178681798
 20
6.950038708138092
 30
0.0
 11
-72.91348460328464
 21
-0.1290156783278301
 31
0.0
  0
LINE
  5
3F4C
330
1F
100
AcDbEntity
  8
AM_0
 48
0.5
100
AcDbLine
 10
-57.83199978713469
 20
3.229978297649941
 30
0.0
 11
-73.0
 21
-0.1482846495159346
 31
0.0
  0
LINE
  5
3F4D
330
1F
100
AcDbEntity
  8
AM_0
 48
0.5
100
AcDbLine
 10
-68.94189973754063
 20
6.950109086256152
 30
0.0
 11
-72.91346178682303
 21
6.950037139327448
 31
0.0
  0
LINE
  5
3F4E
330
1F
100
AcDbEntity
  8
AM_0
 48
0.5
100
AcDbLine
 10
-7.688035859564183
 20
6.950000000000115
 30
0.0
 11
-2.9999999999999
 21
6.949999999999851
 31
0.0
  0
LINE
  5
3F4F
330
1F
100
AcDbEntity
  8
AM_0
 48
0.5
100
AcDbLine
 10
-7.688035858001695
 20
-6.949999281372275
 30
0.0
 11
-3.000000000000196
 21
-6.950000000000536
 31
0.0
  0
LINE
  5
3F50
330
1F
100
AcDbEntity
  8
AM_0
 48
0.5
100
AcDbLine
 10
-0.0000000000000822
 20
-0.0000000000001519
 30
0.0
 11
-4.443180192990687
 21
2.668589611245876
 31
0.0
  0
LINE
  5
3F51
330
1F
100
AcDbEntity
  8
AM_0
 48
0.5
100
AcDbLine
 10
-53.66808207559805
 20
-6.949999281370188
 30
0.0
 11
-29.87960557730709
 21
-6.949999999999533
 31
0.0
  0
LINE
  5
3F52
330
1F
100
AcDbEntity
  8
AM_0
 48
0.5
100
AcDbLine
 10
-54.77993082335255
 20
6.950000718630143
 30
0.0
 11
-29.87960087363086
 21
6.95000000000125
 31
0.0
  0
LINE
  5
3F53
330
1F
100
AcDbEntity
  8
AM_11
 48
0.5
100
AcDbLine
 10
-29.87960557730709
 20
-6.949999999999533
 30
0.0
 11
-7.688035858001695
 21
-6.949999281372275
 31
0.0
  0
LINE
  5
3F54
330
1F
100
AcDbEntity
  8
AM_11
 48
0.5
100
AcDbLine
 10
-29.87960087363086
 20
6.95000000000125
 30
0.0
 11
-7.688035859564185
 21
6.950000000000116
 31
0.0
  0
ELLIPSE
  5
3F55
330
1F
100
AcDbEntity
  8
AM_0
 48
0.5
100
AcDbEllipse
 10
-16.93721493653137
 20
30.96422394127932
 30
0.0
 11
0.0000000000566543
 21
35.80167211173097
 31
0.0
210
0.0
220
0.0
230
1.0
 40
0.9424460431656061
 41
3.57984769161866
 42
3.667473607415723
  0
ELLIPSE
  5
3F56
330
1F
100
AcDbEntity
  8
AM_0
 48
0.5
100
AcDbEllipse
 10
-8.853453403537681
 20
7.090313955502291
 30
0.0
 11
0.000000000000922
 21
10.79785818898914
 31
0.0
210
0.0
220
0.0
230
1.0
 40
0.9424460431654715
 41
3.517054509082745
 42
3.681821570856246
  0
ELLIPSE
  5
3F57
330
1F
100
AcDbEntity
  8
AM_0
 48
0.5
100
AcDbEllipse
 10
-3.119842409098066
 20
-1.808804342736241
 30
0.0
 11
-0.1941116158164086
 21
1.141007922397639
 31
0.0
210
0.0
220
0.0
230
0.9999999999999998
 40
0.491605023716036
 41
1.808140596026237
 42
4.943482485738214
  0
ELLIPSE
  5
3F58
330
1F
100
AcDbEntity
  8
AM_0
 48
0.5
100
AcDbEllipse
 10
-3.119940665648439
 20
-1.811269327607104
 30
0.0
 11
-0.9842150720910677
 21
0.5839124608617134
 31
0.0
210
0.0
220
0.0
230
1.0
 40
0.5039971165891687
 41
4.493350726581089
 42
7.636791067910602
  0
ELLIPSE
  5
3F59
330
1F
100
AcDbEntity
  8
AM_0
 48
0.5
100
AcDbEllipse
 10
5.762601090860374
 20
-1.856099841526355
 30
0.0
 11
-10.25900520164509
 21
5.68618770094044
 31
0.0
210
0.0
220
0.0
230
1.0
 40
0.8275848776307837
 41
0.6979079769154266
 42
1.111993635377547
  0
SPLINE
  5
3F5A
330
1F
100
AcDbEntity
  8
AM_0
100
AcDbSpline
210
0.0
220
0.0
230
1.0
 70
     8
 71
     3
 72
    11
 73
     7
 74
     0
 42
0.0000000001
 43
0.0000000001
 40
11.27226913003534
 40
11.27226913003534
 40
11.27226913003534
 40
11.2722691300354
 40
12.28301561507924
 40
13.29510212255852
 40
14.30984805882082
 40
15.18258238371378
 40
15.18258238371378
 40
15.18258238371378
 40
15.18258238371378
 10
-29.87960557730716
 20
-6.949999999999537
 30
0.0
 10
-30.27062795927671
 20
-6.91598396171431
 30
0.0
 10
-31.05194458225053
 20
-6.833634353232283
 30
0.0
 10
-32.21988494332858
 20
-6.667514823796708
 30
0.0
 10
-33.32828093998712
 20
-6.469103260181948
 30
0.0
 10
-34.04512640908611
 20
-6.316578386124351
 30
0.0
 10
-34.37546921340301
 20
-6.241235311228728
 30
0.0
  0
SPLINE
  5
3F5B
330
1F
100
AcDbEntity
  8
AM_0
100
AcDbSpline
210
0.0
220
0.0
230
1.0
 70
     8
 71
     3
 72
    17
 73
    13
 74
     0
 42
0.0000000001
 43
0.0000000001
 40
1.580019955310467
 40
1.580019955310467
 40
1.580019955310467
 40
1.580019955310467
 40
2.030549285115227
 40
3.082371838836284
 40
4.126290986361125
 40
5.162752068350215
 40
6.192395305374981
 40
7.216039564037012
 40
8.234688489606833
 40
9.249433870634691
 40
10.26152376260694
 40
11.27226744710342
 40
11.27226744710342
 40
11.27226744710342
 40
11.27226744710352
 10
-18.7829526787326
 20
-5.129303935174709
 30
0.0
 10
-18.94962811591305
 20
-5.182131512001119
 30
0.0
 10
-19.50638007274155
 20
-5.355280951181163
 30
0.0
 10
-20.45689373175509
 20
-5.626872041929508
 30
0.0
 10
-21.63424551219208
 20
-5.93101803454494
 30
0.0
 10
-22.81192141647196
 20
-6.198017834097438
 30
0.0
 10
-23.98965128145063
 20
-6.426974795251071
 30
0.0
 10
-25.16750945798734
 20
-6.616223474013418
 30
0.0
 10
-26.34544900936559
 20
-6.764683911621896
 30
0.0
 10
-27.52346190868961
 20
-6.871394034765351
 30
0.0
 10
-28.70151913277224
 20
-6.935666937988623
 30
0.0
 10
-29.4870812319465
 20
-6.949999321139435
 30
0.0
 10
-29.8796055773071
 20
-6.949999999999537
 30
0.0
  0
SPLINE
  5
3F5C
330
1F
100
AcDbEntity
  8
AM_0
100
AcDbSpline
210
0.0
220
0.0
230
1.0
 70
     8
 71
     3
 72
    22
 73
    18
 74
     0
 42
0.0000000001
 43
0.0000000001
 40
17.17441611292
 40
17.17441611292
 40
17.17441611292
 40
17.17441611292
 40
17.38177636558528
 40
18.41823744757437
 40
19.46215659509824
 40
20.51397914882054
 40
21.57394542641293
 40
22.64209583141747
 40
23.71826625065247
 40
24.80210429862395
 40
25.8930771157021
 40
26.99048705697709
 40
28.09349309193389
 40
29.20112995599786
 40
30.31233024745139
 40
31.42594771747373
 40
32.5407895042663
 40
32.54078950426994
 40
32.54078950426994
 40
32.54078950426994
 10
-34.37598441844279
 20
-6.241149583031872
 30
0.0
 10
-34.45486880959907
 20
-6.225061014700164
 30
0.0
 10
-34.9277376533057
 20
-6.127063786467899
 30
0.0
 10
-35.79400672892301
 20
-5.930566589238966
 30
0.0
 10
-36.97152241684962
 20
-5.626887621066443
 30
0.0
 10
-38.14891811839937
 20
-5.288530444089383
 30
0.0
 10
-39.3262021459199
 20
-4.917607167703187
 30
0.0
 10
-40.50337294430089
 20
-4.516392100009064
 30
0.0
 10
-41.68044500314983
 20
-4.087382187772586
 30
0.0
 10
-42.85742377264127
 20
-3.633213987880115
 30
0.0
 10
-44.03432014262759
 20
-3.156688330734847
 30
0.0
 10
-45.21114719945022
 20
-2.660745077804988
 30
0.0
 10
-46.38791515725809
 20
-2.148433799150491
 30
0.0
 10
-47.56463586212308
 20
-1.622906320327847
 30
0.0
 10
-48.7413197446501
 20
-1.087394040468919
 30
0.0
 10
-49.91798423638768
 20
-0.5452013597891038
 30
0.0
 10
-50.70227325411369
 20
-0.1815642299170032
 30
0.0
 10
-51.09463321281636
 20
0.000354213910785
 30
0.0
  0
SPLINE
  5
3F5D
330
1F
100
AcDbEntity
  8
AM_0
 48
0.5
100
AcDbSpline
210
0.0
220
0.0
230
1.0
 70
     8
 71
     3
 72
    17
 73
    13
 74
     0
 42
0.0000000001
 43
0.0000000001
 40
0.0
 40
0.0
 40
0.0
 40
0.0
 40
1.010743614677189
 40
2.022833924044153
 40
3.037578959561199
 40
4.056212747067873
 40
5.079857613375832
 40
6.109500119648989
 40
7.14596120163808
 40
8.18989512056258
 40
9.241717674284874
 40
9.693948937866434
 40
9.693948937866434
 40
9.693948937866434
 40
9.693948937866434
 10
-7.688035859564183
 20
6.950000000000116
 30
0.0
 10
-8.080555576298376
 20
6.945867898315066
 30
0.0
 10
-8.86611799523067
 20
6.937598189414927
 30
0.0
 10
-10.04417425184143
 20
6.870868737611737
 30
0.0
 10
-11.22218200855993
 20
6.764826586341918
 30
0.0
 10
-12.40011650322115
 20
6.616188454377899
 30
0.0
 10
-13.57796370696654
 20
6.42697021596701
 30
0.0
 10
-14.75570923355683
 20
6.198049154580958
 30
0.0
 10
-15.93333727566766
 20
5.930898910798745
 30
0.0
 10
-17.11089352999419
 20
5.627318008863432
 30
0.0
 10
-18.06144764477015
 20
5.35383750597743
 30
0.0
 10
-18.61966875298068
 20
5.182872863456539
 30
0.0
 10
-18.78721678073279
 20
5.13054173086845
 30
0.0
  0
SPLINE
  5
3F5E
330
1F
100
AcDbEntity
  8
AM_0
 48
0.5
100
AcDbSpline
210
0.0
220
0.0
230
1.0
 70
     8
 71
     3
 72
    25
 73
    21
 74
     0
 42
0.0000000001
 43
0.0000000001
 40
6.846175049578289
 40
6.846175049578289
 40
6.846175049578289
 40
6.846175049578289
 40
7.604337694224321
 40
8.711974558287883
 40
9.814980593243754
 40
10.91239053451967
 40
12.0033633515982
 40
13.08720139956839
 40
14.16337181880432
 40
15.23152222380919
 40
16.29148850140128
 40
17.34331105512262
 40
18.38723020264746
 40
19.42369128463655
 40
20.45333379090873
 40
21.47697865721768
 40
22.49561244472435
 40
23.5103574802404
 40
24.52244778960836
 40
25.53320666051913
 40
25.53320666051913
 40
25.53320666051913
 40
25.53320666051913
 10
-9.061947120714737
 20
1.257996219241117
 30
0.0
 10
-9.329561401494299
 20
1.380025858711636
 30
0.0
 10
-9.988709671696597
 20
1.679113443251833
 30
0.0
 10
-11.04037149574706
 20
2.14878861734979
 30
0.0
 10
-12.21713938924343
 20
2.661100040769136
 30
0.0
 10
-13.39396646316145
 20
3.157043255150487
 30
0.0
 10
-14.57086282863889
 20
3.633568922710963
 30
0.0
 10
-15.74784159920562
 20
4.087737119196985
 30
0.0
 10
-16.9249136582183
 20
4.516747034706187
 30
0.0
 10
-18.10208445490065
 20
4.917962092786093
 30
0.0
 10
-19.279368488977
 20
5.288885403996841
 30
0.0
 10
-20.45676416626425
 20
5.627242452657967
 30
0.0
 10
-21.63427994374849
 20
5.930921894328505
 30
0.0
 10
-22.81191166592234
 20
6.198044304291181
 30
0.0
 10
-23.98965473236118
 20
6.426972413290062
 30
0.0
 10
-25.1675025894784
 20
6.616188779633292
 30
0.0
 10
-26.34543691043423
 20
6.764827410598139
 30
0.0
 10
-27.52344471319703
 20
6.870869424796309
 30
0.0
 10
-28.7015068751504
 20
6.937599263751178
 30
0.0
 10
-29.48707522667855
 20
6.945868714652648
 30
0.0
 10
-29.87960087363086
 20
6.95000000000125
 30
0.0
  0
ELLIPSE
  5
3F5F
330
1F
100
AcDbEntity
  8
AM_0
 48
0.5
100
AcDbEllipse
 10
3.023189323224976
 20
8.34390330651777
 30
0.0
 11
-11.63359194225884
 21
11.57972215840082
 31
0.0
210
0.0
220
0.0
230
1.0
 40
0.8455601307280534
 41
1.351773603919007
 42
1.705138900156321
  0
SPLINE
  5
3F60
330
1F
100
AcDbEntity
  8
AM_0
 48
0.5
100
AcDbSpline
210
0.0
220
0.0
230
1.0
 70
     8
 71
     3
 72
    10
 73
     6
 74
     0
 42
0.0000000001
 43
0.0000000001
 40
0.0
 40
0.0
 40
0.0
 40
0.0
 40
2.69986029516136
 40
4.147722969032201
 40
6.285750005020438
 40
6.285750005020438
 40
6.285750005020438
 40
6.285750005020438
 10
-9.06189044330074
 20
1.257913672322298
 30
0.0
 10
-8.044544002265977
 20
0.6122106456577037
 30
0.0
 10
-6.784461986000941
 20
-0.3797655983243163
 30
0.0
 10
-3.804537287397844
 20
0.1004674793449452
 30
0.0
 10
-4.365743784598551
 20
1.71795602922993
 30
0.0
 10
-4.443180192990687
 20
2.668589611245876
 30
0.0
  0
SPLINE
  5
3F61
330
1F
100
AcDbEntity
  8
AM_0
100
AcDbSpline
210
0.0
220
0.0
230
1.0
 70
     8
 71
     3
 72
    46
 73
    42
 74
     0
 42
0.0000000001
 43
0.0000000001
 40
0.0
 40
0.0
 40
0.0
 40
0.0
 40
1.685415058684571
 40
2.531036209541119
 40
3.379897699130121
 40
4.232934581347655
 40
5.090970612202441
 40
5.954688180526682
 40
6.824620803463246
 40
7.701151815239689
 40
8.584457046566678
 40
9.474582384070741
 40
10.37139106676737
 40
11.27458944007583
 40
12.18373345430765
 40
13.09824173870457
 40
14.01741343450111
 40
14.9404441545541
 40
15.86644439743314
 40
16.79446029130534
 40
17.7234937712985
 40
18.65252725129241
 40
19.58054314516461
 40
20.50654338804289
 40
21.42957410809586
 40
22.34874580389317
 40
23.26325408828901
 40
24.17239810252111
 40
25.07560240389441
 40
25.97241108659103
 40
26.8625364240951
 40
27.74584165542183
 40
28.62236045019041
 40
29.49229307312697
 40
30.35601064145121
 40
31.21404606334468
 40
32.06708345193547
 40
32.91595755657689
 40
33.76157841950693
 40
34.60498701064689
 40
35.44727335621125
 40
35.44727335621125
 40
35.44727335621125
 40
35.44727335621125
 10
-4.390276043240239
 20
-6.949999281372455
 30
0.0
 10
-5.175876511276348
 20
-6.93416664413105
 30
0.0
 10
-6.355635301602888
 20
-6.910390317970907
 30
0.0
 10
-7.924412012300962
 20
-6.764003845746693
 30
0.0
 10
-9.102358723162305
 20
-6.616407341216893
 30
0.0
 10
-10.2802047476214
 20
-6.42691850101127
 30
0.0
 10
-11.45794698282852
 20
-6.198057026872588
 30
0.0
 10
-12.63557937849083
 20
-5.930917071619047
 30
0.0
 10
-13.813099962251
 20
-5.627238882479679
 30
0.0
 10
-14.99050349372653
 20
-5.288887088489822
 30
0.0
 10
-16.16779232626469
 20
-4.917960272951347
 30
0.0
 10
-17.3449632933165
 20
-4.516745700852137
 30
0.0
 10
-18.52203530676334
 20
-4.087735654973365
 30
0.0
 10
-19.69901408741054
 20
-3.633567488828412
 30
0.0
 10
-20.87591045867559
 20
-3.157041831771639
 30
0.0
 10
-22.05273749897365
 20
-2.661098544104577
 30
0.0
 10
-23.22950552207639
 20
-2.148787405350868
 30
0.0
 10
-24.40622598090579
 20
-1.623259398694606
 30
0.0
 10
-25.58291135205321
 20
-1.087748841078657
 30
0.0
 10
-26.75957238461632
 20
-0.5455487460014385
 30
0.0
 10
-27.9362235259591
 20
0.000000718518375
 30
0.0
 10
-29.11287466704337
 20
0.5455501837011411
 30
0.0
 10
-30.28953570038182
 20
1.08775027679047
 30
0.0
 10
-31.46622106869522
 20
1.623260841671267
 30
0.0
 10
-32.6429415380334
 20
2.148788821384851
 30
0.0
 10
-33.81970952217054
 20
2.661100060039285
 30
0.0
 10
-34.99653670677149
 20
3.157042977738816
 30
0.0
 10
-36.17343510278473
 20
3.633571039255377
 30
0.0
 10
-37.35041845660365
 20
4.087735079052309
 30
0.0
 10
-38.52749256976654
 20
4.516747324747679
 30
0.0
 10
-39.70466350941046
 20
4.917962016229581
 30
0.0
 10
-40.88194750577986
 20
5.288885423267596
 30
0.0
 10
-42.05934319245776
 20
5.627242451273096
 30
0.0
 10
-43.23685896965792
 20
5.930921880971093
 30
0.0
 10
-44.41449068376846
 20
6.198044358526304
 30
0.0
 10
-45.59223378242411
 20
6.426972211511023
 30
0.0
 10
-46.77008732398742
 20
6.61619045922308
 30
0.0
 10
-47.94802796518798
 20
6.764826015648783
 30
0.0
 10
-49.12604148500274
 20
6.870869658586843
 30
0.0
 10
-50.30409776583205
 20
6.937598857591919
 30
0.0
 10
-51.08966018154171
 20
6.945868600134787
 30
0.0
 10
-51.48217989666551
 20
6.950000718629975
 30
0.0
  0
SPLINE
  5
3F62
330
1F
100
AcDbEntity
  8
AM_0
100
AcDbSpline
210
0.0
220
0.0
230
1.0
 70
     8
 71
     3
 72
    55
 73
    51
 74
     0
 42
0.0000000001
 43
0.0000000001
 40
0.0
 40
0.0
 40
0.0
 40
0.0
 40
1.010743684496582
 40
2.022833576467832
 40
3.037578957496688
 40
4.056212745003489
 40
5.079857003664532
 40
6.109500240690281
 40
7.145961322679372
 40
8.189895241603872
 40
9.241717795325891
 40
10.30168407291828
 40
11.36983447792315
 40
12.44600489715814
 40
13.52984294512926
 40
14.62081576220742
 40
15.7182257034828
 40
16.82123173843959
 40
17.92886860250316
 40
19.0400688939571
 40
20.15368796660465
 40
21.26852814259644
 40
22.38336992938901
 40
23.49698739941135
 40
24.6081876908653
 40
25.71582455492886
 40
26.81883757994213
 40
27.91624752121713
 40
29.00722033829659
 40
30.09105838626677
 40
31.16722880550176
 40
32.23537921050758
 40
33.29534548809967
 40
34.347168041821
 40
35.39108718934584
 40
36.42754827133493
 40
37.45720575381954
 40
38.48085062012849
 40
39.49948440763516
 40
40.51422944315121
 40
41.52631975251916
 40
42.53706336719636
 40
43.54780698187354
 40
44.55989729124051
 40
45.57464232675757
 40
46.59327611426424
 40
47.6169209805722
 40
48.64656348684535
 40
49.68302456883444
 40
50.58557219878025
 40
50.58557219878025
 40
50.58557219878025
 40
50.58557219878025
 10
-7.688035858001692
 20
-6.949999281372276
 30
0.0
 10
-8.080555503301999
 20
-6.945864199746305
 30
0.0
 10
-8.866117590026474
 20
-6.937588528987498
 30
0.0
 10
-10.04417483909634
 20
-6.870877332065148
 30
0.0
 10
-11.22218180134407
 20
-6.764823955867549
 30
0.0
 10
-12.40011585652615
 20
-6.616186115613025
 30
0.0
 10
-13.57796525071499
 20
-6.426978139014257
 30
0.0
 10
-14.75570674757553
 20
-6.198041403790827
 30
0.0
 10
-15.93334428660087
 20
-5.930918109391184
 30
0.0
 10
-17.11086742452598
 20
-5.627243991061519
 30
0.0
 10
-18.28826814027227
 20
-5.288883589466319
 30
0.0
 10
-19.46555230253139
 20
-4.917960757869626
 30
0.0
 10
-20.64272306430507
 20
-4.516745569429618
 30
0.0
 10
-21.81979513339913
 20
-4.087735690609933
 30
0.0
 10
-22.99677389888795
 20
-3.633567479034002
 30
0.0
 10
-24.17367027458703
 20
-3.157041834980719
 30
0.0
 10
-25.35049731243653
 20
-2.661098541127561
 30
0.0
 10
-26.52726534089884
 20
-2.148787414083713
 30
0.0
 10
-27.7039857806417
 20
-1.623259366574439
 30
0.0
 10
-28.88067122307393
 20
-1.087748961296309
 30
0.0
 10
-30.05733198884686
 20
-0.5455482961454797
 30
0.0
 10
-31.23398469423324
 20
-0.0000006994235338
 30
0.0
 10
-32.4106321174335
 20
0.5455567174951421
 30
0.0
 10
-33.58729682711684
 20
1.087748939147461
 30
0.0
 10
-34.76398081691509
 20
1.623260965385102
 30
0.0
 10
-35.9407033547375
 20
2.148791014922
 30
0.0
 10
-37.11747626499809
 20
2.661097769812728
 30
0.0
 10
-38.29430516019154
 20
3.157043578788433
 30
0.0
 10
-39.47120170579537
 20
3.633568836428548
 30
0.0
 10
-40.64818042845768
 20
4.087737143514346
 30
0.0
 10
-41.82525250056571
 20
4.516747022961587
 30
0.0
 10
-43.00242329232287
 20
4.917962115465001
 30
0.0
 10
-44.17970733307341
 20
5.288885325808023
 30
0.0
 10
-45.35710298878394
 20
5.627242739685216
 30
0.0
 10
-46.5346188450885
 20
5.930920835388168
 30
0.0
 10
-47.71225594727145
 20
6.198049501301214
 30
0.0
 10
-48.89000585360099
 20
6.426960088771501
 30
0.0
 10
-50.0678591390714
 20
6.616226629238821
 30
0.0
 10
-51.24579354344581
 20
6.764688278518804
 30
0.0
 10
-52.42380132420856
 20
6.871385678236589
 30
0.0
 10
-53.60185757442629
 20
6.935678748731323
 30
0.0
 10
-54.77993971171565
 20
6.957156936186954
 30
0.0
 10
-55.95802184727163
 20
6.935678748697766
 30
0.0
 10
-57.13607810269959
 20
6.871385678371909
 30
0.0
 10
-58.31408586427974
 20
6.764688278009991
 30
0.0
 10
-59.49202034057456
 20
6.616226631152455
 30
0.0
 10
-60.66986761340981
 20
6.426961004282798
 30
0.0
 10
-61.84761287985303
 20
6.19805184178892
 30
0.0
 10
-62.9717053786751
 20
5.943046785619478
 30
0.0
 10
-63.70102939344016
 20
5.756559177308215
 30
0.0
 10
-64.03939322821314
 20
5.665674668364742
 30
0.0
  0
SPLINE
  5
3F63
330
1F
100
AcDbEntity
  8
AM_0
100
AcDbSpline
210
0.0
220
0.0
230
1.0
 70
     8
 71
     3
 72
    23
 73
    19
 74
     0
 42
0.0000000001
 43
0.0000000001
 40
16.03460024169435
 40
16.03460024169435
 40
16.03460024169435
 40
16.03460024169435
 40
16.35212704903564
 40
17.38177054169784
 40
18.41822485651776
 40
19.46214173629503
 40
20.51396345435107
 40
21.57393551351153
 40
22.64208202342361
 40
23.7182574881101
 40
24.80209208578934
 40
25.89306333925047
 40
26.99048218457928
 40
28.09348763352352
 40
29.20111863782268
 40
30.31232390128032
 40
31.42594612798585
 40
32.5407912310448
 40
32.5407912310486
 40
32.5407912310486
 40
32.5407912310486
 10
-69.75528780127143
 20
6.950000000001311
 30
0.0
 10
-68.85406324224682
 20
6.867453129316534
 30
0.0
 10
-68.30770465080795
 20
6.824367721462449
 30
0.0
 10
-67.40408105762821
 20
6.624180607002455
 30
0.0
 10
-66.23388613891172
 20
6.326504557025405
 30
0.0
 10
-65.06477815227796
 20
5.992263970475345
 30
0.0
 10
-63.89668801420367
 20
5.623393261386748
 30
0.0
 10
-62.7295742670998
 20
5.22194889222072
 30
0.0
 10
-61.56336945458887
 20
4.790225688285763
 30
0.0
 10
-60.39799236660036
 20
4.330736170337175
 30
0.0
 10
-59.23337678222258
 20
3.84608240072514
 30
0.0
 10
-58.06942933000104
 20
3.339084466808182
 30
0.0
 10
-56.90605568501072
 20
2.812689259625844
 30
0.0
 10
-55.74317833498387
 20
2.269923330940408
 30
0.0
 10
-54.58069998338501
 20
1.713942790298418
 30
0.0
 10
-53.41851296009904
 20
1.147994156158145
 30
0.0
 10
-52.2565226302953
 20
0.5753569476009528
 30
0.0
 10
-51.48207048389099
 20
0.1914350107422979
 30
0.0
 10
-51.09463321281118
 20
-0.0006338783506911
 30
0.0
  0
LINE
  5
3F64
330
1F
100
AcDbEntity
  8
AM_11
 48
0.5
100
AcDbLine
 10
-69.75528780127143
 20
6.950000000001311
 30
0.0
 11
-54.77991170988812
 21
6.950000000001
 31
0.0
  0
SPLINE
  5
3F65
330
1F
100
AcDbEntity
  8
AM_0
 48
0.5
100
AcDbSpline
210
0.0
220
0.0
230
1.0
 70
     8
 71
     3
 72
    22
 73
    18
 74
     0
 42
0.0000000001
 43
0.0000000001
 40
0.0
 40
0.0
 40
0.0
 40
0.0
 40
1.010743684496582
 40
2.022833993863546
 40
3.037578683882831
 40
4.056212471389632
 40
5.079857945358201
 40
6.109499720892564
 40
7.145961650132166
 40
8.189873411961459
 40
9.241710626092514
 40
10.30166235592959
 40
11.36982472628033
 40
12.44598212828784
 40
13.52983440361964
 40
14.62080578343036
 40
14.90544694398022
 40
14.90544694398022
 40
14.90544694398022
 40
14.90544694398022
 10
-53.03192219933699
 20
-6.949999999999032
 30
0.0
 10
-53.42463853833375
 20
-6.94621964901612
 30
0.0
 10
-54.21020093726028
 20
-6.937946448923642
 30
0.0
 10
-55.3882569519474
 20
-6.871216668829529
 30
0.0
 10
-56.5662651889232
 20
-6.765181147095396
 30
0.0
 10
-57.74419987045405
 20
-6.616543169818275
 30
0.0
 10
-58.92204605657305
 20
-6.427317540938479
 30
0.0
 10
-60.09979145963619
 20
-6.198400049802892
 30
0.0
 10
-61.2774188214933
 20
-5.931270391503368
 30
0.0
 10
-62.45493623992107
 20
-5.627585729525488
 30
0.0
 10
-63.63233310964201
 20
-5.28924222012948
 30
0.0
 10
-64.80961558361659
 20
-4.918299060025689
 30
0.0
 10
-65.98679125099106
 20
-4.517116730139149
 30
0.0
 10
-67.16385922756839
 20
-4.088080242437691
 30
0.0
 10
-68.34084156433032
 20
-3.633922753595683
 30
0.0
 10
-69.22542604314354
 20
-3.27577043562088
 30
0.0
 10
-69.71834738352637
 20
-3.071062083163047
 30
0.0
 10
-70.75360934724257
 20
-2.685845422495677
 30
0.0
  0
SPLINE
  5
3F66
330
1F
100
AcDbEntity
  8
AM_0
100
AcDbSpline
210
0.0
220
0.0
230
1.0
 70
     8
 71
     3
 72
    13
 73
     9
 74
     0
 42
0.0000000001
 43
0.0000000001
 40
16.03460056234195
 40
16.03460056234195
 40
16.03460056234195
 40
16.03460056234195
 40
16.35212717791071
 40
17.38177067057215
 40
18.41822498539278
 40
19.46214186516937
 40
20.5139635832251
 40
21.34083983469381
 40
21.34083983469381
 40
21.34083983469381
 40
21.34083983469381
 10
-70.58583872644738
 20
-6.949999999998675
 30
0.0
 10
-70.33711443699933
 20
-6.927524282015861
 30
0.0
 10
-69.82413185597984
 20
-6.825356782808401
 30
0.0
 10
-68.92050875537927
 20
-6.625167331116931
 30
0.0
 10
-67.75031368939905
 20
-6.327492106524371
 30
0.0
 10
-66.58120574264725
 20
-5.993251296446346
 30
0.0
 10
-65.49939629130294
 20
-5.651627189547312
 30
0.0
 10
-64.80922091190645
 20
-5.416394679821467
 30
0.0
 10
-64.17768206978812
 20
-5.116068995696312
 30
0.0
  0
LINE
  5
3F67
330
1F
100
AcDbEntity
  8
AM_11
 48
0.5
100
AcDbLine
 10
-70.58583774446191
 20
-6.949999911262485
 30
0.0
 11
-53.45441161764302
 21
-6.949999281370193
 31
0.0
  0
VIEWPORT
  5
110
330
101
100
AcDbEntity
 67
     1
  8
0
100
AcDbViewport
 10
420.5
 20
297.0
 30
0.0
 40
948.9782706766916
 41
628.452
 68
     1
 69
     1
1001
ACAD
1000
MVIEW
1002
{
1070
    16
1010
0.0
1020
0.0
1030
0.0
1010
0.0
1020
0.0
1030
1.0
1040
0.0
1040
628.452
1040
420.5
1040
297.0
1040
50.0
1040
0.0
1040
0.0
1070
     0
1070
   100
1070
     1
1070
     1
1070
     0
1070
     0
1070
     0
1070
     0
1040
0.0
1040
0.0
1040
0.0
1040
10.0
1040
10.0
1040
10.0
1040
10.0
1070
     0
1002
{
1002
}
1002
}
  0
ENDSEC
  0
SECTION
  2
OBJECTS
  0
DICTIONARY
  5
C
330
0
100
AcDbDictionary
  3
ACAD_GROUP
350
D
  3
ACAD_LAYOUT
350
1A
  3
ACAD_MLINESTYLE
350
17
  3
ACAD_PLOTSETTINGS
350
19
  3
ACAD_PLOTSTYLENAME
350
E
  3
ACDBVARIABLEDICTIONARY
350
34
  3
ACMDICTIONARY
350
43
  3
AMG
350
2B
  3
AMGSNAPSETTINGS
350
6E
  3
DWGPROPS
350
4008
  3
ACDBHEADERROUNDTRIPXREC
350
4014
  0
DICTIONARY
  5
74
330
1F
100
AcDbDictionary
280
     1
  3
ACAD_INDEX
360
400A
  3
ACAD_LAYOUTSELFREF
360
4037
  0
DICTIONARY
  5
403C
330
101
100
AcDbDictionary
280
     1
  3
ACAD_LAYOUTSELFREF
360
403D
  0
DICTIONARY
  5
D
102
{ACAD_REACTORS
330
C
102
}
330
C
100
AcDbDictionary
  0
DICTIONARY
  5
1A
102
{ACAD_REACTORS
330
C
102
}
330
C
100
AcDbDictionary
  0
DICTIONARY
  5
17
102
{ACAD_REACTORS
330
C
102
}
330
C
100
AcDbDictionary
  3
STANDARD
350
18
  0
DICTIONARY
  5
19
102
{ACAD_REACTORS
330
C
102
}
330
C
100
AcDbDictionary
  0
ACDBDICTIONARYWDFLT
  5
E
102
{ACAD_REACTORS
330
C
102
}
330
C
100
AcDbDictionary
281
     1
  3
Normal
350
F
100
AcDbDictionaryWithDefault
340
F
  0
DICTIONARY
  5
34
102
{ACAD_REACTORS
330
C
102
}
330
C
100
AcDbDictionary
  3
INDEXCTL
350
35
  3
SORTENTS
350
B5E
  0
DICTIONARY
  5
43
102
{ACAD_REACTORS
330
C
102
}
330
C
100
AcDbDictionary
  3
ACMSTDDICTIONARY
350
260
  0
DICTIONARY
  5
2B
102
{ACAD_REACTORS
330
C
102
}
330
C
100
AcDbDictionary
  3
ACMGSETTINGS
350
2C
  0
DICTIONARY
  5
6E
102
{ACAD_REACTORS
330
C
102
}
330
C
100
AcDbDictionary
  0
XRECORD
  5
4008
102
{ACAD_REACTORS
330
C
102
}
330
C
100
AcDbXrecord
  1
DWGPROPS COOKIE
  2

  3

  4

  6

  7

  8

  9

300
AmdtFileType=82
301
=
302
=
303
=
304
=
305
=
306
=
307
=
308
=
309
=
 40
0.0871071875
 41
2452800.443498622
 42
2452946.636452361
  1

 90
        1
  0
DICTIONARY
  5
4014
102
{ACAD_REACTORS
330
C
102
}
330
C
100
AcDbDictionary
  3
TSTACKALIGN
350
4015
  3
TSTACKSIZE
350
4016
  3
HYPERLINKBASE
350
4017
  3
STYLESHEET
350
4018
  3
LAYOUTDICT
350
4019
  3
PLOTSETDICT
350
401A
  3
PLOTSTYLNAMDICT
350
401B
  3
LWETCUNION
350
401C
  3
INSUNITS
350
401D
  3
CEPSNTYPE
350
401E
  3
FINGERPRINTGUID
350
401F
  3
VERSIONGUID
350
4020
  3
PSVPSCALE
350
4021
  3
DIMSTYLEDATA
350
4022
  3
PUCSORTHOREF
350
4023
  3
PUCSORTHOVIEW
350
4024
  3
PUCSBASE
350
4025
  3
PUCSORGTOP
350
4026
  3
PUCSORGBOTTOM
350
4027
  3
PUCSORGLEFT
350
4028
  3
PUCSORGRIGHT
350
4029
  3
PUCSORGFRONT
350
402A
  3
PUCSORGBACK
350
402B
  3
UCSORTHOREF
350
402C
  3
UCSORTHOVIEW
350
402D
  3
UCSBASE
350
402E
  3
UCSORGTOP
350
402F
  3
UCSORGBOTTOM
350
4030
  3
UCSORGLEFT
350
4031
  3
UCSORGRIGHT
350
4032
  3
UCSORGFRONT
350
4033
  3
UCSORGBACK
350
4034
  0
DICTIONARY
  5
400A
102
{ACAD_REACTORS
330
74
102
}
330
74
100
AcDbDictionary
  3
*A1
350
400B
  0
XRECORD
  5
4037
102
{ACAD_REACTORS
330
74
102
}
330
74
100
AcDbXrecord
340
1F
  0
XRECORD
  5
403D
102
{ACAD_REACTORS
330
403C
102
}
330
403C
100
AcDbXrecord
340
101
  0
MLINESTYLE
  5
18
102
{ACAD_REACTORS
330
17
102
}
330
17
100
AcDbMlineStyle
  2
STANDARD
 70
     0
  3

 62
   256
 51
90.0
 52
90.0
 71
     2
 49
0.5
 62
   256
  6
BYLAYER
 49
-0.5
 62
   256
  6
BYLAYER
  0
ACDBPLACEHOLDER
  5
F
102
{ACAD_REACTORS
330
E
102
}
330
E
100
AcDbPlaceHolder
280
     0
  0
DICTIONARYVAR
  5
35
102
{ACAD_REACTORS
330
34
102
}
330
34
100
DictionaryVariables
280
     0
  1
1
  0
DICTIONARYVAR
  5
B5E
102
{ACAD_REACTORS
330
34
102
}
330
34
100
DictionaryVariables
280
     0
  1
96
  0
DICTIONARY
  5
260
102
{ACAD_REACTORS
330
43
102
}
330
43
100
AcDbDictionary
  0
DICTIONARY
  5
2C
102
{ACAD_REACTORS
330
2B
102
}
330
2B
100
AcDbDictionary
  3
DWGSETTINGS
350
2D
  0
XRECORD
  5
4015
102
{ACAD_REACTORS
330
4014
102
}
330
4014
100
AcDbXrecord
 90
        1
  0
XRECORD
  5
4016
102
{ACAD_REACTORS
330
4014
102
}
330
4014
100
AcDbXrecord
 90
       70
  0
XRECORD
  5
4017
102
{ACAD_REACTORS
330
4014
102
}
330
4014
100
AcDbXrecord
  1

  0
XRECORD
  5
4018
102
{ACAD_REACTORS
330
4014
102
}
330
4014
100
AcDbXrecord
  1
ASAMI.ctb
  0
XRECORD
  5
4019
102
{ACAD_REACTORS
330
4014
102
}
330
4014
100
AcDbXrecord
340
1A
  0
XRECORD
  5
401A
102
{ACAD_REACTORS
330
4014
102
}
330
4014
100
AcDbXrecord
340
19
  0
XRECORD
  5
401B
102
{ACAD_REACTORS
330
4014
102
}
330
4014
100
AcDbXrecord
340
E
  0
XRECORD
  5
401C
102
{ACAD_REACTORS
330
4014
102
}
330
4014
100
AcDbXrecord
 90
    10781
  0
XRECORD
  5
401D
102
{ACAD_REACTORS
330
4014
102
}
330
4014
100
AcDbXrecord
 90
        4
  0
XRECORD
  5
401E
102
{ACAD_REACTORS
330
4014
102
}
330
4014
100
AcDbXrecord
 90
        0
  0
XRECORD
  5
401F
102
{ACAD_REACTORS
330
4014
102
}
330
4014
100
AcDbXrecord
  1
{AFB28963-8C59-40AE-9337-C84526B81ACE}
  0
XRECORD
  5
4020
102
{ACAD_REACTORS
330
4014
102
}
330
4014
100
AcDbXrecord
  1
{A98F9310-0B11-499D-B976-054B3D4FF094}
  0
XRECORD
  5
4021
102
{ACAD_REACTORS
330
4014
102
}
330
4014
100
AcDbXrecord
 40
0.0
  0
XRECORD
  5
4022
102
{ACAD_REACTORS
330
4014
102
}
330
4014
100
AcDbXrecord
1000
DSTYLE
1002
{
1070
    79
 70
     2
1070
   341
340
59
1070
   342
340
59
1070
   371
 70
    -1
1070
   372
 70
    -1
1002
}
  0
XRECORD
  5
4023
102
{ACAD_REACTORS
330
4014
102
}
330
4014
100
AcDbXrecord
340
0
  0
XRECORD
  5
4024
102
{ACAD_REACTORS
330
4014
102
}
330
4014
100
AcDbXrecord
 70
     0
  0
XRECORD
  5
4025
102
{ACAD_REACTORS
330
4014
102
}
330
4014
100
AcDbXrecord
340
0
  0
XRECORD
  5
4026
102
{ACAD_REACTORS
330
4014
102
}
330
4014
100
AcDbXrecord
 10
0.0
 20
0.0
 30
0.0
  0
XRECORD
  5
4027
102
{ACAD_REACTORS
330
4014
102
}
330
4014
100
AcDbXrecord
 10
0.0
 20
0.0
 30
0.0
  0
XRECORD
  5
4028
102
{ACAD_REACTORS
330
4014
102
}
330
4014
100
AcDbXrecord
 10
0.0
 20
0.0
 30
0.0
  0
XRECORD
  5
4029
102
{ACAD_REACTORS
330
4014
102
}
330
4014
100
AcDbXrecord
 10
0.0
 20
0.0
 30
0.0
  0
XRECORD
  5
402A
102
{ACAD_REACTORS
330
4014
102
}
330
4014
100
AcDbXrecord
 10
0.0
 20
0.0
 30
0.0
  0
XRECORD
  5
402B
102
{ACAD_REACTORS
330
4014
102
}
330
4014
100
AcDbXrecord
 10
0.0
 20
0.0
 30
0.0
  0
XRECORD
  5
402C
102
{ACAD_REACTORS
330
4014
102
}
330
4014
100
AcDbXrecord
340
0
  0
XRECORD
  5
402D
102
{ACAD_REACTORS
330
4014
102
}
330
4014
100
AcDbXrecord
 70
     0
  0
XRECORD
  5
402E
102
{ACAD_REACTORS
330
4014
102
}
330
4014
100
AcDbXrecord
340
0
  0
XRECORD
  5
402F
102
{ACAD_REACTORS
330
4014
102
}
330
4014
100
AcDbXrecord
 10
0.0
 20
0.0
 30
0.0
  0
XRECORD
  5
4030
102
{ACAD_REACTORS
330
4014
102
}
330
4014
100
AcDbXrecord
 10
0.0
 20
0.0
 30
0.0
  0
XRECORD
  5
4031
102
{ACAD_REACTORS
330
4014
102
}
330
4014
100
AcDbXrecord
 10
0.0
 20
0.0
 30
0.0
  0
XRECORD
  5
4032
102
{ACAD_REACTORS
330
4014
102
}
330
4014
100
AcDbXrecord
 10
0.0
 20
0.0
 30
0.0
  0
XRECORD
  5
4033
102
{ACAD_REACTORS
330
4014
102
}
330
4014
100
AcDbXrecord
 10
0.0
 20
0.0
 30
0.0
  0
XRECORD
  5
4034
102
{ACAD_REACTORS
330
4014
102
}
330
4014
100
AcDbXrecord
 10
0.0
 20
0.0
 30
0.0
  0
LAYER_INDEX
  5
400B
102
{ACAD_REACTORS
330
400A
102
}
330
400A
100
AcDbIndex
 40
2453151.564538646
100
AcDbLayerIndex
  8
0
360
400C
 90
        0
  8
AM_0
360
400D
 90
       46
  8
AM_7
360
400E
 90
        1
  8
AM_11
360
400F
 90
       17
  8
AM_5
360
4010
 90
        5
  8
Defpoints
360
4011
 90
        0
  8
AM_6
360
4012
 90
        1
  0
XRECORD
  5
2D
102
{ACAD_REACTORS
330
2C
102
}
330
2C
100
AcDbXrecord
  1
VERSION
140
15.0
  1
PRODUCT
  2
AutoCAD Mechanical 2000
  0
IDBUFFER
  5
400C
330
0
100
AcDbIdBuffer
  0
IDBUFFER
  5
400D
330
0
100
AcDbIdBuffer
330
3F46
330
3F47
330
3F48
330
3F49
330
3F4A
330
3F4B
330
3F4C
330
3F4D
330
3F4E
330
3F4F
330
3F50
330
3F51
330
3F52
330
3F55
330
3F56
330
3F57
330
3F58
330
3F59
330
3F5A
330
3F5B
330
3F5C
330
3F5D
330
3F5E
330
3F5F
330
3F60
330
3F61
330
3F62
330
3F63
330
3F65
330
3F66
330
C1D
330
C20
330
24A7
330
24BE
330
2C0E
330
2FB7
330
2FB9
330
324C
330
325C
330
325D
330
325E
330
3921
330
3924
330
3976
330
3977
330
3F45
  0
IDBUFFER
  5
400E
330
0
100
AcDbIdBuffer
330
23EF
  0
IDBUFFER
  5
400F
330
0
100
AcDbIdBuffer
330
3F67
330
24B7
330
24B8
330
24C7
330
24C8
330
24D4
330
24D5
330
24E6
330
24E7
330
2BF3
330
2BF5
330
353A
330
353B
330
3D65
330
3F53
330
3F54
330
3F64
  0
IDBUFFER
  5
4010
330
0
100
AcDbIdBuffer
330
CC6
330
2069
330
2D60
330
324F
330
39C8
  0
IDBUFFER
  5
4011
330
0
100
AcDbIdBuffer
  0
IDBUFFER
  5
4012
330
0
100
AcDbIdBuffer
330
19BD
  0
ENDSEC
  0
EOF
