  0
SECTION
  2
HEADER
  9
$ACADVER
  1
AC1014
  9
$ACADMAINTVER
 70
     9
  9
$DWGCODEPAGE
  3
ANSI_932
  9
$INSBASE
 10
0.0
 20
0.0
 30
0.0
  9
$EXTMIN
 10
-209.300000955641
 20
-54.00000204957611
 30
-0.00000001
  9
$EXTMAX
 10
26.09218884086228
 20
25.45830559359476
 30
0.00000001
  9
$LIMMIN
 10
-212.4283160478946
 20
-92.01098889734623
  9
$LIMMAX
 10
49.45840178964954
 20
64.30738472477009
  9
$ORTHOMODE
 70
     0
  9
$REGENMODE
 70
     1
  9
$FILLMODE
 70
     1
  9
$QTEXTMODE
 70
     0
  9
$MIRRTEXT
 70
     0
  9
$DRAGMODE
 70
     2
  9
$LTSCALE
 40
1.0
  9
$OSMODE
 70
    55
  9
$ATTMODE
 70
     1
  9
$TEXTSIZE
 40
2.5
  9
$TRACEWID
 40
1.0
  9
$TEXTSTYLE
  7
STANDARD
  9
$CLAYER
  8
AM_0
  9
$CELTYPE
  6
BYLAYER
  9
$CECOLOR
 62
   256
  9
$CELTSCALE
 40
1.0
  9
$DELOBJ
 70
     1
  9
$DISPSILH
 70
     0
  9
$DIMSCALE
 40
1.0
  9
$DIMASZ
 40
2.5
  9
$DIMEXO
 40
1.0
  9
$DIMDLI
 40
12.0
  9
$DIMRND
 40
0.0
  9
$DIMDLE
 40
0.0
  9
$DIMEXE
 40
1.0
  9
$DIMTP
 40
0.1
  9
$DIMTM
 40
0.1
  9
$DIMTXT
 40
3.2
  9
$DIMCEN
 40
0.0
  9
$DIMTSZ
 40
0.0
  9
$DIMTOL
 70
     0
  9
$DIMLIM
 70
     0
  9
$DIMTIH
 70
     0
  9
$DIMTOH
 70
     0
  9
$DIMSE1
 70
     0
  9
$DIMSE2
 70
     0
  9
$DIMTAD
 70
     3
  9
$DIMZIN
 70
     8
  9
$DIMBLK
  1
OPEN30
  9
$DIMASO
 70
     1
  9
$DIMSHO
 70
     1
  9
$DIMPOST
  1

  9
$DIMAPOST
  1
"
  9
$DIMALT
 70
     0
  9
$DIMALTD
 70
     2
  9
$DIMALTF
 40
0.0393701
  9
$DIMLFAC
 40
1.0
  9
$DIMTOFL
 70
     1
  9
$DIMTVP
 40
0.0
  9
$DIMTIX
 70
     0
  9
$DIMSOXD
 70
     0
  9
$DIMSAH
 70
     0
  9
$DIMBLK1
  1

  9
$DIMBLK2
  1

  9
$DIMSTYLE
  2
AM_JIS
  9
$DIMCLRD
 70
   256
  9
$DIMCLRE
 70
   256
  9
$DIMCLRT
 70
     2
  9
$DIMTFAC
 40
0.71
  9
$DIMGAP
 40
1.5
  9
$DIMJUST
 70
     0
  9
$DIMSD1
 70
     0
  9
$DIMSD2
 70
     0
  9
$DIMTOLJ
 70
     0
  9
$DIMTZIN
 70
     0
  9
$DIMALTZ
 70
     0
  9
$DIMALTTZ
 70
     0
  9
$DIMFIT
 70
     3
  9
$DIMUPT
 70
     0
  9
$DIMUNIT
 70
     2
  9
$DIMDEC
 70
     3
  9
$DIMTDEC
 70
     3
  9
$DIMALTU
 70
     2
  9
$DIMALTTD
 70
     2
  9
$DIMTXSTY
  7
ASAMI
  9
$DIMAUNIT
 70
     0
  9
$LUNITS
 70
     2
  9
$LUPREC
 70
     2
  9
$SKETCHINC
 40
1.0
  9
$FILLETRAD
 40
2.5
  9
$AUNITS
 70
     0
  9
$AUPREC
 70
     0
  9
$MENU
  1
.
  9
$ELEVATION
 40
0.0
  9
$PELEVATION
 40
0.0
  9
$THICKNESS
 40
0.0
  9
$LIMCHECK
 70
     0
  9
$BLIPMODE
 70
     0
  9
$CHAMFERA
 40
0.5
  9
$CHAMFERB
 40
0.5
  9
$CHAMFERC
 40
20.0
  9
$CHAMFERD
 40
0.0
  9
$SKPOLY
 70
     0
  9
$TDCREATE
 40
2452800.443498622
  9
$TDUPDATE
 40
2453151.669029757
  9
$TDINDWG
 40
0.2394162269
  9
$TDUSRTIMER
 40
0.2394162269
  9
$USRTIMER
 70
     1
  9
$ANGBASE
 50
0.0
  9
$ANGDIR
 70
     0
  9
$PDMODE
 70
     3
  9
$PDSIZE
 40
0.0
  9
$PLINEWID
 40
0.0
  9
$COORDS
 70
     1
  9
$SPLFRAME
 70
     0
  9
$SPLINETYPE
 70
     6
  9
$SPLINESEGS
 70
     8
  9
$ATTDIA
 70
     1
  9
$ATTREQ
 70
     1
  9
$HANDLING
 70
 12289
  9
$HANDSEED
  5
44EB
  9
$SURFTAB1
 70
     6
  9
$SURFTAB2
 70
     6
  9
$SURFTYPE
 70
     6
  9
$SURFU
 70
     6
  9
$SURFV
 70
     6
  9
$UCSNAME
  2

  9
$UCSORG
 10
0.0
 20
0.0
 30
0.0
  9
$UCSXDIR
 10
1.0
 20
0.0000000000000027
 30
0.0
  9
$UCSYDIR
 10
-0.0000000000000027
 20
1.0
 30
0.0
  9
$PUCSNAME
  2

  9
$PUCSORG
 10
0.0
 20
0.0
 30
0.0
  9
$PUCSXDIR
 10
1.0
 20
0.0
 30
0.0
  9
$PUCSYDIR
 10
0.0
 20
1.0
 30
0.0
  9
$USERI1
 70
     0
  9
$USERI2
 70
     0
  9
$USERI3
 70
     0
  9
$USERI4
 70
     0
  9
$USERI5
 70
     0
  9
$USERR1
 40
0.0
  9
$USERR2
 40
0.0
  9
$USERR3
 40
0.0
  9
$USERR4
 40
0.0
  9
$USERR5
 40
0.0
  9
$WORLDVIEW
 70
     1
  9
$SHADEDGE
 70
     3
  9
$SHADEDIF
 70
    70
  9
$TILEMODE
 70
     1
  9
$MAXACTVP
 70
    64
  9
$PINSBASE
 10
0.0
 20
0.0
 30
0.0
  9
$PLIMCHECK
 70
     0
  9
$PEXTMIN
 10
1.000000000000000E+20
 20
1.000000000000000E+20
 30
1.000000000000000E+20
  9
$PEXTMAX
 10
-1.000000000000000E+20
 20
-1.000000000000000E+20
 30
-1.000000000000000E+20
  9
$PLIMMIN
 10
0.0
 20
0.0
  9
$PLIMMAX
 10
841.0
 20
594.0
  9
$UNITMODE
 70
     0
  9
$VISRETAIN
 70
     1
  9
$PLINEGEN
 70
     0
  9
$PSLTSCALE
 70
     0
  9
$TREEDEPTH
 70
  3020
  9
$PICKSTYLE
 70
     0
  9
$CMLSTYLE
  2
STANDARD
  9
$CMLJUST
 70
     0
  9
$CMLSCALE
 40
20.0
  9
$PROXYGRAPHICS
 70
     1
  9
$MEASUREMENT
 70
     1
  0
ENDSEC
  0
SECTION
  2
CLASSES
  0
CLASS
  1
ACDBDICTIONARYWDFLT
  2
AcDbDictionaryWithDefault
  3
AutoCAD 2000
 90
        0
280
     0
281
     0
  0
CLASS
  1
ACDBPLACEHOLDER
  2
AcDbPlaceHolder
  3
AutoCAD 2000
 90
        0
280
     0
281
     0
  0
CLASS
  1
LAYOUT
  2
AcDbLayout
  3
AutoCAD 2000
 90
        0
280
     0
281
     0
  0
CLASS
  1
AMGSETTINGSOBJ
  2
AmgSettingsObj
  3
"AcadM|Product Description: AutoCAD Mechanical 2000|Company: Autodesk"
 90
        0
280
     0
281
     0
  0
CLASS
  1
ACME_DOCUMENT
  2
AcMeDbDoc
  3
AcMeServices
 90
        0
280
     0
281
     0
  0
CLASS
  1
ACMESCOPE
  2
AcMeScope
  3
AcMeServices
 90
        0
280
     0
281
     0
  0
CLASS
  1
ACMECOMMANDHISTORY
  2
AcMeCommandHistory
  3
AcMeServices
 90
        0
280
     0
281
     0
  0
CLASS
  1
DICTIONARYVAR
  2
AcDbDictionaryVar
  3
AutoCAD 2000
 90
        0
280
     0
281
     0
  0
CLASS
  1
ACIMSYSVARMAN
  2
AcImSysVarManager
  3
AcMeServices
 90
        0
280
     0
281
     0
  0
CLASS
  1
ACIMREALSYSVAR
  2
AcImRealSysVar
  3
AcMeServices
 90
        0
280
     0
281
     0
  0
CLASS
  1
ACIMINTSYSVAR
  2
AcImIntSysVar
  3
AcMeServices
 90
        0
280
     0
281
     0
  0
CLASS
  1
ACMEDRAWINGMAN
  2
AcMeDrawingMan
  3
AcMeServices
 90
        0
280
     0
281
     0
  0
CLASS
  1
ACMEVIEW
  2
AcMeView
  3
AcMeServices
 90
        0
280
     0
281
     0
  0
CLASS
  1
ACDBENTITYCACHE
  2
AcMeEntityCache
  3
AcMeServices
 90
        0
280
     0
281
     0
  0
CLASS
  1
GSMANAGER
  2
AcMeGSManager
  3
AcMeServices
 90
        0
280
     0
281
     0
  0
CLASS
  1
AmdtInternalReactor
  2
AmdtInternalReactor
  3
AcMeServices
 90
        0
280
     0
281
     0
  0
CLASS
  1
ACMESTATEMGR
  2
AcMeStateMgr
  3
AcMeServices
 90
        0
280
     0
281
     0
  0
CLASS
  1
ACME_DATABASE
  2
AcMeDbDatabase
  3
AcMeServices
 90
        0
280
     0
281
     0
  0
CLASS
  1
ACRFINSADJUSTERMGR
  2
AcRfInsAdjusterMgr
  3
AcMeServices
 90
        0
280
     0
281
     0
  0
CLASS
  1
ACMDATADICTIONARY
  2
AcmDataDictionary
  3
"AcmSymBB|Product Description: AutoCAD Mechanical 2000|Company: Autodesk"
 90
        0
280
     0
281
     0
  0
CLASS
  1
ACMDATAENTRYBLOCK
  2
AcmDataEntryBlock
  3
"AcmSymBB|Product Description: AutoCAD Mechanical 2000|Company: Autodesk"
 90
        0
280
     0
281
     0
  0
CLASS
  1
AMGOBJPROPCFG
  2
AmgObjPropCfg
  3
"AmgLay|Product Description: AutoCAD Mechanical 2000|Company: Autodesk"
 90
        1
280
     0
281
     0
  0
CLASS
  1
ACAMGFILTERDAT
  2
AcAmgFilterDat
  3
"AcadM|Product Description: AutoCAD Mechanical 2000|Company: Autodesk"
 90
        0
280
     0
281
     0
  0
CLASS
  1
LAYER_INDEX
  2
AcDbLayerIndex
  3
AutoCAD 2000
 90
        0
280
     0
281
     0
  0
CLASS
  1
IDBUFFER
  2
AcDbIdBuffer
  3
AutoCAD 2000
 90
        0
280
     0
281
     0
  0
CLASS
  1
ACIMSTRSYSVAR
  2
AcImStrSysVar
  3
AcMeServices
 90
        0
280
     0
281
     0
  0
CLASS
  1
ACMSTANDARDJIS
  2
AcmStandardJIS
  3
"AcmSymBB|Product Description: AutoCAD Mechanical 2000|Company: Autodesk"
 90
        0
280
     0
281
     0
  0
CLASS
  1
ACMSURFSTANDARDJIS
  2
AcmSurfTextStdJIS
  3
"AcmSymBB|Product Description: AutoCAD Mechanical 2000|Company: Autodesk"
 90
        0
280
     0
281
     0
  0
CLASS
  1
ACMFCFSTANDARDJIS
  2
AcmFCFStdJIS
  3
"AcmSymBB|Product Description: AutoCAD Mechanical 2000|Company: Autodesk"
 90
        0
280
     0
281
     0
  0
CLASS
  1
ACMWELDSTANDARDJIS
  2
AcmWeldingStdJIS
  3
"AcmSymBB|Product Description: AutoCAD Mechanical 2000|Company: Autodesk"
 90
        0
280
     0
281
     0
  0
CLASS
  1
ACMIDSTANDARDJIS
  2
AcmIdStdJIS
  3
"AcmSymBB|Product Description: AutoCAD Mechanical 2000|Company: Autodesk"
 90
        0
280
     0
281
     0
  0
CLASS
  1
ACMDATUMSTANDARDJIS
  2
AcmDatumStdJIS
  3
"AcmSymBB|Product Description: AutoCAD Mechanical 2000|Company: Autodesk"
 90
        0
280
     0
281
     0
  0
CLASS
  1
ACMBOMSTANDARDJIS
  2
AcmBOMStdJIS
  3
"AcmSymBB|Product Description: AutoCAD Mechanical 2000|Company: Autodesk"
 90
        0
280
     0
281
     0
  0
CLASS
  1
ACMSTANDARDANSI
  2
AcmStandardANSI
  3
"AcmSymBB|Product Description: AutoCAD Mechanical 2000|Company: Autodesk"
 90
        0
280
     0
281
     0
  0
CLASS
  1
ACMSURFSTANDARDANSI
  2
AcmSurfTextStdANSI
  3
"AcmSymBB|Product Description: AutoCAD Mechanical 2000|Company: Autodesk"
 90
        0
280
     0
281
     0
  0
CLASS
  1
ACMFCFSTANDARDANSI
  2
AcmFCFStdANSI
  3
"AcmSymBB|Product Description: AutoCAD Mechanical 2000|Company: Autodesk"
 90
        0
280
     0
281
     0
  0
CLASS
  1
ACMWELDSTANDARDANSI
  2
AcmWeldingStdANSI
  3
"AcmSymBB|Product Description: AutoCAD Mechanical 2000|Company: Autodesk"
 90
        0
280
     0
281
     0
  0
CLASS
  1
ACMIDSTANDARDANSI
  2
AcmIdStdANSI
  3
"AcmSymBB|Product Description: AutoCAD Mechanical 2000|Company: Autodesk"
 90
        0
280
     0
281
     0
  0
CLASS
  1
ACMDATUMSTANDARDANSI
  2
AcmDatumStdANSI
  3
"AcmSymBB|Product Description: AutoCAD Mechanical 2000|Company: Autodesk"
 90
        0
280
     0
281
     0
  0
CLASS
  1
ACMBOMSTANDARDANSI
  2
AcmBOMStdANSI
  3
"AcmSymBB|Product Description: AutoCAD Mechanical 2000|Company: Autodesk"
 90
        0
280
     0
281
     0
  0
CLASS
  1
ACMSTANDARDBSI
  2
AcmStandardBSI
  3
"AcmSymBB|Product Description: AutoCAD Mechanical 2000|Company: Autodesk"
 90
        0
280
     0
281
     0
  0
CLASS
  1
ACMSURFSTANDARDBSI
  2
AcmSurfTextStdBSI
  3
"AcmSymBB|Product Description: AutoCAD Mechanical 2000|Company: Autodesk"
 90
        0
280
     0
281
     0
  0
CLASS
  1
ACMFCFSTANDARDBSI
  2
AcmFCFStdBSI
  3
"AcmSymBB|Product Description: AutoCAD Mechanical 2000|Company: Autodesk"
 90
        0
280
     0
281
     0
  0
CLASS
  1
ACMWELDSTANDARDBSI
  2
AcmWeldingStdBSI
  3
"AcmSymBB|Product Description: AutoCAD Mechanical 2000|Company: Autodesk"
 90
        0
280
     0
281
     0
  0
CLASS
  1
ACMIDSTANDARDBSI
  2
AcmIdStdBSI
  3
"AcmSymBB|Product Description: AutoCAD Mechanical 2000|Company: Autodesk"
 90
        0
280
     0
281
     0
  0
CLASS
  1
ACMDATUMSTANDARDBSI
  2
AcmDatumStdBSI
  3
"AcmSymBB|Product Description: AutoCAD Mechanical 2000|Company: Autodesk"
 90
        0
280
     0
281
     0
  0
CLASS
  1
ACMBOMSTANDARDBSI
  2
AcmBOMStdBSI
  3
"AcmSymBB|Product Description: AutoCAD Mechanical 2000|Company: Autodesk"
 90
        0
280
     0
281
     0
  0
CLASS
  1
LONG_TRANSACTION
  2
AcDbLongTransaction
  3
AutoCAD 2000
 90
        0
280
     0
281
     0
  0
CLASS
  1
LWPOLYLINE
  2
AcDbPolyline
  3
AutoCAD 2000
 90
        0
280
     0
281
     1
  0
CLASS
  1
HATCH
  2
AcDbHatch
  3
AutoCAD 2000
 90
        0
280
     0
281
     1
  0
CLASS
  1
XRECORD
  2
AcDbXrecord
  3
AutoCAD 2000
 90
        0
280
     0
281
     0
  0
ENDSEC
  0
SECTION
  2
TABLES
  0
TABLE
  2
VPORT
  5
8
330
0
100
AcDbSymbolTable
 70
     3
  0
VPORT
  5
44B5
330
8
100
AcDbSymbolTableRecord
100
AcDbViewportTableRecord
  2
*ACTIVE
 70
     0
 10
0.0
 20
0.0
 11
1.0
 21
1.0
 12
-87.24261847213339
 22
-14.26921681351322
 13
0.0
 23
0.0
 14
2.5
 24
2.5
 15
10.0
 25
10.0
 16
0.0
 26
0.0
 36
1.0
 17
0.0
 27
0.0
 37
0.0
 40
156.6858116836611
 41
1.56570841889117
 42
50.0
 43
0.0
 44
0.0
 50
0.0
 51
0.0
 71
     0
 72
   100
 73
     1
 74
     1
 75
     0
 76
     0
 77
     0
 78
     0
  0
ENDTAB
  0
TABLE
  2
LTYPE
  5
5
330
0
100
AcDbSymbolTable
 70
    10
  0
LTYPE
  5
14
330
5
100
AcDbSymbolTableRecord
100
AcDbLinetypeTableRecord
  2
BYBLOCK
 70
     0
  3

 72
    65
 73
     0
 40
0.0
  0
LTYPE
  5
15
330
5
100
AcDbSymbolTableRecord
100
AcDbLinetypeTableRecord
  2
BYLAYER
 70
     0
  3

 72
    65
 73
     0
 40
0.0
  0
LTYPE
  5
16
330
5
100
AcDbSymbolTableRecord
100
AcDbLinetypeTableRecord
  2
CONTINUOUS
 70
     0
  3
Solid line
 72
    65
 73
     0
 40
0.0
  0
LTYPE
  5
4B
330
5
100
AcDbSymbolTableRecord
100
AcDbLinetypeTableRecord
  2
AM_ISO02W050
 70
     0
  3
__ __ __ __ __ __ __ __ __ __ __ __ __ __ __
 72
    65
 73
     2
 40
7.5
 49
6.0
 74
     0
 49
-1.5
 74
     0
  0
LTYPE
  5
4C
330
5
100
AcDbSymbolTableRecord
100
AcDbLinetypeTableRecord
  2
AM_ISO08W050
 70
     0
  3
____ . ____ . ____ . ____ . ____ . ____ . ____
 72
    65
 73
     4
 40
18.0
 49
12.0
 74
     0
 49
-1.5
 74
     0
 49
3.0
 74
     0
 49
-1.5
 74
     0
  0
LTYPE
  5
4D
330
5
100
AcDbSymbolTableRecord
100
AcDbLinetypeTableRecord
  2
AM_ISO09W050
 70
     0
  3
_____ . . _____ . . _____ . . ____ .. ____
 72
    65
 73
     6
 40
22.5
 49
12.0
 74
     0
 49
-1.5
 74
     0
 49
3.0
 74
     0
 49
-1.5
 74
     0
 49
3.0
 74
     0
 49
-1.5
 74
     0
  0
LTYPE
  5
4E
330
5
100
AcDbSymbolTableRecord
100
AcDbLinetypeTableRecord
  2
AMCONSTR
 70
     0
  3
_______________________
 72
    65
 73
     2
 40
9999.0
 49
9999.0
 74
     0
 49
0.0
 74
     0
  0
LTYPE
  5
4F
330
5
100
AcDbSymbolTableRecord
100
AcDbLinetypeTableRecord
  2
AM_ISO02W050X2
 70
     0
  3
 _ _ _ _ _ _ _ _ _ _ _ _
 72
    65
 73
     2
 40
3.75
 49
3.0
 74
     0
 49
-0.75
 74
     0
  0
LTYPE
  5
50
330
5
100
AcDbSymbolTableRecord
100
AcDbLinetypeTableRecord
  2
AM_ISO08W050X2
 70
     0
  3
__ . __ . __ . __ . __ . __
 72
    65
 73
     4
 40
9.0
 49
6.0
 74
     0
 49
-0.75
 74
     0
 49
1.5
 74
     0
 49
-0.75
 74
     0
  0
LTYPE
  5
53
330
5
100
AcDbSymbolTableRecord
100
AcDbLinetypeTableRecord
  2
AMZIGZAG
 70
     0
  3
/\/-/\/-/\/-/\/-/\/-/\/
 72
    65
 73
     2
 40
11.00009999999999
 49
0.0001
 74
     4
 75
   135
340
52
 46
0.04
 50
0.0
 44
0.0
 45
0.0
 49
-11.0
 74
     0
  0
LTYPE
  5
166
330
5
100
AcDbSymbolTableRecord
100
AcDbLinetypeTableRecord
  2
ACJISTGL
 70
     0
  3
_ _ _ _ _
 72
    65
 73
     2
 40
3.0
 49
2.0
 74
     0
 49
-1.0
 74
     0
  0
LTYPE
  5
26A
330
5
100
AcDbSymbolTableRecord
100
AcDbLinetypeTableRecord
  2
ACJISTGB
 70
     0
  3
__ . . __ . .
 72
    65
 73
     6
 40
9.0
 49
4.0
 74
     0
 49
-1.0
 74
     0
 49
1.0
 74
     0
 49
-1.0
 74
     0
 49
1.0
 74
     0
 49
-1.0
 74
     0
  0
ENDTAB
  0
TABLE
  2
LAYER
  5
2
330
0
100
AcDbSymbolTable
 70
     8
  0
LAYER
  5
10
330
2
100
AcDbSymbolTableRecord
100
AcDbLayerTableRecord
  2
0
 70
     0
 62
     7
  6
CONTINUOUS
  0
LAYER
  5
3F9
330
2
100
AcDbSymbolTableRecord
100
AcDbLayerTableRecord
  2
AM_0
 70
     0
 62
     7
  6
CONTINUOUS
  0
LAYER
  5
C7C
330
2
100
AcDbSymbolTableRecord
100
AcDbLayerTableRecord
  2
AM_7
 70
     0
 62
     4
  6
AM_ISO08W050
  0
LAYER
  5
C97
330
2
100
AcDbSymbolTableRecord
100
AcDbLayerTableRecord
  2
AM_11
 70
     0
 62
     3
  6
AM_ISO09W050
  0
LAYER
  5
CC5
330
2
100
AcDbSymbolTableRecord
100
AcDbLayerTableRecord
  2
AM_5
 70
     0
 62
     3
  6
CONTINUOUS
  0
LAYER
  5
CC7
330
2
100
AcDbSymbolTableRecord
100
AcDbLayerTableRecord
  2
DEFPOINTS
 70
     0
 62
     7
  6
CONTINUOUS
  0
LAYER
  5
19BC
330
2
100
AcDbSymbolTableRecord
100
AcDbLayerTableRecord
  2
AM_6
 70
     0
 62
     2
  6
CONTINUOUS
  0
LAYER
  5
3EB5
330
2
100
AcDbSymbolTableRecord
100
AcDbLayerTableRecord
  2
AM_CL
 70
     0
 62
     1
  6
AMCONSTR
  0
ENDTAB
  0
TABLE
  2
STYLE
  5
3
330
0
100
AcDbSymbolTable
 70
     5
  0
STYLE
  5
11
330
3
100
AcDbSymbolTableRecord
100
AcDbTextStyleTableRecord
  2
STANDARD
 70
     0
 40
0.0
 41
1.0
 50
0.0
 71
     0
 42
2.5
  3
simplex.shx
  4
EXTFONT.SHX
  0
STYLE
  5
52
330
3
100
AcDbSymbolTableRecord
100
AcDbTextStyleTableRecord
  2

 70
     1
 40
0.0
 41
1.0
 50
0.0
 71
     0
 42
2.5
  3
ltypeshp.shx
  4

  0
STYLE
  5
6B
330
3
100
AcDbSymbolTableRecord
100
AcDbTextStyleTableRecord
  2
ASAMI
 70
     0
 40
0.0
 41
1.0
 50
0.0
 71
     0
 42
2.5
  3
simplex.shx
  4
EXTFONT.SHX
  0
STYLE
  5
262
330
3
100
AcDbSymbolTableRecord
100
AcDbTextStyleTableRecord
  2
ACJISTS
 70
     0
 40
1.0
 41
1.0
 50
0.0
 71
     0
 42
2.5
  3
simplex.shx
  4
bigfont.shx
  0
STYLE
  5
269
330
3
100
AcDbSymbolTableRecord
100
AcDbTextStyleTableRecord
  2
ACJISGDT
 70
     0
 40
0.0
 41
1.0
 50
0.0
 71
     0
 42
2.5
  3
amgdtans.shx
  4

  0
ENDTAB
  0
TABLE
  2
VIEW
  5
6
330
0
100
AcDbSymbolTable
 70
     0
  0
ENDTAB
  0
TABLE
  2
UCS
  5
7
330
0
100
AcDbSymbolTable
 70
     0
  0
ENDTAB
  0
TABLE
  2
APPID
  5
9
330
0
100
AcDbSymbolTable
 70
    16
  0
APPID
  5
12
330
9
100
AcDbSymbolTableRecord
100
AcDbRegAppTableRecord
  2
ACAD
 70
     0
  0
APPID
  5
30
330
9
100
AcDbSymbolTableRecord
100
AcDbRegAppTableRecord
  2
MCAD_NO_VIS
 70
     0
  0
APPID
  5
31
330
9
100
AcDbSymbolTableRecord
100
AcDbRegAppTableRecord
  2
ACAD_TEMP_GRAPHIC
 70
     0
  0
APPID
  5
2C2
330
9
100
AcDbSymbolTableRecord
100
AcDbRegAppTableRecord
  2
GENIUS_GENDTOL_13
 70
     0
  0
APPID
  5
339
330
9
100
AcDbSymbolTableRecord
100
AcDbRegAppTableRecord
  2
GENIUS_GENODEF_13
 70
     0
  0
APPID
  5
33A
330
9
100
AcDbSymbolTableRecord
100
AcDbRegAppTableRecord
  2
GENIUS_GENOBJ-N-RSBK_13
 70
     0
  0
APPID
  5
33B
330
9
100
AcDbSymbolTableRecord
100
AcDbRegAppTableRecord
  2
GENIUS_GENOBJ-N-LIB_13
 70
     0
  0
APPID
  5
33C
330
9
100
AcDbSymbolTableRecord
100
AcDbRegAppTableRecord
  2
GENIUS_GENSCALE_13
 70
     0
  0
APPID
  5
378
330
9
100
AcDbSymbolTableRecord
100
AcDbRegAppTableRecord
  2
GENIUS_GENDIMSH_14
 70
     0
  0
APPID
  5
C82
330
9
100
AcDbSymbolTableRecord
100
AcDbRegAppTableRecord
  2
GENIUS_GENOBJ-N-CRS_13
 70
     0
  0
APPID
  5
C83
330
9
100
AcDbSymbolTableRecord
100
AcDbRegAppTableRecord
  2
GENIUS_GENOENT_13
 70
     0
  0
APPID
  5
C84
330
9
100
AcDbSymbolTableRecord
100
AcDbRegAppTableRecord
  2
GENIUS_GENOREF_13
 70
     0
  0
APPID
  5
C85
330
9
100
AcDbSymbolTableRecord
100
AcDbRegAppTableRecord
  2
GENIUS_GENOLIS_13
 70
     0
  0
APPID
  5
CA0
330
9
100
AcDbSymbolTableRecord
100
AcDbRegAppTableRecord
  2
GENIUS_GENOBJ-N-CEN_13
 70
     0
  0
APPID
  5
1E1E
330
9
100
AcDbSymbolTableRecord
100
AcDbRegAppTableRecord
  2
GENIUS_GENFIL_13
 70
     0
  0
APPID
  5
1E1F
330
9
100
AcDbSymbolTableRecord
100
AcDbRegAppTableRecord
  2
GENIUS_GENOBJ-N-CHA_13
 70
     0
  0
ENDTAB
  0
TABLE
  2
DIMSTYLE
  5
A
330
0
100
AcDbSymbolTable
 70
     9
  0
DIMSTYLE
105
58
330
A
100
AcDbSymbolTableRecord
100
AcDbDimStyleTableRecord
  2
AM_JIS
 70
     0
  3

  4
"
  5
OPEN30
  6

  7

 40
1.0
 41
2.5
 42
1.0
 43
12.0
 44
1.0
 45
0.0
 46
0.0
 47
0.1
 48
0.1
140
3.2
141
0.0
142
0.0
143
0.0393701
144
1.0
145
0.0
146
0.71
147
1.5
 71
     0
 72
     0
 73
     0
 74
     0
 75
     0
 76
     0
 77
     3
 78
     8
170
     0
171
     2
172
     1
173
     0
174
     0
175
     0
176
   256
177
   256
178
     2
270
     2
271
     3
272
     3
273
     2
274
     2
340
6B
275
     0
280
     0
281
     0
282
     0
283
     0
284
     0
285
     0
286
     0
287
     3
288
     0
  0
DIMSTYLE
105
5F
330
A
100
AcDbSymbolTableRecord
100
AcDbDimStyleTableRecord
  2
AM_JIS$3
 70
     0
  3

  4
"
  5
OPEN30
  6

  7

 40
1.0
 41
2.5
 42
1.0
 43
10.0
 44
1.0
 45
0.0
 46
0.0
 47
0.1
 48
0.1
140
3.2
141
0.0
142
0.0
143
0.0393701
144
1.0
145
0.0
146
0.71
147
1.5
 71
     0
 72
     0
 73
     0
 74
     1
 75
     0
 76
     0
 77
     3
 78
     8
170
     0
171
     2
172
     0
173
     0
174
     0
175
     0
176
   256
177
   256
178
     2
270
     2
271
     2
272
     3
273
     2
274
     2
340
6B
275
     0
280
     0
281
     0
282
     0
283
     0
284
     0
285
     0
286
     0
287
     0
288
     1
  0
DIMSTYLE
105
60
330
A
100
AcDbSymbolTableRecord
100
AcDbDimStyleTableRecord
  2
AM_JIS$4
 70
     0
  3

  4
"
  5
OPEN30
  6

  7

 40
1.0
 41
2.5
 42
1.0
 43
10.0
 44
1.0
 45
0.0
 46
0.0
 47
0.1
 48
0.1
140
3.2
141
0.0
142
0.0
143
0.0393701
144
1.0
145
0.0
146
0.71
147
1.5
 71
     0
 72
     0
 73
     0
 74
     1
 75
     0
 76
     0
 77
     3
 78
     8
170
     0
171
     2
172
     0
173
     0
174
     0
175
     0
176
   256
177
   256
178
     2
270
     2
271
     2
272
     3
273
     2
274
     2
340
6B
275
     0
280
     0
281
     0
282
     0
283
     0
284
     0
285
     0
286
     0
287
     0
288
     1
  0
DIMSTYLE
105
61
330
A
100
AcDbSymbolTableRecord
100
AcDbDimStyleTableRecord
  2
AM_JIS$6
 70
     0
  3

  4
"
  5
OPEN30
  6

  7

 40
1.0
 41
2.5
 42
1.0
 43
10.0
 44
1.0
 45
0.0
 46
0.0
 47
0.1
 48
0.1
140
3.2
141
0.0
142
0.0
143
0.0393701
144
1.0
145
0.0
146
0.71
147
1.5
 71
     0
 72
     0
 73
     0
 74
     0
 75
     0
 76
     0
 77
     0
 78
     8
170
     0
171
     2
172
     1
173
     0
174
     0
175
     0
176
   256
177
   256
178
     2
270
     2
271
     2
272
     2
273
     2
274
     2
340
6B
275
     0
280
     0
281
     0
282
     0
283
     0
284
     0
285
     0
286
     0
287
     3
288
     0
  0
DIMSTYLE
105
62
330
A
100
AcDbSymbolTableRecord
100
AcDbDimStyleTableRecord
  2
AM_JIS$7
 70
     0
  3

  4
"
  5
OPEN30
  6

  7

 40
1.0
 41
2.5
 42
1.0
 43
10.0
 44
1.0
 45
0.0
 46
0.0
 47
0.1
 48
0.1
140
3.2
141
0.0
142
0.0
143
0.0393701
144
1.0
145
0.0
146
0.71
147
1.5
 71
     0
 72
     0
 73
     0
 74
     0
 75
     0
 76
     0
 77
     3
 78
     8
170
     0
171
     2
172
     1
173
     0
174
     0
175
     0
176
   256
177
   256
178
     2
270
     2
271
     2
272
     3
273
     2
274
     2
340
6B
275
     0
280
     0
281
     0
282
     0
283
     0
284
     0
285
     0
286
     0
287
     3
288
     0
  0
DIMSTYLE
105
63
330
A
100
AcDbSymbolTableRecord
100
AcDbDimStyleTableRecord
  2
AM_JIS$SF
 70
     0
  3

  4
"
  5
OPEN30
  6

  7

 40
1.0
 41
2.5
 42
1.0
 43
10.0
 44
1.0
 45
0.0
 46
0.0
 47
0.1
 48
0.1
140
3.2
141
0.0
142
0.0
143
0.0393701
144
1.0
145
0.0
146
0.71
147
1.5
 71
     0
 72
     0
 73
     0
 74
     0
 75
     1
 76
     1
 77
     3
 78
     8
170
     0
171
     2
172
     1
173
     0
174
     0
175
     0
176
   256
177
   256
178
     2
270
     2
271
     2
272
     2
273
     2
274
     2
340
6B
275
     0
280
     0
281
     0
282
     0
283
     0
284
     0
285
     0
286
     0
287
     3
288
     0
  0
DIMSTYLE
105
68
330
A
100
AcDbSymbolTableRecord
100
AcDbDimStyleTableRecord
  2
AM_JIS$SH
 70
     0
  3

  4
"
  5

  6
GENAXEH
  7
OPEN30
 40
1.0
 41
2.5
 42
1.0
 43
10.0
 44
1.0
 45
0.0
 46
0.0
 47
0.1
 48
0.1
140
3.2
141
0.0
142
0.0
143
0.0393701
144
2.0
145
0.0
146
0.71
147
1.5
 71
     0
 72
     0
 73
     0
 74
     0
 75
     1
 76
     1
 77
     3
 78
     8
170
     0
171
     2
172
     1
173
     1
174
     0
175
     0
176
   256
177
   256
178
     2
270
     2
271
     2
272
     2
273
     2
274
     2
340
6B
275
     0
280
     0
281
     0
282
     0
283
     0
284
     0
285
     0
286
     0
287
     3
288
     0
  0
DIMSTYLE
105
B34
102
{ACAD_REACTORS
330
4385
102
}
330
A
100
AcDbSymbolTableRecord
100
AcDbDimStyleTableRecord
  2
AM_JIS$2
 70
     0
  3

  4
"
  5
OPEN30
  6

  7

 40
1.0
 41
2.5
 42
1.0
 43
12.0
 44
1.0
 45
0.0
 46
0.0
 47
0.1
 48
0.1
140
3.2
141
0.0
142
0.0
143
0.0393701
144
1.0
145
0.0
146
0.71
147
1.5
 71
     0
 72
     0
 73
     0
 74
     0
 75
     0
 76
     0
 77
     3
 78
     8
170
     0
171
     2
172
     1
173
     0
174
     0
175
     0
176
   256
177
   256
178
     2
270
     2
271
     3
272
     3
273
     2
274
     2
340
6B
275
     0
280
     0
281
     0
282
     0
283
     0
284
     0
285
     0
286
     0
287
     3
288
     0
  0
DIMSTYLE
105
BA5
102
{ACAD_REACTORS
330
CC6
330
DF5
330
1FB6
330
2216
102
}
330
A
100
AcDbSymbolTableRecord
100
AcDbDimStyleTableRecord
  2
AM_JIS$0
 70
     0
  3

  4
"
  5
OPEN30
  6

  7

 40
1.0
 41
2.5
 42
0.0
 43
10.0
 44
1.0
 45
0.0
 46
0.0
 47
0.1
 48
0.1000000001
140
3.799999999999999
141
0.0
142
0.0
143
0.0393701
144
1.0
145
0.0
146
0.71
147
1.5
 71
     0
 72
     0
 73
     0
 74
     0
 75
     0
 76
     0
 77
     3
 78
     1
170
     0
171
     2
172
     1
173
     0
174
     0
175
     0
176
     3
177
     3
178
     2
270
     2
271
     2
272
     2
273
     2
274
     2
340
11
275
     1
280
     0
281
     0
282
     0
283
     0
284
     8
285
     0
286
     0
287
     0
288
     0
  0
ENDTAB
  0
TABLE
  2
BLOCK_RECORD
  5
1
330
0
100
AcDbSymbolTable
 70
    10
  0
BLOCK_RECORD
  5
1F
102
{ACAD_XDICTIONARY
360
74
102
}
330
1
100
AcDbSymbolTableRecord
100
AcDbBlockTableRecord
  2
*MODEL_SPACE
  0
BLOCK_RECORD
  5
101
102
{ACAD_XDICTIONARY
360
44DE
102
}
330
1
100
AcDbSymbolTableRecord
100
AcDbBlockTableRecord
  2
*PAPER_SPACE
  0
BLOCK_RECORD
  5
59
330
1
100
AcDbSymbolTableRecord
100
AcDbBlockTableRecord
  2
_OPEN30
  0
BLOCK_RECORD
  5
64
330
1
100
AcDbSymbolTableRecord
100
AcDbBlockTableRecord
  2
GENAXEH
  0
BLOCK_RECORD
  5
CC8
330
1
100
AcDbSymbolTableRecord
100
AcDbBlockTableRecord
  2
*D5
  0
BLOCK_RECORD
  5
DF6
330
1
100
AcDbSymbolTableRecord
100
AcDbBlockTableRecord
  2
*D6
  0
BLOCK_RECORD
  5
1FB7
330
1
100
AcDbSymbolTableRecord
100
AcDbBlockTableRecord
  2
*D7
  0
BLOCK_RECORD
  5
2217
330
1
100
AcDbSymbolTableRecord
100
AcDbBlockTableRecord
  2
*D8
  0
BLOCK_RECORD
  5
4386
330
1
100
AcDbSymbolTableRecord
100
AcDbBlockTableRecord
  2
*D9
  0
ENDTAB
  0
ENDSEC
  0
SECTION
  2
BLOCKS
  0
BLOCK
  5
20
330
1F
100
AcDbEntity
  8
0
100
AcDbBlockBegin
  2
*MODEL_SPACE
 70
     0
 10
0.0
 20
0.0
 30
0.0
  3
*MODEL_SPACE
  1

  0
ENDBLK
  5
21
330
1F
100
AcDbEntity
  8
0
100
AcDbBlockEnd
  0
BLOCK
  5
103
330
101
100
AcDbEntity
 67
     1
  8
0
100
AcDbBlockBegin
  2
*PAPER_SPACE
 70
     0
 10
0.0
 20
0.0
 30
0.0
  3
*PAPER_SPACE
  1

  0
ENDBLK
  5
104
330
101
100
AcDbEntity
 67
     1
  8
0
100
AcDbBlockEnd
  0
BLOCK
  5
5D
330
59
100
AcDbEntity
  8
0
100
AcDbBlockBegin
  2
_OPEN30
 70
     0
 10
0.0
 20
0.0
 30
0.0
  3
_OPEN30
  1

  0
LINE
  5
5A
330
59
100
AcDbEntity
  8
0
 62
     0
100
AcDbLine
 10
-1.0
 20
0.26794919
 30
0.0
 11
0.0
 21
0.0
 31
0.0
  0
LINE
  5
5B
330
59
100
AcDbEntity
  8
0
 62
     0
100
AcDbLine
 10
0.0
 20
0.0
 30
0.0
 11
-1.0
 21
-0.26794919
 31
0.0
  0
LINE
  5
5C
330
59
100
AcDbEntity
  8
0
 62
     0
100
AcDbLine
 10
0.0
 20
0.0
 30
0.0
 11
-1.0
 21
0.0
 31
0.0
  0
ENDBLK
  5
5E
330
59
100
AcDbEntity
  8
0
100
AcDbBlockEnd
  0
BLOCK
  5
66
330
64
100
AcDbEntity
  8
0
100
AcDbBlockBegin
  2
GENAXEH
 70
     0
 10
0.0
 20
0.0
 30
0.0
  3
GENAXEH
  1

  0
LINE
  5
65
330
64
100
AcDbEntity
  8
0
100
AcDbLine
 10
-1.0
 20
0.0
 30
0.0
 11
1.0
 21
0.0
 31
0.0
  0
ENDBLK
  5
67
330
64
100
AcDbEntity
  8
0
100
AcDbBlockEnd
  0
BLOCK
  5
CD2
330
CC8
100
AcDbEntity
  8
0
100
AcDbBlockBegin
  2
*D5
 70
     1
 10
0.0
 20
0.0
 30
0.0
  3
*D5
  1

  0
LINE
  5
4352
330
CC8
100
AcDbEntity
  8
AM_5
 62
     3
100
AcDbLine
 10
-187.999999955641
 20
-7.000001049576236
 30
0.0
 11
-187.999999955641
 21
-32.50000204957605
 31
0.0
  0
LINE
  5
4353
330
CC8
100
AcDbEntity
  8
AM_5
 62
     3
100
AcDbLine
 10
-2.999999955640382
 20
-7.049999610212719
 30
0.0
 11
-2.999999955640383
 21
-32.50000204957605
 31
0.0
  0
LINE
  5
4354
330
CC8
100
AcDbEntity
  8
AM_5
 62
     3
100
AcDbLine
 10
-185.499999955641
 20
-31.50000204957605
 30
0.0
 11
-5.499999955640383
 21
-31.50000204957605
 31
0.0
  0
INSERT
  5
4355
330
CC8
100
AcDbEntity
  8
AM_5
 62
     3
100
AcDbBlockReference
  2
_OPEN30
 10
-187.999999955641
 20
-31.50000204957605
 30
0.0
 41
2.5
 42
2.5
 43
2.5
 50
180.0
  0
INSERT
  5
4356
330
CC8
100
AcDbEntity
  8
AM_5
 62
     3
100
AcDbBlockReference
  2
_OPEN30
 10
-2.999999955640383
 20
-31.50000204957605
 30
0.0
 41
2.5
 42
2.5
 43
2.5
  0
MTEXT
  5
4357
330
CC8
100
AcDbEntity
  8
AM_5
 62
     2
100
AcDbMText
 10
-95.49999995564069
 20
-28.10000204957606
 30
0.0
 40
3.799999999999999
 41
0.0
 71
     5
 72
     1
  1
185
1001
ACAD
1000
MTEXTBEGIN
1070
    73
1070
     1
1070
    44
1040
1.0
1070
    74
1070
     0
1000
MTEXTEND
  0
POINT
  5
4358
330
CC8
100
AcDbEntity
  8
DEFPOINTS
 62
     0
100
AcDbPoint
 10
-187.999999955641
 20
-7.000001049576236
 30
0.0
  0
POINT
  5
4359
330
CC8
100
AcDbEntity
  8
DEFPOINTS
 62
     0
100
AcDbPoint
 10
-2.999999955640382
 20
-7.049999610212719
 30
0.0
  0
POINT
  5
435A
330
CC8
100
AcDbEntity
  8
DEFPOINTS
 62
     0
100
AcDbPoint
 10
-2.999999955640383
 20
-31.50000204957605
 30
0.0
  0
ENDBLK
  5
CD3
330
CC8
100
AcDbEntity
  8
0
100
AcDbBlockEnd
  0
BLOCK
  5
E00
330
DF6
100
AcDbEntity
  8
0
100
AcDbBlockBegin
  2
*D6
 70
     1
 10
0.0
 20
0.0
 30
0.0
  3
*D6
  1

  0
LINE
  5
4349
330
DF6
100
AcDbEntity
  8
AM_5
 62
     3
100
AcDbLine
 10
-122.999980715194
 20
-7.500001049576246
 30
0.0
 11
-122.999980715194
 21
-22.50000204957593
 31
0.0
  0
LINE
  5
434A
330
DF6
100
AcDbEntity
  8
AM_5
 62
     3
100
AcDbLine
 10
-2.999999955640371
 20
-7.049999610212703
 30
0.0
 11
-2.999999955640372
 21
-22.50000204957593
 31
0.0
  0
LINE
  5
434B
330
DF6
100
AcDbEntity
  8
AM_5
 62
     3
100
AcDbLine
 10
-120.499980715194
 20
-21.50000204957593
 30
0.0
 11
-5.499999955640372
 21
-21.50000204957593
 31
0.0
  0
INSERT
  5
434C
330
DF6
100
AcDbEntity
  8
AM_5
 62
     3
100
AcDbBlockReference
  2
_OPEN30
 10
-122.999980715194
 20
-21.50000204957593
 30
0.0
 41
2.5
 42
2.5
 43
2.5
 50
180.0
  0
INSERT
  5
434D
330
DF6
100
AcDbEntity
  8
AM_5
 62
     3
100
AcDbBlockReference
  2
_OPEN30
 10
-2.999999955640372
 20
-21.50000204957593
 30
0.0
 41
2.5
 42
2.5
 43
2.5
  0
MTEXT
  5
434E
330
DF6
100
AcDbEntity
  8
AM_5
 62
     2
100
AcDbMText
 10
-62.9999903354172
 20
-18.10000204957593
 30
0.0
 40
3.799999999999999
 41
0.0
 71
     5
 72
     1
  1
120
1001
ACAD
1000
MTEXTBEGIN
1070
    73
1070
     1
1070
    44
1040
1.0
1070
    74
1070
     0
1000
MTEXTEND
  0
POINT
  5
434F
330
DF6
100
AcDbEntity
  8
DEFPOINTS
 62
     0
100
AcDbPoint
 10
-122.999980715194
 20
-7.500001049576246
 30
0.0
  0
POINT
  5
4350
330
DF6
100
AcDbEntity
  8
DEFPOINTS
 62
     0
100
AcDbPoint
 10
-2.999999955640371
 20
-7.049999610212703
 30
0.0
  0
POINT
  5
4351
330
DF6
100
AcDbEntity
  8
DEFPOINTS
 62
     0
100
AcDbPoint
 10
-2.999999955640372
 20
-21.50000204957593
 30
0.0
  0
ENDBLK
  5
E01
330
DF6
100
AcDbEntity
  8
0
100
AcDbBlockEnd
  0
BLOCK
  5
1FC3
330
1FB7
100
AcDbEntity
  8
0
100
AcDbBlockBegin
  2
*D7
 70
     1
 10
0.0
 20
0.0
 30
0.0
  3
*D7
  1

  0
LINE
  5
436F
330
1FB7
100
AcDbEntity
  8
AM_5
 62
     3
100
AcDbLine
 10
-2.999999955640376
 20
-7.049999610212712
 30
0.0
 11
15.55592106921698
 21
-7.049999610212718
 31
0.0
  0
LINE
  5
4370
330
1FB7
100
AcDbEntity
  8
AM_5
 62
     3
100
AcDbLine
 10
-2.999999955640262
 20
7.050000389785805
 30
0.0
 11
15.55592106921699
 21
7.050000389785799
 31
0.0
  0
LINE
  5
4371
330
1FB7
100
AcDbEntity
  8
AM_5
 62
     3
100
AcDbLine
 10
14.55592106921698
 20
-4.549999610212718
 30
0.0
 11
14.55592106921699
 21
4.550000389785799
 31
0.0
  0
INSERT
  5
4372
330
1FB7
100
AcDbEntity
  8
AM_5
 62
     3
100
AcDbBlockReference
  2
_OPEN30
 10
14.55592106921698
 20
-7.049999610212718
 30
0.0
 41
2.5
 42
2.5
 43
2.5
 50
270.0
  0
INSERT
  5
4373
330
1FB7
100
AcDbEntity
  8
AM_5
 62
     3
100
AcDbBlockReference
  2
_OPEN30
 10
14.55592106921699
 20
7.050000389785799
 30
0.0
 41
2.5
 42
2.5
 43
2.5
 50
90.0
  0
MTEXT
  5
4374
330
1FB7
100
AcDbEntity
  8
AM_5
 62
     2
100
AcDbMText
 10
11.15592106921698
 20
0.0000003897865439
 30
0.0
 40
3.799999999999999
 41
0.0
 71
     5
 72
     1
  1
%%c14.1
 11
0.0000000000000001
 21
1.0
 31
0.0
1001
ACAD
1000
MTEXTBEGIN
1070
    73
1070
     1
1070
    44
1040
1.0
1070
    74
1070
     0
1000
MTEXTEND
  0
POINT
  5
4375
330
1FB7
100
AcDbEntity
  8
DEFPOINTS
 62
     0
100
AcDbPoint
 10
-2.999999955640376
 20
-7.049999610212712
 30
0.0
  0
POINT
  5
4376
330
1FB7
100
AcDbEntity
  8
DEFPOINTS
 62
     0
100
AcDbPoint
 10
-2.999999955640262
 20
7.050000389785805
 30
0.0
  0
POINT
  5
4377
330
1FB7
100
AcDbEntity
  8
DEFPOINTS
 62
     0
100
AcDbPoint
 10
14.55592106921699
 20
7.050000389785799
 30
0.0
  0
ENDBLK
  5
1FC4
330
1FB7
100
AcDbEntity
  8
0
100
AcDbBlockEnd
  0
BLOCK
  5
2221
330
2217
100
AcDbEntity
  8
0
100
AcDbBlockBegin
  2
*D8
 70
     1
 10
0.0
 20
0.0
 30
0.0
  3
*D8
  1

  0
LINE
  5
435B
330
2217
100
AcDbEntity
  8
AM_5
 62
     3
100
AcDbLine
 10
-187.4999999556415
 20
7.500001004903476
 30
0.0
 11
-205.000000955641
 21
7.500001004903427
 31
0.0
  0
LINE
  5
435C
330
2217
100
AcDbEntity
  8
AM_5
 62
     3
100
AcDbLine
 10
-187.4999999556415
 20
-7.50000104957633
 30
0.0
 11
-205.0000009556409
 21
-7.50000104957638
 31
0.0
  0
LINE
  5
435D
330
2217
100
AcDbEntity
  8
AM_5
 62
     3
100
AcDbLine
 10
-204.000000955641
 20
5.000001004903429
 30
0.0
 11
-204.0000009556409
 21
-5.000001049576377
 31
0.0
  0
INSERT
  5
435E
330
2217
100
AcDbEntity
  8
AM_5
 62
     3
100
AcDbBlockReference
  2
_OPEN30
 10
-204.000000955641
 20
7.500001004903429
 30
0.0
 41
2.5
 42
2.5
 43
2.5
 50
90.00000000000017
  0
INSERT
  5
435F
330
2217
100
AcDbEntity
  8
AM_5
 62
     3
100
AcDbBlockReference
  2
_OPEN30
 10
-204.0000009556409
 20
-7.500001049576377
 30
0.0
 41
2.5
 42
2.5
 43
2.5
 50
270.0000000000001
  0
MTEXT
  5
4360
330
2217
100
AcDbEntity
  8
AM_5
 62
     2
100
AcDbMText
 10
-207.400000955641
 20
-0.0000000223364757
 30
0.0
 40
3.799999999999999
 41
0.0
 71
     5
 72
     1
  1
%%c15
 11
-0.0000000000000028
 21
1.0
 31
0.0
1001
ACAD
1000
MTEXTBEGIN
1070
    73
1070
     1
1070
    44
1040
1.0
1070
    74
1070
     0
1000
MTEXTEND
  0
POINT
  5
4361
330
2217
100
AcDbEntity
  8
DEFPOINTS
 62
     0
100
AcDbPoint
 10
-187.4999999556415
 20
7.500001004904059
 30
0.0
  0
POINT
  5
4362
330
2217
100
AcDbEntity
  8
DEFPOINTS
 62
     0
100
AcDbPoint
 10
-187.4999999556415
 20
-7.500001049575748
 30
0.0
  0
POINT
  5
4363
330
2217
100
AcDbEntity
  8
DEFPOINTS
 62
     0
100
AcDbPoint
 10
-204.000000955641
 20
-7.500001049575743
 30
0.0
  0
ENDBLK
  5
2222
330
2217
100
AcDbEntity
  8
0
100
AcDbBlockEnd
  0
BLOCK
  5
4394
330
4386
100
AcDbEntity
  8
0
100
AcDbBlockBegin
  2
*D9
 70
     1
 10
0.0
 20
0.0
 30
0.0
  3
*D9
  1

  0
LINE
  5
44E0
330
4386
100
AcDbEntity
  8
AM_5
100
AcDbLine
 10
0.342020001088735
 20
-0.9396927110365668
 30
0.0
 11
9.266069284262151
 21
-25.45833175534767
 31
0.0
  0
LINE
  5
44E1
330
4386
100
AcDbEntity
  8
AM_5
100
AcDbLine
 10
0.3420226496685154
 20
0.9396917023580929
 30
0.0
 11
9.266141040085605
 21
25.45830559359476
 31
0.0
  0
ARC
  5
44E2
330
4386
100
AcDbEntity
  8
AM_5
100
AcDbCircle
 10
0.000000044358984
 20
-0.0000000223353196
 30
0.0
 40
26.09218879652921
100
AcDbArc
 50
295.491835156252
 51
64.50800335209994
  0
INSERT
  5
44E3
330
4386
100
AcDbEntity
  8
AM_5
100
AcDbBlockReference
  2
_OPEN30
 10
8.924049327532399
 20
-24.51863906664641
 30
0.0
 41
2.5
 42
2.5
 43
2.5
 50
202.7459118894795
  0
INSERT
  5
44E4
330
4386
100
AcDbEntity
  8
AM_5
100
AcDbBlockReference
  2
_OPEN30
 10
8.924118434776072
 20
24.51861386890135
 30
0.0
 41
2.5
 42
2.5
 43
2.5
 50
157.2539266188723
  0
MTEXT
  5
44E5
330
4386
100
AcDbEntity
  8
AM_5
 62
     2
100
AcDbMText
 10
22.99218884086537
 20
-0.0000324247783336
 30
0.0
 40
3.2
 41
0.0
 71
     5
 72
     1
  1
140°
  7
ASAMI
 11
0.0000014092804859
 21
0.999999999999007
 31
0.0
  0
POINT
  5
44E6
330
4386
100
AcDbEntity
  8
DEFPOINTS
 62
     0
100
AcDbPoint
 10
23.9582576674749
 20
-10.33461215139622
 30
0.0
  0
POINT
  5
44E7
330
4386
100
AcDbEntity
  8
DEFPOINTS
 62
     0
100
AcDbPoint
 10
0.000000044358984
 20
-0.0000000223353196
 30
0.0
  0
POINT
  5
44E8
330
4386
100
AcDbEntity
  8
DEFPOINTS
 62
     0
100
AcDbPoint
 10
0.000000044358984
 20
-0.0000000223353196
 30
0.0
  0
POINT
  5
44E9
330
4386
100
AcDbEntity
  8
DEFPOINTS
 62
     0
100
AcDbPoint
 10
-0.6133935795770932
 20
1.685286149910314
 30
0.0
  0
POINT
  5
44EA
330
4386
100
AcDbEntity
  8
DEFPOINTS
 62
     0
100
AcDbPoint
 10
-0.6134060756230479
 20
-1.685305747381622
 30
0.0
  0
ENDBLK
  5
4395
330
4386
100
AcDbEntity
  8
0
100
AcDbBlockEnd
  0
ENDSEC
  0
SECTION
  2
ENTITIES
  0
LINE
  5
C9F
330
1F
100
AcDbEntity
  8
AM_7
100
AcDbLine
 10
-189.999999955641
 20
0.0000010049045709
 30
0.0
 11
0.5559200692170095
 21
-0.0000000029402454
 31
0.0
1001
GENIUS_GENODEF_13
1002
{
1000
HIER
1070
     0
1002
}
1002
{
1000
MANEDIT
1070
     0
1002
}
1002
{
1000
NOSEL
1070
     0
1002
}
1002
{
1000
BEHIND
1070
     0
1002
}
1002
{
1000
REACTOR
1002
}
1001
GENIUS_GENOBJ-N-CEN_13
1002
{
1000
OWNER
1000
GEN
1002
}
  0
DIMENSION
  5
CC6
330
1F
100
AcDbEntity
  8
AM_5
100
AcDbDimension
  2
*D5
 10
-2.999999955640383
 20
-31.50000204957605
 30
0.0
 11
-95.49999995564069
 21
-28.10000204957606
 31
0.0
 70
    32
  1
<>
  3
AM_JIS$0
100
AcDbAlignedDimension
 13
-187.999999955641
 23
-7.000001049576236
 33
0.0
 14
-2.999999955640382
 24
-7.049999610212719
 34
0.0
 50
0.0000000000001132
100
AcDbRotatedDimension
1001
GENIUS_GENDTOL_13
1000

1000
h7
1000

1040
0.0
1001
ACAD
1000
DSTYLE
1002
{
1070
   271
1070
     0
1002
}
  0
DIMENSION
  5
DF5
330
1F
100
AcDbEntity
  8
AM_5
100
AcDbDimension
  2
*D6
 10
-2.999999955640372
 20
-21.50000204957593
 30
0.0
 11
-62.9999903354172
 21
-18.10000204957593
 31
0.0
 70
    32
  1
<>
  3
AM_JIS$0
100
AcDbAlignedDimension
 13
-122.999980715194
 23
-7.500001049576246
 33
0.0
 14
-2.999999955640371
 24
-7.049999610212703
 34
0.0
 50
0.0000000000001527
100
AcDbRotatedDimension
1001
GENIUS_GENDTOL_13
1000

1000
h7
1000

1040
0.0
1001
ACAD
1000
DSTYLE
1002
{
1070
   271
1070
     0
1002
}
  0
TEXT
  5
19BD
330
1F
100
AcDbEntity
  8
AM_6
100
AcDbText
 10
-116.2142856699263
 20
-54.00000204957611
 30
0.0
 40
5.0
  1
MDW141LHK
 50
0.0000000000001527
 72
     4
 11
-95.49999995564064
 21
-51.50000204957605
 31
0.0
100
AcDbText
  0
LINE
  5
1E25
330
1F
100
AcDbEntity
  8
AM_0
100
AcDbLine
 10
-122.9999999556409
 20
-7.500001049576245
 30
0.0
 11
-122.2201783510048
 21
-7.049770836219683
 31
0.0
  0
LINE
  5
1E26
330
1F
100
AcDbEntity
  8
AM_0
100
AcDbLine
 10
-122.2205760268237
 20
7.050000389789156
 30
0.0
 11
-122.9999999556409
 21
7.500001004904585
 31
0.0
  0
DIMENSION
  5
1FB6
330
1F
100
AcDbEntity
  8
AM_5
100
AcDbDimension
  2
*D7
 10
14.55592106921699
 20
7.050000389785799
 30
0.0
 11
14.55592106921699
 21
0.0000003897865435
 31
0.0
 70
   160
  1
%%c<>
  3
AM_JIS$0
100
AcDbAlignedDimension
 13
-2.999999955640376
 23
-7.049999610212712
 33
0.0
 14
-2.999999955640262
 24
7.050000389785805
 34
0.0
 50
89.99999999999969
100
AcDbRotatedDimension
1001
ACAD
1000
DSTYLE
1002
{
1070
   271
1070
     1
1002
}
1001
GENIUS_GENDTOL_13
1000

1000
h7
1000

1040
0.0
  0
LINE
  5
1FD9
330
1F
100
AcDbEntity
  8
AM_0
100
AcDbLine
 10
-122.220570962985
 20
-7.049997510852123
 30
0.0
 11
-122.2205760268237
 21
7.050000389789156
 31
0.0
  0
LINE
  5
21D7
330
1F
100
AcDbEntity
  8
AM_0
 48
0.5
100
AcDbLine
 10
-122.999980715194
 20
-7.500001049576246
 30
0.0
 11
-122.999980715194
 21
7.500001004904585
 31
0.0
  0
LINE
  5
21D8
330
1F
100
AcDbEntity
  8
AM_0
 48
0.5
100
AcDbLine
 10
-187.499999955641
 20
7.500001004904571
 30
0.0
 11
-122.9999807151939
 21
7.500001004904585
 31
0.0
1001
GENIUS_GENODEF_13
1002
{
1000
HIER
1070
     0
1002
}
1002
{
1000
MANEDIT
1070
     0
1002
}
1002
{
1000
NOSEL
1070
     0
1002
}
1002
{
1000
BEHIND
1070
     0
1002
}
1002
{
1000
REACTOR
1002
}
1001
GENIUS_GENOBJ-N-CEN_13
1002
{
1000
OWNER
1000
GEN
1002
}
  0
LINE
  5
21D9
330
1F
100
AcDbEntity
  8
AM_0
 48
0.5
100
AcDbLine
 10
-187.499999955641
 20
-7.500001049576259
 30
0.0
 11
-122.999980715194
 21
-7.500001049576246
 31
0.0
1001
GENIUS_GENODEF_13
1002
{
1000
HIER
1070
     0
1002
}
1002
{
1000
MANEDIT
1070
     0
1002
}
1002
{
1000
NOSEL
1070
     0
1002
}
1002
{
1000
BEHIND
1070
     0
1002
}
1002
{
1000
REACTOR
1002
}
1001
GENIUS_GENOBJ-N-CEN_13
1002
{
1000
OWNER
1000
GEN
1002
}
  0
LINE
  5
21DC
330
1F
100
AcDbEntity
  8
AM_0
100
AcDbLine
 10
-187.4999999556415
 20
-7.500001049575753
 30
0.0
 11
-187.4999999556415
 21
7.500001004904083
 31
0.0
  0
LINE
  5
21DD
330
1F
100
AcDbEntity
  8
AM_0
 48
0.5
100
AcDbLine
 10
-187.999999955641
 20
-7.000001049576236
 30
0.0
 11
-187.999999955641
 21
7.000001004904595
 31
0.0
  0
DIMENSION
  5
2216
330
1F
100
AcDbEntity
  8
AM_5
100
AcDbDimension
  2
*D8
 10
-204.000000955641
 20
-7.500001049575743
 30
0.0
 11
-207.400000955641
 21
-0.0000000223358722
 31
0.0
 70
    32
  1
%%c<>
 51
359.9999999999998
  3
AM_JIS$0
100
AcDbAlignedDimension
 13
-187.4999999556415
 23
7.500001004904059
 33
0.0
 14
-187.4999999556415
 24
-7.500001049575748
 34
0.0
 50
269.9999999999999
100
AcDbRotatedDimension
1001
ACAD
1000
DSTYLE
1002
{
1070
   271
1070
     0
1002
}
1001
GENIUS_GENDTOL_13
1000

1000
h7
1000

1040
0.0
  0
ELLIPSE
  5
2694
330
1F
100
AcDbEntity
  8
AM_0
 48
0.5
100
AcDbEllipse
 10
8.60683491245485
 20
6.911482917359768
 30
0.0
 11
10.62451473362349
 21
0.0000000000010481
 31
0.0
210
0.0
220
0.0
230
1.0
 40
0.9899999999999973
 41
3.323896559076802
 42
3.661579236128986
  0
LINE
  5
2695
330
1F
100
AcDbEntity
  8
AM_0
 48
0.5
100
AcDbLine
 10
-1.841616895231316
 20
5.004565037295593
 30
0.0
 11
-2.999999955640262
 21
7.050000389785805
 31
0.0
  0
LINE
  5
2696
330
1F
100
AcDbEntity
  8
AM_0
 48
0.5
100
AcDbLine
 10
0.000000044358984
 20
-0.0000000223353196
 30
0.0
 11
-0.6133935795770931
 21
1.685286149910314
 31
0.0
  0
LINE
  5
2699
330
1F
100
AcDbEntity
  8
AM_0
 48
0.5
100
AcDbLine
 10
0.000000044358984
 20
-0.0000000223353196
 30
0.0
 11
-0.6134060756230478
 21
-1.685305747381622
 31
0.0
  0
LINE
  5
2CB4
330
1F
100
AcDbEntity
  8
AM_0
 48
0.5
100
AcDbLine
 10
-187.999999955641
 20
7.000001004904571
 30
0.0
 11
-187.499999955641
 21
7.500001004904571
 31
0.0
1001
GENIUS_GENFIL_13
1070
     0
1040
0.5
1040
0.5
1040
20.0
1040
0.0
1002
{
1002
}
1001
GENIUS_GENODEF_13
1002
{
1000
HIER
1070
     0
1002
}
1002
{
1000
MANEDIT
1070
     0
1002
}
1002
{
1000
NOSEL
1070
     0
1002
}
1002
{
1000
BEHIND
1070
     0
1002
}
1002
{
1000
REACTOR
1002
}
1001
GENIUS_GENOBJ-N-CHA_13
1002
{
1000
OWNER
1000
GEN
1002
}
  0
LINE
  5
2CB7
330
1F
100
AcDbEntity
  8
AM_0
 48
0.5
100
AcDbLine
 10
-187.499999955641
 20
-7.500001049576259
 30
0.0
 11
-187.999999955641
 21
-7.000001049576259
 31
0.0
1001
GENIUS_GENFIL_13
1070
     0
1040
0.5
1040
0.5
1040
20.0
1040
0.0
1002
{
1002
}
1001
GENIUS_GENODEF_13
1002
{
1000
HIER
1070
     0
1002
}
1002
{
1000
MANEDIT
1070
     0
1002
}
1002
{
1000
NOSEL
1070
     0
1002
}
1002
{
1000
BEHIND
1070
     0
1002
}
1002
{
1000
REACTOR
1002
}
1001
GENIUS_GENOBJ-N-CHA_13
1002
{
1000
OWNER
1000
GEN
1002
}
  0
ELLIPSE
  5
3366
330
1F
100
AcDbEntity
  8
AM_0
 48
0.5
100
AcDbEllipse
 10
8.606834912454873
 20
-6.911480907549949
 30
0.0
 11
10.62451473362349
 21
-0.0000000000010127
 31
0.0
210
0.0
220
0.0
230
-1.0
 40
0.9899999999999973
 41
3.323896559076802
 42
3.661579236128986
  0
LINE
  5
3367
330
1F
100
AcDbEntity
  8
AM_0
 48
0.5
100
AcDbLine
 10
-1.841616895231302
 20
-5.004563027485817
 30
0.0
 11
-2.999999955641026
 21
-7.049999610213859
 31
0.0
  0
SPLINE
  5
3D48
330
1F
100
AcDbEntity
  8
AM_0
100
AcDbSpline
210
0.0
220
0.0
230
1.0
 70
     8
 71
     3
 72
    46
 73
    42
 74
     0
 42
0.0000000001
 43
0.0000000001
 40
0.0
 40
0.0
 40
0.0
 40
0.0
 40
1.348332046947657
 40
2.024828967632895
 40
2.703918159304097
 40
3.386347665078124
 40
4.072776489761952
 40
4.763750544421347
 40
5.459696642770596
 40
6.160921452191754
 40
6.867565637253344
 40
7.579665907256596
 40
8.297112853413899
 40
9.019671552060676
 40
9.746986763446127
 40
10.47859339096366
 40
11.21393074760089
 40
11.95235532364328
 40
12.69315551794651
 40
13.43556823304427
 40
14.1787950170388
 40
14.92202180103393
 40
15.66443451613169
 40
16.40523471043432
 40
17.14365928647669
 40
17.87899664311455
 40
18.61060327063121
 40
19.3379184820169
 40
20.06048192311554
 40
20.77792886927283
 40
21.49002913927608
 40
22.19667332433747
 40
22.89788836015233
 40
23.59383445850158
 40
24.28480851316097
 40
24.97123685067576
 40
25.65366676154838
 40
26.33276604526152
 40
27.00926273560555
 40
27.68398960851751
 40
28.357818684969
 40
28.357818684969
 40
28.357818684969
 40
28.357818684969
 10
-4.976106657003915
 20
-7.049999610214145
 30
0.0
 10
-5.730441985255468
 20
-7.033939165242673
 30
0.0
 10
-6.863249017032485
 20
-7.009820733670184
 30
0.0
 10
-8.369591926903851
 20
-6.861327981270107
 30
0.0
 10
-9.50065899592141
 20
-6.711607786027679
 30
0.0
 10
-10.63162938563011
 20
-6.519392487689629
 30
0.0
 10
-11.7625001166667
 20
-6.287238042700059
 30
0.0
 10
-12.89326537952644
 20
-6.01625434708318
 30
0.0
 10
-14.02392328034743
 20
-5.708206687596512
 30
0.0
 10
-15.15446878730263
 20
-5.364986522470138
 30
0.0
 10
-16.28490416008138
 20
-4.98872263044913
 30
0.0
 10
-17.41522635815626
 20
-4.581735186808939
 30
0.0
 10
-18.54545354075811
 20
-4.146552334514676
 30
0.0
 10
-19.67559120101698
 20
-3.685849374612273
 30
0.0
 10
-20.80564973160268
 20
-3.202467233281323
 30
0.0
 10
-21.93564169043857
 20
-2.6993880709716
 30
0.0
 10
-23.06557698083143
 20
-2.179705548926492
 30
0.0
 10
-24.19546659990251
 20
-1.646615988217656
 30
0.0
 10
-25.32532252770282
 20
-1.103400242722363
 30
0.0
 10
-26.45515508554
 20
-0.553398707428234
 30
0.0
 10
-27.58497814580524
 20
0.0000003896745703
 30
0.0
 10
-28.71480120582226
 20
0.5533994874498668
 30
0.0
 10
-29.84463376440396
 20
1.103401020727508
 30
0.0
 10
-30.97448968948299
 20
1.646616773592171
 30
0.0
 10
-32.10437931864466
 20
2.179706306970674
 30
0.0
 10
-33.23431457162262
 20
2.699388930353917
 30
0.0
 10
-34.36430666901854
 20
3.202467717372843
 30
0.0
 10
-35.49436714377193
 20
3.685852297760116
 30
0.0
 10
-36.62450919520054
 20
4.146551071942591
 30
0.0
 10
-37.75473839395445
 20
4.58173615570549
 30
0.0
 10
-38.88506056571218
 20
4.988723720446089
 30
0.0
 10
-40.01549129479087
 20
5.36498415492348
 30
0.0
 10
-41.14602926915384
 20
5.708209629375078
 30
0.0
 10
-42.27668255470512
 20
6.016258547270146
 30
0.0
 10
-43.40744716313731
 20
6.287224513711012
 30
0.0
 10
-44.53831872325912
 20
6.519446292637933
 30
0.0
 10
-45.66929633090812
 20
6.71138710506524
 30
0.0
 10
-46.80035757182382
 20
6.862161302590564
 30
0.0
 10
-47.9314887909481
 20
6.969730753340655
 30
0.0
 10
-49.0626610692942
 20
7.037420084705488
 30
0.0
 10
-49.81695985961668
 20
7.045808816349675
 30
0.0
 10
-50.19385816887215
 20
7.050000389787226
 30
0.0
  0
LINE
  5
3D4A
330
1F
100
AcDbEntity
  8
AM_0
100
AcDbLine
 10
-119.0115018407331
 20
7.050000389788817
 30
0.0
 11
-122.2205760268237
 21
7.050000389789156
 31
0.0
  0
LINE
  5
3D4B
330
1F
100
AcDbEntity
  8
AM_0
 48
0.5
100
AcDbLine
 10
-8.142623014334031
 20
7.050000389785954
 30
0.0
 11
-2.999999955641062
 21
7.050000389785805
 31
0.0
  0
LINE
  5
3D4C
330
1F
100
AcDbEntity
  8
AM_0
 48
0.5
100
AcDbLine
 10
-8.14262301433443
 20
-7.049999610214054
 30
0.0
 11
-2.999999955641026
 21
-7.049999610213872
 31
0.0
  0
LINE
  5
3D4D
330
1F
100
AcDbEntity
  8
AM_11
 48
0.5
100
AcDbLine
 10
-29.45101342447376
 20
-7.049999610213395
 30
0.0
 11
-8.14262301433443
 21
-7.049999610214054
 31
0.0
  0
LINE
  5
3D4E
330
1F
100
AcDbEntity
  8
AM_11
 48
0.5
100
AcDbLine
 10
-29.45101342447334
 20
7.050000389786597
 30
0.0
 11
-8.142623014334031
 21
7.050000389785954
 31
0.0
  0
LINE
  5
3D4F
330
1F
100
AcDbEntity
  8
AM_11
 48
0.5
100
AcDbLine
 10
-69.72055656026793
 20
-7.049999610212329
 30
0.0
 11
-48.41216615013131
 21
-7.051001190657186
 31
0.0
  0
LINE
  5
3D50
330
1F
100
AcDbEntity
  8
AM_11
 48
0.5
100
AcDbLine
 10
-66.95854546841538
 20
7.051001970231968
 30
0.0
 11
-53.3603476390624
 21
7.050000389787317
 31
0.0
  0
LINE
  5
3D51
330
1F
100
AcDbEntity
  8
AM_0
 48
0.5
100
AcDbLine
 10
-48.4121661501313
 20
-7.049999610212973
 30
0.0
 11
-29.45101342447376
 21
-7.049999610213395
 31
0.0
  0
LINE
  5
3D52
330
1F
100
AcDbEntity
  8
AM_0
 48
0.5
100
AcDbLine
 10
-53.36036599185373
 20
7.050000389787317
 30
0.0
 11
-29.45101342447334
 21
7.050000389786597
 31
0.0
  0
LINE
  5
3D53
330
1F
100
AcDbEntity
  8
AM_0
 48
0.5
100
AcDbLine
 10
0.000000044358984
 20
-0.0000000223353196
 30
0.0
 11
-5.376201177394632
 21
2.706986244887901
 31
0.0
  0
SPLINE
  5
3D54
330
1F
100
AcDbEntity
  8
AM_0
100
AcDbSpline
210
0.0
220
0.0
230
1.0
 70
     8
 71
     3
 72
    17
 73
    13
 74
     0
 42
0.0000000001
 43
0.0000000001
 40
1.580019955310467
 40
1.580019955310467
 40
1.580019955310467
 40
1.580019955310467
 40
2.030549285115227
 40
3.082371838836284
 40
4.126290986361125
 40
5.162752068350215
 40
6.192395305374981
 40
7.216039564037012
 40
8.234688489606833
 40
9.249433870634691
 40
10.26152376260694
 40
11.27226744710342
 40
11.27226744710342
 40
11.27226744710342
 40
11.27226744710352
 10
-18.79598698547839
 20
-5.203107208675763
 30
0.0
 10
-18.9560291134207
 20
-5.256694894521258
 30
0.0
 10
-19.49062358885273
 20
-5.43233569253844
 30
0.0
 10
-20.40330893229705
 20
-5.707834568765194
 30
0.0
 10
-21.5338047477892
 20
-6.016356762713243
 30
0.0
 10
-22.6646117877209
 20
-6.287198286000344
 30
0.0
 10
-23.79547064083645
 20
-6.519449591918809
 30
0.0
 10
-24.92645269899727
 20
-6.711421273253301
 30
0.0
 10
-26.05751289346312
 20
-6.862017832266245
 30
0.0
 10
-27.18864351679074
 20
-6.970263352865024
 30
0.0
 10
-28.31981670085079
 20
-7.03546104606277
 30
0.0
 10
-29.07411518723527
 20
-7.049999650553888
 30
0.0
 10
-29.45101342447366
 20
-7.0499996102134
 30
0.0
  0
SPLINE
  5
3D55
330
1F
100
AcDbEntity
  8
AM_0
100
AcDbSpline
210
0.0
220
0.0
230
1.0
 70
     8
 71
     3
 72
    22
 73
    18
 74
     0
 42
0.0000000001
 43
0.0000000001
 40
17.17441611292
 40
17.17441611292
 40
17.17441611292
 40
17.17441611292
 40
17.38177636558528
 40
18.41823744757437
 40
19.46215659509824
 40
20.51397914882054
 40
21.57394542641293
 40
22.64209583141747
 40
23.71826625065247
 40
24.80210429862395
 40
25.8930771157021
 40
26.99048705697709
 40
28.09349309193389
 40
29.20112995599786
 40
30.31233024745139
 40
31.42594771747373
 40
32.5407895042663
 40
32.54078950426994
 40
32.54078950426994
 40
32.54078950426994
 10
-33.76845097244035
 20
-6.330950635639135
 30
0.0
 10
-33.84419594143909
 20
-6.314630577115607
 30
0.0
 10
-34.2982456638496
 20
-6.215223316822457
 30
0.0
 10
-35.1300391697057
 20
-6.015898821791691
 30
0.0
 10
-36.26069236953632
 20
-5.707850372062753
 30
0.0
 10
-37.39123035817927
 20
-5.364624746496125
 30
0.0
 10
-38.52166111716936
 20
-4.98836444455045
 30
0.0
 10
-39.65198315328612
 20
-4.581376498184489
 30
0.0
 10
-40.78221037948316
 20
-4.146193781455424
 30
0.0
 10
-41.91234802903028
 20
-3.685490787319923
 30
0.0
 10
-43.04240655838806
 20
-3.202108645899208
 30
0.0
 10
-44.17239853309096
 20
-2.699029518826499
 30
0.0
 10
-45.30233376078748
 20
-2.179346854867651
 30
0.0
 10
-46.43222361610255
 20
-1.646257829587157
 30
0.0
 10
-47.56207811452621
 20
-1.103040337068415
 30
0.0
 10
-48.69191399387045
 20
-0.5530463228536649
 30
0.0
 10
-49.44499006459807
 20
-0.1841770040625587
 30
0.0
 10
-49.82173497538034
 20
0.0003589713310877
 30
0.0
  0
SPLINE
  5
3D56
330
1F
100
AcDbEntity
  8
AM_0
100
AcDbSpline
210
0.0
220
0.0
230
1.0
 70
     8
 71
     3
 72
    11
 73
     7
 74
     0
 42
0.0000000001
 43
0.0000000001
 40
11.27226913003534
 40
11.27226913003534
 40
11.27226913003534
 40
11.2722691300354
 40
12.28301561507924
 40
13.29510212255852
 40
14.30984805882082
 40
15.18258238371378
 40
15.18258238371378
 40
15.18258238371378
 40
15.18258238371378
 10
-29.45101342447372
 20
-7.0499996102134
 30
0.0
 10
-29.82647850906301
 20
-7.015494861496768
 30
0.0
 10
-30.57670047969485
 20
-6.931960366561788
 30
0.0
 10
-31.69815942924777
 20
-6.763450628069604
 30
0.0
 10
-32.76244374677403
 20
-6.562184221812926
 30
0.0
 10
-33.45076037111391
 20
-6.407464745250924
 30
0.0
 10
-33.76795627140767
 20
-6.331037597335225
 30
0.0
  0
SPLINE
  5
3D57
330
1F
100
AcDbEntity
  8
AM_0
100
AcDbSpline
210
0.0
220
0.0
230
1.0
 70
     8
 71
     3
 72
    55
 73
    51
 74
     0
 42
0.0000000001
 43
0.0000000001
 40
0.0
 40
0.0
 40
0.0
 40
0.0
 40
1.010743684496582
 40
2.022833576467832
 40
3.037578957496688
 40
4.056212745003489
 40
5.079857003664532
 40
6.109500240690281
 40
7.145961322679372
 40
8.189895241603872
 40
9.241717795325891
 40
10.30168407291828
 40
11.36983447792315
 40
12.44600489715814
 40
13.52984294512926
 40
14.62081576220742
 40
15.7182257034828
 40
16.82123173843959
 40
17.92886860250316
 40
19.0400688939571
 40
20.15368796660465
 40
21.26852814259644
 40
22.38336992938901
 40
23.49698739941135
 40
24.6081876908653
 40
25.71582455492886
 40
26.81883757994213
 40
27.91624752121713
 40
29.00722033829659
 40
30.09105838626677
 40
31.16722880550176
 40
32.23537921050758
 40
33.29534548809967
 40
34.347168041821
 40
35.39108718934584
 40
36.42754827133493
 40
37.45720575381954
 40
38.48085062012849
 40
39.49948440763516
 40
40.51422944315121
 40
41.52631975251916
 40
42.53706336719636
 40
43.54780698187354
 40
44.55989729124051
 40
45.57464232675757
 40
46.59327611426424
 40
47.6169209805722
 40
48.64656348684535
 40
49.68302456883444
 40
50.58557219878025
 40
50.58557219878025
 40
50.58557219878025
 40
50.58557219878025
 10
-8.142623014334432
 20
-7.049999610214047
 30
0.0
 10
-8.51952125654523
 20
-7.045805031010728
 30
0.0
 10
-9.273819730975416
 20
-7.037410285852526
 30
0.0
 10
-10.40499293902828
 20
-6.969739215593201
 30
0.0
 10
-11.53611786156194
 20
-6.862159891536666
 30
0.0
 10
-12.66717277856793
 20
-6.711383377321669
 30
0.0
 10
-13.79814640389868
 20
-6.519452983793447
 30
0.0
 10
-14.92901642597324
 20
-6.28722219482583
 30
0.0
 10
-16.05978662750167
 20
-6.016255399787361
 30
0.0
 10
-17.19044698083756
 20
-5.708211869683209
 30
0.0
 10
-18.32098978412324
 20
-5.364982973101052
 30
0.0
 10
-19.45142067248959
 20
-4.988723122344721
 30
0.0
 10
-20.58174267345597
 20
-4.581735053495532
 30
0.0
 10
-21.71196990949041
 20
-4.146552370664074
 30
0.0
 10
-22.84210755519415
 20
-3.685849364677006
 30
0.0
 10
-23.97216609003739
 20
-3.202467236536654
 30
0.0
 10
-25.10215804652221
 20
-2.699388067951822
 30
0.0
 10
-26.23209334206131
 20
-2.17970555778507
 30
0.0
 10
-27.36198294280548
 20
-1.646615955635402
 30
0.0
 10
-28.4918389390536
 20
-1.103400364669843
 30
0.0
 10
-29.62167124071827
 20
-0.5533982510996035
 30
0.0
 10
-30.75149580278167
 20
-0.000001048669456
 30
0.0
 10
-31.88131529287815
 20
0.5534061152552173
 30
0.0
 10
-33.01115138149442
 20
1.103399663837758
 30
0.0
 10
-34.14100598292014
 20
1.646616899085985
 30
0.0
 10
-35.27089759824498
 20
2.179708532069428
 30
0.0
 10
-36.40083758129771
 20
2.699386607174386
 30
0.0
 10
-37.53083132120838
 20
3.202468327070576
 30
0.0
 10
-38.6608900191945
 20
3.685850063237861
 30
0.0
 10
-39.79102762377617
 20
4.146553166109039
 30
0.0
 10
-40.92125486270463
 20
4.581735849577078
 30
0.0
 10
-42.05157689246119
 20
4.988723821109283
 30
0.0
 10
-43.18200766415475
 20
5.364984056061534
 30
0.0
 10
-44.31254560878275
 20
5.708209921936931
 30
0.0
 10
-45.44319897029029
 20
6.016257486642779
 30
0.0
 10
-46.57396875236165
 20
6.28722973048261
 30
0.0
 10
-47.7048468492272
 20
6.519433995470427
 30
0.0
 10
-48.83582421097522
 20
6.711423795512786
 30
0.0
 10
-49.9668794632765
 20
6.862021583631299
 30
0.0
 10
-51.09800517175013
 20
6.970254197733487
 30
0.0
 10
-52.22917742070291
 20
7.035472348379204
 30
0.0
 10
-53.36037452647989
 20
7.057259574503231
 30
0.0
 10
-54.49157163059243
 20
7.035472348345107
 30
0.0
 10
-55.62274388454811
 20
6.970254197870642
 30
0.0
 10
-56.75386957460252
 20
6.862021583115007
 30
0.0
 10
-57.8849248959619
 20
6.711423797453735
 30
0.0
 10
-59.0158964843642
 20
6.519434924154277
 30
0.0
 10
-60.14677012600047
 20
6.287232104646069
 30
0.0
 10
-61.22612626004631
 20
6.028557910977766
 30
0.0
 10
-61.92642481187228
 20
5.839387027726752
 30
0.0
 10
-62.25132252356786
 20
5.747194828007102
 30
0.0
  0
SPLINE
  5
3D58
330
1F
100
AcDbEntity
  8
AM_0
 48
0.5
100
AcDbSpline
210
0.0
220
0.0
230
1.0
 70
     8
 71
     3
 72
    10
 73
     6
 74
     0
 42
0.0000000001
 43
0.0000000001
 40
0.0
 40
0.0
 40
0.0
 40
0.0
 40
2.69986029516136
 40
4.147722969032201
 40
6.285750005020438
 40
6.285750005020438
 40
6.285750005020438
 40
6.285750005020438
 10
-9.461674835083538
 20
1.276012810440157
 30
0.0
 10
-8.656596025104379
 20
0.621019092744438
 30
0.0
 10
-7.419775039212599
 20
-0.3852301907193117
 30
0.0
 10
-4.494859552731854
 20
0.1019127154056834
 30
0.0
 10
-5.045706215248367
 20
1.742674481835765
 30
0.0
 10
-5.409670494803733
 20
2.742769312577153
 30
0.0
  0
SPLINE
  5
3D59
330
1F
100
AcDbEntity
  8
AM_0
 48
0.5
100
AcDbSpline
210
0.0
220
0.0
230
1.0
 70
     8
 71
     3
 72
    25
 73
    21
 74
     0
 42
0.0000000001
 43
0.0000000001
 40
6.846175049578289
 40
6.846175049578289
 40
6.846175049578289
 40
6.846175049578289
 40
7.604337694224321
 40
8.711974558287883
 40
9.814980593243754
 40
10.91239053451967
 40
12.0033633515982
 40
13.08720139956839
 40
14.16337181880432
 40
15.23152222380919
 40
16.29148850140128
 40
17.34331105512262
 40
18.38723020264746
 40
19.42369128463655
 40
20.45333379090873
 40
21.47697865721768
 40
22.49561244472435
 40
23.5103574802404
 40
24.52244778960836
 40
25.53320666051913
 40
25.53320666051913
 40
25.53320666051913
 40
25.53320666051913
 10
-9.461855684775809
 20
1.276096545084404
 30
0.0
 10
-9.718819516329142
 20
1.399882006705571
 30
0.0
 10
-10.35173516111289
 20
1.703273009728347
 30
0.0
 10
-11.36154319908147
 20
2.179706100000351
 30
0.0
 10
-12.491478365026
 20
2.699388910806997
 30
0.0
 10
-13.62147035614389
 20
3.20246799877654
 30
0.0
 10
-14.75152888117225
 20
3.685850150762321
 30
0.0
 10
-15.88166653175186
 20
4.146553141442361
 30
0.0
 10
-17.01189375810613
 20
4.581735861491238
 30
0.0
 10
-18.14221579259188
 20
4.988723798104636
 30
0.0
 10
-19.27264655787685
 20
5.364984135375943
 30
0.0
 10
-20.40318452322289
 20
5.708209630780373
 30
0.0
 10
-21.53383780904695
 20
6.016258560820248
 30
0.0
 10
-22.66460242522159
 20
6.28722445869603
 30
0.0
 10
-23.79547395440872
 20
6.51944649732075
 30
0.0
 10
-24.92644610383985
 20
6.711385401309185
 30
0.0
 10
-26.05750127604241
 20
6.862162717611631
 30
0.0
 10
-27.18862700564052
 20
6.969730516186732
 30
0.0
 10
-28.31980493105512
 20
7.037420496709259
 30
0.0
 10
-29.07410942096383
 20
7.045808932515772
 30
0.0
 10
-29.45101342447334
 20
7.050000389786599
 30
0.0
  0
SPLINE
  5
3D5B
330
1F
100
AcDbEntity
  8
AM_0
 48
0.5
100
AcDbSpline
210
0.0
220
0.0
230
1.0
 70
     8
 71
     3
 72
    17
 73
    13
 74
     0
 42
0.0000000001
 43
0.0000000001
 40
0.0
 40
0.0
 40
0.0
 40
0.0
 40
1.010743614677189
 40
2.022833924044153
 40
3.037578959561199
 40
4.056212747067873
 40
5.079857613375832
 40
6.109500119648989
 40
7.14596120163808
 40
8.18989512056258
 40
9.241717674284874
 40
9.693948937866434
 40
9.693948937866434
 40
9.693948937866434
 40
9.693948937866434
 10
-8.142623014334031
 20
7.050000389785951
 30
0.0
 10
-8.519521325135809
 20
7.045808833400387
 30
0.0
 10
-9.273820118552681
 20
7.037420135882967
 30
0.0
 10
-10.40499237364409
 20
6.969730548082579
 30
0.0
 10
-11.53611805903035
 20
6.862162610463534
 30
0.0
 10
-12.6671733980252
 20
6.71138580034173
 30
0.0
 10
-13.79814492008724
 20
6.519444997349362
 30
0.0
 10
-14.9290188115173
 20
6.287230107741903
 30
0.0
 10
-16.05977989408715
 20
6.016235975559925
 30
0.0
 10
-17.19047204586581
 20
5.708287003093129
 30
0.0
 10
-18.10319623502379
 20
5.43087152894256
 30
0.0
 10
-18.63920139290206
 20
5.257446963507688
 30
0.0
 10
-18.80008138426489
 20
5.204362864983074
 30
0.0
  0
SPLINE
  5
3D5C
330
1F
100
AcDbEntity
  8
AM_0
100
AcDbSpline
210
0.0
220
0.0
230
1.0
 70
     8
 71
     3
 72
    17
 73
    13
 74
     0
 42
0.0000000001
 43
0.0000000001
 40
1.580019955310467
 40
1.580019955310467
 40
1.580019955310467
 40
1.580019955310467
 40
2.030549285115227
 40
3.082371838836284
 40
4.126290986361125
 40
5.162752068350215
 40
6.192395305374981
 40
7.216039564037012
 40
8.234688489606833
 40
9.249433870634691
 40
10.26152376260694
 40
11.27226744710342
 40
11.27226744710342
 40
11.27226744710342
 40
11.27226744710352
 10
-59.06553012127528
 20
-5.20310720867469
 30
0.0
 10
-59.22557224921759
 20
-5.256694894520181
 30
0.0
 10
-59.76016672464961
 20
-5.432335692537368
 30
0.0
 10
-60.67285206809393
 20
-5.707834568764119
 30
0.0
 10
-61.80334788358607
 20
-6.016356762712173
 30
0.0
 10
-62.93415492351778
 20
-6.287198285999272
 30
0.0
 10
-64.06501377663329
 20
-6.519449591917737
 30
0.0
 10
-65.19599583479413
 20
-6.711421273252227
 30
0.0
 10
-66.32705602925996
 20
-6.862017832265169
 30
0.0
 10
-67.45818665258757
 20
-6.970263352863947
 30
0.0
 10
-68.58935983664764
 20
-7.035461046061692
 30
0.0
 10
-69.34365832303214
 20
-7.049999650552808
 30
0.0
 10
-69.72055656027052
 20
-7.049999610212328
 30
0.0
  0
SPLINE
  5
3D5D
330
1F
100
AcDbEntity
  8
AM_0
100
AcDbSpline
210
0.0
220
0.0
230
1.0
 70
     8
 71
     3
 72
    11
 73
     7
 74
     0
 42
0.0000000001
 43
0.0000000001
 40
11.27226913003534
 40
11.27226913003534
 40
11.27226913003534
 40
11.2722691300354
 40
12.28301561507924
 40
13.29510212255852
 40
14.30984805882082
 40
15.18258238371378
 40
15.18258238371378
 40
15.18258238371378
 40
15.18258238371378
 10
-69.72055656027059
 20
-7.049999610212328
 30
0.0
 10
-70.09602164485986
 20
-7.015494861495694
 30
0.0
 10
-70.84624361549169
 20
-6.931960366560712
 30
0.0
 10
-71.96770256504462
 20
-6.76345062806853
 30
0.0
 10
-73.03198688257089
 20
-6.562184221811858
 30
0.0
 10
-73.72030350691078
 20
-6.40746474524985
 30
0.0
 10
-74.03749940720455
 20
-6.331037597334152
 30
0.0
  0
SPLINE
  5
3D5E
330
1F
100
AcDbEntity
  8
AM_0
100
AcDbSpline
210
0.0
220
0.0
230
1.0
 70
     8
 71
     3
 72
    23
 73
    19
 74
     0
 42
0.0000000001
 43
0.0000000001
 40
16.03460024169435
 40
16.03460024169435
 40
16.03460024169435
 40
16.03460024169435
 40
16.35212704903564
 40
17.38177054169784
 40
18.41822485651776
 40
19.46214173629503
 40
20.51396345435107
 40
21.57393551351153
 40
22.64208202342361
 40
23.7182574881101
 40
24.80209208578934
 40
25.89306333925047
 40
26.99048218457928
 40
28.09348763352352
 40
29.20111863782268
 40
30.31232390128032
 40
31.42594612798585
 40
32.5407912310448
 40
32.5407912310486
 40
32.5407912310486
 40
32.5407912310486
 10
-66.95854546841538
 20
7.051001970231966
 30
0.0
 10
-66.8423313228599
 20
7.027202411734252
 30
0.0
 10
-66.34976470766159
 20
6.923562033009108
 30
0.0
 10
-65.48210331041082
 20
6.720494528413018
 30
0.0
 10
-64.35847952956584
 20
6.418535369803238
 30
0.0
 10
-63.23589942334018
 20
6.079485566180538
 30
0.0
 10
-62.11429665758011
 20
5.705307364874872
 30
0.0
 10
-60.99363142461584
 20
5.298086817735253
 30
0.0
 10
-59.87383895268274
 20
4.86015176913939
 30
0.0
 10
-58.75484126368921
 20
4.394050891220341
 30
0.0
 10
-57.63657477216757
 20
3.902423686074353
 30
0.0
 10
-56.5189498226382
 20
3.388130817856459
 30
0.0
 10
-55.40187584409697
 20
2.85416157891613
 30
0.0
 10
-54.28527840909076
 20
2.303586068523018
 30
0.0
 10
-53.16906409326831
 20
1.739605807871813
 30
0.0
 10
-52.05312951154427
 20
1.1655140279166
 30
0.0
 10
-50.9373837953422
 20
0.5846374350636486
 30
0.0
 10
-50.19375311048094
 20
0.1951914415595635
 30
0.0
 10
-49.82173497537533
 20
0.0003589713285547
 30
0.0
  0
ELLIPSE
  5
3D5F
330
1F
100
AcDbEntity
  8
AM_0
 48
0.5
100
AcDbEllipse
 10
-20.78707176555755
 20
48.39286004854275
 30
0.0
 11
0.0119415627807945
 21
52.85684115331253
 31
0.0
210
0.0
220
0.0
230
0.9999999999999998
 40
0.9777891997190788
 41
3.480681320270212
 42
3.555747064840543
  0
ELLIPSE
  5
3D60
330
1F
100
AcDbEntity
  8
AM_0
 48
0.5
100
AcDbEllipse
 10
-13.69595765873113
 20
11.83245621559125
 30
0.0
 11
-0.0000000000097917
 21
16.99829695224682
 31
0.0
210
0.0
220
0.0
230
1.0
 40
0.9520120120119679
 41
3.652175978817592
 42
3.740670756497095
  0
ELLIPSE
  5
3D61
330
1F
100
AcDbEntity
  8
AM_0
 48
0.5
100
AcDbEllipse
 10
2.206827677898052
 20
8.463959130019977
 30
0.0
 11
0.000000000000728
 21
14.20888552665681
 31
0.0
210
0.0
220
0.0
230
1.0
 40
0.9520120120120136
 41
2.101163880029009
 42
2.509284810223906
  0
ELLIPSE
  5
3D62
330
1F
100
AcDbEntity
  8
AM_0
 48
0.5
100
AcDbEllipse
 10
-4.077388563887542
 20
-1.837331095962927
 30
0.0
 11
-0.9600665499799493
 21
0.6022744793132372
 31
0.0
210
0.0
220
0.0
230
1.0
 40
0.5116449098074219
 41
4.513383202928133
 42
7.656823544257642
  0
ELLIPSE
  5
3D63
330
1F
100
AcDbEntity
  8
AM_0
 48
0.5
100
AcDbEllipse
 10
-4.077388563887542
 20
-1.837331095962927
 30
0.0
 11
-0.1885019596094527
 21
1.158145668970302
 31
0.0
210
0.0
220
0.0
230
0.9999999999999998
 40
0.4773126204892474
 41
1.816264100094801
 42
4.951605989806777
  0
ELLIPSE
  5
3D64
330
1F
100
AcDbEntity
  8
AM_0
 48
0.5
100
AcDbEllipse
 10
4.864201878093858
 20
-1.567117491988907
 30
0.0
 11
10.60386897845239
 21
1.810700773578183
 31
0.0
210
0.0
220
0.0
230
1.0
 40
0.6415180325187129
 41
3.086120280316453
 42
3.774325492717327
  0
LINE
  5
3D65
330
1F
100
AcDbEntity
  8
AM_11
 48
0.5
100
AcDbLine
 10
-119.0115018407331
 20
7.050000389788817
 30
0.0
 11
-93.630064451239
 21
7.050000389788397
 31
0.0
  0
SPLINE
  5
3D6E
330
1F
100
AcDbEntity
  8
AM_0
100
AcDbSpline
210
0.0
220
0.0
230
1.0
 70
     8
 71
     3
 72
    46
 73
    42
 74
     0
 42
0.0000000001
 43
0.0000000001
 40
0.0
 40
0.0
 40
0.0
 40
0.0
 40
1.348332046947654
 40
2.024828967632893
 40
2.703918159304094
 40
3.386347665078122
 40
4.072776489761951
 40
4.763750544421345
 40
5.459696642770595
 40
6.160921452191748
 40
6.867565637253344
 40
7.579665907256597
 40
8.297112853413899
 40
9.019671552060666
 40
9.746986763446125
 40
10.47859339096365
 40
11.21393074760088
 40
11.95235532364327
 40
12.69315551794651
 40
13.43556823304427
 40
14.1787950170388
 40
14.92202180103393
 40
15.66443451613169
 40
16.40523471043432
 40
17.14365928647669
 40
17.87899664311455
 40
18.61060327063121
 40
19.33791848201689
 40
20.06048192311554
 40
20.77792886927282
 40
21.49002913927608
 40
22.19667332433747
 40
22.89788836015233
 40
23.59383445850157
 40
24.28480851316097
 40
24.97123685067575
 40
25.65366676154837
 40
26.33276604526151
 40
27.00926273560554
 40
27.68398960851752
 40
28.35781868496899
 40
28.35781868496899
 40
28.35781868496899
 40
28.35781868496899
 10
-45.24564979280078
 20
-7.049999610213068
 30
0.0
 10
-45.99998512105233
 20
-7.0339391652416
 30
0.0
 10
-47.13279215282934
 20
-7.009820733669108
 30
0.0
 10
-48.6391350627007
 20
-6.861327981269035
 30
0.0
 10
-49.77020213171828
 20
-6.711607786026607
 30
0.0
 10
-50.90117252142698
 20
-6.51939248768855
 30
0.0
 10
-52.03204325246359
 20
-6.287238042698986
 30
0.0
 10
-53.16280851532333
 20
-6.016254347082107
 30
0.0
 10
-54.29346641614428
 20
-5.708206687595436
 30
0.0
 10
-55.42401192309952
 20
-5.364986522469055
 30
0.0
 10
-56.5544472958783
 20
-4.988722630448055
 30
0.0
 10
-57.68476949395314
 20
-4.581735186807867
 30
0.0
 10
-58.814996676555
 20
-4.146552334513605
 30
0.0
 10
-59.94513433681384
 20
-3.685849374611188
 30
0.0
 10
-61.07519286739957
 20
-3.202467233280263
 30
0.0
 10
-62.20518482623549
 20
-2.699388070970513
 30
0.0
 10
-63.3351201166283
 20
-2.179705548925427
 30
0.0
 10
-64.46500973569939
 20
-1.646615988216574
 30
0.0
 10
-65.59486566349966
 20
-1.103400242721294
 30
0.0
 10
-66.72469822133689
 20
-0.5533987074271587
 30
0.0
 10
-67.85452128160215
 20
0.0000003896756464
 30
0.0
 10
-68.98434434161917
 20
0.5533994874509403
 30
0.0
 10
-70.11417690020088
 20
1.103401020728581
 30
0.0
 10
-71.24403282527994
 20
1.646616773593245
 30
0.0
 10
-72.37392245444161
 20
2.179706306971746
 30
0.0
 10
-73.50385770741957
 20
2.699388930354995
 30
0.0
 10
-74.63384980481535
 20
3.202467717373918
 30
0.0
 10
-75.76391027956876
 20
3.685852297761192
 30
0.0
 10
-76.89405233099738
 20
4.146551071943665
 30
0.0
 10
-78.02428152975132
 20
4.581736155706562
 30
0.0
 10
-79.15460370150909
 20
4.988723720447168
 30
0.0
 10
-80.28503443058776
 20
5.364984154924555
 30
0.0
 10
-81.41557240495076
 20
5.708209629376153
 30
0.0
 10
-82.54622569050203
 20
6.01625854727122
 30
0.0
 10
-83.67699029893422
 20
6.287224513712083
 30
0.0
 10
-84.80786185905605
 20
6.519446292639006
 30
0.0
 10
-85.938839466705
 20
6.711387105066313
 30
0.0
 10
-87.06990070762072
 20
6.86216130259164
 30
0.0
 10
-88.20103192674501
 20
6.969730753341735
 30
0.0
 10
-89.33220420509114
 20
7.037420084706561
 30
0.0
 10
-90.08650299541361
 20
7.045808816350751
 30
0.0
 10
-90.46340130466907
 20
7.050000389788303
 30
0.0
  0
SPLINE
  5
3D6F
330
1F
100
AcDbEntity
  8
AM_0
100
AcDbSpline
210
0.0
220
0.0
230
1.0
 70
     8
 71
     3
 72
    22
 73
    18
 74
     0
 42
0.0000000001
 43
0.0000000001
 40
17.17441611292
 40
17.17441611292
 40
17.17441611292
 40
17.17441611292
 40
17.38177636558528
 40
18.41823744757437
 40
19.46215659509824
 40
20.51397914882054
 40
21.57394542641293
 40
22.64209583141747
 40
23.71826625065247
 40
24.80210429862395
 40
25.8930771157021
 40
26.99048705697709
 40
28.09349309193389
 40
29.20112995599786
 40
30.31233024745139
 40
31.42594771747373
 40
32.5407895042663
 40
32.54078950426994
 40
32.54078950426994
 40
32.54078950426994
 10
-74.03799410823724
 20
-6.330950635638057
 30
0.0
 10
-74.11373907723596
 20
-6.314630577114535
 30
0.0
 10
-74.56778879964649
 20
-6.215223316821379
 30
0.0
 10
-75.39958230550261
 20
-6.015898821790621
 30
0.0
 10
-76.53023550533323
 20
-5.707850372061678
 30
0.0
 10
-77.66077349397616
 20
-5.364624746495048
 30
0.0
 10
-78.79120425296623
 20
-4.988364444549373
 30
0.0
 10
-79.92152628908304
 20
-4.581376498183414
 30
0.0
 10
-81.05175351528012
 20
-4.14619378145435
 30
0.0
 10
-82.18189116482722
 20
-3.685490787318848
 30
0.0
 10
-83.31194969418504
 20
-3.202108645898135
 30
0.0
 10
-84.44194166888781
 20
-2.699029518825426
 30
0.0
 10
-85.57187689658428
 20
-2.179346854866577
 30
0.0
 10
-86.70176675189933
 20
-1.646257829586082
 30
0.0
 10
-87.8316212503231
 20
-1.10304033706734
 30
0.0
 10
-88.96145712966733
 20
-0.55304632285259
 30
0.0
 10
-89.71453320039497
 20
-0.1841770040614843
 30
0.0
 10
-90.09127811117723
 20
0.0003589713321622
 30
0.0
  0
SPLINE
  5
3D70
330
1F
100
AcDbEntity
  8
AM_0
100
AcDbSpline
210
0.0
220
0.0
230
1.0
 70
     8
 71
     3
 72
    55
 73
    51
 74
     0
 42
0.0000000001
 43
0.0000000001
 40
0.0
 40
0.0
 40
0.0
 40
0.0
 40
1.010743684496582
 40
2.022833576467832
 40
3.037578957496688
 40
4.056212745003489
 40
5.079857003664532
 40
6.109500240690281
 40
7.145961322679372
 40
8.189895241603872
 40
9.241717795325891
 40
10.30168407291828
 40
11.36983447792315
 40
12.44600489715814
 40
13.52984294512926
 40
14.62081576220742
 40
15.7182257034828
 40
16.82123173843959
 40
17.92886860250316
 40
19.0400688939571
 40
20.15368796660465
 40
21.26852814259644
 40
22.38336992938901
 40
23.49698739941135
 40
24.6081876908653
 40
25.71582455492886
 40
26.81883757994213
 40
27.91624752121713
 40
29.00722033829659
 40
30.09105838626677
 40
31.16722880550176
 40
32.23537921050758
 40
33.29534548809967
 40
34.347168041821
 40
35.39108718934584
 40
36.42754827133493
 40
37.45720575381954
 40
38.48085062012849
 40
39.49948440763516
 40
40.51422944315121
 40
41.52631975251916
 40
42.53706336719636
 40
43.54780698187354
 40
44.55989729124051
 40
45.57464232675757
 40
46.59327611426424
 40
47.6169209805722
 40
48.64656348684535
 40
49.68302456883444
 40
50.58557219878025
 40
50.58557219878025
 40
50.58557219878025
 40
50.58557219878025
 10
-48.4121661501313
 20
-7.049999610212975
 30
0.0
 10
-48.7890643923421
 20
-7.045805031009649
 30
0.0
 10
-49.54336286677229
 20
-7.037410285851446
 30
0.0
 10
-50.67453607482515
 20
-6.969739215592126
 30
0.0
 10
-51.80566099735879
 20
-6.862159891535591
 30
0.0
 10
-52.9367159143648
 20
-6.711383377320593
 30
0.0
 10
-54.06768953969556
 20
-6.519452983792374
 30
0.0
 10
-55.19855956177011
 20
-6.287222194824757
 30
0.0
 10
-56.32932976329854
 20
-6.016255399786293
 30
0.0
 10
-57.45999011663442
 20
-5.708211869682131
 30
0.0
 10
-58.59053291992013
 20
-5.364982973099976
 30
0.0
 10
-59.7209638082865
 20
-4.988723122343651
 30
0.0
 10
-60.85128580925287
 20
-4.581735053494457
 30
0.0
 10
-61.98151304528725
 20
-4.146552370663002
 30
0.0
 10
-63.11165069099103
 20
-3.685849364675933
 30
0.0
 10
-64.24170922583428
 20
-3.20246723653558
 30
0.0
 10
-65.37170118231912
 20
-2.699388067950749
 30
0.0
 10
-66.5016364778582
 20
-2.179705557783996
 30
0.0
 10
-67.63152607860236
 20
-1.646615955634327
 30
0.0
 10
-68.76138207485047
 20
-1.103400364668768
 30
0.0
 10
-69.89121437651515
 20
-0.5533982510985293
 30
0.0
 10
-71.02103893857858
 20
-0.0000010486683815
 30
0.0
 10
-72.15085842867502
 20
0.5534061152562916
 30
0.0
 10
-73.28069451729135
 20
1.103399663838833
 30
0.0
 10
-74.41054911871709
 20
1.646616899087059
 30
0.0
 10
-75.54044073404194
 20
2.179708532070502
 30
0.0
 10
-76.67038071709464
 20
2.699386607175462
 30
0.0
 10
-77.80037445700521
 20
3.20246832707165
 30
0.0
 10
-78.93043315499131
 20
3.685850063238935
 30
0.0
 10
-80.06057075957301
 20
4.146553166110114
 30
0.0
 10
-81.19079799850149
 20
4.581735849578153
 30
0.0
 10
-82.32112002825811
 20
4.988723821110358
 30
0.0
 10
-83.45155079995162
 20
5.364984056062609
 30
0.0
 10
-84.58208874457964
 20
5.70820992193801
 30
0.0
 10
-85.7127421060872
 20
6.016257486643858
 30
0.0
 10
-86.84351188815858
 20
6.287229730483688
 30
0.0
 10
-87.97438998502412
 20
6.519433995471497
 30
0.0
 10
-89.10536734677213
 20
6.71142379551386
 30
0.0
 10
-90.23642259907344
 20
6.862021583632372
 30
0.0
 10
-91.36754830754705
 20
6.970254197734561
 30
0.0
 10
-92.49872055649982
 20
7.035472348380276
 30
0.0
 10
-93.62991766227677
 20
7.057259574504302
 30
0.0
 10
-94.76111476638935
 20
7.035472348346182
 30
0.0
 10
-95.89228702034501
 20
6.970254197871722
 30
0.0
 10
-97.02341271039944
 20
6.862021583116082
 30
0.0
 10
-98.15446803175881
 20
6.711423797454815
 30
0.0
 10
-99.28543962016112
 20
6.519434924155349
 30
0.0
 10
-100.4163132617973
 20
6.287232104647142
 30
0.0
 10
-101.4956693958432
 20
6.028557910978836
 30
0.0
 10
-102.1959679476691
 20
5.839387027727823
 30
0.0
 10
-104.2000949310294
 20
5.014382352280367
 30
0.0
  0
LINE
  5
3D71
330
1F
100
AcDbEntity
  8
AM_0
 48
0.5
100
AcDbLine
 10
-122.2205745991808
 20
-7.049999610210715
 30
0.0
 11
-69.72055342084368
 21
-7.049999610212161
 31
0.0
  0
LINE
  5
3D72
330
1F
100
AcDbEntity
  8
AM_0
100
AcDbLine
 10
-93.630064451239
 20
7.050000389788397
 30
0.0
 11
-66.95854546841538
 21
7.051001970231968
 31
0.0
  0
SPLINE
  5
41A3
330
1F
100
AcDbEntity
  8
AM_0
100
AcDbSpline
210
0.0
220
0.0
230
1.0
 70
     8
 71
     3
 72
    15
 73
    11
 74
     0
 42
0.0000000001
 43
0.0000000001
 40
5.241236682593577
 40
5.241236682593577
 40
5.241236682593577
 40
5.241236682593577
 40
5.954688180526682
 40
6.824620803463244
 40
7.701151815239697
 40
8.58445704656667
 40
9.47458238407075
 40
10.37139106676736
 40
11.27458944007584
 40
12.17321262433756
 40
12.17321262433756
 40
12.17321262433756
 40
12.17321262433756
 10
-110.1589895657093
 20
-0.4097774682022103
 30
0.0
 10
-110.5179639302698
 20
-0.4763372828097826
 30
0.0
 10
-111.3124266841505
 20
-0.6327713277870995
 30
0.0
 10
-112.5385898497826
 20
-0.9040608549538429
 30
0.0
 10
-113.8395249330721
 20
-1.224790013441807
 30
0.0
 10
-115.1403332833702
 20
-1.576397563694217
 30
0.0
 10
-116.4410114018979
 20
-1.956715370096477
 30
0.0
 10
-117.7415801847451
 20
-2.363380957339432
 30
0.0
 10
-119.0369956700711
 20
-2.792222461650143
 30
0.0
 10
-119.8962774179054
 20
-3.09062607247529
 30
0.0
 10
-120.499999955641
 20
-3.241998700552659
 30
0.0
  0
SPLINE
  5
41A4
330
1F
100
AcDbEntity
  8
AM_0
100
AcDbSpline
210
0.0
220
0.0
230
1.0
 70
     8
 71
     3
 72
    21
 73
    17
 74
     0
 42
0.0000000001
 43
0.0000000001
 40
17.46072332543636
 40
17.46072332543636
 40
17.46072332543636
 40
17.46072332543636
 40
18.41823744757437
 40
19.46215659509824
 40
20.51397914882054
 40
21.57394542641293
 40
22.64209583141747
 40
23.71826625065247
 40
24.80210429862395
 40
25.8930771157021
 40
26.99048705697709
 40
28.09349309193389
 40
29.20112995599786
 40
30.31233024745139
 40
31.42594771747373
 40
32.5407895042663
 40
32.54078950426994
 40
32.54078950426994
 40
32.54078950426994
 10
-88.83209955104888
 20
-7.049999610211425
 30
0.0
 10
-91.94929218179082
 20
-6.313418838523202
 30
0.0
 10
-93.70366162062907
 20
-5.797137180635724
 30
0.0
 10
-94.97192752316729
 20
-5.519683388572519
 30
0.0
 10
-96.27285395502603
 20
-5.202552883206354
 30
0.0
 10
-97.57365699617068
 20
-4.854899296711269
 30
0.0
 10
-98.87433492833091
 20
-4.478854259584781
 30
0.0
 10
-100.1749037613438
 20
-4.076758073861259
 30
0.0
 10
-101.4753695172087
 20
-3.651081893323481
 30
0.0
 10
-102.7757442283262
 20
-3.20445083965244
 30
0.0
 10
-104.0760423540386
 20
-2.739620343548454
 30
0.0
 10
-105.3762751801493
 20
-2.259448661788897
 30
0.0
 10
-106.6764557956037
 20
-1.766889891699224
 30
0.0
 10
-107.9765957253714
 20
-1.264972712171018
 30
0.0
 10
-109.2767142298947
 20
-0.7567942234922239
 30
0.0
 10
-110.1432897677816
 20
-0.4159696906818507
 30
0.0
 10
-110.5768155912643
 20
-0.2454638112382266
 30
0.0
  0
ELLIPSE
  5
41A5
330
1F
100
AcDbEntity
  8
AM_0
100
AcDbEllipse
 10
-118.6181611622572
 20
-6.945366322470934
 30
0.0
 11
1.709993987869461
 21
0.9207827437781263
 31
0.0
210
0.0
220
0.0
230
1.0
 40
0.8628662744688469
 41
1.387601604398545
 42
2.643820327603842
  0
SPLINE
  5
41A6
330
1F
100
AcDbEntity
  8
AM_0
100
AcDbSpline
210
0.0
220
0.0
230
1.0
 70
     8
 71
     3
 72
    14
 73
    10
 74
     0
 42
0.0000000001
 43
0.0000000001
 40
4.563347739497467
 40
4.563347739497467
 40
4.563347739497467
 40
4.563347739497467
 40
5.079857003664532
 40
6.109500240690281
 40
7.145961322679372
 40
8.189895241603872
 40
9.241717795325891
 40
10.30168407291828
 40
10.55450228288433
 40
10.55450228288433
 40
10.55450228288433
 40
10.55450228288433
 10
-107.2246878382419
 20
-7.050229778118854
 30
0.0
 10
-107.7479210075873
 20
-6.966656059974687
 30
0.0
 10
-109.6281007932246
 20
-6.673036216269787
 30
0.0
 10
-113.5800936367118
 20
-6.055006118756625
 30
0.0
 10
-114.8812872792998
 20
-5.804640673268312
 30
0.0
 10
-116.1823545179823
 20
-5.520017401869426
 30
0.0
 10
-117.4832864901201
 20
-5.202883874179963
 30
0.0
 10
-118.450565470583
 20
-4.944368515335244
 30
0.0
 10
-118.9850313693428
 20
-4.794342928341623
 30
0.0
 10
-119.2198676057982
 20
-4.739572773115838
 30
0.0
  0
SPLINE
  5
41A7
330
1F
100
AcDbEntity
  8
AM_0
100
AcDbSpline
210
0.0
220
0.0
230
1.0
 70
     8
 71
     3
 72
     9
 73
     5
 74
     0
 42
0.0000000001
 43
0.0000000001
 40
1.580019955310467
 40
1.580019955310467
 40
1.580019955310467
 40
1.580019955310467
 40
2.030549285115227
 40
2.43907978603305
 40
2.43907978603305
 40
2.43907978603305
 40
2.43907978603305
 10
-118.0304455191207
 20
-5.054240802492006
 30
0.0
 10
-118.2146083128902
 20
-5.103754267186064
 30
0.0
 10
-118.5663661563832
 20
-5.196551593249085
 30
0.0
 10
-118.9195945572915
 20
-5.285394076396459
 30
0.0
 10
-119.0878661248581
 20
-5.326819451196217
 30
0.0
  0
SPLINE
  5
41A8
330
1F
100
AcDbEntity
  8
AM_0
100
AcDbSpline
210
0.0
220
0.0
230
1.0
 70
     8
 71
     3
 72
    17
 73
    13
 74
     0
 42
0.0000000001
 43
0.0000000001
 40
3.731426397987522
 40
3.731426397987522
 40
3.731426397987522
 40
3.731426397987522
 40
4.232934581347659
 40
5.09097061220244
 40
5.954688180526682
 40
6.824620803463244
 40
7.701151815239697
 40
8.58445704656667
 40
9.47458238407075
 40
10.37139106676736
 40
11.27458944007584
 40
12.17321262433756
 40
12.17321262433756
 40
12.17321262433756
 40
12.17321262433756
 10
-103.9108442279567
 20
-7.050173672081349
 30
0.0
 10
-104.6956388451483
 20
-6.932491440661292
 30
0.0
 10
-105.3859746188263
 20
-6.833162537282436
 30
0.0
 10
-106.5096199432776
 20
-6.645839427087071
 30
0.0
 10
-107.8108079028681
 20
-6.3926131266243
 30
0.0
 10
-109.1118723194062
 20
-6.104751641081992
 30
0.0
 10
-113.8395249330721
 20
-5.259207387641583
 30
0.0
 10
-115.1403332833702
 20
-4.907599837389144
 30
0.0
 10
-116.4410114018979
 20
-4.52728203098687
 30
0.0
 10
-117.7415801847452
 20
-4.120616443743887
 30
0.0
 10
-119.0369956700711
 20
-3.691774939433147
 30
0.0
 10
-119.8962774179055
 20
-3.393371328607986
 30
0.0
 10
-120.499999955641
 20
-3.241998700530604
 30
0.0
  0
SPLINE
  5
41B8
330
1F
100
AcDbEntity
  8
AM_0
100
AcDbSpline
210
0.0
220
0.0
230
1.0
 70
     8
 71
     3
 72
    22
 73
    18
 74
     0
 42
0.0000000001
 43
0.0000000001
 40
30.51371389116273
 40
30.51371389116273
 40
30.51371389116273
 40
30.51371389116273
 40
31.16722880550176
 40
32.23537921050758
 40
33.29534548809967
 40
34.347168041821
 40
35.39108718934584
 40
36.42754827133493
 40
37.45720575381954
 40
38.48085062012849
 40
39.49948440763516
 40
40.51422944315121
 40
41.52631975251916
 40
42.53706336719636
 40
43.54780698187354
 40
44.55989729124051
 40
45.14939243453665
 40
45.14939243453665
 40
45.14939243453665
 40
45.14939243453665
 10
-90.09054729416703
 20
0.0000010049047432
 30
0.0
 10
-99.81180876611629
 20
3.825191991041774
 30
0.0
 10
-100.5064677534684
 20
4.037196830471171
 30
0.0
 10
-101.6355821861632
 20
4.363640369573855
 30
0.0
 10
-102.9363852419259
 20
4.711293894168943
 30
0.0
 10
-104.237311623136
 20
5.028424621573418
 30
0.0
 10
-105.5383708162204
 20
5.313051620827036
 30
0.0
 10
-106.8395639761333
 20
5.563422100849519
 30
0.0
 10
-108.1408817754479
 20
5.77797209484309
 30
0.0
 10
-109.4423138003
 20
5.955365091686101
 30
0.0
 10
-110.7438354549395
 20
6.094513072184949
 30
0.0
 10
-112.0454381845165
 20
6.194516862842061
 30
0.0
 10
-113.3470944688968
 20
6.254776539080322
 30
0.0
 10
-114.6487793563846
 20
6.274907302976029
 30
0.0
 10
-115.950464241957
 20
6.254776539048802
 30
0.0
 10
-117.0698934346398
 20
6.2029529961852
 30
0.0
 10
-117.7547738308271
 20
6.15472986194477
 30
0.0
 10
-118.0066135411457
 20
6.134787476153829
 30
0.0
  0
ELLIPSE
  5
41B9
330
1F
100
AcDbEntity
  8
AM_0
100
AcDbEllipse
 10
-116.0509046404055
 20
23.4582016014748
 30
0.0
 11
-8.489677787039566
 21
15.83786156022726
 31
0.0
210
0.0
220
0.0
230
1.0
 40
0.8396533293059873
 41
2.384643944107926
 42
2.58301406847544
  0
POLYLINE
  5
41BA
330
1F
100
AcDbEntity
  8
AM_0
100
AcDb2dPolyline
 66
     1
 10
0.0
 20
0.0
 30
0.0
 70
     2
  0
VERTEX
  5
41BB
330
41BA
100
AcDbEntity
  8
AM_0
100
AcDbVertex
100
AcDb2dVertex
 10
-118.0066135411457
 20
6.134787476153829
 30
0.0
 42
0.0276737331564208
  0
VERTEX
  5
41BC
330
41BA
100
AcDbEntity
  8
AM_0
100
AcDbVertex
100
AcDb2dVertex
 10
-118.5354927007338
 20
6.023088620985196
 30
0.0
 42
0.0414024687830266
 70
     1
  0
VERTEX
  5
41BD
330
41BA
100
AcDbEntity
  8
AM_0
100
AcDbVertex
100
AcDb2dVertex
 10
-118.8754772244859
 20
5.901300181206505
 30
0.0
 42
0.0280074108471844
  0
VERTEX
  5
41BE
330
41BA
100
AcDbEntity
  8
AM_0
100
AcDbVertex
100
AcDb2dVertex
 10
-119.6506544715284
 20
5.496813643997154
 30
0.0
 42
0.0512701366748525
 70
     1
  0
VERTEX
  5
41BF
330
41BA
100
AcDbEntity
  8
AM_0
100
AcDbVertex
100
AcDb2dVertex
 10
-120.0339621356062
 20
5.212570151367306
 30
0.0
 42
0.0658714570033076
  0
VERTEX
  5
41C0
330
41BA
100
AcDbEntity
  8
AM_0
100
AcDbVertex
100
AcDb2dVertex
 10
-120.2745304002039
 20
4.926348452473289
 30
0.0
 42
0.1411961588081283
 70
     1
  0
VERTEX
  5
41C1
330
41BA
100
AcDbEntity
  8
AM_0
100
AcDbVertex
100
AcDb2dVertex
 10
-120.3235833633863
 20
4.757327416475445
 30
0.0
 42
0.1226739033459629
  0
VERTEX
  5
41C2
330
41BA
100
AcDbEntity
  8
AM_0
100
AcDbVertex
100
AcDb2dVertex
 10
-120.2757290316157
 20
4.571490576291364
 30
0.0
 42
0.0555312784770531
 70
     1
  0
VERTEX
  5
41C3
330
41BA
100
AcDbEntity
  8
AM_0
100
AcDbVertex
100
AcDb2dVertex
 10
-120.0339621356062
 20
4.226725574877744
 30
0.0
 42
0.0351528005485752
  0
VERTEX
  5
41C4
330
41BA
100
AcDbEntity
  8
AM_0
100
AcDbVertex
100
AcDb2dVertex
 10
-119.6432327507168
 20
3.84220208468123
 30
0.0
 42
0.0197318127063559
 70
     1
  0
VERTEX
  5
41C5
330
41BA
100
AcDbEntity
  8
AM_0
100
AcDbVertex
100
AcDb2dVertex
 10
-118.875477224486
 20
3.236559118215315
 30
0.0
 42
0.0358460074876439
  0
VERTEX
  5
41C6
330
41BA
100
AcDbEntity
  8
AM_0
100
AcDbVertex
100
AcDb2dVertex
 10
-118.5605825344121
 20
3.040233552307857
 30
0.0
 42
0.021710998496176
 70
     1
  0
VERTEX
  5
41C7
330
41BA
100
AcDbEntity
  8
AM_0
100
AcDbVertex
100
AcDb2dVertex
 10
-118.0066135411457
 20
2.776994503150551
 30
0.0
  0
SEQEND
  5
41C8
330
41BA
100
AcDbEntity
  8
AM_0
  0
SPLINE
  5
41C9
330
1F
100
AcDbEntity
  8
AM_0
100
AcDbSpline
210
0.0
220
0.0
230
1.0
 70
     8
 71
     3
 72
    13
 73
     9
 74
     0
 42
0.0000000001
 43
0.0000000001
 40
26.13201924531566
 40
26.13201924531566
 40
26.13201924531566
 40
26.13201924531566
 40
26.99048218457928
 40
28.09348763352352
 40
29.20111863782268
 40
30.31232390128032
 40
31.42594612798585
 40
32.5407912310448
 40
32.5407912310486
 40
32.5407912310486
 40
32.5407912310486
 10
-118.0066135425937
 20
2.776994503700334
 30
0.0
 10
-117.6707359065318
 20
2.649466472990508
 30
0.0
 10
-116.9051513944422
 20
2.354620020829242
 30
0.0
 10
-115.7130796451891
 20
1.882651104714409
 30
0.0
 10
-114.4286356710282
 20
1.361549730708359
 30
0.0
 10
-113.1445135909442
 20
0.8311056066625869
 30
0.0
 10
-111.860608841151
 20
0.2943925126367024
 30
0.0
 10
-111.0049022455341
 20
-0.0654442697389637
 30
0.0
 10
-110.5768155912584
 20
-0.2454638112405572
 30
0.0
  0
POLYLINE
  5
41CF
330
1F
100
AcDbEntity
  8
AM_0
100
AcDb2dPolyline
 66
     1
 10
0.0
 20
0.0
 30
0.0
  0
VERTEX
  5
41D0
330
41CF
100
AcDbEntity
  8
AM_0
100
AcDbVertex
100
AcDb2dVertex
 10
-119.2198676057982
 20
-4.739572773115838
 30
0.0
 42
0.0351157762658453
  0
VERTEX
  5
41D1
330
41CF
100
AcDbEntity
  8
AM_0
100
AcDbVertex
100
AcDb2dVertex
 10
-119.4772825327832
 20
-4.687998902690893
 30
0.0
 42
0.044786481860755
  0
VERTEX
  5
41D2
330
41CF
100
AcDbEntity
  8
AM_0
100
AcDbVertex
100
AcDb2dVertex
 10
-119.6832615702463
 20
-4.679549791757239
 30
0.0
 42
0.0340312821953242
  0
VERTEX
  5
41D3
330
41CF
100
AcDbEntity
  8
AM_0
100
AcDbVertex
100
AcDb2dVertex
 10
-120.1517056909543
 20
-4.75674024617632
 30
0.0
 42
0.0785304530199817
  0
VERTEX
  5
41D4
330
41CF
100
AcDbEntity
  8
AM_0
100
AcDbVertex
100
AcDb2dVertex
 10
-120.345535300825
 20
-4.827355777307772
 30
0.0
 42
0.0914341172496281
  0
VERTEX
  5
41D5
330
41CF
100
AcDbEntity
  8
AM_0
100
AcDbVertex
100
AcDb2dVertex
 10
-120.4700620814401
 20
-4.929136628485558
 30
0.0
 42
0.1734786634335468
  0
VERTEX
  5
41D6
330
41CF
100
AcDbEntity
  8
AM_0
100
AcDbVertex
100
AcDb2dVertex
 10
-120.499999955641
 20
-5.009541667743413
 30
0.0
 42
0.1707159826348874
  0
VERTEX
  5
41D7
330
41CF
100
AcDbEntity
  8
AM_0
100
AcDbVertex
100
AcDb2dVertex
 10
-120.471237831106
 20
-5.091469123341518
 30
0.0
 42
0.0878858945849485
  0
VERTEX
  5
41D8
330
41CF
100
AcDbEntity
  8
AM_0
100
AcDbVertex
100
AcDb2dVertex
 10
-120.345535300825
 20
-5.200846553841422
 30
0.0
 42
0.0737173247185441
  0
VERTEX
  5
41D9
330
41CF
100
AcDbEntity
  8
AM_0
100
AcDbVertex
100
AcDb2dVertex
 10
-120.1473771415774
 20
-5.283751307177077
 30
0.0
 42
0.0332822928243485
  0
VERTEX
  5
41DA
330
41CF
100
AcDbEntity
  8
AM_0
100
AcDbVertex
100
AcDb2dVertex
 10
-119.6869339932188
 20
-5.400228133909834
 30
0.0
 42
0.0449345368811406
  0
VERTEX
  5
41DB
330
41CF
100
AcDbEntity
  8
AM_0
100
AcDbVertex
100
AcDb2dVertex
 10
-119.4845758412033
 20
-5.403811523638445
 30
0.0
 42
0.0225466722665231
  0
VERTEX
  5
41DC
330
41CF
100
AcDbEntity
  8
AM_0
100
AcDbVertex
100
AcDb2dVertex
 10
-119.2766403055624
 20
-5.39532858474133
 30
0.0
  0
SEQEND
  5
41DD
330
41CF
100
AcDbEntity
  8
AM_0
  0
DIMENSION
  5
4385
330
1F
100
AcDbEntity
  8
AM_5
100
AcDbDimension
  2
*D9
 10
-0.6134060756230478
 20
-1.685305747381622
 30
0.0
 11
22.99218884086537
 21
-0.0000324247783991
 31
0.0
 70
    34
  1
<>
 51
359.9999999999998
  3
AM_JIS$2
100
AcDb2LineAngularDimension
 13
0.000000044358984
 23
-0.0000000223353196
 33
0.0
 14
-0.6133935795770931
 24
1.685286149910314
 34
0.0
 15
0.000000044358984
 25
-0.0000000223353196
 35
0.0
 16
23.9582576674749
 26
-10.33461215139622
 36
0.0
1001
GENIUS_GENDTOL_13
1000

1000
h7
1000

1040
0.0
1001
ACAD
1000
DSTYLE
1002
{
1070
   271
1070
     0
1002
}
  0
ELLIPSE
  5
447C
330
1F
100
AcDbEntity
  8
AM_11
 48
0.5
100
AcDbEllipse
 10
-24.86214025639734
 20
29.81453298319139
 30
0.0
 11
-33.29749107360793
 21
0.0000000000009928
 31
0.0
210
0.0
220
0.0
230
0.9999999999999998
 40
0.9899999999999995
 41
1.130070686340335
 42
2.011520147323624
  0
ELLIPSE
  5
447D
330
1F
100
AcDbEntity
  8
AM_11
 48
0.5
100
AcDbEllipse
 10
-24.8621402563974
 20
-29.81450964223558
 30
0.0
 11
-33.29749107360789
 21
0.0000000000017765
 31
0.0
210
0.0
220
0.0
230
1.0
 40
0.9900000000000011
 41
4.271664206181739
 42
5.153113667165048
  0
ELLIPSE
  5
447E
330
1F
100
AcDbEntity
  8
AM_11
 48
0.5
100
AcDbEllipse
 10
3.546950652693548
 20
29.81453298319136
 30
0.0
 11
-33.29749107360851
 21
0.0000000000308404
 31
0.0
210
0.0
220
0.0
230
1.0
 40
0.9899999999999861
 41
1.130070686341231
 42
1.291800737381917
  0
ELLIPSE
  5
447F
330
1F
100
AcDbEntity
  8
AM_11
 48
0.5
100
AcDbEllipse
 10
-53.27123116548829
 20
29.81453298319138
 30
0.0
 11
-33.29749107360793
 21
0.0000000000000538
 31
0.0
210
0.0
220
0.0
230
0.9999999999999998
 40
0.99
 41
1.130070686340306
 42
2.011520147323597
  0
ELLIPSE
  5
4480
330
1F
100
AcDbEntity
  8
AM_11
 48
0.5
100
AcDbEllipse
 10
-53.27123116548826
 20
-29.81450964223561
 30
0.0
 11
-33.29749107360783
 21
0.000000000001466
 31
0.0
210
0.0
220
0.0
230
1.0
 40
0.9900000000000032
 41
4.271664206181728
 42
5.153113667165039
  0
ELLIPSE
  5
4481
330
1F
100
AcDbEntity
  8
AM_11
 48
0.5
100
AcDbEllipse
 10
-81.68028605095756
 20
-29.81450159207449
 30
0.0
 11
-33.29749107360789
 21
0.0000000000017765
 31
0.0
210
0.0
220
0.0
230
1.0
 40
0.9900000000000011
 41
4.271664206181739
 42
5.153113667165048
  0
ELLIPSE
  5
4482
330
1F
100
AcDbEntity
  8
AM_11
 48
0.5
100
AcDbEllipse
 10
-110.0893769600484
 20
29.81454103335246
 30
0.0
 11
-33.29749107360793
 21
0.0000000000000538
 31
0.0
210
0.0
220
0.0
230
1.0
 40
0.99
 41
1.130070686340306
 42
2.011520147323597
  0
ELLIPSE
  5
4483
330
1F
100
AcDbEntity
  8
AM_11
 48
0.5
100
AcDbEllipse
 10
-110.0893769600484
 20
-29.81450159207452
 30
0.0
 11
-33.29749107360783
 21
0.000000000001466
 31
0.0
210
0.0
220
0.0
230
1.0
 40
0.9900000000000032
 41
4.271664206181728
 42
5.153113667165039
  0
ELLIPSE
  5
4484
330
1F
100
AcDbEntity
  8
AM_11
 48
0.5
100
AcDbEllipse
 10
-81.6802860509575
 20
29.81454103335247
 30
0.0
 11
-33.29749107360793
 21
0.0000000000009928
 31
0.0
210
0.0
220
0.0
230
1.0
 40
0.9899999999999995
 41
1.130070686340335
 42
2.011520147323624
  0
ELLIPSE
  5
4485
330
1F
100
AcDbEntity
  8
AM_11
 48
0.5
100
AcDbEllipse
 10
-138.4984854384
 20
29.81455800835232
 30
0.0
 11
-33.29749107360793
 21
0.0000000000009928
 31
0.0
210
0.0
220
0.0
230
1.0
 40
0.9899999999999995
 41
1.130070686340335
 42
2.011520147323624
  0
ELLIPSE
  5
4486
330
1F
100
AcDbEntity
  8
AM_11
 48
0.5
100
AcDbEllipse
 10
-166.907576347491
 20
29.81455800835231
 30
0.0
 11
-33.29749107360793
 21
0.0000000000000538
 31
0.0
210
0.0
220
0.0
230
1.0
 40
0.99
 41
1.130070686340306
 42
2.011520147323597
  0
ELLIPSE
  5
4487
330
1F
100
AcDbEntity
  8
AM_11
 48
0.5
100
AcDbEllipse
 10
-138.4984854384001
 20
-29.81448461707465
 30
0.0
 11
-33.29749107360789
 21
0.0000000000017765
 31
0.0
210
0.0
220
0.0
230
1.0
 40
0.9900000000000011
 41
4.271664206181739
 42
5.153113667165048
  0
ELLIPSE
  5
4488
330
1F
100
AcDbEntity
  8
AM_11
 48
0.5
100
AcDbEllipse
 10
-166.9075763474909
 20
-29.81448461707468
 30
0.0
 11
-33.29749107360783
 21
0.000000000001466
 31
0.0
210
0.0
220
0.0
230
1.0
 40
0.9900000000000032
 41
4.271664206181728
 42
5.153113667165039
  0
ELLIPSE
  5
4489
330
1F
100
AcDbEntity
  8
AM_11
 48
0.5
100
AcDbEllipse
 10
-195.3165719380956
 20
29.81452227060426
 30
0.0
 11
-33.29749107360793
 21
0.0000000000009928
 31
0.0
210
0.0
220
0.0
230
1.0
 40
0.9899999999999995
 41
1.792337542479572
 42
2.011520147323624
  0
ELLIPSE
  5
448B
330
1F
100
AcDbEntity
  8
AM_11
 48
0.5
100
AcDbEllipse
 10
-195.3165719380957
 20
-29.81452035482271
 30
0.0
 11
-33.29749107360789
 21
0.0000000000017765
 31
0.0
210
0.0
220
0.0
230
1.0
 40
0.9900000000000011
 41
4.271664206181739
 42
4.490847764700085
  0
VIEWPORT
  5
110
330
101
100
AcDbEntity
 67
     1
  8
0
100
AcDbViewport
 10
420.5
 20
297.0
 30
0.0
 40
948.9782706766916
 41
628.452
 68
     1
 69
     1
1001
ACAD
1000
MVIEW
1002
{
1070
    16
1010
0.0
1020
0.0
1030
0.0
1010
0.0
1020
0.0
1030
1.0
1040
0.0
1040
628.452
1040
420.5
1040
297.0
1040
50.0
1040
0.0
1040
0.0
1070
     0
1070
   100
1070
     1
1070
     1
1070
     0
1070
     0
1070
     0
1070
     0
1040
0.0
1040
0.0
1040
0.0
1040
10.0
1040
10.0
1040
10.0
1040
10.0
1070
     0
1002
{
1002
}
1002
}
  0
ENDSEC
  0
SECTION
  2
OBJECTS
  0
DICTIONARY
  5
C
330
0
100
AcDbDictionary
  3
ACAD_GROUP
350
D
  3
ACAD_LAYOUT
350
1A
  3
ACAD_MLINESTYLE
350
17
  3
ACAD_PLOTSETTINGS
350
19
  3
ACAD_PLOTSTYLENAME
350
E
  3
ACDBVARIABLEDICTIONARY
350
34
  3
ACMDICTIONARY
350
43
  3
AMG
350
2B
  3
AMGSNAPSETTINGS
350
6E
  3
DWGPROPS
350
44A9
  3
ACDBHEADERROUNDTRIPXREC
350
44B6
  0
DICTIONARY
  5
74
330
1F
100
AcDbDictionary
280
     1
  3
ACAD_INDEX
360
44AB
  3
ACAD_LAYOUTSELFREF
360
44D9
  0
DICTIONARY
  5
44DE
330
101
100
AcDbDictionary
280
     1
  3
ACAD_LAYOUTSELFREF
360
44DF
  0
DICTIONARY
  5
D
102
{ACAD_REACTORS
330
C
102
}
330
C
100
AcDbDictionary
  0
DICTIONARY
  5
1A
102
{ACAD_REACTORS
330
C
102
}
330
C
100
AcDbDictionary
  0
DICTIONARY
  5
17
102
{ACAD_REACTORS
330
C
102
}
330
C
100
AcDbDictionary
  3
STANDARD
350
18
  0
DICTIONARY
  5
19
102
{ACAD_REACTORS
330
C
102
}
330
C
100
AcDbDictionary
  0
ACDBDICTIONARYWDFLT
  5
E
102
{ACAD_REACTORS
330
C
102
}
330
C
100
AcDbDictionary
281
     1
  3
Normal
350
F
100
AcDbDictionaryWithDefault
340
F
  0
DICTIONARY
  5
34
102
{ACAD_REACTORS
330
C
102
}
330
C
100
AcDbDictionary
  3
INDEXCTL
350
35
  3
SORTENTS
350
B5E
  0
DICTIONARY
  5
43
102
{ACAD_REACTORS
330
C
102
}
330
C
100
AcDbDictionary
  3
ACMSTDDICTIONARY
350
260
  0
DICTIONARY
  5
2B
102
{ACAD_REACTORS
330
C
102
}
330
C
100
AcDbDictionary
  3
ACMGSETTINGS
350
2C
  0
DICTIONARY
  5
6E
102
{ACAD_REACTORS
330
C
102
}
330
C
100
AcDbDictionary
  0
XRECORD
  5
44A9
102
{ACAD_REACTORS
330
C
102
}
330
C
100
AcDbXrecord
  1
DWGPROPS COOKIE
  2

  3

  4

  6

  7

  8

  9

300
AmdtFileType=82
301
=
302
=
303
=
304
=
305
=
306
=
307
=
308
=
309
=
 40
0.2392626967592593
 41
2452800.443498622
 42
2452948.664771412
  1

 90
        1
  0
DICTIONARY
  5
44B6
102
{ACAD_REACTORS
330
C
102
}
330
C
100
AcDbDictionary
  3
TSTACKALIGN
350
44B7
  3
TSTACKSIZE
350
44B8
  3
HYPERLINKBASE
350
44B9
  3
STYLESHEET
350
44BA
  3
LAYOUTDICT
350
44BB
  3
PLOTSETDICT
350
44BC
  3
PLOTSTYLNAMDICT
350
44BD
  3
LWETCUNION
350
44BE
  3
INSUNITS
350
44BF
  3
CEPSNTYPE
350
44C0
  3
FINGERPRINTGUID
350
44C1
  3
VERSIONGUID
350
44C2
  3
PSVPSCALE
350
44C3
  3
DIMSTYLEDATA
350
44C4
  3
PUCSORTHOREF
350
44C5
  3
PUCSORTHOVIEW
350
44C6
  3
PUCSBASE
350
44C7
  3
PUCSORGTOP
350
44C8
  3
PUCSORGBOTTOM
350
44C9
  3
PUCSORGLEFT
350
44CA
  3
PUCSORGRIGHT
350
44CB
  3
PUCSORGFRONT
350
44CC
  3
PUCSORGBACK
350
44CD
  3
UCSORTHOREF
350
44CE
  3
UCSORTHOVIEW
350
44CF
  3
UCSBASE
350
44D0
  3
UCSORGTOP
350
44D1
  3
UCSORGBOTTOM
350
44D2
  3
UCSORGLEFT
350
44D3
  3
UCSORGRIGHT
350
44D4
  3
UCSORGFRONT
350
44D5
  3
UCSORGBACK
350
44D6
  0
DICTIONARY
  5
44AB
102
{ACAD_REACTORS
330
74
102
}
330
74
100
AcDbDictionary
  3
*A1
350
44AC
  0
XRECORD
  5
44D9
102
{ACAD_REACTORS
330
74
102
}
330
74
100
AcDbXrecord
340
1F
  0
XRECORD
  5
44DF
102
{ACAD_REACTORS
330
44DE
102
}
330
44DE
100
AcDbXrecord
340
101
  0
MLINESTYLE
  5
18
102
{ACAD_REACTORS
330
17
102
}
330
17
100
AcDbMlineStyle
  2
STANDARD
 70
     0
  3

 62
   256
 51
90.0
 52
90.0
 71
     2
 49
0.5
 62
   256
  6
BYLAYER
 49
-0.5
 62
   256
  6
BYLAYER
  0
ACDBPLACEHOLDER
  5
F
102
{ACAD_REACTORS
330
E
102
}
330
E
100
AcDbPlaceHolder
280
     0
  0
DICTIONARYVAR
  5
35
102
{ACAD_REACTORS
330
34
102
}
330
34
100
DictionaryVariables
280
     0
  1
1
  0
DICTIONARYVAR
  5
B5E
102
{ACAD_REACTORS
330
34
102
}
330
34
100
DictionaryVariables
280
     0
  1
96
  0
DICTIONARY
  5
260
102
{ACAD_REACTORS
330
43
102
}
330
43
100
AcDbDictionary
  0
DICTIONARY
  5
2C
102
{ACAD_REACTORS
330
2B
102
}
330
2B
100
AcDbDictionary
  3
DWGSETTINGS
350
2D
  0
XRECORD
  5
44B7
102
{ACAD_REACTORS
330
44B6
102
}
330
44B6
100
AcDbXrecord
 90
        1
  0
XRECORD
  5
44B8
102
{ACAD_REACTORS
330
44B6
102
}
330
44B6
100
AcDbXrecord
 90
       70
  0
XRECORD
  5
44B9
102
{ACAD_REACTORS
330
44B6
102
}
330
44B6
100
AcDbXrecord
  1

  0
XRECORD
  5
44BA
102
{ACAD_REACTORS
330
44B6
102
}
330
44B6
100
AcDbXrecord
  1
ASAMI.ctb
  0
XRECORD
  5
44BB
102
{ACAD_REACTORS
330
44B6
102
}
330
44B6
100
AcDbXrecord
340
1A
  0
XRECORD
  5
44BC
102
{ACAD_REACTORS
330
44B6
102
}
330
44B6
100
AcDbXrecord
340
19
  0
XRECORD
  5
44BD
102
{ACAD_REACTORS
330
44B6
102
}
330
44B6
100
AcDbXrecord
340
E
  0
XRECORD
  5
44BE
102
{ACAD_REACTORS
330
44B6
102
}
330
44B6
100
AcDbXrecord
 90
    10781
  0
XRECORD
  5
44BF
102
{ACAD_REACTORS
330
44B6
102
}
330
44B6
100
AcDbXrecord
 90
        4
  0
XRECORD
  5
44C0
102
{ACAD_REACTORS
330
44B6
102
}
330
44B6
100
AcDbXrecord
 90
        0
  0
XRECORD
  5
44C1
102
{ACAD_REACTORS
330
44B6
102
}
330
44B6
100
AcDbXrecord
  1
{AFB28963-8C59-40AE-9337-C84526B81ACE}
  0
XRECORD
  5
44C2
102
{ACAD_REACTORS
330
44B6
102
}
330
44B6
100
AcDbXrecord
  1
{9E16DF32-B81E-4618-B173-50298357D0D8}
  0
XRECORD
  5
44C3
102
{ACAD_REACTORS
330
44B6
102
}
330
44B6
100
AcDbXrecord
 40
0.0
  0
XRECORD
  5
44C4
102
{ACAD_REACTORS
330
44B6
102
}
330
44B6
100
AcDbXrecord
1000
DSTYLE
1002
{
1070
    79
 70
     2
1070
   341
340
59
1070
   342
340
59
1070
   371
 70
    -1
1070
   372
 70
    -1
1002
}
  0
XRECORD
  5
44C5
102
{ACAD_REACTORS
330
44B6
102
}
330
44B6
100
AcDbXrecord
340
0
  0
XRECORD
  5
44C6
102
{ACAD_REACTORS
330
44B6
102
}
330
44B6
100
AcDbXrecord
 70
     0
  0
XRECORD
  5
44C7
102
{ACAD_REACTORS
330
44B6
102
}
330
44B6
100
AcDbXrecord
340
0
  0
XRECORD
  5
44C8
102
{ACAD_REACTORS
330
44B6
102
}
330
44B6
100
AcDbXrecord
 10
0.0
 20
0.0
 30
0.0
  0
XRECORD
  5
44C9
102
{ACAD_REACTORS
330
44B6
102
}
330
44B6
100
AcDbXrecord
 10
0.0
 20
0.0
 30
0.0
  0
XRECORD
  5
44CA
102
{ACAD_REACTORS
330
44B6
102
}
330
44B6
100
AcDbXrecord
 10
0.0
 20
0.0
 30
0.0
  0
XRECORD
  5
44CB
102
{ACAD_REACTORS
330
44B6
102
}
330
44B6
100
AcDbXrecord
 10
0.0
 20
0.0
 30
0.0
  0
XRECORD
  5
44CC
102
{ACAD_REACTORS
330
44B6
102
}
330
44B6
100
AcDbXrecord
 10
0.0
 20
0.0
 30
0.0
  0
XRECORD
  5
44CD
102
{ACAD_REACTORS
330
44B6
102
}
330
44B6
100
AcDbXrecord
 10
0.0
 20
0.0
 30
0.0
  0
XRECORD
  5
44CE
102
{ACAD_REACTORS
330
44B6
102
}
330
44B6
100
AcDbXrecord
340
0
  0
XRECORD
  5
44CF
102
{ACAD_REACTORS
330
44B6
102
}
330
44B6
100
AcDbXrecord
 70
     0
  0
XRECORD
  5
44D0
102
{ACAD_REACTORS
330
44B6
102
}
330
44B6
100
AcDbXrecord
340
0
  0
XRECORD
  5
44D1
102
{ACAD_REACTORS
330
44B6
102
}
330
44B6
100
AcDbXrecord
 10
0.0
 20
0.0
 30
0.0
  0
XRECORD
  5
44D2
102
{ACAD_REACTORS
330
44B6
102
}
330
44B6
100
AcDbXrecord
 10
0.0
 20
0.0
 30
0.0
  0
XRECORD
  5
44D3
102
{ACAD_REACTORS
330
44B6
102
}
330
44B6
100
AcDbXrecord
 10
0.0
 20
0.0
 30
0.0
  0
XRECORD
  5
44D4
102
{ACAD_REACTORS
330
44B6
102
}
330
44B6
100
AcDbXrecord
 10
0.0
 20
0.0
 30
0.0
  0
XRECORD
  5
44D5
102
{ACAD_REACTORS
330
44B6
102
}
330
44B6
100
AcDbXrecord
 10
0.0
 20
0.0
 30
0.0
  0
XRECORD
  5
44D6
102
{ACAD_REACTORS
330
44B6
102
}
330
44B6
100
AcDbXrecord
 10
0.0
 20
0.0
 30
0.0
  0
LAYER_INDEX
  5
44AC
102
{ACAD_REACTORS
330
44AB
102
}
330
44AB
100
AcDbIndex
 40
2453151.669029757
100
AcDbLayerIndex
  8
0
360
44AD
 90
        0
  8
AM_0
360
44AE
 90
       55
  8
AM_7
360
44AF
 90
        1
  8
AM_11
360
44B0
 90
       20
  8
AM_5
360
44B1
 90
        5
  8
Defpoints
360
44B2
 90
        0
  8
AM_6
360
44B3
 90
        1
  8
AM_CL
360
44B4
 90
        0
  0
XRECORD
  5
2D
102
{ACAD_REACTORS
330
2C
102
}
330
2C
100
AcDbXrecord
  1
VERSION
140
15.0
  1
PRODUCT
  2
AutoCAD Mechanical 2000
  0
IDBUFFER
  5
44AD
330
0
100
AcDbIdBuffer
  0
IDBUFFER
  5
44AE
330
0
100
AcDbIdBuffer
330
41A7
330
41A8
330
41B8
330
41B9
330
41BA
330
41C9
330
41CF
330
1E25
330
1E26
330
1FD9
330
21D7
330
21D8
330
21D9
330
21DC
330
21DD
330
2694
330
2695
330
2696
330
2699
330
2CB4
330
2CB7
330
3366
330
3367
330
3D48
330
3D4A
330
3D4B
330
3D4C
330
3D51
330
3D52
330
3D53
330
3D54
330
3D55
330
3D56
330
3D57
330
3D58
330
3D59
330
3D5B
330
3D5C
330
3D5D
330
3D5E
330
3D5F
330
3D60
330
3D61
330
3D62
330
3D63
330
3D64
330
3D6E
330
3D6F
330
3D70
330
3D71
330
3D72
330
41A3
330
41A4
330
41A5
330
41A6
  0
IDBUFFER
  5
44AF
330
0
100
AcDbIdBuffer
330
C9F
  0
IDBUFFER
  5
44B0
330
0
100
AcDbIdBuffer
330
4487
330
4488
330
4489
330
448B
330
3D4D
330
3D4E
330
3D4F
330
3D50
330
3D65
330
447C
330
447D
330
447E
330
447F
330
4480
330
4481
330
4482
330
4483
330
4484
330
4485
330
4486
  0
IDBUFFER
  5
44B1
330
0
100
AcDbIdBuffer
330
CC6
330
DF5
330
1FB6
330
2216
330
4385
  0
IDBUFFER
  5
44B2
330
0
100
AcDbIdBuffer
  0
IDBUFFER
  5
44B3
330
0
100
AcDbIdBuffer
330
19BD
  0
IDBUFFER
  5
44B4
330
0
100
AcDbIdBuffer
  0
ENDSEC
  0
EOF
