  0
SECTION
  2
HEADER
  9
$ACADVER
  1
AC1014
  9
$ACADMAINTVER
 70
     9
  9
$DWGCODEPAGE
  3
ANSI_932
  9
$INSBASE
 10
0.0
 20
0.0
 30
0.0
  9
$EXTMIN
 10
-164.800001
 20
-54.00000099999978
 30
-0.00000001
  9
$EXTMAX
 10
37.04001720295885
 20
35.81022925363351
 30
0.00000001
  9
$LIMMIN
 10
-174.4563797951447
 20
-70.82206914383238
  9
$LIMMAX
 10
45.85902212792825
 20
52.2453258987743
  9
$ORTHOMODE
 70
     0
  9
$REGENMODE
 70
     1
  9
$FILLMODE
 70
     1
  9
$QTEXTMODE
 70
     0
  9
$MIRRTEXT
 70
     0
  9
$DRAGMODE
 70
     2
  9
$LTSCALE
 40
1.0
  9
$OSMODE
 70
    55
  9
$ATTMODE
 70
     1
  9
$TEXTSIZE
 40
2.5
  9
$TRACEWID
 40
1.0
  9
$TEXTSTYLE
  7
STANDARD
  9
$CLAYER
  8
AM_0
  9
$CELTYPE
  6
BYLAYER
  9
$CECOLOR
 62
   256
  9
$CELTSCALE
 40
1.0
  9
$DELOBJ
 70
     1
  9
$DISPSILH
 70
     0
  9
$DIMSCALE
 40
1.0
  9
$DIMASZ
 40
2.5
  9
$DIMEXO
 40
1.0
  9
$DIMDLI
 40
12.0
  9
$DIMRND
 40
0.0
  9
$DIMDLE
 40
0.0
  9
$DIMEXE
 40
1.0
  9
$DIMTP
 40
0.1
  9
$DIMTM
 40
0.1
  9
$DIMTXT
 40
3.2
  9
$DIMCEN
 40
0.0
  9
$DIMTSZ
 40
0.0
  9
$DIMTOL
 70
     0
  9
$DIMLIM
 70
     0
  9
$DIMTIH
 70
     0
  9
$DIMTOH
 70
     0
  9
$DIMSE1
 70
     0
  9
$DIMSE2
 70
     0
  9
$DIMTAD
 70
     3
  9
$DIMZIN
 70
     8
  9
$DIMBLK
  1
OPEN30
  9
$DIMASO
 70
     1
  9
$DIMSHO
 70
     1
  9
$DIMPOST
  1

  9
$DIMAPOST
  1
"
  9
$DIMALT
 70
     0
  9
$DIMALTD
 70
     2
  9
$DIMALTF
 40
0.0393701
  9
$DIMLFAC
 40
1.0
  9
$DIMTOFL
 70
     1
  9
$DIMTVP
 40
0.0
  9
$DIMTIX
 70
     0
  9
$DIMSOXD
 70
     0
  9
$DIMSAH
 70
     0
  9
$DIMBLK1
  1

  9
$DIMBLK2
  1

  9
$DIMSTYLE
  2
AM_JIS
  9
$DIMCLRD
 70
   256
  9
$DIMCLRE
 70
   256
  9
$DIMCLRT
 70
     2
  9
$DIMTFAC
 40
0.71
  9
$DIMGAP
 40
1.5
  9
$DIMJUST
 70
     0
  9
$DIMSD1
 70
     0
  9
$DIMSD2
 70
     0
  9
$DIMTOLJ
 70
     0
  9
$DIMTZIN
 70
     0
  9
$DIMALTZ
 70
     0
  9
$DIMALTTZ
 70
     0
  9
$DIMFIT
 70
     3
  9
$DIMUPT
 70
     0
  9
$DIMUNIT
 70
     2
  9
$DIMDEC
 70
     3
  9
$DIMTDEC
 70
     3
  9
$DIMALTU
 70
     2
  9
$DIMALTTD
 70
     2
  9
$DIMTXSTY
  7
ASAMI
  9
$DIMAUNIT
 70
     0
  9
$LUNITS
 70
     2
  9
$LUPREC
 70
     2
  9
$SKETCHINC
 40
1.0
  9
$FILLETRAD
 40
2.5
  9
$AUNITS
 70
     0
  9
$AUPREC
 70
     0
  9
$MENU
  1
.
  9
$ELEVATION
 40
0.0
  9
$PELEVATION
 40
0.0
  9
$THICKNESS
 40
0.0
  9
$LIMCHECK
 70
     0
  9
$BLIPMODE
 70
     0
  9
$CHAMFERA
 40
0.75
  9
$CHAMFERB
 40
0.75
  9
$CHAMFERC
 40
20.0
  9
$CHAMFERD
 40
0.0
  9
$SKPOLY
 70
     0
  9
$TDCREATE
 40
2452800.443498622
  9
$TDUPDATE
 40
2453151.564964895
  9
$TDINDWG
 40
0.0899037500
  9
$TDUSRTIMER
 40
0.0899037500
  9
$USRTIMER
 70
     1
  9
$ANGBASE
 50
0.0
  9
$ANGDIR
 70
     0
  9
$PDMODE
 70
     0
  9
$PDSIZE
 40
0.0
  9
$PLINEWID
 40
0.0
  9
$COORDS
 70
     1
  9
$SPLFRAME
 70
     0
  9
$SPLINETYPE
 70
     6
  9
$SPLINESEGS
 70
     8
  9
$ATTDIA
 70
     1
  9
$ATTREQ
 70
     1
  9
$HANDLING
 70
 12289
  9
$HANDSEED
  5
41BB
  9
$SURFTAB1
 70
     6
  9
$SURFTAB2
 70
     6
  9
$SURFTYPE
 70
     6
  9
$SURFU
 70
     6
  9
$SURFV
 70
     6
  9
$UCSNAME
  2

  9
$UCSORG
 10
0.0
 20
0.0
 30
0.0
  9
$UCSXDIR
 10
1.0
 20
0.0000000000000027
 30
0.0
  9
$UCSYDIR
 10
-0.0000000000000027
 20
1.0
 30
0.0
  9
$PUCSNAME
  2

  9
$PUCSORG
 10
0.0
 20
0.0
 30
0.0
  9
$PUCSXDIR
 10
1.0
 20
0.0
 30
0.0
  9
$PUCSYDIR
 10
0.0
 20
1.0
 30
0.0
  9
$USERI1
 70
     0
  9
$USERI2
 70
     0
  9
$USERI3
 70
     0
  9
$USERI4
 70
     0
  9
$USERI5
 70
     0
  9
$USERR1
 40
0.0
  9
$USERR2
 40
0.0
  9
$USERR3
 40
0.0
  9
$USERR4
 40
0.0
  9
$USERR5
 40
0.0
  9
$WORLDVIEW
 70
     1
  9
$SHADEDGE
 70
     3
  9
$SHADEDIF
 70
    70
  9
$TILEMODE
 70
     1
  9
$MAXACTVP
 70
    64
  9
$PINSBASE
 10
0.0
 20
0.0
 30
0.0
  9
$PLIMCHECK
 70
     0
  9
$PEXTMIN
 10
1.000000000000000E+20
 20
1.000000000000000E+20
 30
1.000000000000000E+20
  9
$PEXTMAX
 10
-1.000000000000000E+20
 20
-1.000000000000000E+20
 30
-1.000000000000000E+20
  9
$PLIMMIN
 10
0.0
 20
0.0
  9
$PLIMMAX
 10
841.0
 20
594.0
  9
$UNITMODE
 70
     0
  9
$VISRETAIN
 70
     1
  9
$PLINEGEN
 70
     0
  9
$PSLTSCALE
 70
     0
  9
$TREEDEPTH
 70
  3020
  9
$PICKSTYLE
 70
     0
  9
$CMLSTYLE
  2
STANDARD
  9
$CMLJUST
 70
     0
  9
$CMLSCALE
 40
20.0
  9
$PROXYGRAPHICS
 70
     1
  9
$MEASUREMENT
 70
     1
  0
ENDSEC
  0
SECTION
  2
CLASSES
  0
CLASS
  1
ACDBDICTIONARYWDFLT
  2
AcDbDictionaryWithDefault
  3
AutoCAD 2000
 90
        0
280
     0
281
     0
  0
CLASS
  1
ACDBPLACEHOLDER
  2
AcDbPlaceHolder
  3
AutoCAD 2000
 90
        0
280
     0
281
     0
  0
CLASS
  1
LAYOUT
  2
AcDbLayout
  3
AutoCAD 2000
 90
        0
280
     0
281
     0
  0
CLASS
  1
AMGSETTINGSOBJ
  2
AmgSettingsObj
  3
"AcadM|Product Description: AutoCAD Mechanical 2000|Company: Autodesk"
 90
        0
280
     0
281
     0
  0
CLASS
  1
ACME_DOCUMENT
  2
AcMeDbDoc
  3
AcMeServices
 90
        0
280
     0
281
     0
  0
CLASS
  1
ACMESCOPE
  2
AcMeScope
  3
AcMeServices
 90
        0
280
     0
281
     0
  0
CLASS
  1
ACMECOMMANDHISTORY
  2
AcMeCommandHistory
  3
AcMeServices
 90
        0
280
     0
281
     0
  0
CLASS
  1
DICTIONARYVAR
  2
AcDbDictionaryVar
  3
AutoCAD 2000
 90
        0
280
     0
281
     0
  0
CLASS
  1
ACIMSYSVARMAN
  2
AcImSysVarManager
  3
AcMeServices
 90
        0
280
     0
281
     0
  0
CLASS
  1
ACIMREALSYSVAR
  2
AcImRealSysVar
  3
AcMeServices
 90
        0
280
     0
281
     0
  0
CLASS
  1
ACIMINTSYSVAR
  2
AcImIntSysVar
  3
AcMeServices
 90
        0
280
     0
281
     0
  0
CLASS
  1
ACMEDRAWINGMAN
  2
AcMeDrawingMan
  3
AcMeServices
 90
        0
280
     0
281
     0
  0
CLASS
  1
ACMEVIEW
  2
AcMeView
  3
AcMeServices
 90
        0
280
     0
281
     0
  0
CLASS
  1
ACDBENTITYCACHE
  2
AcMeEntityCache
  3
AcMeServices
 90
        0
280
     0
281
     0
  0
CLASS
  1
GSMANAGER
  2
AcMeGSManager
  3
AcMeServices
 90
        0
280
     0
281
     0
  0
CLASS
  1
AmdtInternalReactor
  2
AmdtInternalReactor
  3
AcMeServices
 90
        0
280
     0
281
     0
  0
CLASS
  1
ACMESTATEMGR
  2
AcMeStateMgr
  3
AcMeServices
 90
        0
280
     0
281
     0
  0
CLASS
  1
ACME_DATABASE
  2
AcMeDbDatabase
  3
AcMeServices
 90
        0
280
     0
281
     0
  0
CLASS
  1
ACRFINSADJUSTERMGR
  2
AcRfInsAdjusterMgr
  3
AcMeServices
 90
        0
280
     0
281
     0
  0
CLASS
  1
ACMDATADICTIONARY
  2
AcmDataDictionary
  3
"AcmSymBB|Product Description: AutoCAD Mechanical 2000|Company: Autodesk"
 90
        0
280
     0
281
     0
  0
CLASS
  1
ACMDATAENTRYBLOCK
  2
AcmDataEntryBlock
  3
"AcmSymBB|Product Description: AutoCAD Mechanical 2000|Company: Autodesk"
 90
        0
280
     0
281
     0
  0
CLASS
  1
AMGOBJPROPCFG
  2
AmgObjPropCfg
  3
"AmgLay|Product Description: AutoCAD Mechanical 2000|Company: Autodesk"
 90
        1
280
     0
281
     0
  0
CLASS
  1
ACAMGFILTERDAT
  2
AcAmgFilterDat
  3
"AcadM|Product Description: AutoCAD Mechanical 2000|Company: Autodesk"
 90
        0
280
     0
281
     0
  0
CLASS
  1
LAYER_INDEX
  2
AcDbLayerIndex
  3
AutoCAD 2000
 90
        0
280
     0
281
     0
  0
CLASS
  1
IDBUFFER
  2
AcDbIdBuffer
  3
AutoCAD 2000
 90
        0
280
     0
281
     0
  0
CLASS
  1
ACIMSTRSYSVAR
  2
AcImStrSysVar
  3
AcMeServices
 90
        0
280
     0
281
     0
  0
CLASS
  1
ACMSTANDARDJIS
  2
AcmStandardJIS
  3
"AcmSymBB|Product Description: AutoCAD Mechanical 2000|Company: Autodesk"
 90
        0
280
     0
281
     0
  0
CLASS
  1
ACMSURFSTANDARDJIS
  2
AcmSurfTextStdJIS
  3
"AcmSymBB|Product Description: AutoCAD Mechanical 2000|Company: Autodesk"
 90
        0
280
     0
281
     0
  0
CLASS
  1
ACMFCFSTANDARDJIS
  2
AcmFCFStdJIS
  3
"AcmSymBB|Product Description: AutoCAD Mechanical 2000|Company: Autodesk"
 90
        0
280
     0
281
     0
  0
CLASS
  1
ACMWELDSTANDARDJIS
  2
AcmWeldingStdJIS
  3
"AcmSymBB|Product Description: AutoCAD Mechanical 2000|Company: Autodesk"
 90
        0
280
     0
281
     0
  0
CLASS
  1
ACMIDSTANDARDJIS
  2
AcmIdStdJIS
  3
"AcmSymBB|Product Description: AutoCAD Mechanical 2000|Company: Autodesk"
 90
        0
280
     0
281
     0
  0
CLASS
  1
ACMDATUMSTANDARDJIS
  2
AcmDatumStdJIS
  3
"AcmSymBB|Product Description: AutoCAD Mechanical 2000|Company: Autodesk"
 90
        0
280
     0
281
     0
  0
CLASS
  1
ACMBOMSTANDARDJIS
  2
AcmBOMStdJIS
  3
"AcmSymBB|Product Description: AutoCAD Mechanical 2000|Company: Autodesk"
 90
        0
280
     0
281
     0
  0
CLASS
  1
ACMSTANDARDANSI
  2
AcmStandardANSI
  3
"AcmSymBB|Product Description: AutoCAD Mechanical 2000|Company: Autodesk"
 90
        0
280
     0
281
     0
  0
CLASS
  1
ACMSURFSTANDARDANSI
  2
AcmSurfTextStdANSI
  3
"AcmSymBB|Product Description: AutoCAD Mechanical 2000|Company: Autodesk"
 90
        0
280
     0
281
     0
  0
CLASS
  1
ACMFCFSTANDARDANSI
  2
AcmFCFStdANSI
  3
"AcmSymBB|Product Description: AutoCAD Mechanical 2000|Company: Autodesk"
 90
        0
280
     0
281
     0
  0
CLASS
  1
ACMWELDSTANDARDANSI
  2
AcmWeldingStdANSI
  3
"AcmSymBB|Product Description: AutoCAD Mechanical 2000|Company: Autodesk"
 90
        0
280
     0
281
     0
  0
CLASS
  1
ACMIDSTANDARDANSI
  2
AcmIdStdANSI
  3
"AcmSymBB|Product Description: AutoCAD Mechanical 2000|Company: Autodesk"
 90
        0
280
     0
281
     0
  0
CLASS
  1
ACMDATUMSTANDARDANSI
  2
AcmDatumStdANSI
  3
"AcmSymBB|Product Description: AutoCAD Mechanical 2000|Company: Autodesk"
 90
        0
280
     0
281
     0
  0
CLASS
  1
ACMBOMSTANDARDANSI
  2
AcmBOMStdANSI
  3
"AcmSymBB|Product Description: AutoCAD Mechanical 2000|Company: Autodesk"
 90
        0
280
     0
281
     0
  0
CLASS
  1
ACMSTANDARDBSI
  2
AcmStandardBSI
  3
"AcmSymBB|Product Description: AutoCAD Mechanical 2000|Company: Autodesk"
 90
        0
280
     0
281
     0
  0
CLASS
  1
ACMSURFSTANDARDBSI
  2
AcmSurfTextStdBSI
  3
"AcmSymBB|Product Description: AutoCAD Mechanical 2000|Company: Autodesk"
 90
        0
280
     0
281
     0
  0
CLASS
  1
ACMFCFSTANDARDBSI
  2
AcmFCFStdBSI
  3
"AcmSymBB|Product Description: AutoCAD Mechanical 2000|Company: Autodesk"
 90
        0
280
     0
281
     0
  0
CLASS
  1
ACMWELDSTANDARDBSI
  2
AcmWeldingStdBSI
  3
"AcmSymBB|Product Description: AutoCAD Mechanical 2000|Company: Autodesk"
 90
        0
280
     0
281
     0
  0
CLASS
  1
ACMIDSTANDARDBSI
  2
AcmIdStdBSI
  3
"AcmSymBB|Product Description: AutoCAD Mechanical 2000|Company: Autodesk"
 90
        0
280
     0
281
     0
  0
CLASS
  1
ACMDATUMSTANDARDBSI
  2
AcmDatumStdBSI
  3
"AcmSymBB|Product Description: AutoCAD Mechanical 2000|Company: Autodesk"
 90
        0
280
     0
281
     0
  0
CLASS
  1
ACMBOMSTANDARDBSI
  2
AcmBOMStdBSI
  3
"AcmSymBB|Product Description: AutoCAD Mechanical 2000|Company: Autodesk"
 90
        0
280
     0
281
     0
  0
CLASS
  1
LONG_TRANSACTION
  2
AcDbLongTransaction
  3
AutoCAD 2000
 90
        0
280
     0
281
     0
  0
CLASS
  1
LWPOLYLINE
  2
AcDbPolyline
  3
AutoCAD 2000
 90
        0
280
     0
281
     1
  0
CLASS
  1
HATCH
  2
AcDbHatch
  3
AutoCAD 2000
 90
        0
280
     0
281
     1
  0
CLASS
  1
XRECORD
  2
AcDbXrecord
  3
AutoCAD 2000
 90
        0
280
     0
281
     0
  0
ENDSEC
  0
SECTION
  2
TABLES
  0
TABLE
  2
VPORT
  5
8
330
0
100
AcDbSymbolTable
 70
     3
  0
VPORT
  5
4185
330
8
100
AcDbSymbolTableRecord
100
AcDbViewportTableRecord
  2
*ACTIVE
 70
     0
 10
0.0
 20
0.0
 11
1.0
 21
1.0
 12
-60.10932596368601
 22
-9.091196096511083
 13
0.0
 23
0.0
 14
2.5
 24
2.5
 15
10.0
 25
10.0
 16
0.0
 26
0.0
 36
1.0
 17
0.0
 27
0.0
 37
0.0
 40
134.3900903589047
 41
1.56570841889117
 42
50.0
 43
0.0
 44
0.0
 50
0.0
 51
0.0
 71
     0
 72
   100
 73
     1
 74
     1
 75
     0
 76
     0
 77
     0
 78
     0
  0
ENDTAB
  0
TABLE
  2
LTYPE
  5
5
330
0
100
AcDbSymbolTable
 70
    10
  0
LTYPE
  5
14
330
5
100
AcDbSymbolTableRecord
100
AcDbLinetypeTableRecord
  2
BYBLOCK
 70
     0
  3

 72
    65
 73
     0
 40
0.0
  0
LTYPE
  5
15
330
5
100
AcDbSymbolTableRecord
100
AcDbLinetypeTableRecord
  2
BYLAYER
 70
     0
  3

 72
    65
 73
     0
 40
0.0
  0
LTYPE
  5
16
330
5
100
AcDbSymbolTableRecord
100
AcDbLinetypeTableRecord
  2
CONTINUOUS
 70
     0
  3
Solid line
 72
    65
 73
     0
 40
0.0
  0
LTYPE
  5
4B
330
5
100
AcDbSymbolTableRecord
100
AcDbLinetypeTableRecord
  2
AM_ISO02W050
 70
     0
  3
__ __ __ __ __ __ __ __ __ __ __ __ __ __ __
 72
    65
 73
     2
 40
7.5
 49
6.0
 74
     0
 49
-1.5
 74
     0
  0
LTYPE
  5
4C
330
5
100
AcDbSymbolTableRecord
100
AcDbLinetypeTableRecord
  2
AM_ISO08W050
 70
     0
  3
____ . ____ . ____ . ____ . ____ . ____ . ____
 72
    65
 73
     4
 40
18.0
 49
12.0
 74
     0
 49
-1.5
 74
     0
 49
3.0
 74
     0
 49
-1.5
 74
     0
  0
LTYPE
  5
4D
330
5
100
AcDbSymbolTableRecord
100
AcDbLinetypeTableRecord
  2
AM_ISO09W050
 70
     0
  3
_____ . . _____ . . _____ . . ____ .. ____
 72
    65
 73
     6
 40
22.5
 49
12.0
 74
     0
 49
-1.5
 74
     0
 49
3.0
 74
     0
 49
-1.5
 74
     0
 49
3.0
 74
     0
 49
-1.5
 74
     0
  0
LTYPE
  5
4E
330
5
100
AcDbSymbolTableRecord
100
AcDbLinetypeTableRecord
  2
AMCONSTR
 70
     0
  3
_______________________
 72
    65
 73
     2
 40
9999.0
 49
9999.0
 74
     0
 49
0.0
 74
     0
  0
LTYPE
  5
4F
330
5
100
AcDbSymbolTableRecord
100
AcDbLinetypeTableRecord
  2
AM_ISO02W050X2
 70
     0
  3
 _ _ _ _ _ _ _ _ _ _ _ _
 72
    65
 73
     2
 40
3.75
 49
3.0
 74
     0
 49
-0.75
 74
     0
  0
LTYPE
  5
50
330
5
100
AcDbSymbolTableRecord
100
AcDbLinetypeTableRecord
  2
AM_ISO08W050X2
 70
     0
  3
__ . __ . __ . __ . __ . __
 72
    65
 73
     4
 40
9.0
 49
6.0
 74
     0
 49
-0.75
 74
     0
 49
1.5
 74
     0
 49
-0.75
 74
     0
  0
LTYPE
  5
53
330
5
100
AcDbSymbolTableRecord
100
AcDbLinetypeTableRecord
  2
AMZIGZAG
 70
     0
  3
/\/-/\/-/\/-/\/-/\/-/\/
 72
    65
 73
     2
 40
11.00009999999999
 49
0.0001
 74
     4
 75
   135
340
52
 46
0.04
 50
0.0
 44
0.0
 45
0.0
 49
-11.0
 74
     0
  0
LTYPE
  5
166
330
5
100
AcDbSymbolTableRecord
100
AcDbLinetypeTableRecord
  2
ACJISTGL
 70
     0
  3
_ _ _ _ _
 72
    65
 73
     2
 40
3.0
 49
2.0
 74
     0
 49
-1.0
 74
     0
  0
LTYPE
  5
26A
330
5
100
AcDbSymbolTableRecord
100
AcDbLinetypeTableRecord
  2
ACJISTGB
 70
     0
  3
__ . . __ . .
 72
    65
 73
     6
 40
9.0
 49
4.0
 74
     0
 49
-1.0
 74
     0
 49
1.0
 74
     0
 49
-1.0
 74
     0
 49
1.0
 74
     0
 49
-1.0
 74
     0
  0
ENDTAB
  0
TABLE
  2
LAYER
  5
2
330
0
100
AcDbSymbolTable
 70
     7
  0
LAYER
  5
10
330
2
100
AcDbSymbolTableRecord
100
AcDbLayerTableRecord
  2
0
 70
     0
 62
     7
  6
CONTINUOUS
  0
LAYER
  5
3F9
330
2
100
AcDbSymbolTableRecord
100
AcDbLayerTableRecord
  2
AM_0
 70
     0
 62
     7
  6
CONTINUOUS
  0
LAYER
  5
C7C
330
2
100
AcDbSymbolTableRecord
100
AcDbLayerTableRecord
  2
AM_7
 70
     0
 62
     4
  6
AM_ISO08W050
  0
LAYER
  5
C97
330
2
100
AcDbSymbolTableRecord
100
AcDbLayerTableRecord
  2
AM_11
 70
     0
 62
     3
  6
AM_ISO09W050
  0
LAYER
  5
CC5
330
2
100
AcDbSymbolTableRecord
100
AcDbLayerTableRecord
  2
AM_5
 70
     0
 62
     3
  6
CONTINUOUS
  0
LAYER
  5
CC7
330
2
100
AcDbSymbolTableRecord
100
AcDbLayerTableRecord
  2
DEFPOINTS
 70
     0
 62
     7
  6
CONTINUOUS
  0
LAYER
  5
19BC
330
2
100
AcDbSymbolTableRecord
100
AcDbLayerTableRecord
  2
AM_6
 70
     0
 62
     2
  6
CONTINUOUS
  0
ENDTAB
  0
TABLE
  2
STYLE
  5
3
330
0
100
AcDbSymbolTable
 70
     5
  0
STYLE
  5
11
330
3
100
AcDbSymbolTableRecord
100
AcDbTextStyleTableRecord
  2
STANDARD
 70
     0
 40
0.0
 41
1.0
 50
0.0
 71
     0
 42
2.5
  3
simplex.shx
  4
EXTFONT.SHX
  0
STYLE
  5
52
330
3
100
AcDbSymbolTableRecord
100
AcDbTextStyleTableRecord
  2

 70
     1
 40
0.0
 41
1.0
 50
0.0
 71
     0
 42
2.5
  3
ltypeshp.shx
  4

  0
STYLE
  5
6B
330
3
100
AcDbSymbolTableRecord
100
AcDbTextStyleTableRecord
  2
ASAMI
 70
     0
 40
0.0
 41
1.0
 50
0.0
 71
     0
 42
2.5
  3
simplex.shx
  4
EXTFONT.SHX
  0
STYLE
  5
262
330
3
100
AcDbSymbolTableRecord
100
AcDbTextStyleTableRecord
  2
ACJISTS
 70
     0
 40
1.0
 41
1.0
 50
0.0
 71
     0
 42
2.5
  3
simplex.shx
  4
bigfont.shx
  0
STYLE
  5
269
330
3
100
AcDbSymbolTableRecord
100
AcDbTextStyleTableRecord
  2
ACJISGDT
 70
     0
 40
0.0
 41
1.0
 50
0.0
 71
     0
 42
2.5
  3
amgdtans.shx
  4

  0
ENDTAB
  0
TABLE
  2
VIEW
  5
6
330
0
100
AcDbSymbolTable
 70
     0
  0
ENDTAB
  0
TABLE
  2
UCS
  5
7
330
0
100
AcDbSymbolTable
 70
     0
  0
ENDTAB
  0
TABLE
  2
APPID
  5
9
330
0
100
AcDbSymbolTable
 70
    16
  0
APPID
  5
12
330
9
100
AcDbSymbolTableRecord
100
AcDbRegAppTableRecord
  2
ACAD
 70
     0
  0
APPID
  5
30
330
9
100
AcDbSymbolTableRecord
100
AcDbRegAppTableRecord
  2
MCAD_NO_VIS
 70
     0
  0
APPID
  5
31
330
9
100
AcDbSymbolTableRecord
100
AcDbRegAppTableRecord
  2
ACAD_TEMP_GRAPHIC
 70
     0
  0
APPID
  5
2C2
330
9
100
AcDbSymbolTableRecord
100
AcDbRegAppTableRecord
  2
GENIUS_GENDTOL_13
 70
     0
  0
APPID
  5
339
330
9
100
AcDbSymbolTableRecord
100
AcDbRegAppTableRecord
  2
GENIUS_GENODEF_13
 70
     0
  0
APPID
  5
33A
330
9
100
AcDbSymbolTableRecord
100
AcDbRegAppTableRecord
  2
GENIUS_GENOBJ-N-RSBK_13
 70
     0
  0
APPID
  5
33B
330
9
100
AcDbSymbolTableRecord
100
AcDbRegAppTableRecord
  2
GENIUS_GENOBJ-N-LIB_13
 70
     0
  0
APPID
  5
33C
330
9
100
AcDbSymbolTableRecord
100
AcDbRegAppTableRecord
  2
GENIUS_GENSCALE_13
 70
     0
  0
APPID
  5
378
330
9
100
AcDbSymbolTableRecord
100
AcDbRegAppTableRecord
  2
GENIUS_GENDIMSH_14
 70
     0
  0
APPID
  5
C82
330
9
100
AcDbSymbolTableRecord
100
AcDbRegAppTableRecord
  2
GENIUS_GENOBJ-N-CRS_13
 70
     0
  0
APPID
  5
C83
330
9
100
AcDbSymbolTableRecord
100
AcDbRegAppTableRecord
  2
GENIUS_GENOENT_13
 70
     0
  0
APPID
  5
C84
330
9
100
AcDbSymbolTableRecord
100
AcDbRegAppTableRecord
  2
GENIUS_GENOREF_13
 70
     0
  0
APPID
  5
C85
330
9
100
AcDbSymbolTableRecord
100
AcDbRegAppTableRecord
  2
GENIUS_GENOLIS_13
 70
     0
  0
APPID
  5
CA0
330
9
100
AcDbSymbolTableRecord
100
AcDbRegAppTableRecord
  2
GENIUS_GENOBJ-N-CEN_13
 70
     0
  0
APPID
  5
2796
330
9
100
AcDbSymbolTableRecord
100
AcDbRegAppTableRecord
  2
GENIUS_GENFIL_13
 70
     0
  0
APPID
  5
2797
330
9
100
AcDbSymbolTableRecord
100
AcDbRegAppTableRecord
  2
GENIUS_GENOBJ-N-CHA_13
 70
     0
  0
ENDTAB
  0
TABLE
  2
DIMSTYLE
  5
A
330
0
100
AcDbSymbolTable
 70
     9
  0
DIMSTYLE
105
58
330
A
100
AcDbSymbolTableRecord
100
AcDbDimStyleTableRecord
  2
AM_JIS
 70
     0
  3

  4
"
  5
OPEN30
  6

  7

 40
1.0
 41
2.5
 42
1.0
 43
12.0
 44
1.0
 45
0.0
 46
0.0
 47
0.1
 48
0.1
140
3.2
141
0.0
142
0.0
143
0.0393701
144
1.0
145
0.0
146
0.71
147
1.5
 71
     0
 72
     0
 73
     0
 74
     0
 75
     0
 76
     0
 77
     3
 78
     8
170
     0
171
     2
172
     1
173
     0
174
     0
175
     0
176
   256
177
   256
178
     2
270
     2
271
     3
272
     3
273
     2
274
     2
340
6B
275
     0
280
     0
281
     0
282
     0
283
     0
284
     0
285
     0
286
     0
287
     3
288
     0
  0
DIMSTYLE
105
5F
330
A
100
AcDbSymbolTableRecord
100
AcDbDimStyleTableRecord
  2
AM_JIS$3
 70
     0
  3

  4
"
  5
OPEN30
  6

  7

 40
1.0
 41
2.5
 42
1.0
 43
10.0
 44
1.0
 45
0.0
 46
0.0
 47
0.1
 48
0.1
140
3.2
141
0.0
142
0.0
143
0.0393701
144
1.0
145
0.0
146
0.71
147
1.5
 71
     0
 72
     0
 73
     0
 74
     1
 75
     0
 76
     0
 77
     3
 78
     8
170
     0
171
     2
172
     0
173
     0
174
     0
175
     0
176
   256
177
   256
178
     2
270
     2
271
     2
272
     3
273
     2
274
     2
340
6B
275
     0
280
     0
281
     0
282
     0
283
     0
284
     0
285
     0
286
     0
287
     0
288
     1
  0
DIMSTYLE
105
60
330
A
100
AcDbSymbolTableRecord
100
AcDbDimStyleTableRecord
  2
AM_JIS$4
 70
     0
  3

  4
"
  5
OPEN30
  6

  7

 40
1.0
 41
2.5
 42
1.0
 43
10.0
 44
1.0
 45
0.0
 46
0.0
 47
0.1
 48
0.1
140
3.2
141
0.0
142
0.0
143
0.0393701
144
1.0
145
0.0
146
0.71
147
1.5
 71
     0
 72
     0
 73
     0
 74
     1
 75
     0
 76
     0
 77
     3
 78
     8
170
     0
171
     2
172
     0
173
     0
174
     0
175
     0
176
   256
177
   256
178
     2
270
     2
271
     2
272
     3
273
     2
274
     2
340
6B
275
     0
280
     0
281
     0
282
     0
283
     0
284
     0
285
     0
286
     0
287
     0
288
     1
  0
DIMSTYLE
105
61
330
A
100
AcDbSymbolTableRecord
100
AcDbDimStyleTableRecord
  2
AM_JIS$6
 70
     0
  3

  4
"
  5
OPEN30
  6

  7

 40
1.0
 41
2.5
 42
1.0
 43
10.0
 44
1.0
 45
0.0
 46
0.0
 47
0.1
 48
0.1
140
3.2
141
0.0
142
0.0
143
0.0393701
144
1.0
145
0.0
146
0.71
147
1.5
 71
     0
 72
     0
 73
     0
 74
     0
 75
     0
 76
     0
 77
     0
 78
     8
170
     0
171
     2
172
     1
173
     0
174
     0
175
     0
176
   256
177
   256
178
     2
270
     2
271
     2
272
     2
273
     2
274
     2
340
6B
275
     0
280
     0
281
     0
282
     0
283
     0
284
     0
285
     0
286
     0
287
     3
288
     0
  0
DIMSTYLE
105
62
330
A
100
AcDbSymbolTableRecord
100
AcDbDimStyleTableRecord
  2
AM_JIS$7
 70
     0
  3

  4
"
  5
OPEN30
  6

  7

 40
1.0
 41
2.5
 42
1.0
 43
10.0
 44
1.0
 45
0.0
 46
0.0
 47
0.1
 48
0.1
140
3.2
141
0.0
142
0.0
143
0.0393701
144
1.0
145
0.0
146
0.71
147
1.5
 71
     0
 72
     0
 73
     0
 74
     0
 75
     0
 76
     0
 77
     3
 78
     8
170
     0
171
     2
172
     1
173
     0
174
     0
175
     0
176
   256
177
   256
178
     2
270
     2
271
     2
272
     3
273
     2
274
     2
340
6B
275
     0
280
     0
281
     0
282
     0
283
     0
284
     0
285
     0
286
     0
287
     3
288
     0
  0
DIMSTYLE
105
63
330
A
100
AcDbSymbolTableRecord
100
AcDbDimStyleTableRecord
  2
AM_JIS$SF
 70
     0
  3

  4
"
  5
OPEN30
  6

  7

 40
1.0
 41
2.5
 42
1.0
 43
10.0
 44
1.0
 45
0.0
 46
0.0
 47
0.1
 48
0.1
140
3.2
141
0.0
142
0.0
143
0.0393701
144
1.0
145
0.0
146
0.71
147
1.5
 71
     0
 72
     0
 73
     0
 74
     0
 75
     1
 76
     1
 77
     3
 78
     8
170
     0
171
     2
172
     1
173
     0
174
     0
175
     0
176
   256
177
   256
178
     2
270
     2
271
     2
272
     2
273
     2
274
     2
340
6B
275
     0
280
     0
281
     0
282
     0
283
     0
284
     0
285
     0
286
     0
287
     3
288
     0
  0
DIMSTYLE
105
68
330
A
100
AcDbSymbolTableRecord
100
AcDbDimStyleTableRecord
  2
AM_JIS$SH
 70
     0
  3

  4
"
  5

  6
GENAXEH
  7
OPEN30
 40
1.0
 41
2.5
 42
1.0
 43
10.0
 44
1.0
 45
0.0
 46
0.0
 47
0.1
 48
0.1
140
3.2
141
0.0
142
0.0
143
0.0393701
144
2.0
145
0.0
146
0.71
147
1.5
 71
     0
 72
     0
 73
     0
 74
     0
 75
     1
 76
     1
 77
     3
 78
     8
170
     0
171
     2
172
     1
173
     1
174
     0
175
     0
176
   256
177
   256
178
     2
270
     2
271
     2
272
     2
273
     2
274
     2
340
6B
275
     0
280
     0
281
     0
282
     0
283
     0
284
     0
285
     0
286
     0
287
     3
288
     0
  0
DIMSTYLE
105
B34
102
{ACAD_REACTORS
330
3D2F
102
}
330
A
100
AcDbSymbolTableRecord
100
AcDbDimStyleTableRecord
  2
AM_JIS$2
 70
     0
  3

  4
"
  5
OPEN30
  6

  7

 40
1.0
 41
2.5
 42
1.0
 43
12.0
 44
1.0
 45
0.0
 46
0.0
 47
0.1
 48
0.1
140
3.2
141
0.0
142
0.0
143
0.0393701
144
1.0
145
0.0
146
0.71
147
1.5
 71
     0
 72
     0
 73
     0
 74
     0
 75
     0
 76
     0
 77
     3
 78
     8
170
     0
171
     2
172
     1
173
     0
174
     0
175
     0
176
   256
177
   256
178
     2
270
     2
271
     3
272
     3
273
     2
274
     2
340
6B
275
     0
280
     0
281
     0
282
     0
283
     0
284
     0
285
     0
286
     0
287
     3
288
     0
  0
DIMSTYLE
105
BA5
102
{ACAD_REACTORS
330
CC6
330
2069
330
2D60
330
3C5B
102
}
330
A
100
AcDbSymbolTableRecord
100
AcDbDimStyleTableRecord
  2
AM_JIS$0
 70
     0
  3

  4
"
  5
OPEN30
  6

  7

 40
1.0
 41
2.5
 42
0.0
 43
10.0
 44
1.0
 45
0.0
 46
0.0
 47
0.1
 48
0.1000000001
140
3.799999999999999
141
0.0
142
0.0
143
0.0393701
144
1.0
145
0.0
146
0.71
147
1.5
 71
     0
 72
     0
 73
     0
 74
     0
 75
     0
 76
     0
 77
     3
 78
     1
170
     0
171
     2
172
     1
173
     0
174
     0
175
     0
176
     3
177
     3
178
     2
270
     2
271
     2
272
     2
273
     2
274
     2
340
11
275
     1
280
     0
281
     0
282
     0
283
     0
284
     8
285
     0
286
     0
287
     0
288
     0
  0
ENDTAB
  0
TABLE
  2
BLOCK_RECORD
  5
1
330
0
100
AcDbSymbolTable
 70
    10
  0
BLOCK_RECORD
  5
1F
102
{ACAD_XDICTIONARY
360
74
102
}
330
1
100
AcDbSymbolTableRecord
100
AcDbBlockTableRecord
  2
*MODEL_SPACE
  0
BLOCK_RECORD
  5
101
102
{ACAD_XDICTIONARY
360
41AE
102
}
330
1
100
AcDbSymbolTableRecord
100
AcDbBlockTableRecord
  2
*PAPER_SPACE
  0
BLOCK_RECORD
  5
59
330
1
100
AcDbSymbolTableRecord
100
AcDbBlockTableRecord
  2
_OPEN30
  0
BLOCK_RECORD
  5
64
330
1
100
AcDbSymbolTableRecord
100
AcDbBlockTableRecord
  2
GENAXEH
  0
BLOCK_RECORD
  5
CC8
330
1
100
AcDbSymbolTableRecord
100
AcDbBlockTableRecord
  2
*D5
  0
BLOCK_RECORD
  5
206A
330
1
100
AcDbSymbolTableRecord
100
AcDbBlockTableRecord
  2
*D6
  0
BLOCK_RECORD
  5
2D61
330
1
100
AcDbSymbolTableRecord
100
AcDbBlockTableRecord
  2
*D7
  0
BLOCK_RECORD
  5
3C5C
330
1
100
AcDbSymbolTableRecord
100
AcDbBlockTableRecord
  2
*D8
  0
BLOCK_RECORD
  5
3D30
330
1
100
AcDbSymbolTableRecord
100
AcDbBlockTableRecord
  2
*D9
  0
ENDTAB
  0
ENDSEC
  0
SECTION
  2
BLOCKS
  0
BLOCK
  5
20
330
1F
100
AcDbEntity
  8
0
100
AcDbBlockBegin
  2
*MODEL_SPACE
 70
     0
 10
0.0
 20
0.0
 30
0.0
  3
*MODEL_SPACE
  1

  0
ENDBLK
  5
21
330
1F
100
AcDbEntity
  8
0
100
AcDbBlockEnd
  0
BLOCK
  5
103
330
101
100
AcDbEntity
 67
     1
  8
0
100
AcDbBlockBegin
  2
*PAPER_SPACE
 70
     0
 10
0.0
 20
0.0
 30
0.0
  3
*PAPER_SPACE
  1

  0
ENDBLK
  5
104
330
101
100
AcDbEntity
 67
     1
  8
0
100
AcDbBlockEnd
  0
BLOCK
  5
5D
330
59
100
AcDbEntity
  8
0
100
AcDbBlockBegin
  2
_OPEN30
 70
     0
 10
0.0
 20
0.0
 30
0.0
  3
_OPEN30
  1

  0
LINE
  5
5A
330
59
100
AcDbEntity
  8
0
 62
     0
100
AcDbLine
 10
-1.0
 20
0.26794919
 30
0.0
 11
0.0
 21
0.0
 31
0.0
  0
LINE
  5
5B
330
59
100
AcDbEntity
  8
0
 62
     0
100
AcDbLine
 10
0.0
 20
0.0
 30
0.0
 11
-1.0
 21
-0.26794919
 31
0.0
  0
LINE
  5
5C
330
59
100
AcDbEntity
  8
0
 62
     0
100
AcDbLine
 10
0.0
 20
0.0
 30
0.0
 11
-1.0
 21
0.0
 31
0.0
  0
ENDBLK
  5
5E
330
59
100
AcDbEntity
  8
0
100
AcDbBlockEnd
  0
BLOCK
  5
66
330
64
100
AcDbEntity
  8
0
100
AcDbBlockBegin
  2
GENAXEH
 70
     0
 10
0.0
 20
0.0
 30
0.0
  3
GENAXEH
  1

  0
LINE
  5
65
330
64
100
AcDbEntity
  8
0
100
AcDbLine
 10
-1.0
 20
0.0
 30
0.0
 11
1.0
 21
0.0
 31
0.0
  0
ENDBLK
  5
67
330
64
100
AcDbEntity
  8
0
100
AcDbBlockEnd
  0
BLOCK
  5
CD2
330
CC8
100
AcDbEntity
  8
0
100
AcDbBlockBegin
  2
*D5
 70
     1
 10
0.0
 20
0.0
 30
0.0
  3
*D5
  1

  0
LINE
  5
413A
330
CC8
100
AcDbEntity
  8
AM_5
 62
     3
100
AcDbLine
 10
-143.0
 20
-6.749999999999592
 30
0.0
 11
-143.0
 21
-32.50000099999972
 31
0.0
  0
LINE
  5
413B
330
CC8
100
AcDbEntity
  8
AM_5
 62
     3
100
AcDbLine
 10
-3.000000073929429
 20
-7.14999995114096
 30
0.0
 11
-3.000000073929431
 21
-32.50000099999972
 31
0.0
  0
LINE
  5
413C
330
CC8
100
AcDbEntity
  8
AM_5
 62
     3
100
AcDbLine
 10
-140.5
 20
-31.50000099999973
 30
0.0
 11
-5.500000073929431
 21
-31.50000099999973
 31
0.0
  0
INSERT
  5
413D
330
CC8
100
AcDbEntity
  8
AM_5
 62
     3
100
AcDbBlockReference
  2
_OPEN30
 10
-143.0
 20
-31.50000099999973
 30
0.0
 41
2.5
 42
2.5
 43
2.5
 50
180.0
  0
INSERT
  5
413E
330
CC8
100
AcDbEntity
  8
AM_5
 62
     3
100
AcDbBlockReference
  2
_OPEN30
 10
-3.000000073929431
 20
-31.50000099999973
 30
0.0
 41
2.5
 42
2.5
 43
2.5
  0
MTEXT
  5
413F
330
CC8
100
AcDbEntity
  8
AM_5
 62
     2
100
AcDbMText
 10
-73.00000003696476
 20
-28.10000099999973
 30
0.0
 40
3.799999999999999
 41
0.0
 71
     5
 72
     1
  1
140
1001
ACAD
1000
MTEXTBEGIN
1070
    73
1070
     1
1070
    44
1040
1.0
1070
    74
1070
     0
1000
MTEXTEND
  0
POINT
  5
4140
330
CC8
100
AcDbEntity
  8
DEFPOINTS
 62
     0
100
AcDbPoint
 10
-143.0
 20
-6.749999999999592
 30
0.0
  0
POINT
  5
4141
330
CC8
100
AcDbEntity
  8
DEFPOINTS
 62
     0
100
AcDbPoint
 10
-3.000000073929429
 20
-7.14999995114096
 30
0.0
  0
POINT
  5
4142
330
CC8
100
AcDbEntity
  8
DEFPOINTS
 62
     0
100
AcDbPoint
 10
-3.000000073929431
 20
-31.50000099999973
 30
0.0
  0
ENDBLK
  5
CD3
330
CC8
100
AcDbEntity
  8
0
100
AcDbBlockEnd
  0
BLOCK
  5
2074
330
206A
100
AcDbEntity
  8
0
100
AcDbBlockBegin
  2
*D6
 70
     1
 10
0.0
 20
0.0
 30
0.0
  3
*D6
  1

  0
LINE
  5
4131
330
206A
100
AcDbEntity
  8
AM_5
 62
     3
100
AcDbLine
 10
-77.99999999999966
 20
-7.499999999999855
 30
0.0
 11
-77.99999999999961
 21
-22.50000099999986
 31
0.0
  0
LINE
  5
4132
330
206A
100
AcDbEntity
  8
AM_5
 62
     3
100
AcDbLine
 10
-3.000000073929408
 20
-7.149999951140969
 30
0.0
 11
-3.000000073929365
 21
-22.50000099999964
 31
0.0
  0
LINE
  5
4133
330
206A
100
AcDbEntity
  8
AM_5
 62
     3
100
AcDbLine
 10
-75.49999999999963
 20
-21.50000099999985
 30
0.0
 11
-5.500000073929368
 21
-21.50000099999965
 31
0.0
  0
INSERT
  5
4134
330
206A
100
AcDbEntity
  8
AM_5
 62
     3
100
AcDbBlockReference
  2
_OPEN30
 10
-77.99999999999963
 20
-21.50000099999986
 30
0.0
 41
2.5
 42
2.5
 43
2.5
 50
180.0000000000001
  0
INSERT
  5
4135
330
206A
100
AcDbEntity
  8
AM_5
 62
     3
100
AcDbBlockReference
  2
_OPEN30
 10
-3.000000073929367
 20
-21.50000099999964
 30
0.0
 41
2.5
 42
2.5
 43
2.5
 50
0.0000000000001527
  0
MTEXT
  5
4136
330
206A
100
AcDbEntity
  8
AM_5
 62
     2
100
AcDbMText
 10
-40.5000000369645
 20
-18.10000099999975
 30
0.0
 40
3.799999999999999
 41
0.0
 71
     5
 72
     1
  1
75
1001
ACAD
1000
MTEXTBEGIN
1070
    73
1070
     1
1070
    44
1040
1.0
1070
    74
1070
     0
1000
MTEXTEND
  0
POINT
  5
4137
330
206A
100
AcDbEntity
  8
DEFPOINTS
 62
     0
100
AcDbPoint
 10
-77.99999999999968
 20
-7.499999999999627
 30
0.0
  0
POINT
  5
4138
330
206A
100
AcDbEntity
  8
DEFPOINTS
 62
     0
100
AcDbPoint
 10
-3.000000073929429
 20
-7.14999995114096
 30
0.0
  0
POINT
  5
4139
330
206A
100
AcDbEntity
  8
DEFPOINTS
 62
     0
100
AcDbPoint
 10
-3.00000007392943
 20
-21.50000099999963
 30
0.0
  0
ENDBLK
  5
2075
330
206A
100
AcDbEntity
  8
0
100
AcDbBlockEnd
  0
BLOCK
  5
2D6B
330
2D61
100
AcDbEntity
  8
0
100
AcDbBlockBegin
  2
*D7
 70
     1
 10
0.0
 20
0.0
 30
0.0
  3
*D7
  1

  0
LINE
  5
4157
330
2D61
100
AcDbEntity
  8
AM_5
 62
     3
100
AcDbLine
 10
-3.000000000000035
 20
7.14999999999978
 30
0.0
 11
17.31992612853442
 21
7.149928673893971
 31
0.0
  0
LINE
  5
4158
330
2D61
100
AcDbEntity
  8
AM_5
 62
     3
100
AcDbLine
 10
-3.000000073929429
 20
-7.149999951140964
 30
0.0
 11
17.31987593330718
 21
-7.150071277070838
 31
0.0
  0
LINE
  5
4159
330
2D61
100
AcDbEntity
  8
AM_5
 62
     3
100
AcDbLine
 10
16.31986715792393
 20
-9.650067766899674
 30
0.0
 11
16.31985838253452
 21
-12.15006776688427
 31
0.0
  0
LINE
  5
415A
330
2D61
100
AcDbEntity
  8
AM_5
 62
     3
100
AcDbLine
 10
16.31993490392999
 20
9.649932184034334
 30
0.0
 11
16.32000438829907
 21
29.44517027915053
 31
0.0
  0
LINE
  5
415B
330
2D61
100
AcDbEntity
  8
AM_5
 62
     3
100
AcDbLine
 10
16.31987593331334
 20
-7.150067766915075
 30
0.0
 11
16.31992612854058
 21
7.149932184049735
 31
0.0
  0
INSERT
  5
415C
330
2D61
100
AcDbEntity
  8
AM_5
 62
     3
100
AcDbBlockReference
  2
_OPEN30
 10
16.31987593331334
 20
-7.150067766915075
 30
0.0
 41
2.5
 42
2.5
 43
2.5
 50
89.99979888288931
  0
INSERT
  5
415D
330
2D61
100
AcDbEntity
  8
AM_5
 62
     3
100
AcDbBlockReference
  2
_OPEN30
 10
16.31992612854058
 20
7.149932184049735
 30
0.0
 41
2.5
 42
2.5
 43
2.5
 50
269.9997988828893
  0
MTEXT
  5
415E
330
2D61
100
AcDbEntity
  8
AM_5
 62
     2
100
AcDbMText
 10
12.91997403383018
 20
20.79756316611435
 30
0.0
 40
3.799999999999999
 41
0.0
 71
     5
 72
     1
  1
%%c14.3
 11
0.0000035101557632
 21
0.9999999999938395
 31
0.0
1001
ACAD
1000
MTEXTBEGIN
1070
    73
1070
     1
1070
    44
1040
1.0
1070
    74
1070
     0
1000
MTEXTEND
  0
POINT
  5
415F
330
2D61
100
AcDbEntity
  8
DEFPOINTS
 62
     0
100
AcDbPoint
 10
-3.000000000000015
 20
7.149999999999789
 30
0.0
  0
POINT
  5
4160
330
2D61
100
AcDbEntity
  8
DEFPOINTS
 62
     0
100
AcDbPoint
 10
-3.00000007392945
 20
-7.149999951140956
 30
0.0
  0
POINT
  5
4161
330
2D61
100
AcDbEntity
  8
DEFPOINTS
 62
     0
100
AcDbPoint
 10
16.31987593331332
 20
-7.150067766915123
 30
0.0
  0
ENDBLK
  5
2D6C
330
2D61
100
AcDbEntity
  8
0
100
AcDbBlockEnd
  0
BLOCK
  5
3C66
330
3C5C
100
AcDbEntity
  8
0
100
AcDbBlockBegin
  2
*D8
 70
     1
 10
0.0
 20
0.0
 30
0.0
  3
*D8
  1

  0
LINE
  5
4143
330
3C5C
100
AcDbEntity
  8
AM_5
 62
     3
100
AcDbLine
 10
-142.25
 20
7.499999999999949
 30
0.0
 11
-160.500001
 21
7.499999999999896
 31
0.0
  0
LINE
  5
4144
330
3C5C
100
AcDbEntity
  8
AM_5
 62
     3
100
AcDbLine
 10
-142.25
 20
-7.500000000000048
 30
0.0
 11
-160.5000009999999
 21
-7.500000000000101
 31
0.0
  0
LINE
  5
4145
330
3C5C
100
AcDbEntity
  8
AM_5
 62
     3
100
AcDbLine
 10
-159.500001
 20
4.9999999999999
 30
0.0
 11
-159.5000009999999
 21
-5.000000000000097
 31
0.0
  0
INSERT
  5
4146
330
3C5C
100
AcDbEntity
  8
AM_5
 62
     3
100
AcDbBlockReference
  2
_OPEN30
 10
-159.500001
 20
7.4999999999999
 30
0.0
 41
2.5
 42
2.5
 43
2.5
 50
90.00000000000017
  0
INSERT
  5
4147
330
3C5C
100
AcDbEntity
  8
AM_5
 62
     3
100
AcDbBlockReference
  2
_OPEN30
 10
-159.5000009999999
 20
-7.500000000000097
 30
0.0
 41
2.5
 42
2.5
 43
2.5
 50
270.0000000000001
  0
MTEXT
  5
4148
330
3C5C
100
AcDbEntity
  8
AM_5
 62
     2
100
AcDbMText
 10
-162.900001
 20
-0.0000000000001023
 30
0.0
 40
3.799999999999999
 41
0.0
 71
     5
 72
     1
  1
%%c15
 11
-0.0000000000000028
 21
1.0
 31
0.0
1001
ACAD
1000
MTEXTBEGIN
1070
    73
1070
     1
1070
    44
1040
1.0
1070
    74
1070
     0
1000
MTEXTEND
  0
POINT
  5
4149
330
3C5C
100
AcDbEntity
  8
DEFPOINTS
 62
     0
100
AcDbPoint
 10
-142.25
 20
7.500000000000391
 30
0.0
  0
POINT
  5
414A
330
3C5C
100
AcDbEntity
  8
DEFPOINTS
 62
     0
100
AcDbPoint
 10
-142.25
 20
-7.499999999999606
 30
0.0
  0
POINT
  5
414B
330
3C5C
100
AcDbEntity
  8
DEFPOINTS
 62
     0
100
AcDbPoint
 10
-159.500001
 20
-7.499999999999602
 30
0.0
  0
ENDBLK
  5
3C67
330
3C5C
100
AcDbEntity
  8
0
100
AcDbBlockEnd
  0
BLOCK
  5
3D3E
330
3D30
100
AcDbEntity
  8
0
100
AcDbBlockBegin
  2
*D9
 70
     1
 10
0.0
 20
0.0
 30
0.0
  3
*D9
  1

  0
LINE
  5
41B0
330
3D30
100
AcDbEntity
  8
AM_5
100
AcDbLine
 10
0.3420201408160668
 20
-0.9396926216995133
 30
0.0
 11
13.03386793079077
 21
-35.81025812556333
 31
0.0
  0
LINE
  5
41B1
330
3D30
100
AcDbEntity
  8
AM_5
100
AcDbLine
 10
0.3420222223658944
 20
0.9396918640743265
 30
0.0
 11
13.03394725549217
 21
35.81022925363352
 31
0.0
  0
ARC
  5
41B2
330
3D30
100
AcDbEntity
  8
AM_5
100
AcDbCircle
 10
-0.0000000000000734
 20
-0.0000000000002019
 30
0.0
 40
37.10848068680721
100
AcDbArc
 50
293.8607494244157
 51
66.13912365741406
  0
INSERT
  5
41B3
330
3D30
100
AcDbEntity
  8
AM_5
100
AcDbBlockReference
  2
_OPEN30
 10
12.69184778997463
 20
-34.87056550386402
 30
0.0
 41
2.5
 42
2.5
 43
2.5
 50
201.9303746357011
  0
INSERT
  5
41B4
330
3D30
100
AcDbEntity
  8
AM_5
100
AcDbBlockReference
  2
_OPEN30
 10
12.69192503312621
 20
34.870537389559
 30
0.0
 41
2.5
 42
2.5
 43
2.5
 50
158.0694984461286
  0
MTEXT
  5
41B5
330
3D30
100
AcDbEntity
  8
AM_5
 62
     2
100
AcDbMText
 10
34.00848068678627
 20
-0.0000376667723313
 30
0.0
 40
3.2
 41
0.0
 71
     5
 72
     1
  1
140°
  7
ASAMI
 11
0.0000011075699751
 21
0.9999999999993868
 31
0.0
  0
POINT
  5
41B6
330
3D30
100
AcDbEntity
  8
DEFPOINTS
 62
     0
100
AcDbPoint
 10
34.0735938027398
 20
-14.6979435380953
 30
0.0
  0
POINT
  5
41B7
330
3D30
100
AcDbEntity
  8
DEFPOINTS
 62
     0
100
AcDbPoint
 10
-0.0000000000000704
 20
-0.0000000000001936
 30
0.0
  0
POINT
  5
41B8
330
3D30
100
AcDbEntity
  8
DEFPOINTS
 62
     0
100
AcDbPoint
 10
-0.0000000000000704
 20
-0.0000000000002102
 30
0.0
  0
POINT
  5
41B9
330
3D30
100
AcDbEntity
  8
DEFPOINTS
 62
     0
100
AcDbPoint
 10
-0.8779186122630909
 20
2.412061583354169
 30
0.0
  0
POINT
  5
41BA
330
3D30
100
AcDbEntity
  8
DEFPOINTS
 62
     0
100
AcDbPoint
 10
-0.8779361609658941
 20
-2.412093173155633
 30
0.0
  0
ENDBLK
  5
3D3F
330
3D30
100
AcDbEntity
  8
0
100
AcDbBlockEnd
  0
ENDSEC
  0
SECTION
  2
ENTITIES
  0
LINE
  5
C1D
330
1F
100
AcDbEntity
  8
AM_0
 48
0.5
100
AcDbLine
 10
-0.0000000000000704
 20
-0.0000000000002102
 30
0.0
 11
-0.8779186122630909
 21
2.412061583354169
 31
0.0
  0
LINE
  5
C20
330
1F
100
AcDbEntity
  8
AM_0
 48
0.5
100
AcDbLine
 10
-0.0000000000000704
 20
-0.0000000000001936
 30
0.0
 11
-0.8779361609658941
 21
-2.412093173155633
 31
0.0
  0
DIMENSION
  5
CC6
330
1F
100
AcDbEntity
  8
AM_5
100
AcDbDimension
  2
*D5
 10
-3.000000073929431
 20
-31.50000099999973
 30
0.0
 11
-73.00000003696476
 21
-28.10000099999973
 31
0.0
 70
    32
  1
<>
  3
AM_JIS$0
100
AcDbAlignedDimension
 13
-143.0
 23
-6.749999999999592
 33
0.0
 14
-3.000000073929429
 24
-7.14999995114096
 34
0.0
 50
0.0000000000001132
100
AcDbRotatedDimension
1001
GENIUS_GENDTOL_13
1000

1000
h7
1000

1040
0.0
1001
ACAD
1000
DSTYLE
1002
{
1070
   271
1070
     0
1002
}
  0
TEXT
  5
19BD
330
1F
100
AcDbEntity
  8
AM_6
100
AcDbText
 10
-95.02380953825555
 20
-54.00000099999978
 30
0.0
 40
5.0
  1
MDW143MHK
 50
0.0000000000001527
 72
     4
 11
-73.00000001444605
 21
-51.50000099999972
 31
0.0
100
AcDbText
  0
DIMENSION
  5
2069
330
1F
100
AcDbEntity
  8
AM_5
100
AcDbDimension
  2
*D6
 10
-3.00000007392943
 20
-21.50000099999963
 30
0.0
 11
-40.50000003696456
 21
-18.10000099999963
 31
0.0
 70
    32
  1
<>
 51
359.9999999999998
  3
AM_JIS$0
100
AcDbAlignedDimension
 13
-77.99999999999968
 23
-7.499999999999627
 33
0.0
 14
-3.000000073929429
 24
-7.14999995114096
 34
0.0
 50
0.0000000000001527
100
AcDbRotatedDimension
1001
ACAD
1000
DSTYLE
1002
{
1070
   271
1070
     0
1070
   174
1070
     1
1002
}
1001
GENIUS_GENDTOL_13
1000

1000
h7
1000

1040
0.0
  0
LINE
  5
23EF
330
1F
100
AcDbEntity
  8
AM_7
100
AcDbLine
 10
-147.3321815266815
 20
-0.0000068133682327
 30
0.0
 11
4.866705640110275
 21
-0.0000068133691924
 31
0.0
1001
GENIUS_GENODEF_13
1002
{
1000
HIER
1070
     0
1002
}
1002
{
1000
MANEDIT
1070
     0
1002
}
1002
{
1000
NOSEL
1070
     0
1002
}
1002
{
1000
BEHIND
1070
     0
1002
}
1002
{
1000
REACTOR
1002
}
1001
GENIUS_GENOBJ-N-CEN_13
1002
{
1000
OWNER
1000
GEN
1002
}
  0
LINE
  5
24A7
330
1F
100
AcDbEntity
  8
AM_0
 48
0.5
100
AcDbLine
 10
-2.190873760329954
 20
5.637994789760722
 30
0.0
 11
-3.000000000000014
 21
7.149999999999788
 31
0.0
  0
ELLIPSE
  5
24B7
330
1F
100
AcDbEntity
  8
AM_11
 48
0.5
100
AcDbEllipse
 10
-21.92810796254739
 20
27.4052701986986
 30
0.0
 11
-31.63261651992755
 21
0.0000000000002407
 31
0.0
210
0.0
220
0.0
230
1.0
 40
0.9578947368421056
 41
1.130070686340284
 42
2.011520147323574
  0
ELLIPSE
  5
24B8
330
1F
100
AcDbEntity
  8
AM_11
 48
0.5
100
AcDbEllipse
 10
-21.92810796254889
 20
-27.4052639317444
 30
0.0
 11
-31.6326165199275
 21
0.0000000000001424
 31
0.0
210
0.0
220
0.0
230
1.0
 40
0.9578947368421054
 41
4.271664206181664
 42
5.153113667164971
  0
ELLIPSE
  5
24B9
330
1F
100
AcDbEntity
  8
AM_11
 48
0.5
100
AcDbEllipse
 10
5.060528401089005
 20
27.40527019869788
 30
0.0
 11
-31.63261651992747
 21
0.0000000000024743
 31
0.0
210
0.0
220
0.0
230
1.0
 40
0.9578947368421141
 41
1.130070686340349
 42
1.291800737381041
  0
ELLIPSE
  5
24BE
330
1F
100
AcDbEntity
  8
AM_0
 48
0.5
100
AcDbEllipse
 10
6.9186235942571
 20
7.342926428847921
 30
0.0
 11
-4.440095187034224
 21
8.904787688231298
 31
0.0
210
0.0
220
0.0
230
1.0
 40
0.9264225005910461
 41
1.312765717361252
 42
1.664773036319176
  0
ELLIPSE
  5
24C7
330
1F
100
AcDbEntity
  8
AM_11
 48
0.5
100
AcDbEllipse
 10
-102.8940170534488
 20
27.40527019870066
 30
0.0
 11
-31.63261651992755
 21
0.0000000000007043
 31
0.0
210
0.0
220
0.0
230
1.0
 40
0.9578947368421056
 41
1.130070686340301
 42
2.011520147323591
  0
ELLIPSE
  5
24C8
330
1F
100
AcDbEntity
  8
AM_11
 48
0.5
100
AcDbEllipse
 10
-102.8940170534504
 20
-27.40526393174234
 30
0.0
 11
31.6326165199275
 21
0.0000000000005287
 31
0.0
210
0.0
220
0.0
230
1.0
 40
0.957894736842107
 41
1.13007155259185
 42
2.011521013575156
  0
ELLIPSE
  5
24D4
330
1F
100
AcDbEntity
  8
AM_11
 48
0.5
100
AcDbEllipse
 10
-75.90538068981253
 20
27.4052701987
 30
0.0
 11
-31.63261651992759
 21
0.0000000000001846
 31
0.0
210
0.0
220
0.0
230
1.0
 40
0.9578947368421051
 41
1.130070686340283
 42
2.011520147323574
  0
ELLIPSE
  5
24D5
330
1F
100
AcDbEntity
  8
AM_11
 48
0.5
100
AcDbEllipse
 10
-75.90538068981405
 20
-27.40526393174299
 30
0.0
 11
-31.63261651992745
 21
0.0000000000005709
 31
0.0
210
0.0
220
0.0
230
1.0
 40
0.9578947368421081
 41
4.271664206181676
 42
5.153113667164986
  0
ELLIPSE
  5
24E6
330
1F
100
AcDbEntity
  8
AM_11
 48
0.5
100
AcDbEllipse
 10
-48.91674432618525
 20
-27.40526393174372
 30
0.0
 11
-31.63261651992749
 21
0.0000000000008588
 31
0.0
210
0.0
220
0.0
230
1.0
 40
0.9578947368421058
 41
4.271664206181685
 42
5.153113667164993
  0
ELLIPSE
  5
24E7
330
1F
100
AcDbEntity
  8
AM_11
 48
0.5
100
AcDbEllipse
 10
-48.91674432618373
 20
27.40527019869928
 30
0.0
 11
31.63261651992755
 21
0.0000000000000511
 31
0.0
210
0.0
220
0.0
230
1.0
 40
0.9578947368421051
 41
4.271663339930067
 42
5.153112800913361
  0
ELLIPSE
  5
2BF3
330
1F
100
AcDbEntity
  8
AM_11
 48
0.5
100
AcDbEllipse
 10
-129.8826534170741
 20
27.40527019869982
 30
0.0
 11
-31.63261651992759
 21
0.0000000000001846
 31
0.0
210
0.0
220
0.0
230
1.0
 40
0.9578947368421051
 41
1.143207534912555
 42
2.011520147323574
  0
ELLIPSE
  5
2BF5
330
1F
100
AcDbEntity
  8
AM_11
 48
0.5
100
AcDbEllipse
 10
-129.8826534170756
 20
-27.40526393174318
 30
0.0
 11
-31.63261651992745
 21
0.0000000000005709
 31
0.0
210
0.0
220
0.0
230
1.0
 40
0.9578947368421081
 41
4.271664206181676
 42
5.139977772267003
  0
LINE
  5
2C0E
330
1F
100
AcDbEntity
  8
AM_0
 48
0.5
100
AcDbLine
 10
-78.00000000000006
 20
-7.499999999999628
 30
0.0
 11
-78.00000000000006
 21
7.500000000000368
 31
0.0
  0
DIMENSION
  5
2D60
330
1F
100
AcDbEntity
  8
AM_5
100
AcDbDimension
  2
*D7
 10
16.31987593331332
 20
-7.150067766915123
 30
0.0
 11
16.31997403380929
 21
20.79755123158471
 31
0.0
 70
   160
  1
%%c<>
 51
359.9999999999998
  3
AM_JIS$0
100
AcDbAlignedDimension
 13
-3.000000000000014
 23
7.149999999999788
 33
0.0
 14
-3.00000007392945
 24
-7.149999951140954
 34
0.0
 50
89.99979888288933
100
AcDbRotatedDimension
1001
ACAD
1000
DSTYLE
1002
{
1070
   271
1070
     1
1002
}
1001
GENIUS_GENDTOL_13
1000

1000
h7
1000

1040
0.0
  0
LINE
  5
2FB7
330
1F
100
AcDbEntity
  8
AM_0
100
AcDbLine
 10
-78.00000000000006
 20
7.500000000000346
 30
0.0
 11
-77.39373423573056
 21
7.149972297798902
 31
0.0
  0
LINE
  5
2FB9
330
1F
100
AcDbEntity
  8
AM_0
100
AcDbLine
 10
-78.00000000000003
 20
-7.499999999999831
 30
0.0
 11
-77.39378173939726
 21
-7.149999724053148
 31
0.0
  0
LINE
  5
324C
330
1F
100
AcDbEntity
  8
AM_0
100
AcDbLine
 10
-142.2500000000001
 20
-7.499999999999606
 30
0.0
 11
-78.00000000000004
 21
-7.499999999999627
 31
0.0
  0
LINE
  5
325C
330
1F
100
AcDbEntity
  8
AM_0
 48
0.5
100
AcDbLine
 10
-142.25
 20
-7.499999999999638
 30
0.0
 11
-142.25
 21
7.500000000000398
 31
0.0
  0
LINE
  5
325D
330
1F
100
AcDbEntity
  8
AM_0
 48
0.5
100
AcDbLine
 10
-143.0
 20
-6.749999999999592
 30
0.0
 11
-143.0
 21
6.750000000000386
 31
0.0
  0
LINE
  5
325E
330
1F
100
AcDbEntity
  8
AM_0
100
AcDbLine
 10
-78.00000000000006
 20
7.500000000000368
 30
0.0
 11
-142.25
 21
7.500000000000391
 31
0.0
  0
LINE
  5
3921
330
1F
100
AcDbEntity
  8
AM_0
 48
0.5
100
AcDbLine
 10
-142.25
 20
7.500000000000391
 30
0.0
 11
-143.0
 21
6.750000000000392
 31
0.0
1001
GENIUS_GENFIL_13
1070
     0
1040
0.75
1040
0.75
1040
20.0
1040
0.0
1002
{
1002
}
1001
GENIUS_GENODEF_13
1002
{
1000
HIER
1070
     0
1002
}
1002
{
1000
MANEDIT
1070
     0
1002
}
1002
{
1000
NOSEL
1070
     0
1002
}
1002
{
1000
BEHIND
1070
     0
1002
}
1002
{
1000
REACTOR
1002
}
1001
GENIUS_GENOBJ-N-CHA_13
1002
{
1000
OWNER
1000
GEN
1002
}
  0
LINE
  5
3924
330
1F
100
AcDbEntity
  8
AM_0
100
AcDbLine
 10
-143.0
 20
-6.749999999999605
 30
0.0
 11
-142.2500000000001
 21
-7.499999999999606
 31
0.0
1001
GENIUS_GENFIL_13
1070
     0
1040
0.75
1040
0.75
1040
20.0
1040
0.0
1002
{
1002
}
1001
GENIUS_GENODEF_13
1002
{
1000
HIER
1070
     0
1002
}
1002
{
1000
MANEDIT
1070
     0
1002
}
1002
{
1000
NOSEL
1070
     0
1002
}
1002
{
1000
BEHIND
1070
     0
1002
}
1002
{
1000
REACTOR
1002
}
1001
GENIUS_GENOBJ-N-CHA_13
1002
{
1000
OWNER
1000
GEN
1002
}
  0
ELLIPSE
  5
3976
330
1F
100
AcDbEntity
  8
AM_0
 48
0.5
100
AcDbEllipse
 10
6.9186235942578
 20
-7.342926428847793
 30
0.0
 11
-4.440095187033376
 21
-8.904787688231721
 31
0.0
210
0.0
220
0.0
230
-1.0
 40
0.9264225005910461
 41
1.312765717361252
 42
1.664773036319176
  0
LINE
  5
3977
330
1F
100
AcDbEntity
  8
AM_0
 48
0.5
100
AcDbLine
 10
-2.190873760329417
 20
-5.637994789761461
 30
0.0
 11
-3.00000007392945
 21
-7.149999951140954
 31
0.0
  0
DIMENSION
  5
3C5B
330
1F
100
AcDbEntity
  8
AM_5
100
AcDbDimension
  2
*D8
 10
-159.500001
 20
-7.499999999999602
 30
0.0
 11
-162.900001
 21
0.0000000000003717
 31
0.0
 70
    32
  1
%%c<>
 51
359.9999999999998
  3
AM_JIS$0
100
AcDbAlignedDimension
 13
-142.25
 23
7.500000000000391
 33
0.0
 14
-142.25
 24
-7.499999999999606
 34
0.0
 50
270.0
100
AcDbRotatedDimension
1001
ACAD
1000
DSTYLE
1002
{
1070
   271
1070
     0
1002
}
1001
GENIUS_GENDTOL_13
1000

1000
h7
1000

1040
0.0
  0
DIMENSION
  5
3D2F
330
1F
100
AcDbEntity
  8
AM_5
100
AcDbDimension
  2
*D9
 10
-0.8779361609658941
 20
-2.412093173155633
 30
0.0
 11
34.00848068678627
 21
-0.0000376667724319
 31
0.0
 70
    34
  1
<>
 51
359.9999999999998
  3
AM_JIS$2
100
AcDb2LineAngularDimension
 13
-0.0000000000000704
 23
-0.0000000000002102
 33
0.0
 14
-0.8779186122630909
 24
2.412061583354169
 34
0.0
 15
-0.0000000000000704
 25
-0.0000000000001936
 35
0.0
 16
34.0735938027398
 26
-14.6979435380953
 36
0.0
1001
GENIUS_GENDTOL_13
1000

1000
h7
1000

1040
0.0
1001
ACAD
1000
DSTYLE
1002
{
1070
   271
1070
     0
1002
}
  0
LINE
  5
4099
330
1F
100
AcDbEntity
  8
AM_0
100
AcDbLine
 10
-77.39373423553789
 20
7.150030296555986
 30
0.0
 11
-77.39378173940798
 21
-7.150002954650647
 31
0.0
  0
LINE
  5
409A
330
1F
100
AcDbEntity
  8
AM_0
 48
0.5
100
AcDbLine
 10
-77.39378173939726
 20
-7.149999724053148
 30
0.0
 11
-72.95804597473557
 21
-7.149999951117343
 31
0.0
  0
LINE
  5
409B
330
1F
100
AcDbEntity
  8
AM_0
 48
0.5
100
AcDbLine
 10
-72.59149582387919
 20
7.150112225427641
 30
0.0
 11
-77.39382937214337
 21
7.150027224832453
 31
0.0
  0
LINE
  5
409C
330
1F
100
AcDbEntity
  8
AM_0
 48
0.5
100
AcDbLine
 10
-8.095019503640152
 20
7.149999999999961
 30
0.0
 11
-3.000000000000014
 21
7.149999999999788
 31
0.0
  0
LINE
  5
409D
330
1F
100
AcDbEntity
  8
AM_0
 48
0.5
100
AcDbLine
 10
-8.095019501994679
 20
-7.149999260692498
 30
0.0
 11
-3.000000000000089
 21
-7.150000079710245
 31
0.0
  0
LINE
  5
409E
330
1F
100
AcDbEntity
  8
AM_0
 48
0.5
100
AcDbLine
 10
-0.0000000000000884
 20
-0.0000000000001624
 30
0.0
 11
-4.782354253524371
 21
2.745383556893158
 31
0.0
  0
LINE
  5
409F
330
1F
100
AcDbEntity
  8
AM_0
 48
0.5
100
AcDbLine
 10
-57.67983091174457
 20
7.150000739309073
 30
0.0
 11
-31.46134542701438
 21
7.150000000000699
 31
0.0
  0
LINE
  5
40A0
330
1F
100
AcDbEntity
  8
AM_0
 48
0.5
100
AcDbLine
 10
-56.50912392460483
 20
-7.149999260691242
 30
0.0
 11
-31.46135037969012
 21
-7.150000000000107
 31
0.0
  0
LINE
  5
40A1
330
1F
100
AcDbEntity
  8
AM_11
 48
0.5
100
AcDbLine
 10
-31.46135037969012
 20
-7.150000000000107
 30
0.0
 11
-8.095019501994679
 21
-7.149999260692498
 31
0.0
  0
LINE
  5
40A2
330
1F
100
AcDbEntity
  8
AM_11
 48
0.5
100
AcDbLine
 10
-31.46134542701438
 20
7.150000000000699
 30
0.0
 11
-8.095019503640152
 21
7.149999999999962
 31
0.0
  0
SPLINE
  5
40A3
330
1F
100
AcDbEntity
  8
AM_0
100
AcDbSpline
210
0.0
220
0.0
230
1.0
 70
     8
 71
     3
 72
    22
 73
    18
 74
     0
 42
0.0000000001
 43
0.0000000001
 40
17.17441611292
 40
17.17441611292
 40
17.17441611292
 40
17.17441611292
 40
17.38177636558528
 40
18.41823744757437
 40
19.46215659509824
 40
20.51397914882054
 40
21.57394542641293
 40
22.64209583141747
 40
23.71826625065247
 40
24.80210429862395
 40
25.8930771157021
 40
26.99048705697709
 40
28.09349309193389
 40
29.20112995599786
 40
30.31233024745139
 40
31.42594771747373
 40
32.5407895042663
 40
32.54078950426994
 40
32.54078950426994
 40
32.54078950426994
 10
-36.1957552497542
 20
-6.420751009882383
 30
0.0
 10
-36.27881556536764
 20
-6.404199461167038
 30
0.0
 10
-36.77671679558978
 20
-6.303382168812984
 30
0.0
 10
-37.68884379273412
 20
-6.101230375980363
 30
0.0
 10
-38.9286939487073
 20
-5.78881244469498
 30
0.0
 10
-40.16841776655216
 20
-5.440718370538744
 30
0.0
 10
-41.40802399864937
 20
-5.059121043033548
 30
0.0
 10
-42.64751100756529
 20
-4.646360217995732
 30
0.0
 10
-43.88689404994777
 20
-4.205004696774055
 30
0.0
 10
-45.12617886448864
 20
-3.737766908395487
 30
0.0
 10
-46.36537691751937
 20
-3.247528282699299
 30
0.0
 10
-47.60450198813662
 20
-2.737313281483711
 30
0.0
 10
-48.84356483119851
 20
-2.210259232220477
 30
0.0
 10
-50.08257791987563
 20
-1.669608660482096
 30
0.0
 10
-51.32155223694073
 20
-1.11868595530351
 30
0.0
 10
-52.56050613672084
 20
-0.5608906075537951
 30
0.0
 10
-53.3863132753653
 20
-0.1867890998436634
 30
0.0
 10
-53.79944369985393
 20
0.000364407115852
 30
0.0
  0
SPLINE
  5
40A4
330
1F
100
AcDbEntity
  8
AM_0
100
AcDbSpline
210
0.0
220
0.0
230
1.0
 70
     8
 71
     3
 72
    17
 73
    13
 74
     0
 42
0.0000000001
 43
0.0000000001
 40
1.580019955310467
 40
1.580019955310467
 40
1.580019955310467
 40
1.580019955310467
 40
2.030549285115227
 40
3.082371838836284
 40
4.126290986361125
 40
5.162752068350215
 40
6.192395305374981
 40
7.216039564037012
 40
8.234688489606833
 40
9.249433870634691
 40
10.26152376260694
 40
11.27226744710342
 40
11.27226744710342
 40
11.27226744710342
 40
11.27226744710352
 10
-19.77727095030829
 20
-5.276909803813205
 30
0.0
 10
-19.95276973041282
 20
-5.331257598677786
 30
0.0
 10
-20.53899461691743
 20
-5.509389755532089
 30
0.0
 10
-21.5398258758688
 20
-5.788796417237235
 30
0.0
 10
-22.77950344753703
 20
-6.101694812517882
 30
0.0
 10
-24.0195223012801
 20
-6.376378059539541
 30
0.0
 10
-25.25959797225414
 20
-6.611923710222798
 30
0.0
 10
-26.49980874725006
 20
-6.806618394129406
 30
0.0
 10
-27.74010520484963
 20
-6.959351074546786
 30
0.0
 10
-28.98047889323511
 20
-7.069131992600866
 30
0.0
 10
-30.220899252811
 20
-7.135254475773036
 30
0.0
 10
-31.04804686636239
 20
-7.14999930160446
 30
0.0
 10
-31.46135037969013
 20
-7.15000000000011
 30
0.0
  0
SPLINE
  5
40A5
330
1F
100
AcDbEntity
  8
AM_0
100
AcDbSpline
210
0.0
220
0.0
230
1.0
 70
     8
 71
     3
 72
    11
 73
     7
 74
     0
 42
0.0000000001
 43
0.0000000001
 40
11.27226913003534
 40
11.27226913003534
 40
11.27226913003534
 40
11.2722691300354
 40
12.28301561507924
 40
13.29510212255852
 40
14.30984805882082
 40
15.18258238371378
 40
15.18258238371378
 40
15.18258238371378
 40
15.18258238371378
 10
-31.4613503796902
 20
-7.15000000000011
 30
0.0
 10
-31.8730724197826
 20
-7.115005082915316
 30
0.0
 10
-32.6957498132059
 20
-7.030285701527351
 30
0.0
 10
-33.92551775065036
 20
-6.859385753978543
 30
0.0
 10
-35.09258920747053
 20
-6.655264505079922
 30
0.0
 10
-35.84738252002169
 20
-6.498350426013488
 30
0.0
 10
-36.19521277116519
 20
-6.420839205077711
 30
0.0
  0
SPLINE
  5
40A6
330
1F
100
AcDbEntity
  8
AM_0
 48
0.5
100
AcDbSpline
210
0.0
220
0.0
230
1.0
 70
     8
 71
     3
 72
    25
 73
    21
 74
     0
 42
0.0000000001
 43
0.0000000001
 40
6.846175049578289
 40
6.846175049578289
 40
6.846175049578289
 40
6.846175049578289
 40
7.604337694224321
 40
8.711974558287883
 40
9.814980593243754
 40
10.91239053451967
 40
12.0033633515982
 40
13.08720139956839
 40
14.16337181880432
 40
15.23152222380919
 40
16.29148850140128
 40
17.34331105512262
 40
18.38723020264746
 40
19.42369128463655
 40
20.45333379090873
 40
21.47697865721768
 40
22.49561244472435
 40
23.5103574802404
 40
24.52244778960836
 40
25.53320666051913
 40
25.53320666051913
 40
25.53320666051913
 40
25.53320666051913
 10
-9.541661878681575
 20
1.294197549291039
 30
0.0
 10
-9.82344292938624
 20
1.419738833062864
 30
0.0
 10
-10.5174847107393
 20
1.727433254568232
 30
0.0
 10
-11.62481864263448
 20
2.210624261014312
 30
0.0
 10
-12.8638814179804
 20
2.737678459208292
 30
0.0
 10
-14.10300650659804
 20
3.247893420766062
 30
0.0
 10
-15.3422045548812
 20
3.738132057177178
 30
0.0
 10
-16.58148937055429
 20
4.205369842051262
 30
0.0
 10
-17.82087241310914
 20
4.646725366639842
 30
0.0
 10
-19.06035942023653
 20
5.059486181786769
 30
0.0
 10
-20.2999656592366
 20
5.44108354511867
 30
0.0
 10
-21.53968945153458
 20
5.789177487266426
 30
0.0
 10
-22.77953970180631
 20
6.10159590567566
 30
0.0
 10
-24.01951203456323
 20
6.376405291464579
 30
0.0
 10
-25.25960160584675
 20
6.611921259715201
 30
0.0
 10
-26.49980151514126
 20
6.806582701348862
 30
0.0
 10
-27.74009246543412
 20
6.959498702988933
 30
0.0
 10
-28.98046078746033
 20
7.068592285940985
 30
0.0
 10
-30.22088634630437
 20
7.13724240803122
 30
0.0
 10
-31.04804054319221
 20
7.14574982874279
 30
0.0
 10
-31.46134542701438
 20
7.150000000000698
 30
0.0
  0
SPLINE
  5
40A7
330
1F
100
AcDbEntity
  8
AM_0
 48
0.5
100
AcDbSpline
210
0.0
220
0.0
230
1.0
 70
     8
 71
     3
 72
    17
 73
    13
 74
     0
 42
0.0000000001
 43
0.0000000001
 40
0.0
 40
0.0
 40
0.0
 40
0.0
 40
1.010743614677189
 40
2.022833924044153
 40
3.037578959561199
 40
4.056212747067873
 40
5.079857613375832
 40
6.109500119648989
 40
7.14596120163808
 40
8.18989512056258
 40
9.241717674284874
 40
9.693948937866434
 40
9.693948937866434
 40
9.693948937866434
 40
9.693948937866434
 10
-8.095019503640152
 20
7.149999999999961
 30
0.0
 10
-8.508318143314639
 20
7.145748988913895
 30
0.0
 10
-9.335466093551175
 20
7.137241302779206
 30
0.0
 10
-10.57588543443988
 20
7.068591578981653
 30
0.0
 10
-11.81625370798433
 20
6.959497855013405
 30
0.0
 10
-13.05654484117805
 20
6.806582366733847
 30
0.0
 10
-14.29674406251301
 20
6.611918999160034
 30
0.0
 10
-15.53683622418168
 20
6.376410281331192
 30
0.0
 10
-16.77680468206306
 20
6.101572260749472
 30
0.0
 10
-18.01669755191069
 20
5.789255217751247
 30
0.0
 10
-19.01757140824216
 20
5.507904772336137
 30
0.0
 10
-19.60534321899487
 20
5.332020283987292
 30
0.0
 10
-19.78176078223535
 20
5.278183219526159
 30
0.0
  0
SPLINE
  5
40A8
330
1F
100
AcDbEntity
  8
AM_0
 48
0.5
100
AcDbSpline
210
0.0
220
0.0
230
1.0
 70
     8
 71
     3
 72
    10
 73
     6
 74
     0
 42
0.0000000001
 43
0.0000000001
 40
0.0
 40
0.0
 40
0.0
 40
0.0
 40
2.69986029516136
 40
4.147722969032201
 40
6.285750005020438
 40
6.285750005020438
 40
6.285750005020438
 40
6.285750005020438
 10
-9.541463562770731
 20
1.294112626921342
 30
0.0
 10
-8.658631330683236
 20
0.6298282181944743
 30
0.0
 10
-7.302359847527725
 20
-0.390694104751036
 30
0.0
 10
-4.094959981092339
 20
0.1033586298296215
 30
0.0
 10
-4.699006668919079
 20
1.767393612804813
 30
0.0
 10
-4.782354253524371
 20
2.745383556893158
 30
0.0
  0
ELLIPSE
  5
40A9
330
1F
100
AcDbEntity
  8
AM_0
 48
0.5
100
AcDbEllipse
 10
-18.23013210725948
 20
31.85528074534463
 30
0.0
 11
0.0000000000828911
 21
36.83193605739118
 31
0.0
210
0.0
220
0.0
230
1.0
 40
0.9860139860140398
 41
3.57984769161934
 42
3.667473607416417
  0
ELLIPSE
  5
40AA
330
1F
100
AcDbEntity
  8
AM_0
 48
0.5
100
AcDbEllipse
 10
-9.529289541212428
 20
7.294351767171263
 30
0.0
 11
-0.0000000000053044
 21
11.10858792104632
 31
0.0
210
0.0
220
0.0
230
1.0
 40
0.986013986013974
 41
3.517054509082199
 42
3.681821570855705
  0
ELLIPSE
  5
40AB
330
1F
100
AcDbEntity
  8
AM_0
 48
0.5
100
AcDbEllipse
 10
-3.357998318189492
 20
-1.860856266268277
 30
0.0
 11
-0.2152004157569606
 21
1.172757568616844
 31
0.0
210
0.0
220
0.0
230
1.0
 40
0.5129254339594702
 41
1.797734620867308
 42
4.933076510579285
  0
ELLIPSE
  5
40AC
330
1F
100
AcDbEntity
  8
AM_0
 48
0.5
100
AcDbEllipse
 10
-3.358104075239893
 20
-1.863392185955568
 30
0.0
 11
-1.067169142655935
 21
0.5873432223371856
 31
0.0
210
0.0
220
0.0
230
1.0
 40
0.4925665566003849
 41
4.467535773583124
 42
7.610976114912636
  0
ELLIPSE
  5
40AD
330
1F
100
AcDbEntity
  8
AM_0
 48
0.5
100
AcDbEllipse
 10
3.25396713415804
 20
8.584015631885231
 30
0.0
 11
-14.83345192343302
 21
0.0000000000012591
 31
0.0
210
0.0
220
0.0
230
1.0
 40
0.9714818962299368
 41
0.5303675532341475
 42
0.9384884834290389
  0
ELLIPSE
  5
40AE
330
1F
100
AcDbEntity
  8
AM_0
 48
0.5
100
AcDbEllipse
 10
6.202494303903179
 20
-1.909512786606159
 30
0.0
 11
-11.66978188816669
 21
4.683906104370956
 31
0.0
210
0.0
220
0.0
230
1.0
 40
0.7741066295076658
 41
0.5896989716276027
 42
1.019338807302985
  0
SPLINE
  5
40AF
330
1F
100
AcDbEntity
  8
AM_0
100
AcDbSpline
210
0.0
220
0.0
230
1.0
 70
     8
 71
     3
 72
    55
 73
    51
 74
     0
 42
0.0000000001
 43
0.0000000001
 40
0.0
 40
0.0
 40
0.0
 40
0.0
 40
1.010743684496582
 40
2.022833576467832
 40
3.037578957496688
 40
4.056212745003489
 40
5.079857003664532
 40
6.109500240690281
 40
7.145961322679372
 40
8.189895241603872
 40
9.241717795325891
 40
10.30168407291828
 40
11.36983447792315
 40
12.44600489715814
 40
13.52984294512926
 40
14.62081576220742
 40
15.7182257034828
 40
16.82123173843959
 40
17.92886860250316
 40
19.0400688939571
 40
20.15368796660465
 40
21.26852814259644
 40
22.38336992938901
 40
23.49698739941135
 40
24.6081876908653
 40
25.71582455492886
 40
26.81883757994213
 40
27.91624752121713
 40
29.00722033829659
 40
30.09105838626677
 40
31.16722880550176
 40
32.23537921050758
 40
33.29534548809967
 40
34.347168041821
 40
35.39108718934584
 40
36.42754827133493
 40
37.45720575381954
 40
38.48085062012849
 40
39.49948440763516
 40
40.51422944315121
 40
41.52631975251916
 40
42.53706336719636
 40
43.54780698187354
 40
44.55989729124051
 40
45.57464232675757
 40
46.59327611426424
 40
47.6169209805722
 40
48.64656348684535
 40
49.68302456883444
 40
50.58557219878025
 40
50.58557219878025
 40
50.58557219878025
 40
50.58557219878025
 10
-8.095019501994677
 20
-7.149999260692499
 30
0.0
 10
-8.508318066453762
 20
-7.14574518391183
 30
0.0
 10
-9.335465666896311
 20
-7.137231364354223
 30
0.0
 10
-10.57588605278219
 20
-7.068600420757878
 30
0.0
 10
-11.81625348979875
 20
-6.959495148842377
 30
0.0
 10
-13.05654416024853
 20
-6.806579960666885
 30
0.0
 10
-14.29674568798305
 20
-6.611927150209182
 30
0.0
 10
-15.53683360659907
 20
-6.376402307497335
 30
0.0
 10
-16.77681206413571
 20
-6.101592011820022
 30
0.0
 10
-18.01667006449
 20
-5.789179069941329
 30
0.0
 10
-19.25639916196929
 20
-5.441081678372187
 30
0.0
 10
-20.49600553593778
 20
-5.059484808456192
 30
0.0
 10
-21.73549250630853
 20
-4.646723859197783
 30
0.0
 10
-22.97487555947843
 20
-4.205368372354535
 30
0.0
 10
-24.21416036980478
 20
-3.738130571956296
 30
0.0
 10
-25.45335842885072
 20
-3.247891959728841
 30
0.0
 10
-26.69248347949045
 20
-2.737676916412307
 30
0.0
 10
-27.93154639694703
 20
-2.210623023122615
 30
0.0
 10
-29.17055920646722
 20
-1.669971866332521
 30
0.0
 10
-30.4095351660146
 20
-1.119051089679503
 30
0.0
 10
-31.64848514258768
 20
-0.5612475276898241
 30
0.0
 10
-32.88742663207932
 20
-0.0000007195514427
 30
0.0
 10
-34.1263625597603
 20
0.5612561913792586
 30
0.0
 10
-35.36531668902365
 20
1.119051066892053
 30
0.0
 10
-36.60429111903859
 20
1.669973511150898
 30
0.0
 10
-37.84330613770491
 20
2.21062672758092
 30
0.0
 10
-39.08237419538884
 20
2.737676122900136
 30
0.0
 10
-40.32150120169526
 20
3.247893753716844
 30
0.0
 10
-41.56069943964021
 20
3.738131968411329
 30
0.0
 10
-42.79998420487293
 20
4.205369867067919
 30
0.0
 10
-44.0393672612164
 20
4.646725354556787
 30
0.0
 10
-45.27885426315785
 20
5.059486205117824
 30
0.0
 10
-46.51846050918543
 20
5.441083464679331
 30
0.0
 10
-47.75818427876448
 20
5.789177782552964
 30
0.0
 10
-48.99803461202907
 20
6.101594816261735
 30
0.0
 10
-50.23801260959807
 20
6.376410638028373
 30
0.0
 10
-51.47810938285743
 20
6.611908580533752
 30
0.0
 10
-52.71831500786733
 20
6.806621640151188
 30
0.0
 10
-53.95860604599475
 20
6.959355567108267
 30
0.0
 10
-55.1989743448563
 20
7.069123395594889
 30
0.0
 10
-56.43939367901353
 20
7.135266626391606
 30
0.0
 10
-57.67984027063336
 20
7.157362891184066
 30
0.0
 10
-58.92028686042803
 20
7.135266626357036
 30
0.0
 10
-60.1607062000713
 20
7.069123395734012
 30
0.0
 10
-61.40107447873475
 20
6.959355566584677
 30
0.0
 10
-62.6413655925898
 20
6.806621642119706
 30
0.0
 10
-63.88156488667207
 20
6.611909522390466
 30
0.0
 10
-65.12165677442219
 20
6.376413045867968
 30
0.0
 10
-66.30525566340759
 20
6.114069714700823
 30
0.0
 10
-67.07318810178866
 20
5.922215556510084
 30
0.0
 10
-67.4294639948578
 20
5.828715666014275
 30
0.0
  0
SPLINE
  5
40B0
330
1F
100
AcDbEntity
  8
AM_0
100
AcDbSpline
210
0.0
220
0.0
230
1.0
 70
     8
 71
     3
 72
    46
 73
    42
 74
     0
 42
0.0000000001
 43
0.0000000001
 40
0.0
 40
0.0
 40
0.0
 40
0.0
 40
1.685415058684571
 40
2.531036209541119
 40
3.379897699130121
 40
4.232934581347655
 40
5.090970612202441
 40
5.954688180526682
 40
6.824620803463246
 40
7.701151815239689
 40
8.584457046566678
 40
9.474582384070741
 40
10.37139106676737
 40
11.27458944007583
 40
12.18373345430765
 40
13.09824173870457
 40
14.01741343450111
 40
14.9404441545541
 40
15.86644439743314
 40
16.79446029130534
 40
17.7234937712985
 40
18.65252725129241
 40
19.58054314516461
 40
20.50654338804289
 40
21.42957410809586
 40
22.34874580389317
 40
23.26325408828901
 40
24.17239810252111
 40
25.07560240389441
 40
25.97241108659103
 40
26.8625364240951
 40
27.74584165542183
 40
28.62236045019041
 40
29.49229307312697
 40
30.35601064145121
 40
31.21404606334468
 40
32.06708345193547
 40
32.91595755657689
 40
33.76157841950693
 40
34.60498701064689
 40
35.44727335621125
 40
35.44727335621125
 40
35.44727335621125
 40
35.44727335621125
 10
-4.622685279515183
 20
-7.149999260692618
 30
0.0
 10
-5.449873293071297
 20
-7.133711007991045
 30
0.0
 10
-6.692085295165867
 20
-7.109250471006173
 30
0.0
 10
-8.343908765026355
 20
-6.958651438430214
 30
0.0
 10
-9.584212761112523
 20
-6.806807552475119
 30
0.0
 10
-10.824410740733
 20
-6.611865796004606
 30
0.0
 10
-12.06449943678165
 20
-6.376418380164113
 30
0.0
 10
-13.30447247867965
 20
-6.101590944183877
 30
0.0
 10
-14.54432778965847
 20
-5.789173814349876
 30
0.0
 10
-15.78405985192403
 20
-5.441085278086946
 30
0.0
 10
-17.0236711434034
 20
-5.059484309583363
 30
0.0
 10
-18.26315832991913
 20
-4.646723994402179
 30
0.0
 10
-19.502541324496
 20
-4.20536833569239
 30
0.0
 10
-20.74182615078318
 20
-3.738130582032498
 30
0.0
 10
-21.98102420516036
 20
-3.247891956427348
 30
0.0
 10
-23.22014925837828
 20
-2.737676919474926
 30
0.0
 10
-24.45921217019157
 20
-2.210623014138399
 30
0.0
 10
-25.69822499980867
 20
-1.669971899376944
 30
0.0
 10
-26.93720088429763
 20
-1.119050966002286
 30
0.0
 10
-28.17615114178403
 20
-0.5612479904912142
 30
0.0
 10
-29.41509098443587
 20
0.0000007391946139
 30
0.0
 10
-30.65403082681549
 20
0.5612494695624731
 30
0.0
 10
-31.89298108511829
 20
1.119052443028451
 30
0.0
 10
-33.13195696662319
 20
1.669973383877018
 30
0.0
 10
-34.37096980730538
 20
2.210624470920464
 30
0.0
 10
-35.61003267809034
 20
2.73767847903256
 30
0.0
 10
-36.84915788325016
 20
3.247893135370903
 30
0.0
 10
-38.08835806956014
 20
3.738134234628923
 30
0.0
 10
-39.32764771111026
 20
4.205367743196966
 30
0.0
 10
-40.56703291655647
 20
4.646725665027428
 30
0.0
 10
-41.80652007421341
 20
5.059486103026774
 30
0.0
 10
-43.04612627351043
 20
5.441083564943562
 30
0.0
 10
-44.28585007569617
 20
5.789177485841278
 30
0.0
 10
-45.52570032566879
 20
6.101595891933444
 30
0.0
 10
-46.76567264993553
 20
6.376405347260001
 30
0.0
 10
-48.00576225514133
 20
6.611921052129154
 30
0.0
 10
-49.24596814980098
 20
6.806584429271747
 30
0.0
 10
-50.4862657549151
 20
6.95949726789673
 30
0.0
 10
-51.72664009663843
 20
7.06859252645888
 30
0.0
 10
-52.96705946302775
 20
7.137241990183507
 30
0.0
 10
-53.79420740987105
 20
7.145749710929033
 30
0.0
 10
-54.20750604784989
 20
7.150000739308962
 30
0.0
  0
ELLIPSE
  5
40B1
330
1F
100
AcDbEntity
  8
AM_0
 48
0.5
100
AcDbEllipse
 10
-73.04685845382003
 20
-4.767030334471238
 30
0.0
 11
-2.200686789114498
 21
1.152585371764158
 31
0.0
210
0.0
220
0.0
230
1.0
 40
0.9477825868429572
 41
0.5160807023146666
 42
2.0677109328272
  0
ELLIPSE
  5
40B2
330
1F
100
AcDbEntity
  8
AM_0
 48
0.5
100
AcDbEllipse
 10
-73.66063184168644
 20
-4.839645703632091
 30
0.0
 11
1.824368725540347
 21
0.248162604971433
 31
0.0
210
0.0
220
0.0
230
0.9999999999999998
 40
0.9746577897715464
 41
1.149159717562556
 42
2.977405899824369
  0
SPLINE
  5
40B3
330
1F
100
AcDbEntity
  8
AM_0
 48
0.5
100
AcDbSpline
210
0.0
220
0.0
230
1.0
 70
     8
 71
     3
 72
    26
 73
    22
 74
     0
 42
0.0000000001
 43
0.0000000001
 40
0.0
 40
0.0
 40
0.0
 40
0.0
 40
0.8422864037471089
 40
1.685694647057321
 40
2.531315797913884
 40
3.380177287502886
 40
4.233214169721234
 40
5.09125020057522
 40
5.954967768899448
 40
6.824900391836836
 40
7.701419186604396
 40
8.584724417931369
 40
9.47485577056355
 40
10.37165251267315
 40
11.27486274211709
 40
12.18400675634887
 40
13.09851504074504
 40
14.01768673654235
 40
14.94071745659532
 40
15.8667176994736
 40
16.76607142455336
 40
16.76607142455336
 40
16.76607142455336
 40
16.76607142455336
 10
-51.98549025399401
 20
-7.150363667805205
 30
0.0
 10
-52.39878881850282
 20
-7.146109591209918
 30
0.0
 10
-53.22593641904524
 20
-7.137595772023282
 30
0.0
 10
-54.46635680418346
 20
-7.068964825639289
 30
0.0
 10
-55.70672424405304
 20
-6.959859564360695
 30
0.0
 10
-56.94701490377855
 20
-6.806944336201725
 30
0.0
 10
-58.1872164718407
 20
-6.612291676098067
 30
0.0
 10
-59.42730423861331
 20
-6.376766267266816
 30
0.0
 10
-60.6672773791212
 20
-6.101959410754481
 30
0.0
 10
-61.9071274367748
 20
-5.789540145003717
 30
0.0
 10
-63.14685148044859
 20
-5.441446979359049
 30
0.0
 10
-64.38645971311771
 20
-5.059846474636775
 30
0.0
 10
-65.62594699825052
 20
-4.647094890950678
 30
0.0
 10
-66.865327379587
 20
-4.205724148866645
 30
0.0
 10
-68.10461742849686
 20
-3.738499826599176
 30
0.0
 10
-69.34381982262057
 20
-3.248256227292448
 30
0.0
 10
-70.58294379956078
 20
-2.738039122210265
 30
0.0
 10
-71.82201211437116
 20
-2.210996440734372
 30
0.0
 10
-73.06100429007256
 20
-1.670302250770887
 30
0.0
 10
-74.2872693242697
 20
-1.125227515630441
 30
0.0
 10
-75.09971604631449
 20
-0.7590424850886244
 30
0.0
 10
-75.50000000000004
 20
-0.5786182085659731
 30
0.0
  0
LINE
  5
40B4
330
1F
100
AcDbEntity
  8
AM_0
 48
0.5
100
AcDbLine
 10
-60.75120832695971
 20
3.260606956346955
 30
0.0
 11
-75.50000000000006
 21
-0.5786182085659744
 31
0.0
  0
SPLINE
  5
40B5
330
1F
100
AcDbEntity
  8
AM_0
100
AcDbSpline
210
0.0
220
0.0
230
1.0
 70
     8
 71
     3
 72
    23
 73
    19
 74
     0
 42
0.0000000001
 43
0.0000000001
 40
16.03460024169435
 40
16.03460024169435
 40
16.03460024169435
 40
16.03460024169435
 40
16.35212704903564
 40
17.38177054169784
 40
18.41822485651776
 40
19.46214173629503
 40
20.51396345435107
 40
21.57393551351153
 40
22.64208202342361
 40
23.7182574881101
 40
24.80209208578934
 40
25.89306333925047
 40
26.99048218457928
 40
28.09348763352352
 40
29.20111863782268
 40
30.31232390128032
 40
31.42594612798585
 40
32.5407912310448
 40
32.5407912310486
 40
32.5407912310486
 40
32.5407912310486
 10
-72.59130416233254
 20
7.149999999999995
 30
0.0
 10
-72.46386621184969
 20
7.125862859112246
 30
0.0
 10
-71.9237281794519
 20
7.020752404093126
 30
0.0
 10
-70.97226921849513
 20
6.814804509360919
 30
0.0
 10
-69.74012737328173
 20
6.508562242118366
 30
0.0
 10
-68.50912999937012
 20
6.164703221423005
 30
0.0
 10
-67.27920435614386
 20
5.785217527900226
 30
0.0
 10
-66.05030679136224
 20
5.372220802786992
 30
0.0
 10
-64.82236627769117
 20
4.928073909530191
 30
0.0
 10
-63.59529730602056
 20
4.455361671640655
 30
0.0
 10
-62.36903014988427
 20
3.956761030960677
 30
0.0
 10
-61.14346649499782
 20
3.435173228441816
 30
0.0
 10
-59.91850702313199
 20
2.893629957743462
 30
0.0
 10
-58.69407011873099
 20
2.335244865642641
 30
0.0
 10
-57.47005333464624
 20
1.763264884982196
 30
0.0
 10
-56.2463433010004
 20
1.181029959212011
 30
0.0
 10
-55.02284037325319
 20
0.591913982063268
 30
0.0
 10
-54.20739084306145
 20
0.1969439319137318
 30
0.0
 10
-53.79944369984848
 20
-0.0006521194553069
 30
0.0
  0
LINE
  5
40B6
330
1F
100
AcDbEntity
  8
AM_11
 48
0.5
100
AcDbLine
 10
-72.59130416233256
 20
7.149999999999998
 30
0.0
 11
-57.67981078646547
 21
7.149999999999956
 31
0.0
  0
SPLINE
  5
40B7
330
1F
100
AcDbEntity
  8
AM_0
 48
0.5
100
AcDbSpline
210
0.0
220
0.0
230
1.0
 70
     8
 71
     3
 72
    22
 73
    18
 74
     0
 42
0.0000000001
 43
0.0000000001
 40
0.0
 40
0.0
 40
0.0
 40
0.0
 40
1.010743684496582
 40
2.022833993863546
 40
3.037578683882831
 40
4.056212471389632
 40
5.079857945358201
 40
6.109499720892564
 40
7.145961650132166
 40
8.189873411961459
 40
9.241710626092514
 40
10.30166235592959
 40
11.36982472628033
 40
12.44598212828784
 40
13.52983440361964
 40
14.62080578343036
 40
14.90544694398022
 40
14.90544694398022
 40
14.90544694398022
 40
14.90544694398022
 10
-55.45761744932367
 20
-7.150000000000044
 30
0.0
 10
-55.87112311990686
 20
-7.146110861938493
 30
0.0
 10
-56.69827104907859
 20
-7.137599584145531
 30
0.0
 10
-57.93869013523687
 20
-7.068949522609884
 30
0.0
 10
-59.17905891446217
 20
-6.95986261895536
 30
0.0
 10
-60.41935024441792
 20
-6.806947289814175
 30
0.0
 10
-61.6595483942561
 20
-6.612276319096134
 30
0.0
 10
-62.89964042585843
 20
-6.37677127425883
 30
0.0
 10
-64.13960816747534
 20
-6.101954431547827
 30
0.0
 10
-65.37946014555767
 20
-5.789530642606583
 30
0.0
 10
-66.61918519341352
 20
-5.441450629343083
 30
0.0
 10
-67.8587897897243
 20
-5.059832845926979
 30
0.0
 10
-69.09828192538495
 20
-4.647105700791924
 30
0.0
 10
-70.33766066939145
 20
-4.205722839343685
 30
0.0
 10
-71.57694924004435
 20
-3.738496070247253
 30
0.0
 10
-72.50836120786212
 20
-3.370037210748011
 30
0.0
 10
-73.02737645922771
 20
-3.159437970449676
 30
0.0
 10
-73.13469155463912
 20
-3.115677322868681
 30
0.0
  0
SPLINE
  5
40B8
330
1F
100
AcDbEntity
  8
AM_0
100
AcDbSpline
210
0.0
220
0.0
230
1.0
 70
     8
 71
     3
 72
    13
 73
     9
 74
     0
 42
0.0000000001
 43
0.0000000001
 40
16.03460056234195
 40
16.03460056234195
 40
16.03460056234195
 40
16.03460056234195
 40
16.35212717791071
 40
17.38177067057215
 40
18.41822498539278
 40
19.46214186516937
 40
20.5139635832251
 40
21.34083983469381
 40
21.34083983469381
 40
21.34083983469381
 40
21.34083983469381
 10
-72.95803961488701
 20
-7.149999999999997
 30
0.0
 10
-72.69614854011969
 20
-7.126877498765868
 30
0.0
 10
-72.15601006076878
 20
-7.021769927638763
 30
0.0
 10
-71.20455161846698
 20
-6.815819628416584
 30
0.0
 10
-69.97240961819406
 20
-6.509578210310553
 30
0.0
 10
-68.7414122862757
 20
-6.165718959654714
 30
0.0
 10
-67.60233479394585
 20
-5.814263943204609
 30
0.0
 10
-66.87562341288533
 20
-5.572262152623332
 30
0.0
 10
-66.55681948550093
 20
-5.462875138159876
 30
0.0
  0
LINE
  5
40B9
330
1F
100
AcDbEntity
  8
AM_11
 48
0.5
100
AcDbLine
 10
-72.95804597473557
 20
-7.149999951117343
 30
0.0
 11
-56.28414233553669
 21
-7.149999260691243
 31
0.0
  0
VIEWPORT
  5
110
330
101
100
AcDbEntity
 67
     1
  8
0
100
AcDbViewport
 10
420.5
 20
297.0
 30
0.0
 40
948.9782706766916
 41
628.452
 68
     1
 69
     1
1001
ACAD
1000
MVIEW
1002
{
1070
    16
1010
0.0
1020
0.0
1030
0.0
1010
0.0
1020
0.0
1030
1.0
1040
0.0
1040
628.452
1040
420.5
1040
297.0
1040
50.0
1040
0.0
1040
0.0
1070
     0
1070
   100
1070
     1
1070
     1
1070
     0
1070
     0
1070
     0
1070
     0
1040
0.0
1040
0.0
1040
0.0
1040
10.0
1040
10.0
1040
10.0
1040
10.0
1070
     0
1002
{
1002
}
1002
}
  0
ENDSEC
  0
SECTION
  2
OBJECTS
  0
DICTIONARY
  5
C
330
0
100
AcDbDictionary
  3
ACAD_GROUP
350
D
  3
ACAD_LAYOUT
350
1A
  3
ACAD_MLINESTYLE
350
17
  3
ACAD_PLOTSETTINGS
350
19
  3
ACAD_PLOTSTYLENAME
350
E
  3
ACDBVARIABLEDICTIONARY
350
34
  3
ACMDICTIONARY
350
43
  3
AMG
350
2B
  3
AMGSNAPSETTINGS
350
6E
  3
DWGPROPS
350
417A
  3
ACDBHEADERROUNDTRIPXREC
350
4186
  0
DICTIONARY
  5
74
330
1F
100
AcDbDictionary
280
     1
  3
ACAD_INDEX
360
417C
  3
ACAD_LAYOUTSELFREF
360
41A9
  0
DICTIONARY
  5
41AE
330
101
100
AcDbDictionary
280
     1
  3
ACAD_LAYOUTSELFREF
360
41AF
  0
DICTIONARY
  5
D
102
{ACAD_REACTORS
330
C
102
}
330
C
100
AcDbDictionary
  0
DICTIONARY
  5
1A
102
{ACAD_REACTORS
330
C
102
}
330
C
100
AcDbDictionary
  0
DICTIONARY
  5
17
102
{ACAD_REACTORS
330
C
102
}
330
C
100
AcDbDictionary
  3
STANDARD
350
18
  0
DICTIONARY
  5
19
102
{ACAD_REACTORS
330
C
102
}
330
C
100
AcDbDictionary
  0
ACDBDICTIONARYWDFLT
  5
E
102
{ACAD_REACTORS
330
C
102
}
330
C
100
AcDbDictionary
281
     1
  3
Normal
350
F
100
AcDbDictionaryWithDefault
340
F
  0
DICTIONARY
  5
34
102
{ACAD_REACTORS
330
C
102
}
330
C
100
AcDbDictionary
  3
INDEXCTL
350
35
  3
SORTENTS
350
B5E
  0
DICTIONARY
  5
43
102
{ACAD_REACTORS
330
C
102
}
330
C
100
AcDbDictionary
  3
ACMSTDDICTIONARY
350
260
  0
DICTIONARY
  5
2B
102
{ACAD_REACTORS
330
C
102
}
330
C
100
AcDbDictionary
  3
ACMGSETTINGS
350
2C
  0
DICTIONARY
  5
6E
102
{ACAD_REACTORS
330
C
102
}
330
C
100
AcDbDictionary
  0
XRECORD
  5
417A
102
{ACAD_REACTORS
330
C
102
}
330
C
100
AcDbXrecord
  1
DWGPROPS COOKIE
  2

  3

  4

  6

  7

  8

  9

300
AmdtFileType=82
301
=
302
=
303
=
304
=
305
=
306
=
307
=
308
=
309
=
 40
0.0898268981481482
 41
2452800.443498622
 42
2452946.637693321
  1

 90
        1
  0
DICTIONARY
  5
4186
102
{ACAD_REACTORS
330
C
102
}
330
C
100
AcDbDictionary
  3
TSTACKALIGN
350
4187
  3
TSTACKSIZE
350
4188
  3
HYPERLINKBASE
350
4189
  3
STYLESHEET
350
418A
  3
LAYOUTDICT
350
418B
  3
PLOTSETDICT
350
418C
  3
PLOTSTYLNAMDICT
350
418D
  3
LWETCUNION
350
418E
  3
INSUNITS
350
418F
  3
CEPSNTYPE
350
4190
  3
FINGERPRINTGUID
350
4191
  3
VERSIONGUID
350
4192
  3
PSVPSCALE
350
4193
  3
DIMSTYLEDATA
350
4194
  3
PUCSORTHOREF
350
4195
  3
PUCSORTHOVIEW
350
4196
  3
PUCSBASE
350
4197
  3
PUCSORGTOP
350
4198
  3
PUCSORGBOTTOM
350
4199
  3
PUCSORGLEFT
350
419A
  3
PUCSORGRIGHT
350
419B
  3
PUCSORGFRONT
350
419C
  3
PUCSORGBACK
350
419D
  3
UCSORTHOREF
350
419E
  3
UCSORTHOVIEW
350
419F
  3
UCSBASE
350
41A0
  3
UCSORGTOP
350
41A1
  3
UCSORGBOTTOM
350
41A2
  3
UCSORGLEFT
350
41A3
  3
UCSORGRIGHT
350
41A4
  3
UCSORGFRONT
350
41A5
  3
UCSORGBACK
350
41A6
  0
DICTIONARY
  5
417C
102
{ACAD_REACTORS
330
74
102
}
330
74
100
AcDbDictionary
  3
*A1
350
417D
  0
XRECORD
  5
41A9
102
{ACAD_REACTORS
330
74
102
}
330
74
100
AcDbXrecord
340
1F
  0
XRECORD
  5
41AF
102
{ACAD_REACTORS
330
41AE
102
}
330
41AE
100
AcDbXrecord
340
101
  0
MLINESTYLE
  5
18
102
{ACAD_REACTORS
330
17
102
}
330
17
100
AcDbMlineStyle
  2
STANDARD
 70
     0
  3

 62
   256
 51
90.0
 52
90.0
 71
     2
 49
0.5
 62
   256
  6
BYLAYER
 49
-0.5
 62
   256
  6
BYLAYER
  0
ACDBPLACEHOLDER
  5
F
102
{ACAD_REACTORS
330
E
102
}
330
E
100
AcDbPlaceHolder
280
     0
  0
DICTIONARYVAR
  5
35
102
{ACAD_REACTORS
330
34
102
}
330
34
100
DictionaryVariables
280
     0
  1
1
  0
DICTIONARYVAR
  5
B5E
102
{ACAD_REACTORS
330
34
102
}
330
34
100
DictionaryVariables
280
     0
  1
96
  0
DICTIONARY
  5
260
102
{ACAD_REACTORS
330
43
102
}
330
43
100
AcDbDictionary
  0
DICTIONARY
  5
2C
102
{ACAD_REACTORS
330
2B
102
}
330
2B
100
AcDbDictionary
  3
DWGSETTINGS
350
2D
  0
XRECORD
  5
4187
102
{ACAD_REACTORS
330
4186
102
}
330
4186
100
AcDbXrecord
 90
        1
  0
XRECORD
  5
4188
102
{ACAD_REACTORS
330
4186
102
}
330
4186
100
AcDbXrecord
 90
       70
  0
XRECORD
  5
4189
102
{ACAD_REACTORS
330
4186
102
}
330
4186
100
AcDbXrecord
  1

  0
XRECORD
  5
418A
102
{ACAD_REACTORS
330
4186
102
}
330
4186
100
AcDbXrecord
  1
ASAMI.ctb
  0
XRECORD
  5
418B
102
{ACAD_REACTORS
330
4186
102
}
330
4186
100
AcDbXrecord
340
1A
  0
XRECORD
  5
418C
102
{ACAD_REACTORS
330
4186
102
}
330
4186
100
AcDbXrecord
340
19
  0
XRECORD
  5
418D
102
{ACAD_REACTORS
330
4186
102
}
330
4186
100
AcDbXrecord
340
E
  0
XRECORD
  5
418E
102
{ACAD_REACTORS
330
4186
102
}
330
4186
100
AcDbXrecord
 90
    10781
  0
XRECORD
  5
418F
102
{ACAD_REACTORS
330
4186
102
}
330
4186
100
AcDbXrecord
 90
        4
  0
XRECORD
  5
4190
102
{ACAD_REACTORS
330
4186
102
}
330
4186
100
AcDbXrecord
 90
        0
  0
XRECORD
  5
4191
102
{ACAD_REACTORS
330
4186
102
}
330
4186
100
AcDbXrecord
  1
{AFB28963-8C59-40AE-9337-C84526B81ACE}
  0
XRECORD
  5
4192
102
{ACAD_REACTORS
330
4186
102
}
330
4186
100
AcDbXrecord
  1
{1F5BF636-5988-4DA3-86B5-E9D841EF8552}
  0
XRECORD
  5
4193
102
{ACAD_REACTORS
330
4186
102
}
330
4186
100
AcDbXrecord
 40
0.0
  0
XRECORD
  5
4194
102
{ACAD_REACTORS
330
4186
102
}
330
4186
100
AcDbXrecord
1000
DSTYLE
1002
{
1070
    79
 70
     2
1070
   341
340
59
1070
   342
340
59
1070
   371
 70
    -1
1070
   372
 70
    -1
1002
}
  0
XRECORD
  5
4195
102
{ACAD_REACTORS
330
4186
102
}
330
4186
100
AcDbXrecord
340
0
  0
XRECORD
  5
4196
102
{ACAD_REACTORS
330
4186
102
}
330
4186
100
AcDbXrecord
 70
     0
  0
XRECORD
  5
4197
102
{ACAD_REACTORS
330
4186
102
}
330
4186
100
AcDbXrecord
340
0
  0
XRECORD
  5
4198
102
{ACAD_REACTORS
330
4186
102
}
330
4186
100
AcDbXrecord
 10
0.0
 20
0.0
 30
0.0
  0
XRECORD
  5
4199
102
{ACAD_REACTORS
330
4186
102
}
330
4186
100
AcDbXrecord
 10
0.0
 20
0.0
 30
0.0
  0
XRECORD
  5
419A
102
{ACAD_REACTORS
330
4186
102
}
330
4186
100
AcDbXrecord
 10
0.0
 20
0.0
 30
0.0
  0
XRECORD
  5
419B
102
{ACAD_REACTORS
330
4186
102
}
330
4186
100
AcDbXrecord
 10
0.0
 20
0.0
 30
0.0
  0
XRECORD
  5
419C
102
{ACAD_REACTORS
330
4186
102
}
330
4186
100
AcDbXrecord
 10
0.0
 20
0.0
 30
0.0
  0
XRECORD
  5
419D
102
{ACAD_REACTORS
330
4186
102
}
330
4186
100
AcDbXrecord
 10
0.0
 20
0.0
 30
0.0
  0
XRECORD
  5
419E
102
{ACAD_REACTORS
330
4186
102
}
330
4186
100
AcDbXrecord
340
0
  0
XRECORD
  5
419F
102
{ACAD_REACTORS
330
4186
102
}
330
4186
100
AcDbXrecord
 70
     0
  0
XRECORD
  5
41A0
102
{ACAD_REACTORS
330
4186
102
}
330
4186
100
AcDbXrecord
340
0
  0
XRECORD
  5
41A1
102
{ACAD_REACTORS
330
4186
102
}
330
4186
100
AcDbXrecord
 10
0.0
 20
0.0
 30
0.0
  0
XRECORD
  5
41A2
102
{ACAD_REACTORS
330
4186
102
}
330
4186
100
AcDbXrecord
 10
0.0
 20
0.0
 30
0.0
  0
XRECORD
  5
41A3
102
{ACAD_REACTORS
330
4186
102
}
330
4186
100
AcDbXrecord
 10
0.0
 20
0.0
 30
0.0
  0
XRECORD
  5
41A4
102
{ACAD_REACTORS
330
4186
102
}
330
4186
100
AcDbXrecord
 10
0.0
 20
0.0
 30
0.0
  0
XRECORD
  5
41A5
102
{ACAD_REACTORS
330
4186
102
}
330
4186
100
AcDbXrecord
 10
0.0
 20
0.0
 30
0.0
  0
XRECORD
  5
41A6
102
{ACAD_REACTORS
330
4186
102
}
330
4186
100
AcDbXrecord
 10
0.0
 20
0.0
 30
0.0
  0
LAYER_INDEX
  5
417D
102
{ACAD_REACTORS
330
417C
102
}
330
417C
100
AcDbIndex
 40
2453151.564964895
100
AcDbLayerIndex
  8
0
360
417E
 90
        0
  8
AM_0
360
417F
 90
       44
  8
AM_7
360
4180
 90
        1
  8
AM_11
360
4181
 90
       15
  8
AM_5
360
4182
 90
        5
  8
Defpoints
360
4183
 90
        0
  8
AM_6
360
4184
 90
        1
  0
XRECORD
  5
2D
102
{ACAD_REACTORS
330
2C
102
}
330
2C
100
AcDbXrecord
  1
VERSION
140
15.0
  1
PRODUCT
  2
AutoCAD Mechanical 2000
  0
IDBUFFER
  5
417E
330
0
100
AcDbIdBuffer
  0
IDBUFFER
  5
417F
330
0
100
AcDbIdBuffer
330
409A
330
409B
330
409C
330
409D
330
409E
330
409F
330
40A0
330
40A3
330
40A4
330
40A5
330
40A6
330
40A7
330
40A8
330
40A9
330
40AA
330
40AB
330
40AC
330
40AD
330
40AE
330
40AF
330
40B0
330
40B1
330
40B2
330
40B3
330
40B4
330
40B5
330
40B7
330
40B8
330
C1D
330
C20
330
24A7
330
24BE
330
2C0E
330
2FB7
330
2FB9
330
324C
330
325C
330
325D
330
325E
330
3921
330
3924
330
3976
330
3977
330
4099
  0
IDBUFFER
  5
4180
330
0
100
AcDbIdBuffer
330
23EF
  0
IDBUFFER
  5
4181
330
0
100
AcDbIdBuffer
330
24B7
330
24B8
330
24B9
330
24C7
330
24C8
330
24D4
330
24D5
330
24E6
330
24E7
330
2BF3
330
2BF5
330
40A1
330
40A2
330
40B6
330
40B9
  0
IDBUFFER
  5
4182
330
0
100
AcDbIdBuffer
330
CC6
330
2069
330
2D60
330
3C5B
330
3D2F
  0
IDBUFFER
  5
4183
330
0
100
AcDbIdBuffer
  0
IDBUFFER
  5
4184
330
0
100
AcDbIdBuffer
330
19BD
  0
ENDSEC
  0
EOF
