  0
SECTION
  2
HEADER
  9
$ACADVER
  1
AC1014
  9
$ACADMAINTVER
 70
     9
  9
$DWGCODEPAGE
  3
ANSI_932
  9
$INSBASE
 10
0.0
 20
0.0
 30
0.0
  9
$EXTMIN
 10
-164.8000009999999
 20
-54.00000099999958
 30
-0.00000001
  9
$EXTMAX
 10
37.0400172029589
 20
35.8102292536337
 30
0.00000001
  9
$LIMMIN
 10
-174.4563797951447
 20
-70.82206914383238
  9
$LIMMAX
 10
45.85902212792825
 20
52.2453258987743
  9
$ORTHOMODE
 70
     0
  9
$REGENMODE
 70
     1
  9
$FILLMODE
 70
     1
  9
$QTEXTMODE
 70
     0
  9
$MIRRTEXT
 70
     0
  9
$DRAGMODE
 70
     2
  9
$LTSCALE
 40
1.0
  9
$OSMODE
 70
    55
  9
$ATTMODE
 70
     1
  9
$TEXTSIZE
 40
2.5
  9
$TRACEWID
 40
1.0
  9
$TEXTSTYLE
  7
STANDARD
  9
$CLAYER
  8
AM_0
  9
$CELTYPE
  6
BYLAYER
  9
$CECOLOR
 62
   256
  9
$CELTSCALE
 40
1.0
  9
$DELOBJ
 70
     1
  9
$DISPSILH
 70
     0
  9
$DIMSCALE
 40
1.0
  9
$DIMASZ
 40
2.5
  9
$DIMEXO
 40
1.0
  9
$DIMDLI
 40
12.0
  9
$DIMRND
 40
0.0
  9
$DIMDLE
 40
0.0
  9
$DIMEXE
 40
1.0
  9
$DIMTP
 40
0.1
  9
$DIMTM
 40
0.1
  9
$DIMTXT
 40
3.2
  9
$DIMCEN
 40
0.0
  9
$DIMTSZ
 40
0.0
  9
$DIMTOL
 70
     0
  9
$DIMLIM
 70
     0
  9
$DIMTIH
 70
     0
  9
$DIMTOH
 70
     0
  9
$DIMSE1
 70
     0
  9
$DIMSE2
 70
     0
  9
$DIMTAD
 70
     3
  9
$DIMZIN
 70
     8
  9
$DIMBLK
  1
OPEN30
  9
$DIMASO
 70
     1
  9
$DIMSHO
 70
     1
  9
$DIMPOST
  1

  9
$DIMAPOST
  1
"
  9
$DIMALT
 70
     0
  9
$DIMALTD
 70
     2
  9
$DIMALTF
 40
0.0393701
  9
$DIMLFAC
 40
1.0
  9
$DIMTOFL
 70
     1
  9
$DIMTVP
 40
0.0
  9
$DIMTIX
 70
     0
  9
$DIMSOXD
 70
     0
  9
$DIMSAH
 70
     0
  9
$DIMBLK1
  1

  9
$DIMBLK2
  1

  9
$DIMSTYLE
  2
AM_JIS
  9
$DIMCLRD
 70
   256
  9
$DIMCLRE
 70
   256
  9
$DIMCLRT
 70
     2
  9
$DIMTFAC
 40
0.71
  9
$DIMGAP
 40
1.5
  9
$DIMJUST
 70
     0
  9
$DIMSD1
 70
     0
  9
$DIMSD2
 70
     0
  9
$DIMTOLJ
 70
     0
  9
$DIMTZIN
 70
     0
  9
$DIMALTZ
 70
     0
  9
$DIMALTTZ
 70
     0
  9
$DIMFIT
 70
     3
  9
$DIMUPT
 70
     0
  9
$DIMUNIT
 70
     2
  9
$DIMDEC
 70
     3
  9
$DIMTDEC
 70
     3
  9
$DIMALTU
 70
     2
  9
$DIMALTTD
 70
     2
  9
$DIMTXSTY
  7
ASAMI
  9
$DIMAUNIT
 70
     0
  9
$LUNITS
 70
     2
  9
$LUPREC
 70
     2
  9
$SKETCHINC
 40
1.0
  9
$FILLETRAD
 40
2.5
  9
$AUNITS
 70
     0
  9
$AUPREC
 70
     0
  9
$MENU
  1
.
  9
$ELEVATION
 40
0.0
  9
$PELEVATION
 40
0.0
  9
$THICKNESS
 40
0.0
  9
$LIMCHECK
 70
     0
  9
$BLIPMODE
 70
     0
  9
$CHAMFERA
 40
0.75
  9
$CHAMFERB
 40
0.75
  9
$CHAMFERC
 40
20.0
  9
$CHAMFERD
 40
0.0
  9
$SKPOLY
 70
     0
  9
$TDCREATE
 40
2452800.443498622
  9
$TDUPDATE
 40
2453151.565392778
  9
$TDINDWG
 40
0.0948310648
  9
$TDUSRTIMER
 40
0.0948310648
  9
$USRTIMER
 70
     1
  9
$ANGBASE
 50
0.0
  9
$ANGDIR
 70
     0
  9
$PDMODE
 70
     0
  9
$PDSIZE
 40
0.0
  9
$PLINEWID
 40
0.0
  9
$COORDS
 70
     1
  9
$SPLFRAME
 70
     0
  9
$SPLINETYPE
 70
     6
  9
$SPLINESEGS
 70
     8
  9
$ATTDIA
 70
     1
  9
$ATTREQ
 70
     1
  9
$HANDLING
 70
 12289
  9
$HANDSEED
  5
43AC
  9
$SURFTAB1
 70
     6
  9
$SURFTAB2
 70
     6
  9
$SURFTYPE
 70
     6
  9
$SURFU
 70
     6
  9
$SURFV
 70
     6
  9
$UCSNAME
  2

  9
$UCSORG
 10
0.0
 20
0.0
 30
0.0
  9
$UCSXDIR
 10
1.0
 20
0.0000000000000027
 30
0.0
  9
$UCSYDIR
 10
-0.0000000000000027
 20
1.0
 30
0.0
  9
$PUCSNAME
  2

  9
$PUCSORG
 10
0.0
 20
0.0
 30
0.0
  9
$PUCSXDIR
 10
1.0
 20
0.0
 30
0.0
  9
$PUCSYDIR
 10
0.0
 20
1.0
 30
0.0
  9
$USERI1
 70
     0
  9
$USERI2
 70
     0
  9
$USERI3
 70
     0
  9
$USERI4
 70
     0
  9
$USERI5
 70
     0
  9
$USERR1
 40
0.0
  9
$USERR2
 40
0.0
  9
$USERR3
 40
0.0
  9
$USERR4
 40
0.0
  9
$USERR5
 40
0.0
  9
$WORLDVIEW
 70
     1
  9
$SHADEDGE
 70
     3
  9
$SHADEDIF
 70
    70
  9
$TILEMODE
 70
     1
  9
$MAXACTVP
 70
    64
  9
$PINSBASE
 10
0.0
 20
0.0
 30
0.0
  9
$PLIMCHECK
 70
     0
  9
$PEXTMIN
 10
1.000000000000000E+20
 20
1.000000000000000E+20
 30
1.000000000000000E+20
  9
$PEXTMAX
 10
-1.000000000000000E+20
 20
-1.000000000000000E+20
 30
-1.000000000000000E+20
  9
$PLIMMIN
 10
0.0
 20
0.0
  9
$PLIMMAX
 10
841.0
 20
594.0
  9
$UNITMODE
 70
     0
  9
$VISRETAIN
 70
     1
  9
$PLINEGEN
 70
     0
  9
$PSLTSCALE
 70
     0
  9
$TREEDEPTH
 70
  3020
  9
$PICKSTYLE
 70
     0
  9
$CMLSTYLE
  2
STANDARD
  9
$CMLJUST
 70
     0
  9
$CMLSCALE
 40
20.0
  9
$PROXYGRAPHICS
 70
     1
  9
$MEASUREMENT
 70
     1
  0
ENDSEC
  0
SECTION
  2
CLASSES
  0
CLASS
  1
ACDBDICTIONARYWDFLT
  2
AcDbDictionaryWithDefault
  3
AutoCAD 2000
 90
        0
280
     0
281
     0
  0
CLASS
  1
ACDBPLACEHOLDER
  2
AcDbPlaceHolder
  3
AutoCAD 2000
 90
        0
280
     0
281
     0
  0
CLASS
  1
LAYOUT
  2
AcDbLayout
  3
AutoCAD 2000
 90
        0
280
     0
281
     0
  0
CLASS
  1
AMGSETTINGSOBJ
  2
AmgSettingsObj
  3
"AcadM|Product Description: AutoCAD Mechanical 2000|Company: Autodesk"
 90
        0
280
     0
281
     0
  0
CLASS
  1
ACME_DOCUMENT
  2
AcMeDbDoc
  3
AcMeServices
 90
        0
280
     0
281
     0
  0
CLASS
  1
ACMESCOPE
  2
AcMeScope
  3
AcMeServices
 90
        0
280
     0
281
     0
  0
CLASS
  1
ACMECOMMANDHISTORY
  2
AcMeCommandHistory
  3
AcMeServices
 90
        0
280
     0
281
     0
  0
CLASS
  1
DICTIONARYVAR
  2
AcDbDictionaryVar
  3
AutoCAD 2000
 90
        0
280
     0
281
     0
  0
CLASS
  1
ACIMSYSVARMAN
  2
AcImSysVarManager
  3
AcMeServices
 90
        0
280
     0
281
     0
  0
CLASS
  1
ACIMREALSYSVAR
  2
AcImRealSysVar
  3
AcMeServices
 90
        0
280
     0
281
     0
  0
CLASS
  1
ACIMINTSYSVAR
  2
AcImIntSysVar
  3
AcMeServices
 90
        0
280
     0
281
     0
  0
CLASS
  1
ACMEDRAWINGMAN
  2
AcMeDrawingMan
  3
AcMeServices
 90
        0
280
     0
281
     0
  0
CLASS
  1
ACMEVIEW
  2
AcMeView
  3
AcMeServices
 90
        0
280
     0
281
     0
  0
CLASS
  1
ACDBENTITYCACHE
  2
AcMeEntityCache
  3
AcMeServices
 90
        0
280
     0
281
     0
  0
CLASS
  1
GSMANAGER
  2
AcMeGSManager
  3
AcMeServices
 90
        0
280
     0
281
     0
  0
CLASS
  1
AmdtInternalReactor
  2
AmdtInternalReactor
  3
AcMeServices
 90
        0
280
     0
281
     0
  0
CLASS
  1
ACMESTATEMGR
  2
AcMeStateMgr
  3
AcMeServices
 90
        0
280
     0
281
     0
  0
CLASS
  1
ACME_DATABASE
  2
AcMeDbDatabase
  3
AcMeServices
 90
        0
280
     0
281
     0
  0
CLASS
  1
ACRFINSADJUSTERMGR
  2
AcRfInsAdjusterMgr
  3
AcMeServices
 90
        0
280
     0
281
     0
  0
CLASS
  1
ACMDATADICTIONARY
  2
AcmDataDictionary
  3
"AcmSymBB|Product Description: AutoCAD Mechanical 2000|Company: Autodesk"
 90
        0
280
     0
281
     0
  0
CLASS
  1
ACMDATAENTRYBLOCK
  2
AcmDataEntryBlock
  3
"AcmSymBB|Product Description: AutoCAD Mechanical 2000|Company: Autodesk"
 90
        0
280
     0
281
     0
  0
CLASS
  1
AMGOBJPROPCFG
  2
AmgObjPropCfg
  3
"AmgLay|Product Description: AutoCAD Mechanical 2000|Company: Autodesk"
 90
        1
280
     0
281
     0
  0
CLASS
  1
ACAMGFILTERDAT
  2
AcAmgFilterDat
  3
"AcadM|Product Description: AutoCAD Mechanical 2000|Company: Autodesk"
 90
        0
280
     0
281
     0
  0
CLASS
  1
LAYER_INDEX
  2
AcDbLayerIndex
  3
AutoCAD 2000
 90
        0
280
     0
281
     0
  0
CLASS
  1
IDBUFFER
  2
AcDbIdBuffer
  3
AutoCAD 2000
 90
        0
280
     0
281
     0
  0
CLASS
  1
ACIMSTRSYSVAR
  2
AcImStrSysVar
  3
AcMeServices
 90
        0
280
     0
281
     0
  0
CLASS
  1
ACMSTANDARDJIS
  2
AcmStandardJIS
  3
"AcmSymBB|Product Description: AutoCAD Mechanical 2000|Company: Autodesk"
 90
        0
280
     0
281
     0
  0
CLASS
  1
ACMSURFSTANDARDJIS
  2
AcmSurfTextStdJIS
  3
"AcmSymBB|Product Description: AutoCAD Mechanical 2000|Company: Autodesk"
 90
        0
280
     0
281
     0
  0
CLASS
  1
ACMFCFSTANDARDJIS
  2
AcmFCFStdJIS
  3
"AcmSymBB|Product Description: AutoCAD Mechanical 2000|Company: Autodesk"
 90
        0
280
     0
281
     0
  0
CLASS
  1
ACMWELDSTANDARDJIS
  2
AcmWeldingStdJIS
  3
"AcmSymBB|Product Description: AutoCAD Mechanical 2000|Company: Autodesk"
 90
        0
280
     0
281
     0
  0
CLASS
  1
ACMIDSTANDARDJIS
  2
AcmIdStdJIS
  3
"AcmSymBB|Product Description: AutoCAD Mechanical 2000|Company: Autodesk"
 90
        0
280
     0
281
     0
  0
CLASS
  1
ACMDATUMSTANDARDJIS
  2
AcmDatumStdJIS
  3
"AcmSymBB|Product Description: AutoCAD Mechanical 2000|Company: Autodesk"
 90
        0
280
     0
281
     0
  0
CLASS
  1
ACMBOMSTANDARDJIS
  2
AcmBOMStdJIS
  3
"AcmSymBB|Product Description: AutoCAD Mechanical 2000|Company: Autodesk"
 90
        0
280
     0
281
     0
  0
CLASS
  1
ACMSTANDARDANSI
  2
AcmStandardANSI
  3
"AcmSymBB|Product Description: AutoCAD Mechanical 2000|Company: Autodesk"
 90
        0
280
     0
281
     0
  0
CLASS
  1
ACMSURFSTANDARDANSI
  2
AcmSurfTextStdANSI
  3
"AcmSymBB|Product Description: AutoCAD Mechanical 2000|Company: Autodesk"
 90
        0
280
     0
281
     0
  0
CLASS
  1
ACMFCFSTANDARDANSI
  2
AcmFCFStdANSI
  3
"AcmSymBB|Product Description: AutoCAD Mechanical 2000|Company: Autodesk"
 90
        0
280
     0
281
     0
  0
CLASS
  1
ACMWELDSTANDARDANSI
  2
AcmWeldingStdANSI
  3
"AcmSymBB|Product Description: AutoCAD Mechanical 2000|Company: Autodesk"
 90
        0
280
     0
281
     0
  0
CLASS
  1
ACMIDSTANDARDANSI
  2
AcmIdStdANSI
  3
"AcmSymBB|Product Description: AutoCAD Mechanical 2000|Company: Autodesk"
 90
        0
280
     0
281
     0
  0
CLASS
  1
ACMDATUMSTANDARDANSI
  2
AcmDatumStdANSI
  3
"AcmSymBB|Product Description: AutoCAD Mechanical 2000|Company: Autodesk"
 90
        0
280
     0
281
     0
  0
CLASS
  1
ACMBOMSTANDARDANSI
  2
AcmBOMStdANSI
  3
"AcmSymBB|Product Description: AutoCAD Mechanical 2000|Company: Autodesk"
 90
        0
280
     0
281
     0
  0
CLASS
  1
ACMSTANDARDBSI
  2
AcmStandardBSI
  3
"AcmSymBB|Product Description: AutoCAD Mechanical 2000|Company: Autodesk"
 90
        0
280
     0
281
     0
  0
CLASS
  1
ACMSURFSTANDARDBSI
  2
AcmSurfTextStdBSI
  3
"AcmSymBB|Product Description: AutoCAD Mechanical 2000|Company: Autodesk"
 90
        0
280
     0
281
     0
  0
CLASS
  1
ACMFCFSTANDARDBSI
  2
AcmFCFStdBSI
  3
"AcmSymBB|Product Description: AutoCAD Mechanical 2000|Company: Autodesk"
 90
        0
280
     0
281
     0
  0
CLASS
  1
ACMWELDSTANDARDBSI
  2
AcmWeldingStdBSI
  3
"AcmSymBB|Product Description: AutoCAD Mechanical 2000|Company: Autodesk"
 90
        0
280
     0
281
     0
  0
CLASS
  1
ACMIDSTANDARDBSI
  2
AcmIdStdBSI
  3
"AcmSymBB|Product Description: AutoCAD Mechanical 2000|Company: Autodesk"
 90
        0
280
     0
281
     0
  0
CLASS
  1
ACMDATUMSTANDARDBSI
  2
AcmDatumStdBSI
  3
"AcmSymBB|Product Description: AutoCAD Mechanical 2000|Company: Autodesk"
 90
        0
280
     0
281
     0
  0
CLASS
  1
ACMBOMSTANDARDBSI
  2
AcmBOMStdBSI
  3
"AcmSymBB|Product Description: AutoCAD Mechanical 2000|Company: Autodesk"
 90
        0
280
     0
281
     0
  0
CLASS
  1
LONG_TRANSACTION
  2
AcDbLongTransaction
  3
AutoCAD 2000
 90
        0
280
     0
281
     0
  0
CLASS
  1
LWPOLYLINE
  2
AcDbPolyline
  3
AutoCAD 2000
 90
        0
280
     0
281
     1
  0
CLASS
  1
HATCH
  2
AcDbHatch
  3
AutoCAD 2000
 90
        0
280
     0
281
     1
  0
CLASS
  1
XRECORD
  2
AcDbXrecord
  3
AutoCAD 2000
 90
        0
280
     0
281
     0
  0
ENDSEC
  0
SECTION
  2
TABLES
  0
TABLE
  2
VPORT
  5
8
330
0
100
AcDbSymbolTable
 70
     3
  0
VPORT
  5
4376
330
8
100
AcDbSymbolTableRecord
100
AcDbViewportTableRecord
  2
*ACTIVE
 70
     0
 10
0.0
 20
0.0
 11
1.0
 21
1.0
 12
-60.10297670391742
 22
-9.091196096511083
 13
0.0
 23
0.0
 14
2.5
 24
2.5
 15
10.0
 25
10.0
 16
0.0
 26
0.0
 36
1.0
 17
0.0
 27
0.0
 37
0.0
 40
134.3980006285333
 41
1.56570841889117
 42
50.0
 43
0.0
 44
0.0
 50
0.0
 51
0.0
 71
     0
 72
   100
 73
     1
 74
     1
 75
     0
 76
     0
 77
     0
 78
     0
  0
ENDTAB
  0
TABLE
  2
LTYPE
  5
5
330
0
100
AcDbSymbolTable
 70
    10
  0
LTYPE
  5
14
330
5
100
AcDbSymbolTableRecord
100
AcDbLinetypeTableRecord
  2
BYBLOCK
 70
     0
  3

 72
    65
 73
     0
 40
0.0
  0
LTYPE
  5
15
330
5
100
AcDbSymbolTableRecord
100
AcDbLinetypeTableRecord
  2
BYLAYER
 70
     0
  3

 72
    65
 73
     0
 40
0.0
  0
LTYPE
  5
16
330
5
100
AcDbSymbolTableRecord
100
AcDbLinetypeTableRecord
  2
CONTINUOUS
 70
     0
  3
Solid line
 72
    65
 73
     0
 40
0.0
  0
LTYPE
  5
4B
330
5
100
AcDbSymbolTableRecord
100
AcDbLinetypeTableRecord
  2
AM_ISO02W050
 70
     0
  3
__ __ __ __ __ __ __ __ __ __ __ __ __ __ __
 72
    65
 73
     2
 40
7.5
 49
6.0
 74
     0
 49
-1.5
 74
     0
  0
LTYPE
  5
4C
330
5
100
AcDbSymbolTableRecord
100
AcDbLinetypeTableRecord
  2
AM_ISO08W050
 70
     0
  3
____ . ____ . ____ . ____ . ____ . ____ . ____
 72
    65
 73
     4
 40
18.0
 49
12.0
 74
     0
 49
-1.5
 74
     0
 49
3.0
 74
     0
 49
-1.5
 74
     0
  0
LTYPE
  5
4D
330
5
100
AcDbSymbolTableRecord
100
AcDbLinetypeTableRecord
  2
AM_ISO09W050
 70
     0
  3
_____ . . _____ . . _____ . . ____ .. ____
 72
    65
 73
     6
 40
22.5
 49
12.0
 74
     0
 49
-1.5
 74
     0
 49
3.0
 74
     0
 49
-1.5
 74
     0
 49
3.0
 74
     0
 49
-1.5
 74
     0
  0
LTYPE
  5
4E
330
5
100
AcDbSymbolTableRecord
100
AcDbLinetypeTableRecord
  2
AMCONSTR
 70
     0
  3
_______________________
 72
    65
 73
     2
 40
9999.0
 49
9999.0
 74
     0
 49
0.0
 74
     0
  0
LTYPE
  5
4F
330
5
100
AcDbSymbolTableRecord
100
AcDbLinetypeTableRecord
  2
AM_ISO02W050X2
 70
     0
  3
 _ _ _ _ _ _ _ _ _ _ _ _
 72
    65
 73
     2
 40
3.75
 49
3.0
 74
     0
 49
-0.75
 74
     0
  0
LTYPE
  5
50
330
5
100
AcDbSymbolTableRecord
100
AcDbLinetypeTableRecord
  2
AM_ISO08W050X2
 70
     0
  3
__ . __ . __ . __ . __ . __
 72
    65
 73
     4
 40
9.0
 49
6.0
 74
     0
 49
-0.75
 74
     0
 49
1.5
 74
     0
 49
-0.75
 74
     0
  0
LTYPE
  5
53
330
5
100
AcDbSymbolTableRecord
100
AcDbLinetypeTableRecord
  2
AMZIGZAG
 70
     0
  3
/\/-/\/-/\/-/\/-/\/-/\/
 72
    65
 73
     2
 40
11.00009999999999
 49
0.0001
 74
     4
 75
   135
340
52
 46
0.04
 50
0.0
 44
0.0
 45
0.0
 49
-11.0
 74
     0
  0
LTYPE
  5
166
330
5
100
AcDbSymbolTableRecord
100
AcDbLinetypeTableRecord
  2
ACJISTGL
 70
     0
  3
_ _ _ _ _
 72
    65
 73
     2
 40
3.0
 49
2.0
 74
     0
 49
-1.0
 74
     0
  0
LTYPE
  5
26A
330
5
100
AcDbSymbolTableRecord
100
AcDbLinetypeTableRecord
  2
ACJISTGB
 70
     0
  3
__ . . __ . .
 72
    65
 73
     6
 40
9.0
 49
4.0
 74
     0
 49
-1.0
 74
     0
 49
1.0
 74
     0
 49
-1.0
 74
     0
 49
1.0
 74
     0
 49
-1.0
 74
     0
  0
ENDTAB
  0
TABLE
  2
LAYER
  5
2
330
0
100
AcDbSymbolTable
 70
     7
  0
LAYER
  5
10
330
2
100
AcDbSymbolTableRecord
100
AcDbLayerTableRecord
  2
0
 70
     0
 62
     7
  6
CONTINUOUS
  0
LAYER
  5
3F9
330
2
100
AcDbSymbolTableRecord
100
AcDbLayerTableRecord
  2
AM_0
 70
     0
 62
     7
  6
CONTINUOUS
  0
LAYER
  5
C7C
330
2
100
AcDbSymbolTableRecord
100
AcDbLayerTableRecord
  2
AM_7
 70
     0
 62
     4
  6
AM_ISO08W050
  0
LAYER
  5
C97
330
2
100
AcDbSymbolTableRecord
100
AcDbLayerTableRecord
  2
AM_11
 70
     0
 62
     3
  6
AM_ISO09W050
  0
LAYER
  5
CC5
330
2
100
AcDbSymbolTableRecord
100
AcDbLayerTableRecord
  2
AM_5
 70
     0
 62
     3
  6
CONTINUOUS
  0
LAYER
  5
CC7
330
2
100
AcDbSymbolTableRecord
100
AcDbLayerTableRecord
  2
DEFPOINTS
 70
     0
 62
     7
  6
CONTINUOUS
  0
LAYER
  5
19BC
330
2
100
AcDbSymbolTableRecord
100
AcDbLayerTableRecord
  2
AM_6
 70
     0
 62
     2
  6
CONTINUOUS
  0
ENDTAB
  0
TABLE
  2
STYLE
  5
3
330
0
100
AcDbSymbolTable
 70
     5
  0
STYLE
  5
11
330
3
100
AcDbSymbolTableRecord
100
AcDbTextStyleTableRecord
  2
STANDARD
 70
     0
 40
0.0
 41
1.0
 50
0.0
 71
     0
 42
2.5
  3
simplex.shx
  4
EXTFONT.SHX
  0
STYLE
  5
52
330
3
100
AcDbSymbolTableRecord
100
AcDbTextStyleTableRecord
  2

 70
     1
 40
0.0
 41
1.0
 50
0.0
 71
     0
 42
2.5
  3
ltypeshp.shx
  4

  0
STYLE
  5
6B
330
3
100
AcDbSymbolTableRecord
100
AcDbTextStyleTableRecord
  2
ASAMI
 70
     0
 40
0.0
 41
1.0
 50
0.0
 71
     0
 42
2.5
  3
simplex.shx
  4
EXTFONT.SHX
  0
STYLE
  5
262
330
3
100
AcDbSymbolTableRecord
100
AcDbTextStyleTableRecord
  2
ACJISTS
 70
     0
 40
1.0
 41
1.0
 50
0.0
 71
     0
 42
2.5
  3
simplex.shx
  4
bigfont.shx
  0
STYLE
  5
269
330
3
100
AcDbSymbolTableRecord
100
AcDbTextStyleTableRecord
  2
ACJISGDT
 70
     0
 40
0.0
 41
1.0
 50
0.0
 71
     0
 42
2.5
  3
amgdtans.shx
  4

  0
ENDTAB
  0
TABLE
  2
VIEW
  5
6
330
0
100
AcDbSymbolTable
 70
     0
  0
ENDTAB
  0
TABLE
  2
UCS
  5
7
330
0
100
AcDbSymbolTable
 70
     0
  0
ENDTAB
  0
TABLE
  2
APPID
  5
9
330
0
100
AcDbSymbolTable
 70
    16
  0
APPID
  5
12
330
9
100
AcDbSymbolTableRecord
100
AcDbRegAppTableRecord
  2
ACAD
 70
     0
  0
APPID
  5
30
330
9
100
AcDbSymbolTableRecord
100
AcDbRegAppTableRecord
  2
MCAD_NO_VIS
 70
     0
  0
APPID
  5
31
330
9
100
AcDbSymbolTableRecord
100
AcDbRegAppTableRecord
  2
ACAD_TEMP_GRAPHIC
 70
     0
  0
APPID
  5
2C2
330
9
100
AcDbSymbolTableRecord
100
AcDbRegAppTableRecord
  2
GENIUS_GENDTOL_13
 70
     0
  0
APPID
  5
339
330
9
100
AcDbSymbolTableRecord
100
AcDbRegAppTableRecord
  2
GENIUS_GENODEF_13
 70
     0
  0
APPID
  5
33A
330
9
100
AcDbSymbolTableRecord
100
AcDbRegAppTableRecord
  2
GENIUS_GENOBJ-N-RSBK_13
 70
     0
  0
APPID
  5
33B
330
9
100
AcDbSymbolTableRecord
100
AcDbRegAppTableRecord
  2
GENIUS_GENOBJ-N-LIB_13
 70
     0
  0
APPID
  5
33C
330
9
100
AcDbSymbolTableRecord
100
AcDbRegAppTableRecord
  2
GENIUS_GENSCALE_13
 70
     0
  0
APPID
  5
378
330
9
100
AcDbSymbolTableRecord
100
AcDbRegAppTableRecord
  2
GENIUS_GENDIMSH_14
 70
     0
  0
APPID
  5
C82
330
9
100
AcDbSymbolTableRecord
100
AcDbRegAppTableRecord
  2
GENIUS_GENOBJ-N-CRS_13
 70
     0
  0
APPID
  5
C83
330
9
100
AcDbSymbolTableRecord
100
AcDbRegAppTableRecord
  2
GENIUS_GENOENT_13
 70
     0
  0
APPID
  5
C84
330
9
100
AcDbSymbolTableRecord
100
AcDbRegAppTableRecord
  2
GENIUS_GENOREF_13
 70
     0
  0
APPID
  5
C85
330
9
100
AcDbSymbolTableRecord
100
AcDbRegAppTableRecord
  2
GENIUS_GENOLIS_13
 70
     0
  0
APPID
  5
CA0
330
9
100
AcDbSymbolTableRecord
100
AcDbRegAppTableRecord
  2
GENIUS_GENOBJ-N-CEN_13
 70
     0
  0
APPID
  5
2796
330
9
100
AcDbSymbolTableRecord
100
AcDbRegAppTableRecord
  2
GENIUS_GENFIL_13
 70
     0
  0
APPID
  5
2797
330
9
100
AcDbSymbolTableRecord
100
AcDbRegAppTableRecord
  2
GENIUS_GENOBJ-N-CHA_13
 70
     0
  0
ENDTAB
  0
TABLE
  2
DIMSTYLE
  5
A
330
0
100
AcDbSymbolTable
 70
     9
  0
DIMSTYLE
105
58
330
A
100
AcDbSymbolTableRecord
100
AcDbDimStyleTableRecord
  2
AM_JIS
 70
     0
  3

  4
"
  5
OPEN30
  6

  7

 40
1.0
 41
2.5
 42
1.0
 43
12.0
 44
1.0
 45
0.0
 46
0.0
 47
0.1
 48
0.1
140
3.2
141
0.0
142
0.0
143
0.0393701
144
1.0
145
0.0
146
0.71
147
1.5
 71
     0
 72
     0
 73
     0
 74
     0
 75
     0
 76
     0
 77
     3
 78
     8
170
     0
171
     2
172
     1
173
     0
174
     0
175
     0
176
   256
177
   256
178
     2
270
     2
271
     3
272
     3
273
     2
274
     2
340
6B
275
     0
280
     0
281
     0
282
     0
283
     0
284
     0
285
     0
286
     0
287
     3
288
     0
  0
DIMSTYLE
105
5F
330
A
100
AcDbSymbolTableRecord
100
AcDbDimStyleTableRecord
  2
AM_JIS$3
 70
     0
  3

  4
"
  5
OPEN30
  6

  7

 40
1.0
 41
2.5
 42
1.0
 43
10.0
 44
1.0
 45
0.0
 46
0.0
 47
0.1
 48
0.1
140
3.2
141
0.0
142
0.0
143
0.0393701
144
1.0
145
0.0
146
0.71
147
1.5
 71
     0
 72
     0
 73
     0
 74
     1
 75
     0
 76
     0
 77
     3
 78
     8
170
     0
171
     2
172
     0
173
     0
174
     0
175
     0
176
   256
177
   256
178
     2
270
     2
271
     2
272
     3
273
     2
274
     2
340
6B
275
     0
280
     0
281
     0
282
     0
283
     0
284
     0
285
     0
286
     0
287
     0
288
     1
  0
DIMSTYLE
105
60
330
A
100
AcDbSymbolTableRecord
100
AcDbDimStyleTableRecord
  2
AM_JIS$4
 70
     0
  3

  4
"
  5
OPEN30
  6

  7

 40
1.0
 41
2.5
 42
1.0
 43
10.0
 44
1.0
 45
0.0
 46
0.0
 47
0.1
 48
0.1
140
3.2
141
0.0
142
0.0
143
0.0393701
144
1.0
145
0.0
146
0.71
147
1.5
 71
     0
 72
     0
 73
     0
 74
     1
 75
     0
 76
     0
 77
     3
 78
     8
170
     0
171
     2
172
     0
173
     0
174
     0
175
     0
176
   256
177
   256
178
     2
270
     2
271
     2
272
     3
273
     2
274
     2
340
6B
275
     0
280
     0
281
     0
282
     0
283
     0
284
     0
285
     0
286
     0
287
     0
288
     1
  0
DIMSTYLE
105
61
330
A
100
AcDbSymbolTableRecord
100
AcDbDimStyleTableRecord
  2
AM_JIS$6
 70
     0
  3

  4
"
  5
OPEN30
  6

  7

 40
1.0
 41
2.5
 42
1.0
 43
10.0
 44
1.0
 45
0.0
 46
0.0
 47
0.1
 48
0.1
140
3.2
141
0.0
142
0.0
143
0.0393701
144
1.0
145
0.0
146
0.71
147
1.5
 71
     0
 72
     0
 73
     0
 74
     0
 75
     0
 76
     0
 77
     0
 78
     8
170
     0
171
     2
172
     1
173
     0
174
     0
175
     0
176
   256
177
   256
178
     2
270
     2
271
     2
272
     2
273
     2
274
     2
340
6B
275
     0
280
     0
281
     0
282
     0
283
     0
284
     0
285
     0
286
     0
287
     3
288
     0
  0
DIMSTYLE
105
62
330
A
100
AcDbSymbolTableRecord
100
AcDbDimStyleTableRecord
  2
AM_JIS$7
 70
     0
  3

  4
"
  5
OPEN30
  6

  7

 40
1.0
 41
2.5
 42
1.0
 43
10.0
 44
1.0
 45
0.0
 46
0.0
 47
0.1
 48
0.1
140
3.2
141
0.0
142
0.0
143
0.0393701
144
1.0
145
0.0
146
0.71
147
1.5
 71
     0
 72
     0
 73
     0
 74
     0
 75
     0
 76
     0
 77
     3
 78
     8
170
     0
171
     2
172
     1
173
     0
174
     0
175
     0
176
   256
177
   256
178
     2
270
     2
271
     2
272
     3
273
     2
274
     2
340
6B
275
     0
280
     0
281
     0
282
     0
283
     0
284
     0
285
     0
286
     0
287
     3
288
     0
  0
DIMSTYLE
105
63
330
A
100
AcDbSymbolTableRecord
100
AcDbDimStyleTableRecord
  2
AM_JIS$SF
 70
     0
  3

  4
"
  5
OPEN30
  6

  7

 40
1.0
 41
2.5
 42
1.0
 43
10.0
 44
1.0
 45
0.0
 46
0.0
 47
0.1
 48
0.1
140
3.2
141
0.0
142
0.0
143
0.0393701
144
1.0
145
0.0
146
0.71
147
1.5
 71
     0
 72
     0
 73
     0
 74
     0
 75
     1
 76
     1
 77
     3
 78
     8
170
     0
171
     2
172
     1
173
     0
174
     0
175
     0
176
   256
177
   256
178
     2
270
     2
271
     2
272
     2
273
     2
274
     2
340
6B
275
     0
280
     0
281
     0
282
     0
283
     0
284
     0
285
     0
286
     0
287
     3
288
     0
  0
DIMSTYLE
105
68
330
A
100
AcDbSymbolTableRecord
100
AcDbDimStyleTableRecord
  2
AM_JIS$SH
 70
     0
  3

  4
"
  5

  6
GENAXEH
  7
OPEN30
 40
1.0
 41
2.5
 42
1.0
 43
10.0
 44
1.0
 45
0.0
 46
0.0
 47
0.1
 48
0.1
140
3.2
141
0.0
142
0.0
143
0.0393701
144
2.0
145
0.0
146
0.71
147
1.5
 71
     0
 72
     0
 73
     0
 74
     0
 75
     1
 76
     1
 77
     3
 78
     8
170
     0
171
     2
172
     1
173
     1
174
     0
175
     0
176
   256
177
   256
178
     2
270
     2
271
     2
272
     2
273
     2
274
     2
340
6B
275
     0
280
     0
281
     0
282
     0
283
     0
284
     0
285
     0
286
     0
287
     3
288
     0
  0
DIMSTYLE
105
B34
102
{ACAD_REACTORS
330
3D2F
102
}
330
A
100
AcDbSymbolTableRecord
100
AcDbDimStyleTableRecord
  2
AM_JIS$2
 70
     0
  3

  4
"
  5
OPEN30
  6

  7

 40
1.0
 41
2.5
 42
1.0
 43
12.0
 44
1.0
 45
0.0
 46
0.0
 47
0.1
 48
0.1
140
3.2
141
0.0
142
0.0
143
0.0393701
144
1.0
145
0.0
146
0.71
147
1.5
 71
     0
 72
     0
 73
     0
 74
     0
 75
     0
 76
     0
 77
     3
 78
     8
170
     0
171
     2
172
     1
173
     0
174
     0
175
     0
176
   256
177
   256
178
     2
270
     2
271
     3
272
     3
273
     2
274
     2
340
6B
275
     0
280
     0
281
     0
282
     0
283
     0
284
     0
285
     0
286
     0
287
     3
288
     0
  0
DIMSTYLE
105
BA5
102
{ACAD_REACTORS
330
CC6
330
2069
330
2D60
330
3C5B
102
}
330
A
100
AcDbSymbolTableRecord
100
AcDbDimStyleTableRecord
  2
AM_JIS$0
 70
     0
  3

  4
"
  5
OPEN30
  6

  7

 40
1.0
 41
2.5
 42
0.0
 43
10.0
 44
1.0
 45
0.0
 46
0.0
 47
0.1
 48
0.1000000001
140
3.799999999999999
141
0.0
142
0.0
143
0.0393701
144
1.0
145
0.0
146
0.71
147
1.5
 71
     0
 72
     0
 73
     0
 74
     0
 75
     0
 76
     0
 77
     3
 78
     1
170
     0
171
     2
172
     1
173
     0
174
     0
175
     0
176
     3
177
     3
178
     2
270
     2
271
     2
272
     2
273
     2
274
     2
340
11
275
     1
280
     0
281
     0
282
     0
283
     0
284
     8
285
     0
286
     0
287
     0
288
     0
  0
ENDTAB
  0
TABLE
  2
BLOCK_RECORD
  5
1
330
0
100
AcDbSymbolTable
 70
    10
  0
BLOCK_RECORD
  5
1F
102
{ACAD_XDICTIONARY
360
74
102
}
330
1
100
AcDbSymbolTableRecord
100
AcDbBlockTableRecord
  2
*MODEL_SPACE
  0
BLOCK_RECORD
  5
101
102
{ACAD_XDICTIONARY
360
439F
102
}
330
1
100
AcDbSymbolTableRecord
100
AcDbBlockTableRecord
  2
*PAPER_SPACE
  0
BLOCK_RECORD
  5
59
330
1
100
AcDbSymbolTableRecord
100
AcDbBlockTableRecord
  2
_OPEN30
  0
BLOCK_RECORD
  5
64
330
1
100
AcDbSymbolTableRecord
100
AcDbBlockTableRecord
  2
GENAXEH
  0
BLOCK_RECORD
  5
CC8
330
1
100
AcDbSymbolTableRecord
100
AcDbBlockTableRecord
  2
*D5
  0
BLOCK_RECORD
  5
206A
330
1
100
AcDbSymbolTableRecord
100
AcDbBlockTableRecord
  2
*D6
  0
BLOCK_RECORD
  5
2D61
330
1
100
AcDbSymbolTableRecord
100
AcDbBlockTableRecord
  2
*D7
  0
BLOCK_RECORD
  5
3C5C
330
1
100
AcDbSymbolTableRecord
100
AcDbBlockTableRecord
  2
*D8
  0
BLOCK_RECORD
  5
3D30
330
1
100
AcDbSymbolTableRecord
100
AcDbBlockTableRecord
  2
*D9
  0
ENDTAB
  0
ENDSEC
  0
SECTION
  2
BLOCKS
  0
BLOCK
  5
20
330
1F
100
AcDbEntity
  8
0
100
AcDbBlockBegin
  2
*MODEL_SPACE
 70
     0
 10
0.0
 20
0.0
 30
0.0
  3
*MODEL_SPACE
  1

  0
ENDBLK
  5
21
330
1F
100
AcDbEntity
  8
0
100
AcDbBlockEnd
  0
BLOCK
  5
103
330
101
100
AcDbEntity
 67
     1
  8
0
100
AcDbBlockBegin
  2
*PAPER_SPACE
 70
     0
 10
0.0
 20
0.0
 30
0.0
  3
*PAPER_SPACE
  1

  0
ENDBLK
  5
104
330
101
100
AcDbEntity
 67
     1
  8
0
100
AcDbBlockEnd
  0
BLOCK
  5
5D
330
59
100
AcDbEntity
  8
0
100
AcDbBlockBegin
  2
_OPEN30
 70
     0
 10
0.0
 20
0.0
 30
0.0
  3
_OPEN30
  1

  0
LINE
  5
5A
330
59
100
AcDbEntity
  8
0
 62
     0
100
AcDbLine
 10
-1.0
 20
0.26794919
 30
0.0
 11
0.0
 21
0.0
 31
0.0
  0
LINE
  5
5B
330
59
100
AcDbEntity
  8
0
 62
     0
100
AcDbLine
 10
0.0
 20
0.0
 30
0.0
 11
-1.0
 21
-0.26794919
 31
0.0
  0
LINE
  5
5C
330
59
100
AcDbEntity
  8
0
 62
     0
100
AcDbLine
 10
0.0
 20
0.0
 30
0.0
 11
-1.0
 21
0.0
 31
0.0
  0
ENDBLK
  5
5E
330
59
100
AcDbEntity
  8
0
100
AcDbBlockEnd
  0
BLOCK
  5
66
330
64
100
AcDbEntity
  8
0
100
AcDbBlockBegin
  2
GENAXEH
 70
     0
 10
0.0
 20
0.0
 30
0.0
  3
GENAXEH
  1

  0
LINE
  5
65
330
64
100
AcDbEntity
  8
0
100
AcDbLine
 10
-1.0
 20
0.0
 30
0.0
 11
1.0
 21
0.0
 31
0.0
  0
ENDBLK
  5
67
330
64
100
AcDbEntity
  8
0
100
AcDbBlockEnd
  0
BLOCK
  5
CD2
330
CC8
100
AcDbEntity
  8
0
100
AcDbBlockBegin
  2
*D5
 70
     1
 10
0.0
 20
0.0
 30
0.0
  3
*D5
  1

  0
LINE
  5
432B
330
CC8
100
AcDbEntity
  8
AM_5
 62
     3
100
AcDbLine
 10
-143.0
 20
-6.749999999999399
 30
0.0
 11
-143.0
 21
-32.50000099999953
 31
0.0
  0
LINE
  5
432C
330
CC8
100
AcDbEntity
  8
AM_5
 62
     3
100
AcDbLine
 10
-3.000000073929376
 20
-7.349999949774133
 30
0.0
 11
-3.000000073929377
 21
-32.50000099999953
 31
0.0
  0
LINE
  5
432D
330
CC8
100
AcDbEntity
  8
AM_5
 62
     3
100
AcDbLine
 10
-140.5
 20
-31.50000099999953
 30
0.0
 11
-5.500000073929378
 21
-31.50000099999953
 31
0.0
  0
INSERT
  5
432E
330
CC8
100
AcDbEntity
  8
AM_5
 62
     3
100
AcDbBlockReference
  2
_OPEN30
 10
-143.0
 20
-31.50000099999953
 30
0.0
 41
2.5
 42
2.5
 43
2.5
 50
180.0
  0
INSERT
  5
432F
330
CC8
100
AcDbEntity
  8
AM_5
 62
     3
100
AcDbBlockReference
  2
_OPEN30
 10
-3.000000073929377
 20
-31.50000099999953
 30
0.0
 41
2.5
 42
2.5
 43
2.5
  0
MTEXT
  5
4330
330
CC8
100
AcDbEntity
  8
AM_5
 62
     2
100
AcDbMText
 10
-73.00000003696471
 20
-28.10000099999953
 30
0.0
 40
3.799999999999999
 41
0.0
 71
     5
 72
     1
  1
140
1001
ACAD
1000
MTEXTBEGIN
1070
    73
1070
     1
1070
    44
1040
1.0
1070
    74
1070
     0
1000
MTEXTEND
  0
POINT
  5
4331
330
CC8
100
AcDbEntity
  8
DEFPOINTS
 62
     0
100
AcDbPoint
 10
-143.0
 20
-6.749999999999399
 30
0.0
  0
POINT
  5
4332
330
CC8
100
AcDbEntity
  8
DEFPOINTS
 62
     0
100
AcDbPoint
 10
-3.000000073929376
 20
-7.349999949774133
 30
0.0
  0
POINT
  5
4333
330
CC8
100
AcDbEntity
  8
DEFPOINTS
 62
     0
100
AcDbPoint
 10
-3.000000073929377
 20
-31.50000099999953
 30
0.0
  0
ENDBLK
  5
CD3
330
CC8
100
AcDbEntity
  8
0
100
AcDbBlockEnd
  0
BLOCK
  5
2074
330
206A
100
AcDbEntity
  8
0
100
AcDbBlockBegin
  2
*D6
 70
     1
 10
0.0
 20
0.0
 30
0.0
  3
*D6
  1

  0
LINE
  5
4322
330
206A
100
AcDbEntity
  8
AM_5
 62
     3
100
AcDbLine
 10
-77.9999999999996
 20
-7.499999999999662
 30
0.0
 11
-77.99999999999956
 21
-22.50000099999966
 31
0.0
  0
LINE
  5
4323
330
206A
100
AcDbEntity
  8
AM_5
 62
     3
100
AcDbLine
 10
-3.000000073929355
 20
-7.349999949774142
 30
0.0
 11
-3.000000073929312
 21
-22.50000099999944
 31
0.0
  0
LINE
  5
4324
330
206A
100
AcDbEntity
  8
AM_5
 62
     3
100
AcDbLine
 10
-75.49999999999958
 20
-21.50000099999965
 30
0.0
 11
-5.500000073929315
 21
-21.50000099999946
 31
0.0
  0
INSERT
  5
4325
330
206A
100
AcDbEntity
  8
AM_5
 62
     3
100
AcDbBlockReference
  2
_OPEN30
 10
-77.99999999999958
 20
-21.50000099999966
 30
0.0
 41
2.5
 42
2.5
 43
2.5
 50
180.0000000000001
  0
INSERT
  5
4326
330
206A
100
AcDbEntity
  8
AM_5
 62
     3
100
AcDbBlockReference
  2
_OPEN30
 10
-3.000000073929314
 20
-21.50000099999944
 30
0.0
 41
2.5
 42
2.5
 43
2.5
 50
0.0000000000001527
  0
MTEXT
  5
4327
330
206A
100
AcDbEntity
  8
AM_5
 62
     2
100
AcDbMText
 10
-40.50000003696445
 20
-18.10000099999955
 30
0.0
 40
3.799999999999999
 41
0.0
 71
     5
 72
     1
  1
75
1001
ACAD
1000
MTEXTBEGIN
1070
    73
1070
     1
1070
    44
1040
1.0
1070
    74
1070
     0
1000
MTEXTEND
  0
POINT
  5
4328
330
206A
100
AcDbEntity
  8
DEFPOINTS
 62
     0
100
AcDbPoint
 10
-77.99999999999963
 20
-7.499999999999435
 30
0.0
  0
POINT
  5
4329
330
206A
100
AcDbEntity
  8
DEFPOINTS
 62
     0
100
AcDbPoint
 10
-3.000000073929376
 20
-7.349999949774133
 30
0.0
  0
POINT
  5
432A
330
206A
100
AcDbEntity
  8
DEFPOINTS
 62
     0
100
AcDbPoint
 10
-3.000000073929377
 20
-21.50000099999944
 30
0.0
  0
ENDBLK
  5
2075
330
206A
100
AcDbEntity
  8
0
100
AcDbBlockEnd
  0
BLOCK
  5
2D6B
330
2D61
100
AcDbEntity
  8
0
100
AcDbBlockBegin
  2
*D7
 70
     1
 10
0.0
 20
0.0
 30
0.0
  3
*D7
  1

  0
LINE
  5
4348
330
2D61
100
AcDbEntity
  8
AM_5
 62
     3
100
AcDbLine
 10
-2.999999999999906
 20
7.350000000000003
 30
0.0
 11
17.31992683056562
 21
7.34992867389173
 31
0.0
  0
LINE
  5
4349
330
2D61
100
AcDbEntity
  8
AM_5
 62
     3
100
AcDbLine
 10
-3.000000073929375
 20
-7.349999949774135
 30
0.0
 11
17.31987523127608
 21
-7.350071275701545
 31
0.0
  0
LINE
  5
434A
330
2D61
100
AcDbEntity
  8
AM_5
 62
     3
100
AcDbLine
 10
16.31986645589283
 20
-9.850067765530383
 30
0.0
 11
16.31985768050343
 21
-12.35006776551498
 31
0.0
  0
LINE
  5
434B
330
2D61
100
AcDbEntity
  8
AM_5
 62
     3
100
AcDbLine
 10
16.3199356059612
 20
9.849932184032091
 30
0.0
 11
16.32000509033028
 21
29.64517027914824
 31
0.0
  0
LINE
  5
434C
330
2D61
100
AcDbEntity
  8
AM_5
 62
     3
100
AcDbLine
 10
16.31987523128224
 20
-7.350067765545782
 30
0.0
 11
16.31992683057179
 21
7.349932184047493
 31
0.0
  0
INSERT
  5
434D
330
2D61
100
AcDbEntity
  8
AM_5
 62
     3
100
AcDbBlockReference
  2
_OPEN30
 10
16.31987523128224
 20
-7.350067765545782
 30
0.0
 41
2.5
 42
2.5
 43
2.5
 50
89.99979888288931
  0
INSERT
  5
434E
330
2D61
100
AcDbEntity
  8
AM_5
 62
     3
100
AcDbBlockReference
  2
_OPEN30
 10
16.31992683057179
 20
7.349932184047493
 30
0.0
 41
2.5
 42
2.5
 43
2.5
 50
269.9997988828893
  0
MTEXT
  5
434F
330
2D61
100
AcDbEntity
  8
AM_5
 62
     2
100
AcDbMText
 10
12.91997473586139
 20
20.99756316611206
 30
0.0
 40
3.799999999999999
 41
0.0
 71
     5
 72
     1
  1
%%c14.7
 11
0.0000035101557632
 21
0.9999999999938395
 31
0.0
1001
ACAD
1000
MTEXTBEGIN
1070
    73
1070
     1
1070
    44
1040
1.0
1070
    74
1070
     0
1000
MTEXTEND
  0
POINT
  5
4350
330
2D61
100
AcDbEntity
  8
DEFPOINTS
 62
     0
100
AcDbPoint
 10
-2.999999999999885
 20
7.350000000000012
 30
0.0
  0
POINT
  5
4351
330
2D61
100
AcDbEntity
  8
DEFPOINTS
 62
     0
100
AcDbPoint
 10
-3.000000073929396
 20
-7.349999949774127
 30
0.0
  0
POINT
  5
4352
330
2D61
100
AcDbEntity
  8
DEFPOINTS
 62
     0
100
AcDbPoint
 10
16.31987523128223
 20
-7.35006776554583
 30
0.0
  0
ENDBLK
  5
2D6C
330
2D61
100
AcDbEntity
  8
0
100
AcDbBlockEnd
  0
BLOCK
  5
3C66
330
3C5C
100
AcDbEntity
  8
0
100
AcDbBlockBegin
  2
*D8
 70
     1
 10
0.0
 20
0.0
 30
0.0
  3
*D8
  1

  0
LINE
  5
4334
330
3C5C
100
AcDbEntity
  8
AM_5
 62
     3
100
AcDbLine
 10
-142.25
 20
7.500000000000142
 30
0.0
 11
-160.5000009999999
 21
7.500000000000089
 31
0.0
  0
LINE
  5
4335
330
3C5C
100
AcDbEntity
  8
AM_5
 62
     3
100
AcDbLine
 10
-142.2499999999999
 20
-7.499999999999856
 30
0.0
 11
-160.5000009999999
 21
-7.499999999999908
 31
0.0
  0
LINE
  5
4336
330
3C5C
100
AcDbEntity
  8
AM_5
 62
     3
100
AcDbLine
 10
-159.5000009999999
 20
5.000000000000093
 30
0.0
 11
-159.5000009999999
 21
-4.999999999999904
 31
0.0
  0
INSERT
  5
4337
330
3C5C
100
AcDbEntity
  8
AM_5
 62
     3
100
AcDbBlockReference
  2
_OPEN30
 10
-159.5000009999999
 20
7.500000000000093
 30
0.0
 41
2.5
 42
2.5
 43
2.5
 50
90.00000000000017
  0
INSERT
  5
4338
330
3C5C
100
AcDbEntity
  8
AM_5
 62
     3
100
AcDbBlockReference
  2
_OPEN30
 10
-159.5000009999999
 20
-7.499999999999904
 30
0.0
 41
2.5
 42
2.5
 43
2.5
 50
270.0000000000001
  0
MTEXT
  5
4339
330
3C5C
100
AcDbEntity
  8
AM_5
 62
     2
100
AcDbMText
 10
-162.9000009999999
 20
0.0000000000000905
 30
0.0
 40
3.799999999999999
 41
0.0
 71
     5
 72
     1
  1
%%c15
 11
-0.0000000000000028
 21
1.0
 31
0.0
1001
ACAD
1000
MTEXTBEGIN
1070
    73
1070
     1
1070
    44
1040
1.0
1070
    74
1070
     0
1000
MTEXTEND
  0
POINT
  5
433A
330
3C5C
100
AcDbEntity
  8
DEFPOINTS
 62
     0
100
AcDbPoint
 10
-142.2499999999999
 20
7.500000000000584
 30
0.0
  0
POINT
  5
433B
330
3C5C
100
AcDbEntity
  8
DEFPOINTS
 62
     0
100
AcDbPoint
 10
-142.25
 20
-7.499999999999413
 30
0.0
  0
POINT
  5
433C
330
3C5C
100
AcDbEntity
  8
DEFPOINTS
 62
     0
100
AcDbPoint
 10
-159.5000009999999
 20
-7.499999999999409
 30
0.0
  0
ENDBLK
  5
3C67
330
3C5C
100
AcDbEntity
  8
0
100
AcDbBlockEnd
  0
BLOCK
  5
3D3E
330
3D30
100
AcDbEntity
  8
0
100
AcDbBlockBegin
  2
*D9
 70
     1
 10
0.0
 20
0.0
 30
0.0
  3
*D9
  1

  0
LINE
  5
43A1
330
3D30
100
AcDbEntity
  8
AM_5
100
AcDbLine
 10
0.3420201408161188
 20
-0.9396926216993206
 30
0.0
 11
13.03386793079083
 21
-35.81025812556314
 31
0.0
  0
LINE
  5
43A2
330
3D30
100
AcDbEntity
  8
AM_5
100
AcDbLine
 10
0.3420222223659464
 20
0.9396918640745193
 30
0.0
 11
13.03394725549223
 21
35.81022925363371
 31
0.0
  0
ARC
  5
43A3
330
3D30
100
AcDbEntity
  8
AM_5
100
AcDbCircle
 10
-0.0000000000000215
 20
-0.0000000000000092
 30
0.0
 40
37.10848068680721
100
AcDbArc
 50
293.8607494244157
 51
66.13912365741406
  0
INSERT
  5
43A4
330
3D30
100
AcDbEntity
  8
AM_5
100
AcDbBlockReference
  2
_OPEN30
 10
12.69184778997469
 20
-34.87056550386383
 30
0.0
 41
2.5
 42
2.5
 43
2.5
 50
201.9303746357011
  0
INSERT
  5
43A5
330
3D30
100
AcDbEntity
  8
AM_5
100
AcDbBlockReference
  2
_OPEN30
 10
12.69192503312626
 20
34.87053738955919
 30
0.0
 41
2.5
 42
2.5
 43
2.5
 50
158.0694984461286
  0
MTEXT
  5
43A6
330
3D30
100
AcDbEntity
  8
AM_5
 62
     2
100
AcDbMText
 10
34.00848068678632
 20
-0.0000376667721386
 30
0.0
 40
3.2
 41
0.0
 71
     5
 72
     1
  1
140°
  7
ASAMI
 11
0.0000011075699751
 21
0.9999999999993868
 31
0.0
  0
POINT
  5
43A7
330
3D30
100
AcDbEntity
  8
DEFPOINTS
 62
     0
100
AcDbPoint
 10
34.07359380273985
 20
-14.6979435380951
 30
0.0
  0
POINT
  5
43A8
330
3D30
100
AcDbEntity
  8
DEFPOINTS
 62
     0
100
AcDbPoint
 10
-0.0000000000000184
 20
-0.0000000000000009
 30
0.0
  0
POINT
  5
43A9
330
3D30
100
AcDbEntity
  8
DEFPOINTS
 62
     0
100
AcDbPoint
 10
-0.0000000000000184
 20
-0.0000000000000175
 30
0.0
  0
POINT
  5
43AA
330
3D30
100
AcDbEntity
  8
DEFPOINTS
 62
     0
100
AcDbPoint
 10
-0.877918612263039
 20
2.412061583354362
 30
0.0
  0
POINT
  5
43AB
330
3D30
100
AcDbEntity
  8
DEFPOINTS
 62
     0
100
AcDbPoint
 10
-0.8779361609658423
 20
-2.412093173155441
 30
0.0
  0
ENDBLK
  5
3D3F
330
3D30
100
AcDbEntity
  8
0
100
AcDbBlockEnd
  0
ENDSEC
  0
SECTION
  2
ENTITIES
  0
LINE
  5
C1D
330
1F
100
AcDbEntity
  8
AM_0
 48
0.5
100
AcDbLine
 10
-0.0000000000000184
 20
-0.0000000000000175
 30
0.0
 11
-0.8779186122630388
 21
2.412061583354362
 31
0.0
  0
LINE
  5
C20
330
1F
100
AcDbEntity
  8
AM_0
 48
0.5
100
AcDbLine
 10
-0.0000000000000184
 20
-0.0000000000000009
 30
0.0
 11
-0.8779361609658423
 21
-2.41209317315544
 31
0.0
  0
DIMENSION
  5
CC6
330
1F
100
AcDbEntity
  8
AM_5
100
AcDbDimension
  2
*D5
 10
-3.000000073929377
 20
-31.50000099999953
 30
0.0
 11
-73.00000003696471
 21
-28.10000099999953
 31
0.0
 70
    32
  1
<>
  3
AM_JIS$0
100
AcDbAlignedDimension
 13
-143.0
 23
-6.749999999999399
 33
0.0
 14
-3.000000073929376
 24
-7.349999949774133
 34
0.0
 50
0.0000000000001132
100
AcDbRotatedDimension
1001
GENIUS_GENDTOL_13
1000

1000
h7
1000

1040
0.0
1001
ACAD
1000
DSTYLE
1002
{
1070
   271
1070
     0
1002
}
  0
TEXT
  5
19BD
330
1F
100
AcDbEntity
  8
AM_6
100
AcDbText
 10
-95.0238095382555
 20
-54.00000099999958
 30
0.0
 40
5.0
  1
MDW147MHK
 50
0.0000000000001527
 72
     4
 11
-73.00000001444598
 21
-51.50000099999953
 31
0.0
100
AcDbText
  0
DIMENSION
  5
2069
330
1F
100
AcDbEntity
  8
AM_5
100
AcDbDimension
  2
*D6
 10
-3.000000073929377
 20
-21.50000099999944
 30
0.0
 11
-40.5000000369645
 21
-18.10000099999944
 31
0.0
 70
    32
  1
<>
 51
359.9999999999998
  3
AM_JIS$0
100
AcDbAlignedDimension
 13
-77.99999999999963
 23
-7.499999999999435
 33
0.0
 14
-3.000000073929376
 24
-7.349999949774133
 34
0.0
 50
0.0000000000001527
100
AcDbRotatedDimension
1001
ACAD
1000
DSTYLE
1002
{
1070
   271
1070
     0
1070
   174
1070
     1
1002
}
1001
GENIUS_GENDTOL_13
1000

1000
h7
1000

1040
0.0
  0
LINE
  5
23EF
330
1F
100
AcDbEntity
  8
AM_7
100
AcDbLine
 10
-145.5
 20
0.0000000000006045
 30
0.0
 11
1.31990003107253
 21
-0.0000000000000055
 31
0.0
1001
GENIUS_GENODEF_13
1002
{
1000
HIER
1070
     0
1002
}
1002
{
1000
MANEDIT
1070
     0
1002
}
1002
{
1000
NOSEL
1070
     0
1002
}
1002
{
1000
BEHIND
1070
     0
1002
}
1002
{
1000
REACTOR
1002
}
1001
GENIUS_GENOBJ-N-CEN_13
1002
{
1000
OWNER
1000
GEN
1002
}
  0
LINE
  5
24A7
330
1F
100
AcDbEntity
  8
AM_0
 48
0.5
100
AcDbLine
 10
-2.190873760329902
 20
5.637994789760915
 30
0.0
 11
-2.999999999999885
 21
7.350000000000011
 31
0.0
  0
ELLIPSE
  5
24B7
330
1F
100
AcDbEntity
  8
AM_11
 48
0.5
100
AcDbEllipse
 10
-21.92810654255925
 20
27.40527701206777
 30
0.0
 11
-31.63261651992755
 21
0.0000000000002407
 31
0.0
210
0.0
220
0.0
230
1.0
 40
0.9578947368421056
 41
1.130070686340284
 42
2.011520147323574
  0
ELLIPSE
  5
24B8
330
1F
100
AcDbEntity
  8
AM_11
 48
0.5
100
AcDbEllipse
 10
-21.92810654256076
 20
-27.40525711837523
 30
0.0
 11
-31.6326165199275
 21
0.0000000000001424
 31
0.0
210
0.0
220
0.0
230
1.0
 40
0.9578947368421054
 41
4.271664206181664
 42
5.153113667164971
  0
ELLIPSE
  5
24B9
330
1F
100
AcDbEntity
  8
AM_11
 48
0.5
100
AcDbEllipse
 10
5.060529821077137
 20
27.40527701206706
 30
0.0
 11
-31.63261651992747
 21
0.0000000000024743
 31
0.0
210
0.0
220
0.0
230
1.0
 40
0.9578947368421141
 41
1.130070686340349
 42
1.291800737381041
  0
ELLIPSE
  5
24BE
330
1F
100
AcDbEntity
  8
AM_0
 48
0.5
100
AcDbEllipse
 10
6.918623594257152
 20
7.342926428848114
 30
0.0
 11
-4.440095187034224
 21
8.904787688231298
 31
0.0
210
0.0
220
0.0
230
1.0
 40
0.9264225005910461
 41
1.312765717361252
 42
1.664773036319176
  0
ELLIPSE
  5
24C7
330
1F
100
AcDbEntity
  8
AM_11
 48
0.5
100
AcDbEllipse
 10
-102.8940156334607
 20
27.40527701206984
 30
0.0
 11
-31.63261651992755
 21
0.0000000000007043
 31
0.0
210
0.0
220
0.0
230
1.0
 40
0.9578947368421056
 41
1.130070686340301
 42
2.011520147323591
  0
ELLIPSE
  5
24C8
330
1F
100
AcDbEntity
  8
AM_11
 48
0.5
100
AcDbEllipse
 10
-102.8940156334622
 20
-27.40525711837316
 30
0.0
 11
31.6326165199275
 21
0.0000000000005287
 31
0.0
210
0.0
220
0.0
230
1.0
 40
0.957894736842107
 41
1.13007155259185
 42
2.011521013575156
  0
ELLIPSE
  5
24D4
330
1F
100
AcDbEntity
  8
AM_11
 48
0.5
100
AcDbEllipse
 10
-75.90537926982439
 20
27.40527701206918
 30
0.0
 11
-31.63261651992759
 21
0.0000000000001846
 31
0.0
210
0.0
220
0.0
230
1.0
 40
0.9578947368421051
 41
1.130070686340283
 42
2.011520147323574
  0
ELLIPSE
  5
24D5
330
1F
100
AcDbEntity
  8
AM_11
 48
0.5
100
AcDbEllipse
 10
-75.90537926982591
 20
-27.40525711837382
 30
0.0
 11
-31.63261651992745
 21
0.0000000000005709
 31
0.0
210
0.0
220
0.0
230
1.0
 40
0.9578947368421081
 41
4.271664206181676
 42
5.153113667164986
  0
ELLIPSE
  5
24E6
330
1F
100
AcDbEntity
  8
AM_11
 48
0.5
100
AcDbEllipse
 10
-48.91674290619711
 20
-27.40525711837454
 30
0.0
 11
-31.63261651992749
 21
0.0000000000008588
 31
0.0
210
0.0
220
0.0
230
1.0
 40
0.9578947368421058
 41
4.271664206181685
 42
5.153113667164993
  0
ELLIPSE
  5
24E7
330
1F
100
AcDbEntity
  8
AM_11
 48
0.5
100
AcDbEllipse
 10
-48.9167429061956
 20
27.40527701206846
 30
0.0
 11
31.63261651992755
 21
0.0000000000000511
 31
0.0
210
0.0
220
0.0
230
1.0
 40
0.9578947368421051
 41
4.271663339930067
 42
5.153112800913361
  0
ELLIPSE
  5
2BF3
330
1F
100
AcDbEntity
  8
AM_11
 48
0.5
100
AcDbEllipse
 10
-129.8826519970859
 20
27.40527701206899
 30
0.0
 11
-31.63261651992759
 21
0.0000000000001846
 31
0.0
210
0.0
220
0.0
230
1.0
 40
0.9578947368421051
 41
1.143207485581167
 42
2.011520147323574
  0
ELLIPSE
  5
2BF5
330
1F
100
AcDbEntity
  8
AM_11
 48
0.5
100
AcDbEllipse
 10
-129.8826519970875
 20
-27.405257118374
 30
0.0
 11
-31.63261651992745
 21
0.0000000000005709
 31
0.0
210
0.0
220
0.0
230
1.0
 40
0.9578947368421081
 41
4.271664206181676
 42
5.139977821598391
  0
LINE
  5
2C0E
330
1F
100
AcDbEntity
  8
AM_0
 48
0.5
100
AcDbLine
 10
-78.0
 20
-7.499999999999436
 30
0.0
 11
-78.0
 21
7.500000000000561
 31
0.0
  0
DIMENSION
  5
2D60
330
1F
100
AcDbEntity
  8
AM_5
100
AcDbDimension
  2
*D7
 10
16.31987523128223
 20
-7.35006776554583
 30
0.0
 11
16.3199747358405
 21
20.99755123158241
 31
0.0
 70
   160
  1
%%c<>
 51
359.9999999999998
  3
AM_JIS$0
100
AcDbAlignedDimension
 13
-2.999999999999885
 23
7.350000000000011
 33
0.0
 14
-3.000000073929396
 24
-7.349999949774127
 34
0.0
 50
89.99979888288933
100
AcDbRotatedDimension
1001
ACAD
1000
DSTYLE
1002
{
1070
   271
1070
     1
1002
}
1001
GENIUS_GENDTOL_13
1000

1000
h7
1000

1040
0.0
  0
LINE
  5
2FB7
330
1F
100
AcDbEntity
  8
AM_0
100
AcDbLine
 10
-78.0
 20
7.500000000000539
 30
0.0
 11
-77.74023764284734
 21
7.350026133173112
 31
0.0
  0
LINE
  5
2FB9
330
1F
100
AcDbEntity
  8
AM_0
100
AcDbLine
 10
-77.99999999999997
 20
-7.499999999999638
 30
0.0
 11
-77.7401918420174
 21
-7.349999690050735
 31
0.0
  0
LINE
  5
324C
330
1F
100
AcDbEntity
  8
AM_0
100
AcDbLine
 10
-142.25
 20
-7.499999999999413
 30
0.0
 11
-77.99999999999998
 21
-7.499999999999435
 31
0.0
  0
LINE
  5
325C
330
1F
100
AcDbEntity
  8
AM_0
 48
0.5
100
AcDbLine
 10
-142.25
 20
-7.499999999999445
 30
0.0
 11
-142.2499999999999
 21
7.500000000000591
 31
0.0
  0
LINE
  5
325D
330
1F
100
AcDbEntity
  8
AM_0
 48
0.5
100
AcDbLine
 10
-143.0
 20
-6.749999999999399
 30
0.0
 11
-142.9999999999999
 21
6.750000000000579
 31
0.0
  0
LINE
  5
325E
330
1F
100
AcDbEntity
  8
AM_0
100
AcDbLine
 10
-78.0
 20
7.500000000000561
 30
0.0
 11
-142.2499999999999
 21
7.500000000000584
 31
0.0
  0
LINE
  5
3921
330
1F
100
AcDbEntity
  8
AM_0
 48
0.5
100
AcDbLine
 10
-142.2499999999999
 20
7.500000000000584
 30
0.0
 11
-142.9999999999999
 21
6.750000000000585
 31
0.0
1001
GENIUS_GENFIL_13
1070
     0
1040
0.75
1040
0.75
1040
20.0
1040
0.0
1002
{
1002
}
1001
GENIUS_GENODEF_13
1002
{
1000
HIER
1070
     0
1002
}
1002
{
1000
MANEDIT
1070
     0
1002
}
1002
{
1000
NOSEL
1070
     0
1002
}
1002
{
1000
BEHIND
1070
     0
1002
}
1002
{
1000
REACTOR
1002
}
1001
GENIUS_GENOBJ-N-CHA_13
1002
{
1000
OWNER
1000
GEN
1002
}
  0
LINE
  5
3924
330
1F
100
AcDbEntity
  8
AM_0
100
AcDbLine
 10
-143.0
 20
-6.749999999999412
 30
0.0
 11
-142.25
 21
-7.499999999999413
 31
0.0
1001
GENIUS_GENFIL_13
1070
     0
1040
0.75
1040
0.75
1040
20.0
1040
0.0
1002
{
1002
}
1001
GENIUS_GENODEF_13
1002
{
1000
HIER
1070
     0
1002
}
1002
{
1000
MANEDIT
1070
     0
1002
}
1002
{
1000
NOSEL
1070
     0
1002
}
1002
{
1000
BEHIND
1070
     0
1002
}
1002
{
1000
REACTOR
1002
}
1001
GENIUS_GENOBJ-N-CHA_13
1002
{
1000
OWNER
1000
GEN
1002
}
  0
ELLIPSE
  5
3976
330
1F
100
AcDbEntity
  8
AM_0
 48
0.5
100
AcDbEllipse
 10
6.918623594257852
 20
-7.3429264288476
 30
0.0
 11
-4.440095187033376
 21
-8.904787688231721
 31
0.0
210
0.0
220
0.0
230
-1.0
 40
0.9264225005910461
 41
1.312765717361252
 42
1.664773036319176
  0
LINE
  5
3977
330
1F
100
AcDbEntity
  8
AM_0
 48
0.5
100
AcDbLine
 10
-2.190873760329365
 20
-5.637994789761268
 30
0.0
 11
-3.000000073929396
 21
-7.349999949774127
 31
0.0
  0
DIMENSION
  5
3C5B
330
1F
100
AcDbEntity
  8
AM_5
100
AcDbDimension
  2
*D8
 10
-159.5000009999999
 20
-7.499999999999409
 30
0.0
 11
-162.9000009999999
 21
0.0000000000005644
 31
0.0
 70
    32
  1
%%c<>
 51
359.9999999999998
  3
AM_JIS$0
100
AcDbAlignedDimension
 13
-142.2499999999999
 23
7.500000000000584
 33
0.0
 14
-142.25
 24
-7.499999999999413
 34
0.0
 50
270.0
100
AcDbRotatedDimension
1001
ACAD
1000
DSTYLE
1002
{
1070
   271
1070
     0
1002
}
1001
GENIUS_GENDTOL_13
1000

1000
h7
1000

1040
0.0
  0
DIMENSION
  5
3D2F
330
1F
100
AcDbEntity
  8
AM_5
100
AcDbDimension
  2
*D9
 10
-0.8779361609658423
 20
-2.41209317315544
 30
0.0
 11
34.00848068678632
 21
-0.0000376667722392
 31
0.0
 70
    34
  1
<>
 51
359.9999999999998
  3
AM_JIS$2
100
AcDb2LineAngularDimension
 13
-0.0000000000000184
 23
-0.0000000000000175
 33
0.0
 14
-0.8779186122630388
 24
2.412061583354362
 34
0.0
 15
-0.0000000000000184
 25
-0.0000000000000009
 35
0.0
 16
34.07359380273985
 26
-14.6979435380951
 36
0.0
1001
GENIUS_GENDTOL_13
1000

1000
h7
1000

1040
0.0
1001
ACAD
1000
DSTYLE
1002
{
1070
   271
1070
     0
1002
}
  0
LINE
  5
42AA
330
1F
100
AcDbEntity
  8
AM_0
100
AcDbLine
 10
-77.74023764284733
 20
7.350026133173114
 30
0.0
 11
-77.74025937958626
 21
0.6236098743490151
 31
0.0
  0
LINE
  5
42AB
330
1F
100
AcDbEntity
  8
AM_0
100
AcDbLine
 10
-77.74027918362384
 20
-5.504733527435517
 30
0.0
 11
-77.74028514671754
 21
-7.350008048137204
 31
0.0
  0
LINE
  5
42AC
330
1F
100
AcDbEntity
  8
AM_0
100
AcDbLine
 10
-77.74025999038162
 20
0.4345997417162829
 30
0.0
 11
-77.74027365123486
 21
-3.792740235474779
 31
0.0
  0
ELLIPSE
  5
42AD
330
1F
100
AcDbEntity
  8
AM_0
 48
0.5
100
AcDbEllipse
 10
-75.92993771280609
 20
-4.443296953242303
 30
0.0
 11
1.74047744043512
 21
1.369757707622051
 31
0.0
210
0.0
220
0.0
230
1.0
 40
0.8295788808225173
 41
0.6443952822504846
 42
2.472641464512296
  0
LINE
  5
42AE
330
1F
100
AcDbEntity
  8
AM_0
 48
0.5
100
AcDbLine
 10
-77.74019184201738
 20
-7.349999690050735
 30
0.0
 11
-75.12017792748199
 21
-7.34999994974901
 31
0.0
  0
ELLIPSE
  5
42AF
330
1F
100
AcDbEntity
  8
AM_0
 48
0.5
100
AcDbEllipse
 10
-75.5410059348938
 20
-4.611747198700002
 30
0.0
 11
-1.394998302173556
 21
2.48032261718534
 31
0.0
210
0.0
220
0.0
230
0.9999999999999998
 40
0.8320693197125736
 41
1.136984329983238
 42
2.716950366145828
  0
SPLINE
  5
42B0
330
1F
100
AcDbEntity
  8
AM_0
 48
0.5
100
AcDbSpline
210
0.0
220
0.0
230
1.0
 70
     8
 71
     3
 72
    26
 73
    22
 74
     0
 42
0.0000000001
 43
0.0000000001
 40
0.0
 40
0.0
 40
0.0
 40
0.0
 40
0.8422864037471089
 40
1.685694647057321
 40
2.531315797913884
 40
3.380177287502886
 40
4.233214169721234
 40
5.09125020057522
 40
5.954967768899448
 40
6.824900391836836
 40
7.701419186604396
 40
8.584724417931369
 40
9.47485577056355
 40
10.37165251267315
 40
11.27486274211709
 40
12.18400675634887
 40
13.09851504074504
 40
14.01768673654235
 40
14.94071745659532
 40
15.8667176994736
 40
16.76607142455336
 40
16.76607142455336
 40
16.76607142455336
 40
16.76607142455336
 10
-51.98549025399405
 20
-7.350373840330466
 30
0.0
 10
-52.39878881850286
 20
-7.346000768585653
 30
0.0
 10
-53.22593641904528
 20
-7.337248800610573
 30
0.0
 10
-54.46635680418349
 20
-7.266698107474566
 30
0.0
 10
-55.70672424405308
 20
-7.154540950775578
 30
0.0
 10
-56.94701490377859
 20
-6.997348373577184
 30
0.0
 10
-58.18721647184073
 20
-6.797250883820262
 30
0.0
 10
-59.42730423861332
 20
-6.555137351665046
 30
0.0
 10
-60.6672773791212
 20
-6.272643590075433
 30
0.0
 10
-61.90712743677481
 20
-5.951485323884073
 30
0.0
 10
-63.1468514804486
 20
-5.593655286473105
 30
0.0
 10
-64.38645971311773
 20
-5.201380641758587
 30
0.0
 10
-65.62594699825052
 20
-4.777083559228112
 30
0.0
 10
-66.865327379587
 20
-4.323366782400454
 30
0.0
 10
-68.10461742849686
 20
-3.843073248321292
 30
0.0
 10
-69.34381982262057
 20
-3.339116541341637
 30
0.0
 10
-70.58294379956078
 20
-2.814627629124274
 30
0.0
 10
-71.8220121143711
 20
-2.272842495019671
 30
0.0
 10
-73.0610042900725
 20
-1.717023992050201
 30
0.0
 10
-74.28726932426965
 20
-1.156702411171548
 30
0.0
 10
-75.09971604631442
 20
-0.7802744427124685
 30
0.0
 10
-78.0
 20
0.5541061121751572
 30
0.0
  0
LINE
  5
42B1
330
1F
100
AcDbEntity
  8
AM_0
 48
0.5
100
AcDbLine
 10
-63.34876049265083
 20
4.474618293323054
 30
0.0
 11
-78.0
 21
0.5541061121751627
 31
0.0
  0
LINE
  5
42B2
330
1F
100
AcDbEntity
  8
AM_0
 48
0.5
100
AcDbLine
 10
-74.25344965495996
 20
7.350000000000979
 30
0.0
 11
-77.74023764284734
 21
7.350026133173114
 31
0.0
  0
LINE
  5
42B3
330
1F
100
AcDbEntity
  8
AM_0
 48
0.5
100
AcDbLine
 10
-8.095019503640022
 20
7.350000000000246
 30
0.0
 11
-2.999999999999885
 21
7.350000000000011
 31
0.0
  0
LINE
  5
42B4
330
1F
100
AcDbEntity
  8
AM_0
 48
0.5
100
AcDbLine
 10
-8.095019501994704
 20
-7.349999240012282
 30
0.0
 11
-3.000000000000114
 21
-7.350000081939675
 31
0.0
  0
LINE
  5
42B5
330
1F
100
AcDbEntity
  8
AM_0
 48
0.5
100
AcDbLine
 10
-0.0000000000000364
 20
0.0000000000000313
 30
0.0
 11
-4.782354253524291
 21
2.822177502540771
 31
0.0
  0
LINE
  5
42B6
330
1F
100
AcDbEntity
  8
AM_0
 48
0.5
100
AcDbLine
 10
-57.67983091174443
 20
7.350000759989869
 30
0.0
 11
-31.46134542701426
 21
7.350000000001258
 31
0.0
  0
LINE
  5
42B7
330
1F
100
AcDbEntity
  8
AM_0
 48
0.5
100
AcDbLine
 10
-56.50912392460487
 20
-7.349999240010467
 30
0.0
 11
-31.46135037969014
 21
-7.349999999999573
 31
0.0
  0
LINE
  5
42B8
330
1F
100
AcDbEntity
  8
AM_11
 48
0.5
100
AcDbLine
 10
-31.46135037969014
 20
-7.349999999999573
 30
0.0
 11
-8.095019501994704
 21
-7.349999240012282
 31
0.0
  0
LINE
  5
42B9
330
1F
100
AcDbEntity
  8
AM_11
 48
0.5
100
AcDbLine
 10
-31.46134542701426
 20
7.350000000001258
 30
0.0
 11
-8.095019503640022
 21
7.350000000000247
 31
0.0
  0
SPLINE
  5
42BA
330
1F
100
AcDbEntity
  8
AM_0
100
AcDbSpline
210
0.0
220
0.0
230
1.0
 70
     8
 71
     3
 72
    22
 73
    18
 74
     0
 42
0.0000000001
 43
0.0000000001
 40
17.17441611292
 40
17.17441611292
 40
17.17441611292
 40
17.17441611292
 40
17.38177636558528
 40
18.41823744757437
 40
19.46215659509824
 40
20.51397914882054
 40
21.57394542641293
 40
22.64209583141747
 40
23.71826625065247
 40
24.80210429862395
 40
25.8930771157021
 40
26.99048705697709
 40
28.09349309193389
 40
29.20112995599786
 40
30.31233024745139
 40
31.42594771747373
 40
32.5407895042663
 40
32.54078950426994
 40
32.54078950426994
 40
32.54078950426994
 10
-36.1957552497542
 20
-6.60035243673165
 30
0.0
 10
-36.27881556536765
 20
-6.583337907632659
 30
0.0
 10
-36.77671679558978
 20
-6.479700551156807
 30
0.0
 10
-37.68884379273413
 20
-6.271894162720466
 30
0.0
 10
-38.9286939487073
 20
-5.950737268322193
 30
0.0
 10
-40.16841776655217
 20
-5.592906296986748
 30
0.0
 10
-41.40802399864938
 20
-5.200634918362512
 30
0.0
 10
-42.6475110075653
 20
-4.776328335980969
 30
0.0
 10
-43.88689404994778
 20
-4.322627205774055
 30
0.0
 10
-45.12617886448861
 20
-3.842319828909358
 30
0.0
 10
-46.36537691751935
 20
-3.338368234662216
 30
0.0
 10
-47.6045019881366
 20
-2.813881485160862
 30
0.0
 10
-48.84356483119848
 20
-2.272084665288853
 30
0.0
 10
-50.08257791987562
 20
-1.716311000634701
 30
0.0
 10
-51.32155223694068
 20
-1.14997787013642
 30
0.0
 10
-52.5605061367208
 20
-0.5765798553167695
 30
0.0
 10
-53.38631327536525
 20
-0.1920139697685831
 30
0.0
 10
-53.79944369985388
 20
0.0003746003226714
 30
0.0
  0
SPLINE
  5
42BB
330
1F
100
AcDbEntity
  8
AM_0
100
AcDbSpline
210
0.0
220
0.0
230
1.0
 70
     8
 71
     3
 72
    17
 73
    13
 74
     0
 42
0.0000000001
 43
0.0000000001
 40
1.580019955310467
 40
1.580019955310467
 40
1.580019955310467
 40
1.580019955310467
 40
2.030549285115227
 40
3.082371838836284
 40
4.126290986361125
 40
5.162752068350215
 40
6.192395305374981
 40
7.216039564037012
 40
8.234688489606833
 40
9.249433870634691
 40
10.26152376260694
 40
11.27226744710342
 40
11.27226744710342
 40
11.27226744710342
 40
11.27226744710352
 10
-19.77727095030829
 20
-5.424515672450925
 30
0.0
 10
-19.95276973041282
 20
-5.480383685353676
 30
0.0
 10
-20.53899461691744
 20
-5.663498559882218
 30
0.0
 10
-21.5398258758688
 20
-5.95072079254414
 30
0.0
 10
-22.77950344753705
 20
-6.272371590489965
 30
0.0
 10
-24.01952230128012
 20
-6.554738284980747
 30
0.0
 10
-25.25959797225416
 20
-6.796872625193596
 30
0.0
 10
-26.49980874725008
 20
-6.99701331424443
 30
0.0
 10
-27.74010520484965
 20
-7.154018237470674
 30
0.0
 10
-28.98047889323513
 20
-7.266869950435347
 30
0.0
 10
-30.22089925281102
 20
-7.334842013556373
 30
0.0
 10
-31.0480468663624
 20
-7.349999282068386
 30
0.0
 10
-31.46135037969015
 20
-7.349999999999575
 30
0.0
  0
SPLINE
  5
42BC
330
1F
100
AcDbEntity
  8
AM_0
100
AcDbSpline
210
0.0
220
0.0
230
1.0
 70
     8
 71
     3
 72
    11
 73
     7
 74
     0
 42
0.0000000001
 43
0.0000000001
 40
11.27226913003534
 40
11.27226913003534
 40
11.27226913003534
 40
11.2722691300354
 40
12.28301561507924
 40
13.29510212255852
 40
14.30984805882082
 40
15.18258238371378
 40
15.18258238371378
 40
15.18258238371378
 40
15.18258238371378
 10
-31.46135037969021
 20
-7.349999999999575
 30
0.0
 10
-31.87307241978261
 20
-7.314026204115203
 30
0.0
 10
-32.69574981320593
 20
-7.22693704982127
 30
0.0
 10
-33.9255177506504
 20
-7.051256684159198
 30
0.0
 10
-35.09258920747056
 20
-6.841425749976684
 30
0.0
 10
-35.8473825200217
 20
-6.680122465901392
 30
0.0
 10
-36.1952127711652
 20
-6.60044309892545
 30
0.0
  0
SPLINE
  5
42BD
330
1F
100
AcDbEntity
  8
AM_0
 48
0.5
100
AcDbSpline
210
0.0
220
0.0
230
1.0
 70
     8
 71
     3
 72
    25
 73
    21
 74
     0
 42
0.0000000001
 43
0.0000000001
 40
6.846175049578289
 40
6.846175049578289
 40
6.846175049578289
 40
6.846175049578289
 40
7.604337694224321
 40
8.711974558287883
 40
9.814980593243754
 40
10.91239053451967
 40
12.0033633515982
 40
13.08720139956839
 40
14.16337181880432
 40
15.23152222380919
 40
16.29148850140128
 40
17.34331105512262
 40
18.38723020264746
 40
19.42369128463655
 40
20.45333379090873
 40
21.47697865721768
 40
22.49561244472435
 40
23.5103574802404
 40
24.52244778960836
 40
25.53320666051913
 40
25.53320666051913
 40
25.53320666051913
 40
25.53320666051913
 10
-9.541661878681509
 20
1.33039887934144
 30
0.0
 10
-9.823442929386175
 20
1.459451807414577
 30
0.0
 10
-10.51748471073923
 20
1.775753065885139
 30
0.0
 10
-11.6248186426344
 20
2.272459904679373
 30
0.0
 10
-12.86388141798032
 20
2.814256877648023
 30
0.0
 10
-14.10300650659795
 20
3.338743586382249
 30
0.0
 10
-15.34220455488111
 20
3.842695191644038
 30
0.0
 10
-16.58148937055419
 20
4.323002564906219
 30
0.0
 10
-17.82087241310903
 20
4.776703698574215
 30
0.0
 10
-19.06035942023642
 20
5.201010270788204
 30
0.0
 10
-20.29996565923649
 20
5.593281686241287
 30
0.0
 10
-21.53968945153446
 20
5.951112521875709
 30
0.0
 10
-22.77953970180618
 20
6.272269917023676
 30
0.0
 10
-24.0195120345631
 20
6.554766278638873
 30
0.0
 10
-25.25960160584663
 20
6.796870106141271
 30
0.0
 10
-26.49980151514114
 20
6.9969766230654
 30
0.0
 10
-27.740092465434
 20
7.154169995380732
 30
0.0
 10
-28.98046078746021
 20
7.266315147086698
 30
0.0
 10
-30.22088634630424
 20
7.336885552312338
 30
0.0
 10
-31.04804054319208
 20
7.345630942834033
 30
0.0
 10
-31.46134542701426
 20
7.350000000001257
 30
0.0
  0
SPLINE
  5
42BE
330
1F
100
AcDbEntity
  8
AM_0
 48
0.5
100
AcDbSpline
210
0.0
220
0.0
230
1.0
 70
     8
 71
     3
 72
    17
 73
    13
 74
     0
 42
0.0000000001
 43
0.0000000001
 40
0.0
 40
0.0
 40
0.0
 40
0.0
 40
1.010743614677189
 40
2.022833924044153
 40
3.037578959561199
 40
4.056212747067873
 40
5.079857613375832
 40
6.109500119648989
 40
7.14596120163808
 40
8.18989512056258
 40
9.241717674284874
 40
9.693948937866434
 40
9.693948937866434
 40
9.693948937866434
 40
9.693948937866434
 10
-8.095019503640022
 20
7.350000000000246
 30
0.0
 10
-8.508318143314509
 20
7.345630079513176
 30
0.0
 10
-9.335466093551046
 20
7.336884416143957
 30
0.0
 10
-10.57588543443974
 20
7.266314420352081
 30
0.0
 10
-11.8162537079842
 20
7.154169123685435
 30
0.0
 10
-13.05654484117793
 20
6.99697627909038
 30
0.0
 10
-14.29674406251288
 20
6.796867782353674
 30
0.0
 10
-15.53683622418155
 20
6.55477140808208
 30
0.0
 10
-16.77680468206294
 20
6.272245610700887
 30
0.0
 10
-18.01669755191057
 20
5.951192426639788
 30
0.0
 10
-19.01757140824205
 20
5.661972038695595
 30
0.0
 10
-19.60534321899476
 20
5.481167704518814
 30
0.0
 10
-19.78176078223524
 20
5.425824708184646
 30
0.0
  0
SPLINE
  5
42BF
330
1F
100
AcDbEntity
  8
AM_0
 48
0.5
100
AcDbSpline
210
0.0
220
0.0
230
1.0
 70
     8
 71
     3
 72
    10
 73
     6
 74
     0
 42
0.0000000001
 43
0.0000000001
 40
0.0
 40
0.0
 40
0.0
 40
0.0
 40
2.69986029516136
 40
4.147722969032201
 40
6.285750005020438
 40
6.285750005020438
 40
6.285750005020438
 40
6.285750005020438
 10
-9.541463562770665
 20
1.330311581520841
 30
0.0
 10
-8.65863133068318
 20
0.6474457907316748
 30
0.0
 10
-7.302359847527676
 20
-0.4016226111773612
 30
0.0
 10
-4.094959981092287
 20
0.1062497803146088
 30
0.0
 10
-4.699006668919007
 20
1.816831196380022
 30
0.0
 10
-4.782354253524291
 20
2.822177502540771
 30
0.0
  0
ELLIPSE
  5
42C0
330
1F
100
AcDbEntity
  8
AM_0
 48
0.5
100
AcDbEllipse
 10
-18.23013210725908
 20
32.7463375494106
 30
0.0
 11
0.0000000000207868
 21
37.86220000305231
 31
0.0
210
0.0
220
0.0
230
1.0
 40
0.9591836734694251
 41
3.579847691617626
 42
3.667473607414706
  0
ELLIPSE
  5
42C1
330
1F
100
AcDbEntity
  8
AM_0
 48
0.5
100
AcDbEllipse
 10
-9.529289541212298
 20
7.49838957884069
 30
0.0
 11
0.0000000000020612
 21
11.41931765310363
 31
0.0
210
0.0
220
0.0
230
1.0
 40
0.9591836734693986
 41
3.517054509082846
 42
3.681821570856346
  0
ELLIPSE
  5
42C2
330
1F
100
AcDbEntity
  8
AM_0
 48
0.5
100
AcDbEllipse
 10
-3.35799831818946
 20
-1.912908189800022
 30
0.0
 11
-0.2112695104225331
 21
1.206276926347456
 31
0.0
210
0.0
220
0.0
230
0.9999999999999998
 40
0.4998263684214336
 41
1.804261813374077
 42
4.939603703086053
  0
ELLIPSE
  5
42C3
330
1F
100
AcDbEntity
  8
AM_0
 48
0.5
100
AcDbEllipse
 10
-3.358104075239861
 20
-1.915515044303741
 30
0.0
 11
-1.062549164722704
 21
0.6120884677342387
 31
0.0
210
0.0
220
0.0
230
1.0
 40
0.499663375255868
 41
4.483061046610535
 42
7.626501387940047
  0
ELLIPSE
  5
42C4
330
1F
100
AcDbEntity
  8
AM_0
 48
0.5
100
AcDbEllipse
 10
3.253967134158185
 20
8.824127957252814
 30
0.0
 11
-14.83345192343304
 21
0.0000000000548013
 31
0.0
210
0.0
220
0.0
230
1.0
 40
0.9986562150056011
 41
0.5303675532377459
 42
0.938488483432636
  0
ELLIPSE
  5
42C5
330
1F
100
AcDbEntity
  8
AM_0
 48
0.5
100
AcDbEllipse
 10
6.202494303903209
 20
-1.962925731685921
 30
0.0
 11
-11.51574015331813
 21
5.1817880895309
 31
0.0
210
0.0
220
0.0
230
1.0
 40
0.7890709746276573
 41
0.6296285706181535
 42
1.059268406293535
  0
SPLINE
  5
42C6
330
1F
100
AcDbEntity
  8
AM_0
100
AcDbSpline
210
0.0
220
0.0
230
1.0
 70
     8
 71
     3
 72
    55
 73
    51
 74
     0
 42
0.0000000001
 43
0.0000000001
 40
0.0
 40
0.0
 40
0.0
 40
0.0
 40
1.010743684496582
 40
2.022833576467832
 40
3.037578957496688
 40
4.056212745003489
 40
5.079857003664532
 40
6.109500240690281
 40
7.145961322679372
 40
8.189895241603872
 40
9.241717795325891
 40
10.30168407291828
 40
11.36983447792315
 40
12.44600489715814
 40
13.52984294512926
 40
14.62081576220742
 40
15.7182257034828
 40
16.82123173843959
 40
17.92886860250316
 40
19.0400688939571
 40
20.15368796660465
 40
21.26852814259644
 40
22.38336992938901
 40
23.49698739941135
 40
24.6081876908653
 40
25.71582455492886
 40
26.81883757994213
 40
27.91624752121713
 40
29.00722033829659
 40
30.09105838626677
 40
31.16722880550176
 40
32.23537921050758
 40
33.29534548809967
 40
34.347168041821
 40
35.39108718934584
 40
36.42754827133493
 40
37.45720575381954
 40
38.48085062012849
 40
39.49948440763516
 40
40.51422944315121
 40
41.52631975251916
 40
42.53706336719636
 40
43.54780698187354
 40
44.55989729124051
 40
45.57464232675757
 40
46.59327611426424
 40
47.6169209805722
 40
48.64656348684535
 40
49.68302456883444
 40
50.58557219878025
 40
50.58557219878025
 40
50.58557219878025
 40
50.58557219878025
 10
-8.095019501994704
 20
-7.349999240012283
 30
0.0
 10
-8.508318066453787
 20
-7.345626168076906
 30
0.0
 10
-9.335465666896338
 20
-7.336874199720478
 30
0.0
 10
-10.57588605278222
 20
-7.266323509450095
 30
0.0
 10
-11.81625348979878
 20
-7.154166341816663
 30
0.0
 10
-13.05654416024855
 20
-6.996973805720164
 30
0.0
 10
-14.29674568798307
 20
-6.796876161403494
 30
0.0
 10
-15.53683360659909
 20
-6.554763211203189
 30
0.0
 10
-16.77681206413572
 20
-6.272265914248174
 30
0.0
 10
-18.01667006449001
 20
-5.951114148820414
 30
0.0
 10
-19.25639916196929
 20
-5.593279767277298
 30
0.0
 10
-20.49600553593778
 20
-5.20100885904196
 30
0.0
 10
-21.73549250630853
 20
-4.77670214896512
 30
0.0
 10
-22.97487555947842
 20
-4.323001054098273
 30
0.0
 10
-24.21416036980476
 20
-3.84269366487769
 30
0.0
 10
-25.45335842885069
 20
-3.338742084476026
 30
0.0
 10
-26.69248347949042
 20
-2.81425529169608
 30
0.0
 10
-27.93154639694701
 20
-2.272458632160507
 30
0.0
 10
-29.17055920646718
 20
-1.71668436608956
 30
0.0
 10
-30.40953516601456
 20
-1.150353218061619
 30
0.0
 10
-31.64848514258762
 20
-0.5769467592330541
 30
0.0
 10
-32.88742663207926
 20
-0.0000007396782009
 30
0.0
 10
-34.12636255976025
 20
0.5769556652645618
 30
0.0
 10
-35.3653166890236
 20
1.150353194637867
 30
0.0
 10
-36.60429111903851
 20
1.716686056917952
 30
0.0
 10
-37.84330613770483
 20
2.272462440241135
 30
0.0
 10
-39.08237419538876
 20
2.814254475988874
 30
0.0
 10
-40.32150120169518
 20
3.338743928646623
 30
0.0
 10
-41.56069943964013
 20
3.842695100395512
 30
0.0
 10
-42.79998420487283
 20
4.323002590622929
 30
0.0
 10
-44.0393672612163
 20
4.776703686153458
 30
0.0
 10
-45.27885426315775
 20
5.201010294772157
 30
0.0
 10
-46.51846050918532
 20
5.593281603552182
 30
0.0
 10
-47.75818427876437
 20
5.951112825422295
 30
0.0
 10
-48.99803461202896
 20
6.272268797136916
 30
0.0
 10
-50.23801260959796
 20
6.55477177475718
 30
0.0
 10
-51.47810938285732
 20
6.79685707229769
 30
0.0
 10
-52.7183150078672
 20
6.99701665106528
 30
0.0
 10
-53.95860604599461
 20
7.15402285569949
 30
0.0
 10
-55.19897434485617
 20
7.266861112954983
 30
0.0
 10
-56.4393936790134
 20
7.334854504053721
 30
0.0
 10
-57.67984027063323
 20
7.357568846183044
 30
0.0
 10
-58.9202868604279
 20
7.334854504018208
 30
0.0
 10
-60.16070620007116
 20
7.266861113098052
 30
0.0
 10
-61.40107447873461
 20
7.154022855161337
 30
0.0
 10
-62.64136559258966
 20
6.997016653088965
 30
0.0
 10
-63.88156488667195
 20
6.796858040500181
 30
0.0
 10
-65.12165677442208
 20
6.554774249949096
 30
0.0
 10
-66.30525566340748
 20
6.285092643784279
 30
0.0
 10
-67.07318810178854
 20
6.08787193571409
 30
0.0
 10
-67.42946399485768
 20
5.991756663665954
 30
0.0
  0
SPLINE
  5
42C7
330
1F
100
AcDbEntity
  8
AM_0
100
AcDbSpline
210
0.0
220
0.0
230
1.0
 70
     8
 71
     3
 72
    46
 73
    42
 74
     0
 42
0.0000000001
 43
0.0000000001
 40
0.0
 40
0.0
 40
0.0
 40
0.0
 40
1.685415058684571
 40
2.531036209541119
 40
3.379897699130121
 40
4.232934581347655
 40
5.090970612202441
 40
5.954688180526682
 40
6.824620803463246
 40
7.701151815239689
 40
8.584457046566678
 40
9.474582384070741
 40
10.37139106676737
 40
11.27458944007583
 40
12.18373345430765
 40
13.09824173870457
 40
14.01741343450111
 40
14.9404441545541
 40
15.86644439743314
 40
16.79446029130534
 40
17.7234937712985
 40
18.65252725129241
 40
19.58054314516461
 40
20.50654338804289
 40
21.42957410809586
 40
22.34874580389317
 40
23.26325408828901
 40
24.17239810252111
 40
25.07560240389441
 40
25.97241108659103
 40
26.8625364240951
 40
27.74584165542183
 40
28.62236045019041
 40
29.49229307312697
 40
30.35601064145121
 40
31.21404606334468
 40
32.06708345193547
 40
32.91595755657689
 40
33.76157841950693
 40
34.60498701064689
 40
35.44727335621125
 40
35.44727335621125
 40
35.44727335621125
 40
35.44727335621125
 10
-4.622685279515209
 20
-7.349999240012446
 30
0.0
 10
-5.449873293071322
 20
-7.333255371850678
 30
0.0
 10
-6.692085295165892
 20
-7.30811062404104
 30
0.0
 10
-8.34390876502638
 20
-7.153299031113292
 30
0.0
 10
-9.584212761112542
 20
-6.997207763732864
 30
0.0
 10
-10.82441074073302
 20
-6.796813090997429
 30
0.0
 10
-12.06449943678167
 20
-6.55477973345509
 30
0.0
 10
-13.30447247867966
 20
-6.272264816748122
 30
0.0
 10
-14.54432778965848
 20
-5.951108746219449
 30
0.0
 10
-15.78405985192403
 20
-5.593283467683415
 30
0.0
 10
-17.0236711434034
 20
-5.201008346214683
 30
0.0
 10
-18.26315832991913
 20
-4.776702287951496
 30
0.0
 10
-19.50254132449599
 20
-4.323001016410651
 30
0.0
 10
-20.74182615078317
 20
-3.842693675235782
 30
0.0
 10
-21.98102420516033
 20
-3.338742081082222
 30
0.0
 10
-23.22014925837825
 20
-2.814255294844405
 30
0.0
 10
-24.45921217019154
 20
-2.272458622925023
 30
0.0
 10
-25.69822499980864
 20
-1.71668440005834
 30
0.0
 10
-26.93720088429759
 20
-1.150353090924937
 30
0.0
 10
-28.17615114178398
 20
-0.5769472349799752
 30
0.0
 10
-29.41509098443581
 20
0.0000007598719035
 30
0.0
 10
-30.65403082681544
 20
0.576948755424891
 30
0.0
 10
-31.89298108511823
 20
1.150354609267553
 30
0.0
 10
-33.13195696662312
 20
1.716685926083925
 30
0.0
 10
-34.3709698073053
 20
2.272460120457272
 30
0.0
 10
-35.61003267809027
 20
2.814256898027063
 30
0.0
 10
-36.84915788325008
 20
3.338743293004254
 30
0.0
 10
-38.08835806956006
 20
3.84269743000377
 30
0.0
 10
-39.32764771111015
 20
4.323000407342957
 30
0.0
 10
-40.56703291655637
 20
4.776704005308553
 30
0.0
 10
-41.8065200742133
 20
5.201010189825377
 30
0.0
 10
-43.04612627351033
 20
5.593281706620972
 30
0.0
 10
-44.28585007569607
 20
5.951112520410942
 30
0.0
 10
-45.52570032566868
 20
6.27226990289731
 30
0.0
 10
-46.76567264993543
 20
6.554766335995251
 30
0.0
 10
-48.0057622551412
 20
6.796869892748869
 30
0.0
 10
-49.24596814980085
 20
6.996978399322038
 30
0.0
 10
-50.48626575491496
 20
7.154168520146336
 30
0.0
 10
-51.72664009663829
 20
7.266315394332616
 30
0.0
 10
-52.96705946302761
 20
7.336885122776823
 30
0.0
 10
-53.79420740987091
 20
7.345630821725032
 30
0.0
 10
-54.20750604784975
 20
7.350000759989719
 30
0.0
  0
SPLINE
  5
42C8
330
1F
100
AcDbEntity
  8
AM_0
100
AcDbSpline
210
0.0
220
0.0
230
1.0
 70
     8
 71
     3
 72
    23
 73
    19
 74
     0
 42
0.0000000001
 43
0.0000000001
 40
16.03460024169435
 40
16.03460024169435
 40
16.03460024169435
 40
16.03460024169435
 40
16.35212704903564
 40
17.38177054169784
 40
18.41822485651776
 40
19.46214173629503
 40
20.51396345435107
 40
21.57393551351153
 40
22.64208202342361
 40
23.7182574881101
 40
24.80209208578934
 40
25.89306333925047
 40
26.99048218457928
 40
28.09348763352352
 40
29.20111863782268
 40
30.31232390128032
 40
31.42594612798585
 40
32.5407912310448
 40
32.5407912310486
 40
32.5407912310486
 40
32.5407912310486
 10
-74.25344965495996
 20
7.350000000000979
 30
0.0
 10
-72.54864237137906
 20
7.239830876176752
 30
0.0
 10
-71.83720073776753
 20
7.130016991331655
 30
0.0
 10
-70.97226921849501
 20
7.005428411721631
 30
0.0
 10
-69.74012737328163
 20
6.690619927213542
 30
0.0
 10
-68.50912999937
 20
6.337142472372842
 30
0.0
 10
-67.27920435614375
 20
5.947041794415843
 30
0.0
 10
-66.05030679136213
 20
5.522492713355376
 30
0.0
 10
-64.82236627769108
 20
5.065922130776693
 30
0.0
 10
-63.59529730602045
 20
4.579987172946176
 30
0.0
 10
-62.36903014988417
 20
4.067439661198214
 30
0.0
 10
-61.14346649499774
 20
3.531261990077414
 30
0.0
 10
-59.91850702313191
 20
2.974570655863008
 30
0.0
 10
-58.69407011873091
 20
2.400566400346767
 30
0.0
 10
-57.47005333464616
 20
1.812586979667834
 30
0.0
 10
-56.24634330100035
 20
1.214065762267701
 30
0.0
 10
-55.02284037325313
 20
0.6084710165273711
 30
0.0
 10
-54.2073908430614
 20
0.20245285308693
 30
0.0
 10
-53.79944369984842
 20
-0.0006703605581703
 30
0.0
  0
LINE
  5
42C9
330
1F
100
AcDbEntity
  8
AM_11
 48
0.5
100
AcDbLine
 10
-74.25344965495996
 20
7.350000000000979
 30
0.0
 11
-57.67981078646534
 21
7.350000000000776
 31
0.0
  0
LINE
  5
42CA
330
1F
100
AcDbEntity
  8
AM_11
 48
0.5
100
AcDbLine
 10
-75.12017792748199
 20
-7.34999994974901
 30
0.0
 11
-56.28414233553673
 21
-7.349999240010474
 31
0.0
  0
SPLINE
  5
42CB
330
1F
100
AcDbEntity
  8
AM_0
100
AcDbSpline
210
0.0
220
0.0
230
1.0
 70
     8
 71
     3
 72
    13
 73
     9
 74
     0
 42
0.0000000001
 43
0.0000000001
 40
16.03460056234195
 40
16.03460056234195
 40
16.03460056234195
 40
16.03460056234195
 40
16.35212717791071
 40
17.38177067057215
 40
18.41822498539278
 40
19.46214186516937
 40
20.5139635832251
 40
21.34083983469381
 40
21.34083983469381
 40
21.34083983469381
 40
21.34083983469381
 10
-75.12017848114182
 20
-7.349999886224376
 30
0.0
 10
-74.8582874063745
 20
-7.326230601738944
 30
0.0
 10
-74.31814892702359
 20
-7.218182958692206
 30
0.0
 10
-73.36669048472178
 20
-7.006471811939348
 30
0.0
 10
-72.13454848444887
 20
-6.691664200319875
 30
0.0
 10
-70.90355115253051
 20
-6.338186509086262
 30
0.0
 10
-69.76447366020066
 20
-5.976900583085118
 30
0.0
 10
-69.03776227914014
 20
-5.728129511648429
 30
0.0
 10
-67.50285336526378
 20
-5.311939314700391
 30
0.0
  0
SPLINE
  5
42CC
330
1F
100
AcDbEntity
  8
AM_0
 48
0.5
100
AcDbSpline
210
0.0
220
0.0
230
1.0
 70
     8
 71
     3
 72
    22
 73
    18
 74
     0
 42
0.0000000001
 43
0.0000000001
 40
0.0
 40
0.0
 40
0.0
 40
0.0
 40
1.010743684496582
 40
2.022833993863546
 40
3.037578683882831
 40
4.056212471389632
 40
5.079857945358201
 40
6.109499720892564
 40
7.145961650132166
 40
8.189873411961459
 40
9.241710626092514
 40
10.30166235592959
 40
11.36982472628033
 40
12.44598212828784
 40
13.52983440361964
 40
14.62080578343036
 40
14.90544694398022
 40
14.90544694398022
 40
14.90544694398022
 40
14.90544694398022
 10
-55.4576174493237
 20
-7.349999999999248
 30
0.0
 10
-55.8711231199069
 20
-7.346002074859048
 30
0.0
 10
-56.69827104907863
 20
-7.337252719365571
 30
0.0
 10
-57.93869013523691
 20
-7.266682376388357
 30
0.0
 10
-59.17905891446221
 20
-7.154544090813414
 30
0.0
 10
-60.41935024441795
 20
-6.997351409808126
 30
0.0
 10
-61.65954839425612
 20
-6.797235097251807
 30
0.0
 10
-62.89964042585844
 20
-6.555142498712744
 30
0.0
 10
-64.13960816747534
 20
-6.272638471590231
 30
0.0
 10
-65.37946014555767
 20
-5.951475555685581
 30
0.0
 10
-66.61918519341352
 20
-5.593659038554559
 30
0.0
 10
-67.8587897897243
 20
-5.201366631826101
 30
0.0
 10
-69.09828192538495
 20
-4.7770946714425
 30
0.0
 10
-70.33766066939145
 20
-4.323365436247446
 30
0.0
 10
-71.57694924004435
 20
-3.843069386896553
 30
0.0
 10
-72.50836120786212
 20
-3.464303985872845
 30
0.0
 10
-73.02737645922771
 20
-3.247813857733992
 30
0.0
 10
-75.22109591241407
 20
-2.480875604489557
 30
0.0
  0
VIEWPORT
  5
110
330
101
100
AcDbEntity
 67
     1
  8
0
100
AcDbViewport
 10
420.5
 20
297.0
 30
0.0
 40
948.9782706766916
 41
628.452
 68
     1
 69
     1
1001
ACAD
1000
MVIEW
1002
{
1070
    16
1010
0.0
1020
0.0
1030
0.0
1010
0.0
1020
0.0
1030
1.0
1040
0.0
1040
628.452
1040
420.5
1040
297.0
1040
50.0
1040
0.0
1040
0.0
1070
     0
1070
   100
1070
     1
1070
     1
1070
     0
1070
     0
1070
     0
1070
     0
1040
0.0
1040
0.0
1040
0.0
1040
10.0
1040
10.0
1040
10.0
1040
10.0
1070
     0
1002
{
1002
}
1002
}
  0
ENDSEC
  0
SECTION
  2
OBJECTS
  0
DICTIONARY
  5
C
330
0
100
AcDbDictionary
  3
ACAD_GROUP
350
D
  3
ACAD_LAYOUT
350
1A
  3
ACAD_MLINESTYLE
350
17
  3
ACAD_PLOTSETTINGS
350
19
  3
ACAD_PLOTSTYLENAME
350
E
  3
ACDBVARIABLEDICTIONARY
350
34
  3
ACMDICTIONARY
350
43
  3
AMG
350
2B
  3
AMGSNAPSETTINGS
350
6E
  3
DWGPROPS
350
436B
  3
ACDBHEADERROUNDTRIPXREC
350
4377
  0
DICTIONARY
  5
74
330
1F
100
AcDbDictionary
280
     1
  3
ACAD_INDEX
360
436D
  3
ACAD_LAYOUTSELFREF
360
439A
  0
DICTIONARY
  5
439F
330
101
100
AcDbDictionary
280
     1
  3
ACAD_LAYOUTSELFREF
360
43A0
  0
DICTIONARY
  5
D
102
{ACAD_REACTORS
330
C
102
}
330
C
100
AcDbDictionary
  0
DICTIONARY
  5
1A
102
{ACAD_REACTORS
330
C
102
}
330
C
100
AcDbDictionary
  0
DICTIONARY
  5
17
102
{ACAD_REACTORS
330
C
102
}
330
C
100
AcDbDictionary
  3
STANDARD
350
18
  0
DICTIONARY
  5
19
102
{ACAD_REACTORS
330
C
102
}
330
C
100
AcDbDictionary
  0
ACDBDICTIONARYWDFLT
  5
E
102
{ACAD_REACTORS
330
C
102
}
330
C
100
AcDbDictionary
281
     1
  3
Normal
350
F
100
AcDbDictionaryWithDefault
340
F
  0
DICTIONARY
  5
34
102
{ACAD_REACTORS
330
C
102
}
330
C
100
AcDbDictionary
  3
INDEXCTL
350
35
  3
SORTENTS
350
B5E
  0
DICTIONARY
  5
43
102
{ACAD_REACTORS
330
C
102
}
330
C
100
AcDbDictionary
  3
ACMSTDDICTIONARY
350
260
  0
DICTIONARY
  5
2B
102
{ACAD_REACTORS
330
C
102
}
330
C
100
AcDbDictionary
  3
ACMGSETTINGS
350
2C
  0
DICTIONARY
  5
6E
102
{ACAD_REACTORS
330
C
102
}
330
C
100
AcDbDictionary
  0
XRECORD
  5
436B
102
{ACAD_REACTORS
330
C
102
}
330
C
100
AcDbXrecord
  1
DWGPROPS COOKIE
  2

  3

  4

  6

  7

  8

  9

300
AmdtFileType=82
301
=
302
=
303
=
304
=
305
=
306
=
307
=
308
=
309
=
 40
0.0947538425925926
 41
2452800.443498622
 42
2452946.638180335
  1

 90
        1
  0
DICTIONARY
  5
4377
102
{ACAD_REACTORS
330
C
102
}
330
C
100
AcDbDictionary
  3
TSTACKALIGN
350
4378
  3
TSTACKSIZE
350
4379
  3
HYPERLINKBASE
350
437A
  3
STYLESHEET
350
437B
  3
LAYOUTDICT
350
437C
  3
PLOTSETDICT
350
437D
  3
PLOTSTYLNAMDICT
350
437E
  3
LWETCUNION
350
437F
  3
INSUNITS
350
4380
  3
CEPSNTYPE
350
4381
  3
FINGERPRINTGUID
350
4382
  3
VERSIONGUID
350
4383
  3
PSVPSCALE
350
4384
  3
DIMSTYLEDATA
350
4385
  3
PUCSORTHOREF
350
4386
  3
PUCSORTHOVIEW
350
4387
  3
PUCSBASE
350
4388
  3
PUCSORGTOP
350
4389
  3
PUCSORGBOTTOM
350
438A
  3
PUCSORGLEFT
350
438B
  3
PUCSORGRIGHT
350
438C
  3
PUCSORGFRONT
350
438D
  3
PUCSORGBACK
350
438E
  3
UCSORTHOREF
350
438F
  3
UCSORTHOVIEW
350
4390
  3
UCSBASE
350
4391
  3
UCSORGTOP
350
4392
  3
UCSORGBOTTOM
350
4393
  3
UCSORGLEFT
350
4394
  3
UCSORGRIGHT
350
4395
  3
UCSORGFRONT
350
4396
  3
UCSORGBACK
350
4397
  0
DICTIONARY
  5
436D
102
{ACAD_REACTORS
330
74
102
}
330
74
100
AcDbDictionary
  3
*A1
350
436E
  0
XRECORD
  5
439A
102
{ACAD_REACTORS
330
74
102
}
330
74
100
AcDbXrecord
340
1F
  0
XRECORD
  5
43A0
102
{ACAD_REACTORS
330
439F
102
}
330
439F
100
AcDbXrecord
340
101
  0
MLINESTYLE
  5
18
102
{ACAD_REACTORS
330
17
102
}
330
17
100
AcDbMlineStyle
  2
STANDARD
 70
     0
  3

 62
   256
 51
90.0
 52
90.0
 71
     2
 49
0.5
 62
   256
  6
BYLAYER
 49
-0.5
 62
   256
  6
BYLAYER
  0
ACDBPLACEHOLDER
  5
F
102
{ACAD_REACTORS
330
E
102
}
330
E
100
AcDbPlaceHolder
280
     0
  0
DICTIONARYVAR
  5
35
102
{ACAD_REACTORS
330
34
102
}
330
34
100
DictionaryVariables
280
     0
  1
1
  0
DICTIONARYVAR
  5
B5E
102
{ACAD_REACTORS
330
34
102
}
330
34
100
DictionaryVariables
280
     0
  1
96
  0
DICTIONARY
  5
260
102
{ACAD_REACTORS
330
43
102
}
330
43
100
AcDbDictionary
  0
DICTIONARY
  5
2C
102
{ACAD_REACTORS
330
2B
102
}
330
2B
100
AcDbDictionary
  3
DWGSETTINGS
350
2D
  0
XRECORD
  5
4378
102
{ACAD_REACTORS
330
4377
102
}
330
4377
100
AcDbXrecord
 90
        1
  0
XRECORD
  5
4379
102
{ACAD_REACTORS
330
4377
102
}
330
4377
100
AcDbXrecord
 90
       70
  0
XRECORD
  5
437A
102
{ACAD_REACTORS
330
4377
102
}
330
4377
100
AcDbXrecord
  1

  0
XRECORD
  5
437B
102
{ACAD_REACTORS
330
4377
102
}
330
4377
100
AcDbXrecord
  1
ASAMI.ctb
  0
XRECORD
  5
437C
102
{ACAD_REACTORS
330
4377
102
}
330
4377
100
AcDbXrecord
340
1A
  0
XRECORD
  5
437D
102
{ACAD_REACTORS
330
4377
102
}
330
4377
100
AcDbXrecord
340
19
  0
XRECORD
  5
437E
102
{ACAD_REACTORS
330
4377
102
}
330
4377
100
AcDbXrecord
340
E
  0
XRECORD
  5
437F
102
{ACAD_REACTORS
330
4377
102
}
330
4377
100
AcDbXrecord
 90
    10781
  0
XRECORD
  5
4380
102
{ACAD_REACTORS
330
4377
102
}
330
4377
100
AcDbXrecord
 90
        4
  0
XRECORD
  5
4381
102
{ACAD_REACTORS
330
4377
102
}
330
4377
100
AcDbXrecord
 90
        0
  0
XRECORD
  5
4382
102
{ACAD_REACTORS
330
4377
102
}
330
4377
100
AcDbXrecord
  1
{AFB28963-8C59-40AE-9337-C84526B81ACE}
  0
XRECORD
  5
4383
102
{ACAD_REACTORS
330
4377
102
}
330
4377
100
AcDbXrecord
  1
{BAEB0CAB-F671-46FE-94E9-995BF6F9F241}
  0
XRECORD
  5
4384
102
{ACAD_REACTORS
330
4377
102
}
330
4377
100
AcDbXrecord
 40
0.0
  0
XRECORD
  5
4385
102
{ACAD_REACTORS
330
4377
102
}
330
4377
100
AcDbXrecord
1000
DSTYLE
1002
{
1070
    79
 70
     2
1070
   341
340
59
1070
   342
340
59
1070
   371
 70
    -1
1070
   372
 70
    -1
1002
}
  0
XRECORD
  5
4386
102
{ACAD_REACTORS
330
4377
102
}
330
4377
100
AcDbXrecord
340
0
  0
XRECORD
  5
4387
102
{ACAD_REACTORS
330
4377
102
}
330
4377
100
AcDbXrecord
 70
     0
  0
XRECORD
  5
4388
102
{ACAD_REACTORS
330
4377
102
}
330
4377
100
AcDbXrecord
340
0
  0
XRECORD
  5
4389
102
{ACAD_REACTORS
330
4377
102
}
330
4377
100
AcDbXrecord
 10
0.0
 20
0.0
 30
0.0
  0
XRECORD
  5
438A
102
{ACAD_REACTORS
330
4377
102
}
330
4377
100
AcDbXrecord
 10
0.0
 20
0.0
 30
0.0
  0
XRECORD
  5
438B
102
{ACAD_REACTORS
330
4377
102
}
330
4377
100
AcDbXrecord
 10
0.0
 20
0.0
 30
0.0
  0
XRECORD
  5
438C
102
{ACAD_REACTORS
330
4377
102
}
330
4377
100
AcDbXrecord
 10
0.0
 20
0.0
 30
0.0
  0
XRECORD
  5
438D
102
{ACAD_REACTORS
330
4377
102
}
330
4377
100
AcDbXrecord
 10
0.0
 20
0.0
 30
0.0
  0
XRECORD
  5
438E
102
{ACAD_REACTORS
330
4377
102
}
330
4377
100
AcDbXrecord
 10
0.0
 20
0.0
 30
0.0
  0
XRECORD
  5
438F
102
{ACAD_REACTORS
330
4377
102
}
330
4377
100
AcDbXrecord
340
0
  0
XRECORD
  5
4390
102
{ACAD_REACTORS
330
4377
102
}
330
4377
100
AcDbXrecord
 70
     0
  0
XRECORD
  5
4391
102
{ACAD_REACTORS
330
4377
102
}
330
4377
100
AcDbXrecord
340
0
  0
XRECORD
  5
4392
102
{ACAD_REACTORS
330
4377
102
}
330
4377
100
AcDbXrecord
 10
0.0
 20
0.0
 30
0.0
  0
XRECORD
  5
4393
102
{ACAD_REACTORS
330
4377
102
}
330
4377
100
AcDbXrecord
 10
0.0
 20
0.0
 30
0.0
  0
XRECORD
  5
4394
102
{ACAD_REACTORS
330
4377
102
}
330
4377
100
AcDbXrecord
 10
0.0
 20
0.0
 30
0.0
  0
XRECORD
  5
4395
102
{ACAD_REACTORS
330
4377
102
}
330
4377
100
AcDbXrecord
 10
0.0
 20
0.0
 30
0.0
  0
XRECORD
  5
4396
102
{ACAD_REACTORS
330
4377
102
}
330
4377
100
AcDbXrecord
 10
0.0
 20
0.0
 30
0.0
  0
XRECORD
  5
4397
102
{ACAD_REACTORS
330
4377
102
}
330
4377
100
AcDbXrecord
 10
0.0
 20
0.0
 30
0.0
  0
LAYER_INDEX
  5
436E
102
{ACAD_REACTORS
330
436D
102
}
330
436D
100
AcDbIndex
 40
2453151.565392778
100
AcDbLayerIndex
  8
0
360
436F
 90
        0
  8
AM_0
360
4370
 90
       46
  8
AM_7
360
4371
 90
        1
  8
AM_11
360
4372
 90
       15
  8
AM_5
360
4373
 90
        5
  8
Defpoints
360
4374
 90
        0
  8
AM_6
360
4375
 90
        1
  0
XRECORD
  5
2D
102
{ACAD_REACTORS
330
2C
102
}
330
2C
100
AcDbXrecord
  1
VERSION
140
15.0
  1
PRODUCT
  2
AutoCAD Mechanical 2000
  0
IDBUFFER
  5
436F
330
0
100
AcDbIdBuffer
  0
IDBUFFER
  5
4370
330
0
100
AcDbIdBuffer
330
42AB
330
42AC
330
42AD
330
42AE
330
42AF
330
42B0
330
42B1
330
42B2
330
42B3
330
42B4
330
42B5
330
42B6
330
42B7
330
42BA
330
42BB
330
42BC
330
42BD
330
42BE
330
42BF
330
42C0
330
42C1
330
42C2
330
42C3
330
42C4
330
42C5
330
42C6
330
42C7
330
42C8
330
42CB
330
42CC
330
C1D
330
C20
330
24A7
330
24BE
330
2C0E
330
2FB7
330
2FB9
330
324C
330
325C
330
325D
330
325E
330
3921
330
3924
330
3976
330
3977
330
42AA
  0
IDBUFFER
  5
4371
330
0
100
AcDbIdBuffer
330
23EF
  0
IDBUFFER
  5
4372
330
0
100
AcDbIdBuffer
330
24B7
330
24B8
330
24B9
330
24C7
330
24C8
330
24D4
330
24D5
330
24E6
330
24E7
330
2BF3
330
2BF5
330
42B8
330
42B9
330
42C9
330
42CA
  0
IDBUFFER
  5
4373
330
0
100
AcDbIdBuffer
330
CC6
330
2069
330
2D60
330
3C5B
330
3D2F
  0
IDBUFFER
  5
4374
330
0
100
AcDbIdBuffer
  0
IDBUFFER
  5
4375
330
0
100
AcDbIdBuffer
330
19BD
  0
ENDSEC
  0
EOF
