  0
SECTION
  2
HEADER
  9
$ACADVER
  1
AC1014
  9
$ACADMAINTVER
 70
     9
  9
$DWGCODEPAGE
  3
ANSI_932
  9
$INSBASE
 10
0.0
 20
0.0
 30
0.0
  9
$EXTMIN
 10
-209.3000009999998
 20
-54.00000305448101
 30
-0.00000001
  9
$EXTMAX
 10
25.04858732319055
 20
24.47764369288116
 30
0.00000001
  9
$LIMMIN
 10
-212.4283160478946
 20
-92.01098889734623
  9
$LIMMAX
 10
49.45840178964954
 20
64.30738472477009
  9
$ORTHOMODE
 70
     0
  9
$REGENMODE
 70
     1
  9
$FILLMODE
 70
     1
  9
$QTEXTMODE
 70
     0
  9
$MIRRTEXT
 70
     0
  9
$DRAGMODE
 70
     2
  9
$LTSCALE
 40
1.0
  9
$OSMODE
 70
    55
  9
$ATTMODE
 70
     1
  9
$TEXTSIZE
 40
2.5
  9
$TRACEWID
 40
1.0
  9
$TEXTSTYLE
  7
STANDARD
  9
$CLAYER
  8
AM_0
  9
$CELTYPE
  6
BYLAYER
  9
$CECOLOR
 62
   256
  9
$CELTSCALE
 40
1.0
  9
$DELOBJ
 70
     1
  9
$DISPSILH
 70
     0
  9
$DIMSCALE
 40
1.0
  9
$DIMASZ
 40
2.5
  9
$DIMEXO
 40
1.0
  9
$DIMDLI
 40
12.0
  9
$DIMRND
 40
0.0
  9
$DIMDLE
 40
0.0
  9
$DIMEXE
 40
1.0
  9
$DIMTP
 40
0.1
  9
$DIMTM
 40
0.1
  9
$DIMTXT
 40
3.2
  9
$DIMCEN
 40
0.0
  9
$DIMTSZ
 40
0.0
  9
$DIMTOL
 70
     0
  9
$DIMLIM
 70
     0
  9
$DIMTIH
 70
     0
  9
$DIMTOH
 70
     0
  9
$DIMSE1
 70
     0
  9
$DIMSE2
 70
     0
  9
$DIMTAD
 70
     3
  9
$DIMZIN
 70
     8
  9
$DIMBLK
  1
OPEN30
  9
$DIMASO
 70
     1
  9
$DIMSHO
 70
     1
  9
$DIMPOST
  1

  9
$DIMAPOST
  1
"
  9
$DIMALT
 70
     0
  9
$DIMALTD
 70
     2
  9
$DIMALTF
 40
0.0393701
  9
$DIMLFAC
 40
1.0
  9
$DIMTOFL
 70
     1
  9
$DIMTVP
 40
0.0
  9
$DIMTIX
 70
     0
  9
$DIMSOXD
 70
     0
  9
$DIMSAH
 70
     0
  9
$DIMBLK1
  1

  9
$DIMBLK2
  1

  9
$DIMSTYLE
  2
AM_JIS
  9
$DIMCLRD
 70
   256
  9
$DIMCLRE
 70
   256
  9
$DIMCLRT
 70
     2
  9
$DIMTFAC
 40
0.71
  9
$DIMGAP
 40
1.5
  9
$DIMJUST
 70
     0
  9
$DIMSD1
 70
     0
  9
$DIMSD2
 70
     0
  9
$DIMTOLJ
 70
     0
  9
$DIMTZIN
 70
     0
  9
$DIMALTZ
 70
     0
  9
$DIMALTTZ
 70
     0
  9
$DIMFIT
 70
     3
  9
$DIMUPT
 70
     0
  9
$DIMUNIT
 70
     2
  9
$DIMDEC
 70
     3
  9
$DIMTDEC
 70
     3
  9
$DIMALTU
 70
     2
  9
$DIMALTTD
 70
     2
  9
$DIMTXSTY
  7
ASAMI
  9
$DIMAUNIT
 70
     0
  9
$LUNITS
 70
     2
  9
$LUPREC
 70
     2
  9
$SKETCHINC
 40
1.0
  9
$FILLETRAD
 40
2.5
  9
$AUNITS
 70
     0
  9
$AUPREC
 70
     0
  9
$MENU
  1
.
  9
$ELEVATION
 40
0.0
  9
$PELEVATION
 40
0.0
  9
$THICKNESS
 40
0.0
  9
$LIMCHECK
 70
     0
  9
$BLIPMODE
 70
     0
  9
$CHAMFERA
 40
0.5
  9
$CHAMFERB
 40
0.5
  9
$CHAMFERC
 40
20.0
  9
$CHAMFERD
 40
0.0
  9
$SKPOLY
 70
     0
  9
$TDCREATE
 40
2452800.443498622
  9
$TDUPDATE
 40
2453151.670319178
  9
$TDINDWG
 40
0.2466368287
  9
$TDUSRTIMER
 40
0.2466368287
  9
$USRTIMER
 70
     1
  9
$ANGBASE
 50
0.0
  9
$ANGDIR
 70
     0
  9
$PDMODE
 70
     3
  9
$PDSIZE
 40
0.0
  9
$PLINEWID
 40
0.0
  9
$COORDS
 70
     1
  9
$SPLFRAME
 70
     0
  9
$SPLINETYPE
 70
     6
  9
$SPLINESEGS
 70
     8
  9
$ATTDIA
 70
     1
  9
$ATTREQ
 70
     1
  9
$HANDLING
 70
 12289
  9
$HANDSEED
  5
4A82
  9
$SURFTAB1
 70
     6
  9
$SURFTAB2
 70
     6
  9
$SURFTYPE
 70
     6
  9
$SURFU
 70
     6
  9
$SURFV
 70
     6
  9
$UCSNAME
  2

  9
$UCSORG
 10
0.0
 20
0.0
 30
0.0
  9
$UCSXDIR
 10
1.0
 20
0.0000000000000027
 30
0.0
  9
$UCSYDIR
 10
-0.0000000000000027
 20
1.0
 30
0.0
  9
$PUCSNAME
  2

  9
$PUCSORG
 10
0.0
 20
0.0
 30
0.0
  9
$PUCSXDIR
 10
1.0
 20
0.0
 30
0.0
  9
$PUCSYDIR
 10
0.0
 20
1.0
 30
0.0
  9
$USERI1
 70
     0
  9
$USERI2
 70
     0
  9
$USERI3
 70
     0
  9
$USERI4
 70
     0
  9
$USERI5
 70
     0
  9
$USERR1
 40
0.0
  9
$USERR2
 40
0.0
  9
$USERR3
 40
0.0
  9
$USERR4
 40
0.0
  9
$USERR5
 40
0.0
  9
$WORLDVIEW
 70
     1
  9
$SHADEDGE
 70
     3
  9
$SHADEDIF
 70
    70
  9
$TILEMODE
 70
     1
  9
$MAXACTVP
 70
    64
  9
$PINSBASE
 10
0.0
 20
0.0
 30
0.0
  9
$PLIMCHECK
 70
     0
  9
$PEXTMIN
 10
1.000000000000000E+20
 20
1.000000000000000E+20
 30
1.000000000000000E+20
  9
$PEXTMAX
 10
-1.000000000000000E+20
 20
-1.000000000000000E+20
 30
-1.000000000000000E+20
  9
$PLIMMIN
 10
0.0
 20
0.0
  9
$PLIMMAX
 10
841.0
 20
594.0
  9
$UNITMODE
 70
     0
  9
$VISRETAIN
 70
     1
  9
$PLINEGEN
 70
     0
  9
$PSLTSCALE
 70
     0
  9
$TREEDEPTH
 70
  3020
  9
$PICKSTYLE
 70
     0
  9
$CMLSTYLE
  2
STANDARD
  9
$CMLJUST
 70
     0
  9
$CMLSCALE
 40
20.0
  9
$PROXYGRAPHICS
 70
     1
  9
$MEASUREMENT
 70
     1
  0
ENDSEC
  0
SECTION
  2
CLASSES
  0
CLASS
  1
ACDBDICTIONARYWDFLT
  2
AcDbDictionaryWithDefault
  3
AutoCAD 2000
 90
        0
280
     0
281
     0
  0
CLASS
  1
ACDBPLACEHOLDER
  2
AcDbPlaceHolder
  3
AutoCAD 2000
 90
        0
280
     0
281
     0
  0
CLASS
  1
LAYOUT
  2
AcDbLayout
  3
AutoCAD 2000
 90
        0
280
     0
281
     0
  0
CLASS
  1
AMGSETTINGSOBJ
  2
AmgSettingsObj
  3
"AcadM|Product Description: AutoCAD Mechanical 2000|Company: Autodesk"
 90
        0
280
     0
281
     0
  0
CLASS
  1
ACME_DOCUMENT
  2
AcMeDbDoc
  3
AcMeServices
 90
        0
280
     0
281
     0
  0
CLASS
  1
ACMESCOPE
  2
AcMeScope
  3
AcMeServices
 90
        0
280
     0
281
     0
  0
CLASS
  1
ACMECOMMANDHISTORY
  2
AcMeCommandHistory
  3
AcMeServices
 90
        0
280
     0
281
     0
  0
CLASS
  1
DICTIONARYVAR
  2
AcDbDictionaryVar
  3
AutoCAD 2000
 90
        0
280
     0
281
     0
  0
CLASS
  1
ACIMSYSVARMAN
  2
AcImSysVarManager
  3
AcMeServices
 90
        0
280
     0
281
     0
  0
CLASS
  1
ACIMREALSYSVAR
  2
AcImRealSysVar
  3
AcMeServices
 90
        0
280
     0
281
     0
  0
CLASS
  1
ACIMINTSYSVAR
  2
AcImIntSysVar
  3
AcMeServices
 90
        0
280
     0
281
     0
  0
CLASS
  1
ACMEDRAWINGMAN
  2
AcMeDrawingMan
  3
AcMeServices
 90
        0
280
     0
281
     0
  0
CLASS
  1
ACMEVIEW
  2
AcMeView
  3
AcMeServices
 90
        0
280
     0
281
     0
  0
CLASS
  1
ACDBENTITYCACHE
  2
AcMeEntityCache
  3
AcMeServices
 90
        0
280
     0
281
     0
  0
CLASS
  1
GSMANAGER
  2
AcMeGSManager
  3
AcMeServices
 90
        0
280
     0
281
     0
  0
CLASS
  1
AmdtInternalReactor
  2
AmdtInternalReactor
  3
AcMeServices
 90
        0
280
     0
281
     0
  0
CLASS
  1
ACMESTATEMGR
  2
AcMeStateMgr
  3
AcMeServices
 90
        0
280
     0
281
     0
  0
CLASS
  1
ACME_DATABASE
  2
AcMeDbDatabase
  3
AcMeServices
 90
        0
280
     0
281
     0
  0
CLASS
  1
ACRFINSADJUSTERMGR
  2
AcRfInsAdjusterMgr
  3
AcMeServices
 90
        0
280
     0
281
     0
  0
CLASS
  1
ACMDATADICTIONARY
  2
AcmDataDictionary
  3
"AcmSymBB|Product Description: AutoCAD Mechanical 2000|Company: Autodesk"
 90
        0
280
     0
281
     0
  0
CLASS
  1
ACMDATAENTRYBLOCK
  2
AcmDataEntryBlock
  3
"AcmSymBB|Product Description: AutoCAD Mechanical 2000|Company: Autodesk"
 90
        0
280
     0
281
     0
  0
CLASS
  1
AMGOBJPROPCFG
  2
AmgObjPropCfg
  3
"AmgLay|Product Description: AutoCAD Mechanical 2000|Company: Autodesk"
 90
        1
280
     0
281
     0
  0
CLASS
  1
ACAMGFILTERDAT
  2
AcAmgFilterDat
  3
"AcadM|Product Description: AutoCAD Mechanical 2000|Company: Autodesk"
 90
        0
280
     0
281
     0
  0
CLASS
  1
LAYER_INDEX
  2
AcDbLayerIndex
  3
AutoCAD 2000
 90
        0
280
     0
281
     0
  0
CLASS
  1
IDBUFFER
  2
AcDbIdBuffer
  3
AutoCAD 2000
 90
        0
280
     0
281
     0
  0
CLASS
  1
ACIMSTRSYSVAR
  2
AcImStrSysVar
  3
AcMeServices
 90
        0
280
     0
281
     0
  0
CLASS
  1
ACMSTANDARDJIS
  2
AcmStandardJIS
  3
"AcmSymBB|Product Description: AutoCAD Mechanical 2000|Company: Autodesk"
 90
        0
280
     0
281
     0
  0
CLASS
  1
ACMSURFSTANDARDJIS
  2
AcmSurfTextStdJIS
  3
"AcmSymBB|Product Description: AutoCAD Mechanical 2000|Company: Autodesk"
 90
        0
280
     0
281
     0
  0
CLASS
  1
ACMFCFSTANDARDJIS
  2
AcmFCFStdJIS
  3
"AcmSymBB|Product Description: AutoCAD Mechanical 2000|Company: Autodesk"
 90
        0
280
     0
281
     0
  0
CLASS
  1
ACMWELDSTANDARDJIS
  2
AcmWeldingStdJIS
  3
"AcmSymBB|Product Description: AutoCAD Mechanical 2000|Company: Autodesk"
 90
        0
280
     0
281
     0
  0
CLASS
  1
ACMIDSTANDARDJIS
  2
AcmIdStdJIS
  3
"AcmSymBB|Product Description: AutoCAD Mechanical 2000|Company: Autodesk"
 90
        0
280
     0
281
     0
  0
CLASS
  1
ACMDATUMSTANDARDJIS
  2
AcmDatumStdJIS
  3
"AcmSymBB|Product Description: AutoCAD Mechanical 2000|Company: Autodesk"
 90
        0
280
     0
281
     0
  0
CLASS
  1
ACMBOMSTANDARDJIS
  2
AcmBOMStdJIS
  3
"AcmSymBB|Product Description: AutoCAD Mechanical 2000|Company: Autodesk"
 90
        0
280
     0
281
     0
  0
CLASS
  1
ACMSTANDARDANSI
  2
AcmStandardANSI
  3
"AcmSymBB|Product Description: AutoCAD Mechanical 2000|Company: Autodesk"
 90
        0
280
     0
281
     0
  0
CLASS
  1
ACMSURFSTANDARDANSI
  2
AcmSurfTextStdANSI
  3
"AcmSymBB|Product Description: AutoCAD Mechanical 2000|Company: Autodesk"
 90
        0
280
     0
281
     0
  0
CLASS
  1
ACMFCFSTANDARDANSI
  2
AcmFCFStdANSI
  3
"AcmSymBB|Product Description: AutoCAD Mechanical 2000|Company: Autodesk"
 90
        0
280
     0
281
     0
  0
CLASS
  1
ACMWELDSTANDARDANSI
  2
AcmWeldingStdANSI
  3
"AcmSymBB|Product Description: AutoCAD Mechanical 2000|Company: Autodesk"
 90
        0
280
     0
281
     0
  0
CLASS
  1
ACMIDSTANDARDANSI
  2
AcmIdStdANSI
  3
"AcmSymBB|Product Description: AutoCAD Mechanical 2000|Company: Autodesk"
 90
        0
280
     0
281
     0
  0
CLASS
  1
ACMDATUMSTANDARDANSI
  2
AcmDatumStdANSI
  3
"AcmSymBB|Product Description: AutoCAD Mechanical 2000|Company: Autodesk"
 90
        0
280
     0
281
     0
  0
CLASS
  1
ACMBOMSTANDARDANSI
  2
AcmBOMStdANSI
  3
"AcmSymBB|Product Description: AutoCAD Mechanical 2000|Company: Autodesk"
 90
        0
280
     0
281
     0
  0
CLASS
  1
ACMSTANDARDBSI
  2
AcmStandardBSI
  3
"AcmSymBB|Product Description: AutoCAD Mechanical 2000|Company: Autodesk"
 90
        0
280
     0
281
     0
  0
CLASS
  1
ACMSURFSTANDARDBSI
  2
AcmSurfTextStdBSI
  3
"AcmSymBB|Product Description: AutoCAD Mechanical 2000|Company: Autodesk"
 90
        0
280
     0
281
     0
  0
CLASS
  1
ACMFCFSTANDARDBSI
  2
AcmFCFStdBSI
  3
"AcmSymBB|Product Description: AutoCAD Mechanical 2000|Company: Autodesk"
 90
        0
280
     0
281
     0
  0
CLASS
  1
ACMWELDSTANDARDBSI
  2
AcmWeldingStdBSI
  3
"AcmSymBB|Product Description: AutoCAD Mechanical 2000|Company: Autodesk"
 90
        0
280
     0
281
     0
  0
CLASS
  1
ACMIDSTANDARDBSI
  2
AcmIdStdBSI
  3
"AcmSymBB|Product Description: AutoCAD Mechanical 2000|Company: Autodesk"
 90
        0
280
     0
281
     0
  0
CLASS
  1
ACMDATUMSTANDARDBSI
  2
AcmDatumStdBSI
  3
"AcmSymBB|Product Description: AutoCAD Mechanical 2000|Company: Autodesk"
 90
        0
280
     0
281
     0
  0
CLASS
  1
ACMBOMSTANDARDBSI
  2
AcmBOMStdBSI
  3
"AcmSymBB|Product Description: AutoCAD Mechanical 2000|Company: Autodesk"
 90
        0
280
     0
281
     0
  0
CLASS
  1
LONG_TRANSACTION
  2
AcDbLongTransaction
  3
AutoCAD 2000
 90
        0
280
     0
281
     0
  0
CLASS
  1
LWPOLYLINE
  2
AcDbPolyline
  3
AutoCAD 2000
 90
        0
280
     0
281
     1
  0
CLASS
  1
HATCH
  2
AcDbHatch
  3
AutoCAD 2000
 90
        0
280
     0
281
     1
  0
CLASS
  1
XRECORD
  2
AcDbXrecord
  3
AutoCAD 2000
 90
        0
280
     0
281
     0
  0
ENDSEC
  0
SECTION
  2
TABLES
  0
TABLE
  2
VPORT
  5
8
330
0
100
AcDbSymbolTable
 70
     3
  0
VPORT
  5
4A4C
330
8
100
AcDbSymbolTableRecord
100
AcDbViewportTableRecord
  2
*ACTIVE
 70
     0
 10
0.0
 20
0.0
 11
1.0
 21
1.0
 12
-87.79172038373564
 22
-14.76415185020067
 13
0.0
 23
0.0
 14
2.5
 24
2.5
 15
10.0
 25
10.0
 16
0.0
 26
0.0
 36
1.0
 17
0.0
 27
0.0
 37
0.0
 40
155.9810380241528
 41
1.56570841889117
 42
50.0
 43
0.0
 44
0.0
 50
0.0
 51
0.0
 71
     0
 72
   100
 73
     1
 74
     1
 75
     0
 76
     0
 77
     0
 78
     0
  0
ENDTAB
  0
TABLE
  2
LTYPE
  5
5
330
0
100
AcDbSymbolTable
 70
    10
  0
LTYPE
  5
14
330
5
100
AcDbSymbolTableRecord
100
AcDbLinetypeTableRecord
  2
BYBLOCK
 70
     0
  3

 72
    65
 73
     0
 40
0.0
  0
LTYPE
  5
15
330
5
100
AcDbSymbolTableRecord
100
AcDbLinetypeTableRecord
  2
BYLAYER
 70
     0
  3

 72
    65
 73
     0
 40
0.0
  0
LTYPE
  5
16
330
5
100
AcDbSymbolTableRecord
100
AcDbLinetypeTableRecord
  2
CONTINUOUS
 70
     0
  3
Solid line
 72
    65
 73
     0
 40
0.0
  0
LTYPE
  5
4B
330
5
100
AcDbSymbolTableRecord
100
AcDbLinetypeTableRecord
  2
AM_ISO02W050
 70
     0
  3
__ __ __ __ __ __ __ __ __ __ __ __ __ __ __
 72
    65
 73
     2
 40
7.5
 49
6.0
 74
     0
 49
-1.5
 74
     0
  0
LTYPE
  5
4C
330
5
100
AcDbSymbolTableRecord
100
AcDbLinetypeTableRecord
  2
AM_ISO08W050
 70
     0
  3
____ . ____ . ____ . ____ . ____ . ____ . ____
 72
    65
 73
     4
 40
18.0
 49
12.0
 74
     0
 49
-1.5
 74
     0
 49
3.0
 74
     0
 49
-1.5
 74
     0
  0
LTYPE
  5
4D
330
5
100
AcDbSymbolTableRecord
100
AcDbLinetypeTableRecord
  2
AM_ISO09W050
 70
     0
  3
_____ . . _____ . . _____ . . ____ .. ____
 72
    65
 73
     6
 40
22.5
 49
12.0
 74
     0
 49
-1.5
 74
     0
 49
3.0
 74
     0
 49
-1.5
 74
     0
 49
3.0
 74
     0
 49
-1.5
 74
     0
  0
LTYPE
  5
4E
330
5
100
AcDbSymbolTableRecord
100
AcDbLinetypeTableRecord
  2
AMCONSTR
 70
     0
  3
_______________________
 72
    65
 73
     2
 40
9999.0
 49
9999.0
 74
     0
 49
0.0
 74
     0
  0
LTYPE
  5
4F
330
5
100
AcDbSymbolTableRecord
100
AcDbLinetypeTableRecord
  2
AM_ISO02W050X2
 70
     0
  3
 _ _ _ _ _ _ _ _ _ _ _ _
 72
    65
 73
     2
 40
3.75
 49
3.0
 74
     0
 49
-0.75
 74
     0
  0
LTYPE
  5
50
330
5
100
AcDbSymbolTableRecord
100
AcDbLinetypeTableRecord
  2
AM_ISO08W050X2
 70
     0
  3
__ . __ . __ . __ . __ . __
 72
    65
 73
     4
 40
9.0
 49
6.0
 74
     0
 49
-0.75
 74
     0
 49
1.5
 74
     0
 49
-0.75
 74
     0
  0
LTYPE
  5
53
330
5
100
AcDbSymbolTableRecord
100
AcDbLinetypeTableRecord
  2
AMZIGZAG
 70
     0
  3
/\/-/\/-/\/-/\/-/\/-/\/
 72
    65
 73
     2
 40
11.00009999999999
 49
0.0001
 74
     4
 75
   135
340
52
 46
0.04
 50
0.0
 44
0.0
 45
0.0
 49
-11.0
 74
     0
  0
LTYPE
  5
166
330
5
100
AcDbSymbolTableRecord
100
AcDbLinetypeTableRecord
  2
ACJISTGL
 70
     0
  3
_ _ _ _ _
 72
    65
 73
     2
 40
3.0
 49
2.0
 74
     0
 49
-1.0
 74
     0
  0
LTYPE
  5
26A
330
5
100
AcDbSymbolTableRecord
100
AcDbLinetypeTableRecord
  2
ACJISTGB
 70
     0
  3
__ . . __ . .
 72
    65
 73
     6
 40
9.0
 49
4.0
 74
     0
 49
-1.0
 74
     0
 49
1.0
 74
     0
 49
-1.0
 74
     0
 49
1.0
 74
     0
 49
-1.0
 74
     0
  0
ENDTAB
  0
TABLE
  2
LAYER
  5
2
330
0
100
AcDbSymbolTable
 70
     8
  0
LAYER
  5
10
330
2
100
AcDbSymbolTableRecord
100
AcDbLayerTableRecord
  2
0
 70
     0
 62
     7
  6
CONTINUOUS
  0
LAYER
  5
3F9
330
2
100
AcDbSymbolTableRecord
100
AcDbLayerTableRecord
  2
AM_0
 70
     0
 62
     7
  6
CONTINUOUS
  0
LAYER
  5
C7C
330
2
100
AcDbSymbolTableRecord
100
AcDbLayerTableRecord
  2
AM_7
 70
     0
 62
     4
  6
AM_ISO08W050
  0
LAYER
  5
C97
330
2
100
AcDbSymbolTableRecord
100
AcDbLayerTableRecord
  2
AM_11
 70
     0
 62
     3
  6
AM_ISO09W050
  0
LAYER
  5
CC5
330
2
100
AcDbSymbolTableRecord
100
AcDbLayerTableRecord
  2
AM_5
 70
     0
 62
     3
  6
CONTINUOUS
  0
LAYER
  5
CC7
330
2
100
AcDbSymbolTableRecord
100
AcDbLayerTableRecord
  2
DEFPOINTS
 70
     0
 62
     7
  6
CONTINUOUS
  0
LAYER
  5
19BC
330
2
100
AcDbSymbolTableRecord
100
AcDbLayerTableRecord
  2
AM_6
 70
     0
 62
     2
  6
CONTINUOUS
  0
LAYER
  5
48C3
330
2
100
AcDbSymbolTableRecord
100
AcDbLayerTableRecord
  2
AM_CL
 70
     0
 62
     1
  6
AMCONSTR
  0
ENDTAB
  0
TABLE
  2
STYLE
  5
3
330
0
100
AcDbSymbolTable
 70
     5
  0
STYLE
  5
11
330
3
100
AcDbSymbolTableRecord
100
AcDbTextStyleTableRecord
  2
STANDARD
 70
     0
 40
0.0
 41
1.0
 50
0.0
 71
     0
 42
2.5
  3
simplex.shx
  4
EXTFONT.SHX
  0
STYLE
  5
52
330
3
100
AcDbSymbolTableRecord
100
AcDbTextStyleTableRecord
  2

 70
     1
 40
0.0
 41
1.0
 50
0.0
 71
     0
 42
2.5
  3
ltypeshp.shx
  4

  0
STYLE
  5
6B
330
3
100
AcDbSymbolTableRecord
100
AcDbTextStyleTableRecord
  2
ASAMI
 70
     0
 40
0.0
 41
1.0
 50
0.0
 71
     0
 42
2.5
  3
simplex.shx
  4
EXTFONT.SHX
  0
STYLE
  5
262
330
3
100
AcDbSymbolTableRecord
100
AcDbTextStyleTableRecord
  2
ACJISTS
 70
     0
 40
1.0
 41
1.0
 50
0.0
 71
     0
 42
2.5
  3
simplex.shx
  4
bigfont.shx
  0
STYLE
  5
269
330
3
100
AcDbSymbolTableRecord
100
AcDbTextStyleTableRecord
  2
ACJISGDT
 70
     0
 40
0.0
 41
1.0
 50
0.0
 71
     0
 42
2.5
  3
amgdtans.shx
  4

  0
ENDTAB
  0
TABLE
  2
VIEW
  5
6
330
0
100
AcDbSymbolTable
 70
     0
  0
ENDTAB
  0
TABLE
  2
UCS
  5
7
330
0
100
AcDbSymbolTable
 70
     0
  0
ENDTAB
  0
TABLE
  2
APPID
  5
9
330
0
100
AcDbSymbolTable
 70
    16
  0
APPID
  5
12
330
9
100
AcDbSymbolTableRecord
100
AcDbRegAppTableRecord
  2
ACAD
 70
     0
  0
APPID
  5
30
330
9
100
AcDbSymbolTableRecord
100
AcDbRegAppTableRecord
  2
MCAD_NO_VIS
 70
     0
  0
APPID
  5
31
330
9
100
AcDbSymbolTableRecord
100
AcDbRegAppTableRecord
  2
ACAD_TEMP_GRAPHIC
 70
     0
  0
APPID
  5
2C2
330
9
100
AcDbSymbolTableRecord
100
AcDbRegAppTableRecord
  2
GENIUS_GENDTOL_13
 70
     0
  0
APPID
  5
339
330
9
100
AcDbSymbolTableRecord
100
AcDbRegAppTableRecord
  2
GENIUS_GENODEF_13
 70
     0
  0
APPID
  5
33A
330
9
100
AcDbSymbolTableRecord
100
AcDbRegAppTableRecord
  2
GENIUS_GENOBJ-N-RSBK_13
 70
     0
  0
APPID
  5
33B
330
9
100
AcDbSymbolTableRecord
100
AcDbRegAppTableRecord
  2
GENIUS_GENOBJ-N-LIB_13
 70
     0
  0
APPID
  5
33C
330
9
100
AcDbSymbolTableRecord
100
AcDbRegAppTableRecord
  2
GENIUS_GENSCALE_13
 70
     0
  0
APPID
  5
378
330
9
100
AcDbSymbolTableRecord
100
AcDbRegAppTableRecord
  2
GENIUS_GENDIMSH_14
 70
     0
  0
APPID
  5
C82
330
9
100
AcDbSymbolTableRecord
100
AcDbRegAppTableRecord
  2
GENIUS_GENOBJ-N-CRS_13
 70
     0
  0
APPID
  5
C83
330
9
100
AcDbSymbolTableRecord
100
AcDbRegAppTableRecord
  2
GENIUS_GENOENT_13
 70
     0
  0
APPID
  5
C84
330
9
100
AcDbSymbolTableRecord
100
AcDbRegAppTableRecord
  2
GENIUS_GENOREF_13
 70
     0
  0
APPID
  5
C85
330
9
100
AcDbSymbolTableRecord
100
AcDbRegAppTableRecord
  2
GENIUS_GENOLIS_13
 70
     0
  0
APPID
  5
CA0
330
9
100
AcDbSymbolTableRecord
100
AcDbRegAppTableRecord
  2
GENIUS_GENOBJ-N-CEN_13
 70
     0
  0
APPID
  5
1E1E
330
9
100
AcDbSymbolTableRecord
100
AcDbRegAppTableRecord
  2
GENIUS_GENFIL_13
 70
     0
  0
APPID
  5
1E1F
330
9
100
AcDbSymbolTableRecord
100
AcDbRegAppTableRecord
  2
GENIUS_GENOBJ-N-CHA_13
 70
     0
  0
ENDTAB
  0
TABLE
  2
DIMSTYLE
  5
A
330
0
100
AcDbSymbolTable
 70
     9
  0
DIMSTYLE
105
58
330
A
100
AcDbSymbolTableRecord
100
AcDbDimStyleTableRecord
  2
AM_JIS
 70
     0
  3

  4
"
  5
OPEN30
  6

  7

 40
1.0
 41
2.5
 42
1.0
 43
12.0
 44
1.0
 45
0.0
 46
0.0
 47
0.1
 48
0.1
140
3.2
141
0.0
142
0.0
143
0.0393701
144
1.0
145
0.0
146
0.71
147
1.5
 71
     0
 72
     0
 73
     0
 74
     0
 75
     0
 76
     0
 77
     3
 78
     8
170
     0
171
     2
172
     1
173
     0
174
     0
175
     0
176
   256
177
   256
178
     2
270
     2
271
     3
272
     3
273
     2
274
     2
340
6B
275
     0
280
     0
281
     0
282
     0
283
     0
284
     0
285
     0
286
     0
287
     3
288
     0
  0
DIMSTYLE
105
5F
330
A
100
AcDbSymbolTableRecord
100
AcDbDimStyleTableRecord
  2
AM_JIS$3
 70
     0
  3

  4
"
  5
OPEN30
  6

  7

 40
1.0
 41
2.5
 42
1.0
 43
10.0
 44
1.0
 45
0.0
 46
0.0
 47
0.1
 48
0.1
140
3.2
141
0.0
142
0.0
143
0.0393701
144
1.0
145
0.0
146
0.71
147
1.5
 71
     0
 72
     0
 73
     0
 74
     1
 75
     0
 76
     0
 77
     3
 78
     8
170
     0
171
     2
172
     0
173
     0
174
     0
175
     0
176
   256
177
   256
178
     2
270
     2
271
     2
272
     3
273
     2
274
     2
340
6B
275
     0
280
     0
281
     0
282
     0
283
     0
284
     0
285
     0
286
     0
287
     0
288
     1
  0
DIMSTYLE
105
60
330
A
100
AcDbSymbolTableRecord
100
AcDbDimStyleTableRecord
  2
AM_JIS$4
 70
     0
  3

  4
"
  5
OPEN30
  6

  7

 40
1.0
 41
2.5
 42
1.0
 43
10.0
 44
1.0
 45
0.0
 46
0.0
 47
0.1
 48
0.1
140
3.2
141
0.0
142
0.0
143
0.0393701
144
1.0
145
0.0
146
0.71
147
1.5
 71
     0
 72
     0
 73
     0
 74
     1
 75
     0
 76
     0
 77
     3
 78
     8
170
     0
171
     2
172
     0
173
     0
174
     0
175
     0
176
   256
177
   256
178
     2
270
     2
271
     2
272
     3
273
     2
274
     2
340
6B
275
     0
280
     0
281
     0
282
     0
283
     0
284
     0
285
     0
286
     0
287
     0
288
     1
  0
DIMSTYLE
105
61
330
A
100
AcDbSymbolTableRecord
100
AcDbDimStyleTableRecord
  2
AM_JIS$6
 70
     0
  3

  4
"
  5
OPEN30
  6

  7

 40
1.0
 41
2.5
 42
1.0
 43
10.0
 44
1.0
 45
0.0
 46
0.0
 47
0.1
 48
0.1
140
3.2
141
0.0
142
0.0
143
0.0393701
144
1.0
145
0.0
146
0.71
147
1.5
 71
     0
 72
     0
 73
     0
 74
     0
 75
     0
 76
     0
 77
     0
 78
     8
170
     0
171
     2
172
     1
173
     0
174
     0
175
     0
176
   256
177
   256
178
     2
270
     2
271
     2
272
     2
273
     2
274
     2
340
6B
275
     0
280
     0
281
     0
282
     0
283
     0
284
     0
285
     0
286
     0
287
     3
288
     0
  0
DIMSTYLE
105
62
330
A
100
AcDbSymbolTableRecord
100
AcDbDimStyleTableRecord
  2
AM_JIS$7
 70
     0
  3

  4
"
  5
OPEN30
  6

  7

 40
1.0
 41
2.5
 42
1.0
 43
10.0
 44
1.0
 45
0.0
 46
0.0
 47
0.1
 48
0.1
140
3.2
141
0.0
142
0.0
143
0.0393701
144
1.0
145
0.0
146
0.71
147
1.5
 71
     0
 72
     0
 73
     0
 74
     0
 75
     0
 76
     0
 77
     3
 78
     8
170
     0
171
     2
172
     1
173
     0
174
     0
175
     0
176
   256
177
   256
178
     2
270
     2
271
     2
272
     3
273
     2
274
     2
340
6B
275
     0
280
     0
281
     0
282
     0
283
     0
284
     0
285
     0
286
     0
287
     3
288
     0
  0
DIMSTYLE
105
63
330
A
100
AcDbSymbolTableRecord
100
AcDbDimStyleTableRecord
  2
AM_JIS$SF
 70
     0
  3

  4
"
  5
OPEN30
  6

  7

 40
1.0
 41
2.5
 42
1.0
 43
10.0
 44
1.0
 45
0.0
 46
0.0
 47
0.1
 48
0.1
140
3.2
141
0.0
142
0.0
143
0.0393701
144
1.0
145
0.0
146
0.71
147
1.5
 71
     0
 72
     0
 73
     0
 74
     0
 75
     1
 76
     1
 77
     3
 78
     8
170
     0
171
     2
172
     1
173
     0
174
     0
175
     0
176
   256
177
   256
178
     2
270
     2
271
     2
272
     2
273
     2
274
     2
340
6B
275
     0
280
     0
281
     0
282
     0
283
     0
284
     0
285
     0
286
     0
287
     3
288
     0
  0
DIMSTYLE
105
68
330
A
100
AcDbSymbolTableRecord
100
AcDbDimStyleTableRecord
  2
AM_JIS$SH
 70
     0
  3

  4
"
  5

  6
GENAXEH
  7
OPEN30
 40
1.0
 41
2.5
 42
1.0
 43
10.0
 44
1.0
 45
0.0
 46
0.0
 47
0.1
 48
0.1
140
3.2
141
0.0
142
0.0
143
0.0393701
144
2.0
145
0.0
146
0.71
147
1.5
 71
     0
 72
     0
 73
     0
 74
     0
 75
     1
 76
     1
 77
     3
 78
     8
170
     0
171
     2
172
     1
173
     1
174
     0
175
     0
176
   256
177
   256
178
     2
270
     2
271
     2
272
     2
273
     2
274
     2
340
6B
275
     0
280
     0
281
     0
282
     0
283
     0
284
     0
285
     0
286
     0
287
     3
288
     0
  0
DIMSTYLE
105
B34
102
{ACAD_REACTORS
330
4918
102
}
330
A
100
AcDbSymbolTableRecord
100
AcDbDimStyleTableRecord
  2
AM_JIS$2
 70
     0
  3

  4
"
  5
OPEN30
  6

  7

 40
1.0
 41
2.5
 42
1.0
 43
12.0
 44
1.0
 45
0.0
 46
0.0
 47
0.1
 48
0.1
140
3.2
141
0.0
142
0.0
143
0.0393701
144
1.0
145
0.0
146
0.71
147
1.5
 71
     0
 72
     0
 73
     0
 74
     0
 75
     0
 76
     0
 77
     3
 78
     8
170
     0
171
     2
172
     1
173
     0
174
     0
175
     0
176
   256
177
   256
178
     2
270
     2
271
     3
272
     3
273
     2
274
     2
340
6B
275
     0
280
     0
281
     0
282
     0
283
     0
284
     0
285
     0
286
     0
287
     3
288
     0
  0
DIMSTYLE
105
BA5
102
{ACAD_REACTORS
330
CC6
330
DF5
330
1FB6
330
2216
102
}
330
A
100
AcDbSymbolTableRecord
100
AcDbDimStyleTableRecord
  2
AM_JIS$0
 70
     0
  3

  4
"
  5
OPEN30
  6

  7

 40
1.0
 41
2.5
 42
0.0
 43
10.0
 44
1.0
 45
0.0
 46
0.0
 47
0.1
 48
0.1000000001
140
3.799999999999999
141
0.0
142
0.0
143
0.0393701
144
1.0
145
0.0
146
0.71
147
1.5
 71
     0
 72
     0
 73
     0
 74
     0
 75
     0
 76
     0
 77
     3
 78
     1
170
     0
171
     2
172
     1
173
     0
174
     0
175
     0
176
     3
177
     3
178
     2
270
     2
271
     2
272
     2
273
     2
274
     2
340
11
275
     1
280
     0
281
     0
282
     0
283
     0
284
     8
285
     0
286
     0
287
     0
288
     0
  0
ENDTAB
  0
TABLE
  2
BLOCK_RECORD
  5
1
330
0
100
AcDbSymbolTable
 70
    10
  0
BLOCK_RECORD
  5
1F
102
{ACAD_XDICTIONARY
360
74
102
}
330
1
100
AcDbSymbolTableRecord
100
AcDbBlockTableRecord
  2
*MODEL_SPACE
  0
BLOCK_RECORD
  5
101
102
{ACAD_XDICTIONARY
360
4A75
102
}
330
1
100
AcDbSymbolTableRecord
100
AcDbBlockTableRecord
  2
*PAPER_SPACE
  0
BLOCK_RECORD
  5
59
330
1
100
AcDbSymbolTableRecord
100
AcDbBlockTableRecord
  2
_OPEN30
  0
BLOCK_RECORD
  5
64
330
1
100
AcDbSymbolTableRecord
100
AcDbBlockTableRecord
  2
GENAXEH
  0
BLOCK_RECORD
  5
CC8
330
1
100
AcDbSymbolTableRecord
100
AcDbBlockTableRecord
  2
*D5
  0
BLOCK_RECORD
  5
DF6
330
1
100
AcDbSymbolTableRecord
100
AcDbBlockTableRecord
  2
*D6
  0
BLOCK_RECORD
  5
1FB7
330
1
100
AcDbSymbolTableRecord
100
AcDbBlockTableRecord
  2
*D7
  0
BLOCK_RECORD
  5
2217
330
1
100
AcDbSymbolTableRecord
100
AcDbBlockTableRecord
  2
*D8
  0
BLOCK_RECORD
  5
4919
330
1
100
AcDbSymbolTableRecord
100
AcDbBlockTableRecord
  2
*D9
  0
ENDTAB
  0
ENDSEC
  0
SECTION
  2
BLOCKS
  0
BLOCK
  5
20
330
1F
100
AcDbEntity
  8
0
100
AcDbBlockBegin
  2
*MODEL_SPACE
 70
     0
 10
0.0
 20
0.0
 30
0.0
  3
*MODEL_SPACE
  1

  0
ENDBLK
  5
21
330
1F
100
AcDbEntity
  8
0
100
AcDbBlockEnd
  0
BLOCK
  5
103
330
101
100
AcDbEntity
 67
     1
  8
0
100
AcDbBlockBegin
  2
*PAPER_SPACE
 70
     0
 10
0.0
 20
0.0
 30
0.0
  3
*PAPER_SPACE
  1

  0
ENDBLK
  5
104
330
101
100
AcDbEntity
 67
     1
  8
0
100
AcDbBlockEnd
  0
BLOCK
  5
5D
330
59
100
AcDbEntity
  8
0
100
AcDbBlockBegin
  2
_OPEN30
 70
     0
 10
0.0
 20
0.0
 30
0.0
  3
_OPEN30
  1

  0
LINE
  5
5A
330
59
100
AcDbEntity
  8
0
 62
     0
100
AcDbLine
 10
-1.0
 20
0.26794919
 30
0.0
 11
0.0
 21
0.0
 31
0.0
  0
LINE
  5
5B
330
59
100
AcDbEntity
  8
0
 62
     0
100
AcDbLine
 10
0.0
 20
0.0
 30
0.0
 11
-1.0
 21
-0.26794919
 31
0.0
  0
LINE
  5
5C
330
59
100
AcDbEntity
  8
0
 62
     0
100
AcDbLine
 10
0.0
 20
0.0
 30
0.0
 11
-1.0
 21
0.0
 31
0.0
  0
ENDBLK
  5
5E
330
59
100
AcDbEntity
  8
0
100
AcDbBlockEnd
  0
BLOCK
  5
66
330
64
100
AcDbEntity
  8
0
100
AcDbBlockBegin
  2
GENAXEH
 70
     0
 10
0.0
 20
0.0
 30
0.0
  3
GENAXEH
  1

  0
LINE
  5
65
330
64
100
AcDbEntity
  8
0
100
AcDbLine
 10
-1.0
 20
0.0
 30
0.0
 11
1.0
 21
0.0
 31
0.0
  0
ENDBLK
  5
67
330
64
100
AcDbEntity
  8
0
100
AcDbBlockEnd
  0
BLOCK
  5
CD2
330
CC8
100
AcDbEntity
  8
0
100
AcDbBlockBegin
  2
*D5
 70
     1
 10
0.0
 20
0.0
 30
0.0
  3
*D5
  1

  0
LINE
  5
48E5
330
CC8
100
AcDbEntity
  8
AM_5
 62
     3
100
AcDbLine
 10
-187.9999999999998
 20
-7.000002054481135
 30
0.0
 11
-187.9999999999998
 21
-32.50000305448095
 31
0.0
  0
LINE
  5
48E6
330
CC8
100
AcDbEntity
  8
AM_5
 62
     3
100
AcDbLine
 10
-2.999999999999329
 20
-7.400000645655286
 30
0.0
 11
-2.999999999999331
 21
-32.50000305448095
 31
0.0
  0
LINE
  5
48E7
330
CC8
100
AcDbEntity
  8
AM_5
 62
     3
100
AcDbLine
 10
-185.4999999999998
 20
-31.50000305448095
 30
0.0
 11
-5.499999999999331
 21
-31.50000305448095
 31
0.0
  0
INSERT
  5
48E8
330
CC8
100
AcDbEntity
  8
AM_5
 62
     3
100
AcDbBlockReference
  2
_OPEN30
 10
-187.9999999999998
 20
-31.50000305448095
 30
0.0
 41
2.5
 42
2.5
 43
2.5
 50
180.0
  0
INSERT
  5
48E9
330
CC8
100
AcDbEntity
  8
AM_5
 62
     3
100
AcDbBlockReference
  2
_OPEN30
 10
-2.999999999999331
 20
-31.50000305448095
 30
0.0
 41
2.5
 42
2.5
 43
2.5
  0
MTEXT
  5
48EA
330
CC8
100
AcDbEntity
  8
AM_5
 62
     2
100
AcDbMText
 10
-95.49999999999958
 20
-28.10000305448095
 30
0.0
 40
3.799999999999999
 41
0.0
 71
     5
 72
     1
  1
185
1001
ACAD
1000
MTEXTBEGIN
1070
    73
1070
     1
1070
    44
1040
1.0
1070
    74
1070
     0
1000
MTEXTEND
  0
POINT
  5
48EB
330
CC8
100
AcDbEntity
  8
DEFPOINTS
 62
     0
100
AcDbPoint
 10
-187.9999999999998
 20
-7.000002054481135
 30
0.0
  0
POINT
  5
48EC
330
CC8
100
AcDbEntity
  8
DEFPOINTS
 62
     0
100
AcDbPoint
 10
-2.999999999999329
 20
-7.400000645655286
 30
0.0
  0
POINT
  5
48ED
330
CC8
100
AcDbEntity
  8
DEFPOINTS
 62
     0
100
AcDbPoint
 10
-2.999999999999331
 20
-31.50000305448095
 30
0.0
  0
ENDBLK
  5
CD3
330
CC8
100
AcDbEntity
  8
0
100
AcDbBlockEnd
  0
BLOCK
  5
E00
330
DF6
100
AcDbEntity
  8
0
100
AcDbBlockBegin
  2
*D6
 70
     1
 10
0.0
 20
0.0
 30
0.0
  3
*D6
  1

  0
LINE
  5
48DC
330
DF6
100
AcDbEntity
  8
AM_5
 62
     3
100
AcDbLine
 10
-122.9999807595528
 20
-7.500002054481145
 30
0.0
 11
-122.9999807595528
 21
-22.50000305448082
 31
0.0
  0
LINE
  5
48DD
330
DF6
100
AcDbEntity
  8
AM_5
 62
     3
100
AcDbLine
 10
-2.999999999999318
 20
-7.40000064565527
 30
0.0
 11
-2.999999999999319
 21
-22.50000305448082
 31
0.0
  0
LINE
  5
48DE
330
DF6
100
AcDbEntity
  8
AM_5
 62
     3
100
AcDbLine
 10
-120.4999807595528
 20
-21.50000305448082
 30
0.0
 11
-5.499999999999319
 21
-21.50000305448082
 31
0.0
  0
INSERT
  5
48DF
330
DF6
100
AcDbEntity
  8
AM_5
 62
     3
100
AcDbBlockReference
  2
_OPEN30
 10
-122.9999807595528
 20
-21.50000305448082
 30
0.0
 41
2.5
 42
2.5
 43
2.5
 50
180.0
  0
INSERT
  5
48E0
330
DF6
100
AcDbEntity
  8
AM_5
 62
     3
100
AcDbBlockReference
  2
_OPEN30
 10
-2.999999999999319
 20
-21.50000305448082
 30
0.0
 41
2.5
 42
2.5
 43
2.5
  0
MTEXT
  5
48E1
330
DF6
100
AcDbEntity
  8
AM_5
 62
     2
100
AcDbMText
 10
-62.99999037977608
 20
-18.10000305448083
 30
0.0
 40
3.799999999999999
 41
0.0
 71
     5
 72
     1
  1
120
1001
ACAD
1000
MTEXTBEGIN
1070
    73
1070
     1
1070
    44
1040
1.0
1070
    74
1070
     0
1000
MTEXTEND
  0
POINT
  5
48E2
330
DF6
100
AcDbEntity
  8
DEFPOINTS
 62
     0
100
AcDbPoint
 10
-122.9999807595528
 20
-7.500002054481145
 30
0.0
  0
POINT
  5
48E3
330
DF6
100
AcDbEntity
  8
DEFPOINTS
 62
     0
100
AcDbPoint
 10
-2.999999999999318
 20
-7.40000064565527
 30
0.0
  0
POINT
  5
48E4
330
DF6
100
AcDbEntity
  8
DEFPOINTS
 62
     0
100
AcDbPoint
 10
-2.999999999999319
 20
-21.50000305448082
 30
0.0
  0
ENDBLK
  5
E01
330
DF6
100
AcDbEntity
  8
0
100
AcDbBlockEnd
  0
BLOCK
  5
1FC3
330
1FB7
100
AcDbEntity
  8
0
100
AcDbBlockBegin
  2
*D7
 70
     1
 10
0.0
 20
0.0
 30
0.0
  3
*D7
  1

  0
LINE
  5
4902
330
1FB7
100
AcDbEntity
  8
AM_5
 62
     3
100
AcDbLine
 10
-2.99999999999999
 20
-7.400000645656484
 30
0.0
 11
15.55592102485817
 21
-7.400000645656489
 31
0.0
  0
LINE
  5
4903
330
1FB7
100
AcDbEntity
  8
AM_5
 62
     3
100
AcDbLine
 10
-2.999999999999741
 20
7.399999354343152
 30
0.0
 11
15.55592102485817
 21
7.399999354343147
 31
0.0
  0
LINE
  5
4904
330
1FB7
100
AcDbEntity
  8
AM_5
 62
     3
100
AcDbLine
 10
14.55592102485817
 20
-4.900000645656489
 30
0.0
 11
14.55592102485817
 21
4.899999354343147
 31
0.0
  0
INSERT
  5
4905
330
1FB7
100
AcDbEntity
  8
AM_5
 62
     3
100
AcDbBlockReference
  2
_OPEN30
 10
14.55592102485817
 20
-7.400000645656489
 30
0.0
 41
2.5
 42
2.5
 43
2.5
 50
270.0
  0
INSERT
  5
4906
330
1FB7
100
AcDbEntity
  8
AM_5
 62
     3
100
AcDbBlockReference
  2
_OPEN30
 10
14.55592102485817
 20
7.399999354343147
 30
0.0
 41
2.5
 42
2.5
 43
2.5
 50
90.0
  0
MTEXT
  5
4907
330
1FB7
100
AcDbEntity
  8
AM_5
 62
     2
100
AcDbMText
 10
11.15592102485817
 20
-0.0000006456566682
 30
0.0
 40
3.799999999999999
 41
0.0
 71
     5
 72
     1
  1
%%c14.8
 11
0.0000000000000001
 21
1.0
 31
0.0
1001
ACAD
1000
MTEXTBEGIN
1070
    73
1070
     1
1070
    44
1040
1.0
1070
    74
1070
     0
1000
MTEXTEND
  0
POINT
  5
4908
330
1FB7
100
AcDbEntity
  8
DEFPOINTS
 62
     0
100
AcDbPoint
 10
-2.99999999999999
 20
-7.400000645656484
 30
0.0
  0
POINT
  5
4909
330
1FB7
100
AcDbEntity
  8
DEFPOINTS
 62
     0
100
AcDbPoint
 10
-2.999999999999741
 20
7.399999354343152
 30
0.0
  0
POINT
  5
490A
330
1FB7
100
AcDbEntity
  8
DEFPOINTS
 62
     0
100
AcDbPoint
 10
14.55592102485817
 20
7.399999354343147
 30
0.0
  0
ENDBLK
  5
1FC4
330
1FB7
100
AcDbEntity
  8
0
100
AcDbBlockEnd
  0
BLOCK
  5
2221
330
2217
100
AcDbEntity
  8
0
100
AcDbBlockBegin
  2
*D8
 70
     1
 10
0.0
 20
0.0
 30
0.0
  3
*D8
  1

  0
LINE
  5
48EE
330
2217
100
AcDbEntity
  8
AM_5
 62
     3
100
AcDbLine
 10
-187.5000000000003
 20
7.499999999998578
 30
0.0
 11
-205.0000009999998
 21
7.499999999998528
 31
0.0
  0
LINE
  5
48EF
330
2217
100
AcDbEntity
  8
AM_5
 62
     3
100
AcDbLine
 10
-187.5000000000003
 20
-7.500002054481229
 30
0.0
 11
-205.0000009999997
 21
-7.500002054481279
 31
0.0
  0
LINE
  5
48F0
330
2217
100
AcDbEntity
  8
AM_5
 62
     3
100
AcDbLine
 10
-204.0000009999998
 20
4.99999999999853
 30
0.0
 11
-204.0000009999998
 21
-5.000002054481276
 31
0.0
  0
INSERT
  5
48F1
330
2217
100
AcDbEntity
  8
AM_5
 62
     3
100
AcDbBlockReference
  2
_OPEN30
 10
-204.0000009999998
 20
7.49999999999853
 30
0.0
 41
2.5
 42
2.5
 43
2.5
 50
90.00000000000017
  0
INSERT
  5
48F2
330
2217
100
AcDbEntity
  8
AM_5
 62
     3
100
AcDbBlockReference
  2
_OPEN30
 10
-204.0000009999998
 20
-7.500002054481276
 30
0.0
 41
2.5
 42
2.5
 43
2.5
 50
270.0000000000001
  0
MTEXT
  5
48F3
330
2217
100
AcDbEntity
  8
AM_5
 62
     2
100
AcDbMText
 10
-207.4000009999998
 20
-0.0000010272413745
 30
0.0
 40
3.799999999999999
 41
0.0
 71
     5
 72
     1
  1
%%c15
 11
-0.0000000000000028
 21
1.0
 31
0.0
1001
ACAD
1000
MTEXTBEGIN
1070
    73
1070
     1
1070
    44
1040
1.0
1070
    74
1070
     0
1000
MTEXTEND
  0
POINT
  5
48F4
330
2217
100
AcDbEntity
  8
DEFPOINTS
 62
     0
100
AcDbPoint
 10
-187.5000000000003
 20
7.49999999999916
 30
0.0
  0
POINT
  5
48F5
330
2217
100
AcDbEntity
  8
DEFPOINTS
 62
     0
100
AcDbPoint
 10
-187.5000000000003
 20
-7.500002054480646
 30
0.0
  0
POINT
  5
48F6
330
2217
100
AcDbEntity
  8
DEFPOINTS
 62
     0
100
AcDbPoint
 10
-204.0000009999998
 20
-7.500002054480642
 30
0.0
  0
ENDBLK
  5
2222
330
2217
100
AcDbEntity
  8
0
100
AcDbBlockEnd
  0
BLOCK
  5
4927
330
4919
100
AcDbEntity
  8
0
100
AcDbBlockBegin
  2
*D9
 70
     1
 10
0.0
 20
0.0
 30
0.0
  3
*D9
  1

  0
LINE
  5
4A77
330
4919
100
AcDbEntity
  8
AM_5
100
AcDbLine
 10
0.3420201408163112
 20
-0.9396926216993904
 30
0.0
 11
8.909141504345587
 21
-24.47766531330937
 31
0.0
  0
LINE
  5
4A78
330
4919
100
AcDbEntity
  8
AM_5
100
AcDbLine
 10
0.3420224212245845
 20
0.9396917916953528
 30
0.0
 11
8.909200905759625
 21
24.47764369288116
 31
0.0
  0
ARC
  5
4A79
330
4919
100
AcDbEntity
  8
AM_5
100
AcDbCircle
 10
0.0000000000001705
 20
-0.0000000000000887
 30
0.0
 40
25.04858732320881
100
AcDbArc
 50
295.7208401262202
 51
64.27902083062426
  0
INSERT
  5
4A7A
330
4919
100
AcDbEntity
  8
AM_5
100
AcDbBlockReference
  2
_OPEN30
 10
8.567121363529446
 20
-23.53797269161006
 30
0.0
 41
2.5
 42
2.5
 43
2.5
 50
202.8604199866035
  0
INSERT
  5
4A7B
330
4919
100
AcDbEntity
  8
AM_5
100
AcDbBlockReference
  2
_OPEN30
 10
8.567178484535212
 20
23.53795190118572
 30
0.0
 41
2.5
 42
2.5
 43
2.5
 50
157.1394409702409
  0
MTEXT
  5
4A7C
330
4919
100
AcDbEntity
  8
AM_5
 62
     2
100
AcDbMText
 10
21.94858732319282
 20
-0.0000266319864669
 30
0.0
 40
3.2
 41
0.0
 71
     5
 72
     1
  1
140°
  7
ASAMI
 11
0.0000012133804333
 21
0.999999999999264
 31
0.0
  0
POINT
  5
4A7D
330
4919
100
AcDbEntity
  8
DEFPOINTS
 62
     0
100
AcDbPoint
 10
23.00000830043694
 20
-9.921257232239184
 30
0.0
  0
POINT
  5
4A7E
330
4919
100
AcDbEntity
  8
DEFPOINTS
 62
     0
100
AcDbPoint
 10
0.0000000000001705
 20
-0.0000000000000887
 30
0.0
  0
POINT
  5
4A7F
330
4919
100
AcDbEntity
  8
DEFPOINTS
 62
     0
100
AcDbPoint
 10
0.0000000000001421
 20
-0.0000000000000106
 30
0.0
  0
POINT
  5
4A80
330
4919
100
AcDbEntity
  8
DEFPOINTS
 62
     0
100
AcDbPoint
 10
-0.6133936239359067
 20
1.685285145005416
 30
0.0
  0
POINT
  5
4A81
330
4919
100
AcDbEntity
  8
DEFPOINTS
 62
     0
100
AcDbPoint
 10
-0.6134061199818614
 20
-1.68530675228652
 30
0.0
  0
ENDBLK
  5
4928
330
4919
100
AcDbEntity
  8
0
100
AcDbBlockEnd
  0
ENDSEC
  0
SECTION
  2
ENTITIES
  0
LINE
  5
C9F
330
1F
100
AcDbEntity
  8
AM_7
100
AcDbLine
 10
-189.9999999999998
 20
-0.0000000000003277
 30
0.0
 11
0.555920024858196
 21
0.000000000000001
 31
0.0
1001
GENIUS_GENODEF_13
1002
{
1000
HIER
1070
     0
1002
}
1002
{
1000
MANEDIT
1070
     0
1002
}
1002
{
1000
NOSEL
1070
     0
1002
}
1002
{
1000
BEHIND
1070
     0
1002
}
1002
{
1000
REACTOR
1002
}
1001
GENIUS_GENOBJ-N-CEN_13
1002
{
1000
OWNER
1000
GEN
1002
}
  0
DIMENSION
  5
CC6
330
1F
100
AcDbEntity
  8
AM_5
100
AcDbDimension
  2
*D5
 10
-2.999999999999331
 20
-31.50000305448095
 30
0.0
 11
-95.49999999999958
 21
-28.10000305448095
 31
0.0
 70
    32
  1
<>
  3
AM_JIS$0
100
AcDbAlignedDimension
 13
-187.9999999999998
 23
-7.000002054481135
 33
0.0
 14
-2.999999999999329
 24
-7.400000645655286
 34
0.0
 50
0.0000000000001132
100
AcDbRotatedDimension
1001
GENIUS_GENDTOL_13
1000

1000
h7
1000

1040
0.0
1001
ACAD
1000
DSTYLE
1002
{
1070
   271
1070
     0
1002
}
  0
DIMENSION
  5
DF5
330
1F
100
AcDbEntity
  8
AM_5
100
AcDbDimension
  2
*D6
 10
-2.999999999999319
 20
-21.50000305448082
 30
0.0
 11
-62.99999037977608
 21
-18.10000305448083
 31
0.0
 70
    32
  1
<>
  3
AM_JIS$0
100
AcDbAlignedDimension
 13
-122.9999807595528
 23
-7.500002054481145
 33
0.0
 14
-2.999999999999318
 24
-7.40000064565527
 34
0.0
 50
0.0000000000001527
100
AcDbRotatedDimension
1001
GENIUS_GENDTOL_13
1000

1000
h7
1000

1040
0.0
1001
ACAD
1000
DSTYLE
1002
{
1070
   271
1070
     0
1002
}
  0
TEXT
  5
19BD
330
1F
100
AcDbEntity
  8
AM_6
100
AcDbText
 10
-116.6904761904756
 20
-54.00000305448101
 30
0.0
 40
5.0
  1
MDW148LHK
 50
0.0000000000001527
 72
     4
 11
-95.49999999999947
 21
-51.50000305448095
 31
0.0
100
AcDbText
  0
LINE
  5
1E25
330
1F
100
AcDbEntity
  8
AM_0
100
AcDbLine
 10
-122.9999999999997
 20
-7.500002054481144
 30
0.0
 11
-122.8267924790773
 21
-7.400000645650873
 31
0.0
  0
LINE
  5
1E26
330
1F
100
AcDbEntity
  8
AM_0
100
AcDbLine
 10
-122.8267938009432
 20
7.399999354349109
 30
0.0
 11
-122.9999999999997
 21
7.499999999999686
 31
0.0
  0
DIMENSION
  5
1FB6
330
1F
100
AcDbEntity
  8
AM_5
100
AcDbDimension
  2
*D7
 10
14.55592102485817
 20
7.399999354343147
 30
0.0
 11
14.55592102485817
 21
-0.0000006456566686
 31
0.0
 70
   160
  1
%%c<>
  3
AM_JIS$0
100
AcDbAlignedDimension
 13
-2.99999999999999
 23
-7.400000645656484
 33
0.0
 14
-2.999999999999741
 24
7.399999354343152
 34
0.0
 50
89.99999999999969
100
AcDbRotatedDimension
1001
ACAD
1000
DSTYLE
1002
{
1070
   271
1070
     1
1002
}
1001
GENIUS_GENDTOL_13
1000

1000
h7
1000

1040
0.0
  0
LINE
  5
1FD9
330
1F
100
AcDbEntity
  8
AM_0
100
AcDbLine
 10
-122.8267924790773
 20
-7.400000645650881
 30
0.0
 11
-122.8267930991818
 21
-5.673351608823251
 31
0.0
  0
LINE
  5
21D7
330
1F
100
AcDbEntity
  8
AM_0
 48
0.5
100
AcDbLine
 10
-122.9999807595528
 20
-7.500002054481145
 30
0.0
 11
-122.9999807595528
 21
7.499999999999686
 31
0.0
  0
LINE
  5
21D8
330
1F
100
AcDbEntity
  8
AM_0
 48
0.5
100
AcDbLine
 10
-187.4999999999998
 20
7.499999999999672
 30
0.0
 11
-122.9999807595527
 21
7.499999999999686
 31
0.0
1001
GENIUS_GENODEF_13
1002
{
1000
HIER
1070
     0
1002
}
1002
{
1000
MANEDIT
1070
     0
1002
}
1002
{
1000
NOSEL
1070
     0
1002
}
1002
{
1000
BEHIND
1070
     0
1002
}
1002
{
1000
REACTOR
1002
}
1001
GENIUS_GENOBJ-N-CEN_13
1002
{
1000
OWNER
1000
GEN
1002
}
  0
LINE
  5
21D9
330
1F
100
AcDbEntity
  8
AM_0
 48
0.5
100
AcDbLine
 10
-187.4999999999998
 20
-7.500002054481158
 30
0.0
 11
-122.9999807595528
 21
-7.500002054481145
 31
0.0
1001
GENIUS_GENODEF_13
1002
{
1000
HIER
1070
     0
1002
}
1002
{
1000
MANEDIT
1070
     0
1002
}
1002
{
1000
NOSEL
1070
     0
1002
}
1002
{
1000
BEHIND
1070
     0
1002
}
1002
{
1000
REACTOR
1002
}
1001
GENIUS_GENOBJ-N-CEN_13
1002
{
1000
OWNER
1000
GEN
1002
}
  0
LINE
  5
21DC
330
1F
100
AcDbEntity
  8
AM_0
100
AcDbLine
 10
-187.5000000000003
 20
-7.500002054480652
 30
0.0
 11
-187.5000000000003
 21
7.499999999999184
 31
0.0
  0
LINE
  5
21DD
330
1F
100
AcDbEntity
  8
AM_0
 48
0.5
100
AcDbLine
 10
-187.9999999999998
 20
-7.000002054481135
 30
0.0
 11
-187.9999999999998
 21
6.999999999999697
 31
0.0
  0
DIMENSION
  5
2216
330
1F
100
AcDbEntity
  8
AM_5
100
AcDbDimension
  2
*D8
 10
-204.0000009999998
 20
-7.500002054480642
 30
0.0
 11
-207.4000009999998
 21
-0.0000010272407711
 31
0.0
 70
    32
  1
%%c<>
 51
359.9999999999998
  3
AM_JIS$0
100
AcDbAlignedDimension
 13
-187.5000000000003
 23
7.49999999999916
 33
0.0
 14
-187.5000000000003
 24
-7.500002054480646
 34
0.0
 50
269.9999999999999
100
AcDbRotatedDimension
1001
ACAD
1000
DSTYLE
1002
{
1070
   271
1070
     0
1002
}
1001
GENIUS_GENDTOL_13
1000

1000
h7
1000

1040
0.0
  0
ELLIPSE
  5
2694
330
1F
100
AcDbEntity
  8
AM_0
 48
0.5
100
AcDbEllipse
 10
8.606834868096036
 20
6.91148191245487
 30
0.0
 11
10.62451473362349
 21
0.0000000000010481
 31
0.0
210
0.0
220
0.0
230
1.0
 40
0.9899999999999973
 41
3.323896559076802
 42
3.661579236128986
  0
LINE
  5
2695
330
1F
100
AcDbEntity
  8
AM_0
 48
0.5
100
AcDbLine
 10
-1.84161693959013
 20
5.004564032390694
 30
0.0
 11
-2.999999999999741
 21
7.399999354343152
 31
0.0
  0
LINE
  5
2696
330
1F
100
AcDbEntity
  8
AM_0
 48
0.5
100
AcDbLine
 10
0.0000000000001421
 20
-0.0000000000000106
 30
0.0
 11
-0.6133936239359067
 21
1.685285145005416
 31
0.0
  0
LINE
  5
2699
330
1F
100
AcDbEntity
  8
AM_0
 48
0.5
100
AcDbLine
 10
0.0000000000001705
 20
-0.0000000000000887
 30
0.0
 11
-0.6134061199818614
 21
-1.68530675228652
 31
0.0
  0
LINE
  5
2CB4
330
1F
100
AcDbEntity
  8
AM_0
 48
0.5
100
AcDbLine
 10
-187.9999999999998
 20
6.999999999999672
 30
0.0
 11
-187.4999999999998
 21
7.499999999999672
 31
0.0
1001
GENIUS_GENFIL_13
1070
     0
1040
0.5
1040
0.5
1040
20.0
1040
0.0
1002
{
1002
}
1001
GENIUS_GENODEF_13
1002
{
1000
HIER
1070
     0
1002
}
1002
{
1000
MANEDIT
1070
     0
1002
}
1002
{
1000
NOSEL
1070
     0
1002
}
1002
{
1000
BEHIND
1070
     0
1002
}
1002
{
1000
REACTOR
1002
}
1001
GENIUS_GENOBJ-N-CHA_13
1002
{
1000
OWNER
1000
GEN
1002
}
  0
LINE
  5
2CB7
330
1F
100
AcDbEntity
  8
AM_0
 48
0.5
100
AcDbLine
 10
-187.4999999999998
 20
-7.500002054481158
 30
0.0
 11
-187.9999999999998
 21
-7.000002054481158
 31
0.0
1001
GENIUS_GENFIL_13
1070
     0
1040
0.5
1040
0.5
1040
20.0
1040
0.0
1002
{
1002
}
1001
GENIUS_GENODEF_13
1002
{
1000
HIER
1070
     0
1002
}
1002
{
1000
MANEDIT
1070
     0
1002
}
1002
{
1000
NOSEL
1070
     0
1002
}
1002
{
1000
BEHIND
1070
     0
1002
}
1002
{
1000
REACTOR
1002
}
1001
GENIUS_GENOBJ-N-CHA_13
1002
{
1000
OWNER
1000
GEN
1002
}
  0
ELLIPSE
  5
3366
330
1F
100
AcDbEntity
  8
AM_0
 48
0.5
100
AcDbEllipse
 10
8.60683486809606
 20
-6.911481912454847
 30
0.0
 11
10.62451473362349
 21
-0.0000000000010127
 31
0.0
210
0.0
220
0.0
230
-1.0
 40
0.9899999999999973
 41
3.323896559076802
 42
3.661579236128986
  0
LINE
  5
3367
330
1F
100
AcDbEntity
  8
AM_0
 48
0.5
100
AcDbLine
 10
-1.841616939590115
 20
-5.004564032390716
 30
0.0
 11
-2.99999999999999
 21
-7.400000645656484
 31
0.0
  0
LINE
  5
46B5
330
1F
100
AcDbEntity
  8
AM_0
100
AcDbLine
 10
-122.8267970566299
 20
5.345959059637768
 30
0.0
 11
-122.8267977943137
 21
7.400001659922653
 31
0.0
  0
LINE
  5
46B6
330
1F
100
AcDbEntity
  8
AM_0
100
AcDbLine
 10
-122.8267939313738
 20
-3.35615567100298
 30
0.0
 11
-122.8267967849213
 21
4.589400417350024
 31
0.0
  0
LINE
  5
46B7
330
1F
100
AcDbEntity
  8
AM_0
100
AcDbLine
 10
-122.8267932478628
 20
-5.259356873332734
 30
0.0
 11
-122.8267938977626
 21
-3.449744429180428
 31
0.0
  0
SPLINE
  5
47D1
330
1F
100
AcDbEntity
  8
AM_0
100
AcDbSpline
210
0.0
220
0.0
230
1.0
 70
     8
 71
     3
 72
    21
 73
    17
 74
     0
 42
0.0000000001
 43
0.0000000001
 40
17.46072332543636
 40
17.46072332543636
 40
17.46072332543636
 40
17.46072332543636
 40
18.41823744757437
 40
19.46215659509824
 40
20.51397914882054
 40
21.57394542641293
 40
22.64209583141747
 40
23.71826625065247
 40
24.80210429862395
 40
25.8930771157021
 40
26.99048705697709
 40
28.09349309193389
 40
29.20112995599786
 40
30.31233024745139
 40
31.42594771747373
 40
32.5407895042663
 40
32.54078950426994
 40
32.54078950426994
 40
32.54078950426994
 10
-91.33208035500471
 20
-7.400000645652291
 30
0.0
 10
-94.44927298574665
 20
-6.626852034234801
 30
0.0
 10
-96.2036424245849
 20
-6.084939372055006
 30
0.0
 10
-97.47190832712313
 20
-5.793711278258141
 30
0.0
 10
-98.77283475898185
 20
-5.460836705249663
 30
0.0
 10
-100.0736378001265
 20
-5.095923720843449
 30
0.0
 10
-101.3743157322867
 20
-4.701209781164556
 30
0.0
 10
-102.6748845652996
 20
-4.279151373454735
 30
0.0
 10
-103.9753503211645
 20
-3.832342332890232
 30
0.0
 10
-105.275725032282
 20
-3.363538106341879
 30
0.0
 10
-106.5760231579944
 20
-2.875630918941926
 30
0.0
 10
-107.876255984105
 20
-2.371620926740379
 30
0.0
 10
-109.1764365995594
 20
-1.854608884376728
 30
0.0
 10
-110.4765765293271
 20
-1.327773830687523
 30
0.0
 10
-111.7766950338504
 20
-0.7943666227125923
 30
0.0
 10
-112.6432705717373
 20
-0.4366217230250919
 30
0.0
 10
-113.07679639522
 20
-0.2576510126870953
 30
0.0
  0
ELLIPSE
  5
47D2
330
1F
100
AcDbEntity
  8
AM_0
100
AcDbEllipse
 10
-121.5431896402151
 20
-2.183721049157537
 30
0.0
 11
-0.00000000000487
 21
3.748827156335298
 31
0.0
210
0.0
220
0.0
230
1.0
 40
0.9527027027029502
 41
2.827283645644306
 42
2.960363693369852
  0
ELLIPSE
  5
47D3
330
1F
100
AcDbEntity
  8
AM_0
100
AcDbEllipse
 10
-122.4668072739145
 20
-5.003833936413133
 30
0.0
 11
0.0000000000043666
 21
0.7687848692874559
 31
0.0
210
0.0
220
0.0
230
1.0
 40
0.952702702702172
 41
2.598176912243582
 42
2.892513815374735
  0
ELLIPSE
  5
47D4
330
1F
100
AcDbEntity
  8
AM_0
100
AcDbEllipse
 10
-122.5996357829013
 20
-5.232043703571713
 30
0.0
 11
0.0000000000024442
 21
0.5013607284436599
 31
0.0
210
0.0
220
0.0
230
1.0
 40
0.9527027027026184
 41
2.250206732581042
 42
2.600849383087133
  0
ELLIPSE
  5
47D5
330
1F
100
AcDbEntity
  8
AM_0
100
AcDbEllipse
 10
-122.869120025949
 20
-5.461146115877949
 30
0.0
 11
-0.0000000000000371
 21
0.137357386225044
 31
0.0
210
0.0
220
0.0
230
1.0
 40
0.9527027027027184
 41
1.570250563378543
 42
2.246594350020548
  0
ELLIPSE
  5
47D6
330
1F
100
AcDbEntity
  8
AM_0
100
AcDbEllipse
 10
-122.8726273072811
 20
-5.462795233370773
 30
0.0
 11
0.0000000000008378
 21
0.1336870817756587
 31
0.0
210
0.0
220
0.0
230
1.0
 40
0.9527027027019913
 41
0.8708229448587797
 42
1.557899568962736
  0
ELLIPSE
  5
47D7
330
1F
100
AcDbEntity
  8
AM_0
100
AcDbEllipse
 10
-122.6318159210362
 20
-5.677655294937337
 30
0.0
 11
-0.0000000000009501
 21
0.4654326605451085
 31
0.0
210
0.0
220
0.0
230
1.0
 40
0.9527027027026555
 41
0.5028645116642437
 42
0.8675868530666686
  0
ELLIPSE
  5
47D8
330
1F
100
AcDbEntity
  8
AM_0
100
AcDbEllipse
 10
-122.5251846499899
 20
-5.876471816230514
 30
0.0
 11
0.0000000000006578
 21
0.6935813308875464
 31
0.0
210
0.0
220
0.0
230
1.0
 40
0.9527027027028386
 41
0.1926332863341384
 42
0.5061117441987251
  0
ELLIPSE
  5
47D9
330
1F
100
AcDbEntity
  8
AM_0
100
AcDbEllipse
 10
-121.8510660136637
 20
-8.763144055851769
 30
0.0
 11
0.0000000000004663
 21
3.665069856793368
 31
0.0
210
0.0
220
0.0
230
1.0
 40
0.9527027027027454
 41
0.0952766170361532
 42
0.2313492321877928
  0
ELLIPSE
  5
47DA
330
1F
100
AcDbEntity
  8
AM_0
100
AcDbEllipse
 10
-121.1181419661691
 20
-7.493000576065748
 30
0.0
 11
1.577669607806613
 21
1.210047703766878
 31
0.0
210
0.0
220
0.0
230
1.0
 40
0.8713678916006728
 41
1.231775244597192
 42
2.423644072272957
  0
ELLIPSE
  5
47DB
330
1F
100
AcDbEntity
  8
AM_0
100
AcDbEllipse
 10
-121.974600828086
 20
-3.45161762439897
 30
0.0
 11
0.0000000000004245
 21
2.42331959556192
 31
0.0
210
0.0
220
0.0
230
1.0
 40
0.95270270270298
 41
3.13728034172795
 42
3.227451753246043
  0
ELLIPSE
  5
47DC
330
1F
100
AcDbEntity
  8
AM_0
100
AcDbEllipse
 10
-122.0658392522291
 20
-4.693677095116358
 30
0.0
 11
0.0000000000001369
 21
1.184314737347608
 31
0.0
210
0.0
220
0.0
230
1.0
 40
0.9527027027028383
 41
3.034077686512306
 42
3.213695009857937
  0
ELLIPSE
  5
47DD
330
1F
100
AcDbEntity
  8
AM_0
100
AcDbEllipse
 10
-122.1273215417352
 20
-6.323575205782822
 30
0.0
 11
-0.0000000000002019
 21
1.210302683241945
 31
0.0
210
0.0
220
0.0
230
1.0
 40
0.9527027027028868
 41
-0.1305094391971295
 42
0.0485168534967109
  0
ELLIPSE
  5
47DE
330
1F
100
AcDbEntity
  8
AM_0
100
AcDbEllipse
 10
-122.215273337885
 20
-7.071857272042786
 30
0.0
 11
0.0000000000063287
 21
1.96424407978381
 31
0.0
210
0.0
220
0.0
230
1.0
 40
0.9527027027019245
 41
-0.2679377313968689
 42
-0.1275323195029272
  0
SPLINE
  5
47DF
330
1F
100
AcDbEntity
  8
AM_0
100
AcDbSpline
210
0.0
220
0.0
230
1.0
 70
     8
 71
     3
 72
    14
 73
    10
 74
     0
 42
0.0000000001
 43
0.0000000001
 40
4.563347739497467
 40
4.563347739497467
 40
4.563347739497467
 40
4.563347739497467
 40
5.079857003664532
 40
6.109500240690281
 40
7.145961322679372
 40
8.189895241603872
 40
9.241717795325891
 40
10.30168407291828
 40
10.55450228288433
 40
10.55450228288433
 40
10.55450228288433
 40
10.55450228288433
 10
-109.5243434496507
 20
-7.40000064565152
 30
0.0
 10
-110.2479018114992
 20
-7.400000645651486
 30
0.0
 10
-112.1280815971364
 20
-7.207150535514362
 30
0.0
 10
-116.0800744406236
 20
-6.558438092734517
 30
0.0
 10
-117.3812680832117
 20
-6.29564315704463
 30
0.0
 10
-118.6823353218942
 20
-5.996889652313861
 30
0.0
 10
-119.9832672940319
 20
-5.66401190693766
 30
0.0
 10
-120.9505462744948
 20
-5.392662452263751
 30
0.0
 10
-121.4850121732546
 20
-5.235188786483202
 30
0.0
 10
-121.7198484097101
 20
-5.177699545536987
 30
0.0
  0
SPLINE
  5
47E0
330
1F
100
AcDbEntity
  8
AM_0
100
AcDbSpline
210
0.0
220
0.0
230
1.0
 70
     8
 71
     3
 72
    17
 73
    13
 74
     0
 42
0.0000000001
 43
0.0000000001
 40
3.731426397987522
 40
3.731426397987522
 40
3.731426397987522
 40
3.731426397987522
 40
4.232934581347659
 40
5.09097061220244
 40
5.954688180526682
 40
6.824620803463244
 40
7.701151815239697
 40
8.58445704656667
 40
9.47458238407075
 40
10.37139106676736
 40
11.27458944007584
 40
12.17321262433756
 40
12.17321262433756
 40
12.17321262433756
 40
12.17321262433756
 10
-106.4108250319125
 20
-7.400183348891355
 30
0.0
 10
-107.1956196491041
 20
-7.276658737188015
 30
0.0
 10
-107.8859554227821
 20
-7.172398611655587
 30
0.0
 10
-109.0096007472334
 20
-6.975775772585254
 30
0.0
 10
-110.3107887068239
 20
-6.709977953659765
 30
0.0
 10
-111.611853123362
 20
-6.407825472381288
 30
0.0
 10
-116.3395057370279
 20
-5.520303844656516
 30
0.0
 10
-117.640314087326
 20
-5.151240600419887
 30
0.0
 10
-118.9409922058537
 20
-4.75204176816783
 30
0.0
 10
-120.241560988701
 20
-4.325187109217725
 30
0.0
 10
-121.536976474027
 20
-3.875055601146848
 30
0.0
 10
-122.3962582218613
 20
-3.561837626663683
 30
0.0
 10
-122.9999807595968
 20
-3.40295004541933
 30
0.0
  0
SPLINE
  5
47E1
330
1F
100
AcDbEntity
  8
AM_0
100
AcDbSpline
210
0.0
220
0.0
230
1.0
 70
     8
 71
     3
 72
    15
 73
    11
 74
     0
 42
0.0000000001
 43
0.0000000001
 40
5.241236682593577
 40
5.241236682593577
 40
5.241236682593577
 40
5.241236682593577
 40
5.954688180526682
 40
6.824620803463244
 40
7.701151815239697
 40
8.58445704656667
 40
9.47458238407075
 40
10.37139106676736
 40
11.27458944007584
 40
12.17321262433756
 40
12.17321262433756
 40
12.17321262433756
 40
12.17321262433756
 10
-112.658970369665
 20
-0.4301220852450437
 30
0.0
 10
-113.0179447342255
 20
-0.4999862878118499
 30
0.0
 10
-113.8124074881063
 20
-0.6641865619724225
 30
0.0
 10
-115.0385706537383
 20
-0.9489443635374918
 30
0.0
 10
-116.3395057370278
 20
-1.285596246205684
 30
0.0
 10
-117.6403140873259
 20
-1.654659490442233
 30
0.0
 10
-118.9409922058536
 20
-2.053858322694225
 30
0.0
 10
-120.2415609887008
 20
-2.480712981644251
 30
0.0
 10
-121.5369764740269
 20
-2.930844489715042
 30
0.0
 10
-122.3962582218613
 20
-3.244062464198159
 30
0.0
 10
-122.9999807595968
 20
-3.40295004544248
 30
0.0
  0
SPLINE
  5
47E2
330
1F
100
AcDbEntity
  8
AM_0
100
AcDbSpline
210
0.0
220
0.0
230
1.0
 70
     8
 71
     3
 72
     9
 73
     5
 74
     0
 42
0.0000000001
 43
0.0000000001
 40
1.580019955310467
 40
1.580019955310467
 40
1.580019955310467
 40
1.580019955310467
 40
2.030549285115227
 40
2.43907978603305
 40
2.43907978603305
 40
2.43907978603305
 40
2.43907978603305
 10
-120.5304263230326
 20
-5.507989391974404
 30
0.0
 10
-120.7145891168021
 20
-5.559960971936961
 30
0.0
 10
-121.0663469602951
 20
-5.657365257449911
 30
0.0
 10
-121.4195753612033
 20
-5.750618360328
 30
0.0
 10
-121.5878469287699
 20
-5.794100314018521
 30
0.0
  0
LINE
  5
47E3
330
1F
100
AcDbEntity
  8
AM_0
 48
0.5
100
AcDbLine
 10
-122.8267924790773
 20
-7.400000645650881
 30
0.0
 11
-69.7205534652026
 21
-7.400000645653435
 31
0.0
  0
LINE
  5
47E4
330
1F
100
AcDbEntity
  8
AM_0
100
AcDbLine
 10
-121.5114826446887
 20
7.399999354348543
 30
0.0
 11
-122.8267938009432
 21
7.399999354349109
 31
0.0
  0
LINE
  5
47E5
330
1F
100
AcDbEntity
  8
AM_11
 48
0.5
100
AcDbLine
 10
-121.5114826446887
 20
7.399999354348543
 30
0.0
 11
-93.63006449559772
 21
7.399999354347611
 31
0.0
  0
POLYLINE
  5
47E6
330
1F
100
AcDbEntity
  8
AM_0
100
AcDb2dPolyline
 66
     1
 10
0.0
 20
0.0
 30
0.0
 70
     2
  0
VERTEX
  5
47E7
330
47E6
100
AcDbEntity
  8
AM_0
100
AcDbVertex
100
AcDb2dVertex
 10
-118.3994179232015
 20
6.559900587394499
 30
0.0
 42
0.0862297278188617
  0
VERTEX
  5
47E8
330
47E6
100
AcDbEntity
  8
AM_0
100
AcDbVertex
100
AcDb2dVertex
 10
-121.2118900969002
 20
6.322106150214235
 30
0.0
 42
0.0414024687830266
 70
     1
  0
VERTEX
  5
47E9
330
47E6
100
AcDbEntity
  8
AM_0
100
AcDbVertex
100
AcDb2dVertex
 10
-121.5518746206523
 20
6.194271475836611
 30
0.0
 42
0.0280074108471844
  0
VERTEX
  5
47EA
330
47E6
100
AcDbEntity
  8
AM_0
100
AcDbVertex
100
AcDb2dVertex
 10
-122.3270518676949
 20
5.769704046709083
 30
0.0
 42
0.0512701366748525
 70
     1
  0
VERTEX
  5
47EB
330
47E6
100
AcDbEntity
  8
AM_0
100
AcDbVertex
100
AcDb2dVertex
 10
-122.7103595317727
 20
5.471349175012512
 30
0.0
 42
0.0658714570033076
  0
VERTEX
  5
47EC
330
47E6
100
AcDbEntity
  8
AM_0
100
AcDbVertex
100
AcDb2dVertex
 10
-122.9509277963703
 20
5.170917888230141
 30
0.0
 42
0.1411961588081283
 70
     1
  0
VERTEX
  5
47ED
330
47E6
100
AcDbEntity
  8
AM_0
100
AcDbVertex
100
AcDb2dVertex
 10
-122.9999807595527
 20
4.993505736969995
 30
0.0
 42
0.1226739033459629
  0
VERTEX
  5
47EE
330
47E6
100
AcDbEntity
  8
AM_0
100
AcDbVertex
100
AcDb2dVertex
 10
-122.9521264277822
 20
4.798442954365426
 30
0.0
 42
0.0555312784770531
 70
     1
  0
VERTEX
  5
47EF
330
47E6
100
AcDbEntity
  8
AM_0
100
AcDbVertex
100
AcDb2dVertex
 10
-122.7103595317727
 20
4.436561959973823
 30
0.0
 42
0.0351528005485752
  0
VERTEX
  5
47F0
330
47E6
100
AcDbEntity
  8
AM_0
100
AcDbVertex
100
AcDb2dVertex
 10
-122.3196301468833
 20
4.032948651115064
 30
0.0
 42
0.0198940146009696
 70
     1
  0
VERTEX
  5
47F1
330
47E6
100
AcDbEntity
  8
AM_0
100
AcDbVertex
100
AcDb2dVertex
 10
-121.5207204285322
 20
3.451938133855076
 30
0.0
 42
0.0358460074876439
  0
VERTEX
  5
47F2
330
47E6
100
AcDbEntity
  8
AM_0
100
AcDbVertex
100
AcDb2dVertex
 10
-121.2058257384583
 20
3.245865908647243
 30
0.0
 42
0.021710998496176
 70
     1
  0
VERTEX
  5
47F3
330
47E6
100
AcDbEntity
  8
AM_0
100
AcDbVertex
100
AcDb2dVertex
 10
-120.6518567451919
 20
2.969558254212611
 30
0.0
  0
SEQEND
  5
47F4
330
47E6
100
AcDbEntity
  8
AM_0
  0
ELLIPSE
  5
47F5
330
1F
100
AcDbEntity
  8
AM_0
100
AcDbEllipse
 10
-118.5508854443608
 20
24.62279211555081
 30
0.0
 11
-7.14648253467672
 21
17.27700548709176
 31
0.0
210
0.0
220
0.0
230
1.0
 40
0.8141358275617909
 41
2.482737135781523
 42
2.681107260149042
  0
LINE
  5
47F6
330
1F
100
AcDbEntity
  8
AM_0
 48
0.5
100
AcDbLine
 10
-8.142623058692711
 20
7.399999354343405
 30
0.0
 11
-2.999999999999741
 21
7.399999354343152
 31
0.0
  0
LINE
  5
47F7
330
1F
100
AcDbEntity
  8
AM_0
 48
0.5
100
AcDbLine
 10
-8.142623058693375
 20
-7.400000645656604
 30
0.0
 11
-2.999999999999974
 21
-7.400000645656509
 31
0.0
  0
LINE
  5
47F8
330
1F
100
AcDbEntity
  8
AM_11
 48
0.5
100
AcDbLine
 10
-29.45101346883203
 20
7.399999354344488
 30
0.0
 11
-8.142623058692711
 21
7.399999354343405
 31
0.0
  0
LINE
  5
47F9
330
1F
100
AcDbEntity
  8
AM_11
 48
0.5
100
AcDbLine
 10
-29.4510134688327
 20
-7.400000645655502
 30
0.0
 11
-8.142623058693375
 21
-7.400000645656604
 31
0.0
  0
LINE
  5
47FA
330
1F
100
AcDbEntity
  8
AM_11
 48
0.5
100
AcDbLine
 10
-66.9585455127741
 20
7.401050658642479
 30
0.0
 11
-53.36034768342106
 21
7.399999354345706
 31
0.0
  0
LINE
  5
47FB
330
1F
100
AcDbEntity
  8
AM_11
 48
0.5
100
AcDbLine
 10
-69.72055660462683
 20
-7.400000645653611
 30
0.0
 11
-48.41216619449028
 21
-7.401051949950748
 31
0.0
  0
LINE
  5
47FC
330
1F
100
AcDbEntity
  8
AM_0
 48
0.5
100
AcDbLine
 10
-53.36036603621239
 20
7.399999354345706
 30
0.0
 11
-29.45101346883203
 21
7.399999354344488
 31
0.0
  0
LINE
  5
47FD
330
1F
100
AcDbEntity
  8
AM_0
 48
0.5
100
AcDbLine
 10
-48.41216619449026
 20
-7.400000645654695
 30
0.0
 11
-29.4510134688327
 21
-7.400000645655502
 31
0.0
  0
LINE
  5
47FE
330
1F
100
AcDbEntity
  8
AM_0
 48
0.5
100
AcDbLine
 10
0.0000000000001705
 20
-0.0000000000000887
 30
0.0
 11
-5.376201221753396
 21
2.841374578138307
 31
0.0
  0
SPLINE
  5
47FF
330
1F
100
AcDbEntity
  8
AM_0
 48
0.5
100
AcDbSpline
210
0.0
220
0.0
230
1.0
 70
     8
 71
     3
 72
    25
 73
    21
 74
     0
 42
0.0000000001
 43
0.0000000001
 40
6.846175049578289
 40
6.846175049578289
 40
6.846175049578289
 40
6.846175049578289
 40
7.604337694224321
 40
8.711974558287883
 40
9.814980593243754
 40
10.91239053451967
 40
12.0033633515982
 40
13.08720139956839
 40
14.16337181880432
 40
15.23152222380919
 40
16.29148850140128
 40
17.34331105512262
 40
18.38723020264746
 40
19.42369128463655
 40
20.45333379090873
 40
21.47697865721768
 40
22.49561244472435
 40
23.5103574802404
 40
24.52244778960836
 40
25.53320666051913
 40
25.53320666051913
 40
25.53320666051913
 40
25.53320666051913
 10
-9.461855729134597
 20
1.339447801039676
 30
0.0
 10
-9.718819560687931
 20
1.469378640188141
 30
0.0
 10
-10.35173520547167
 20
1.787831607900003
 30
0.0
 10
-11.36154324344025
 20
2.287917404781278
 30
0.0
 10
-12.49147840938476
 20
2.833400071443593
 30
0.0
 10
-13.62147040050264
 20
3.36145471697193
 30
0.0
 10
-14.75152892553099
 20
3.868834564446388
 30
0.0
 10
-15.8816665761106
 20
4.352409334805596
 30
0.0
 10
-17.01189380246486
 20
4.809196870743448
 30
0.0
 10
-18.14221583695059
 20
5.236389882224198
 30
0.0
 10
-19.27264660223556
 20
5.631329810707576
 30
0.0
 10
-20.4031845675816
 20
5.99159486971367
 30
0.0
 10
-21.53383785340564
 20
6.314937009046324
 30
0.0
 10
-22.66460246958028
 20
6.599355114618091
 30
0.0
 10
-23.79547399876741
 20
6.84310590693342
 30
0.0
 10
-24.92644614819854
 20
7.044573692680166
 30
0.0
 10
-26.0575013204011
 20
7.202836407664318
 30
0.0
 10
-27.18862704999921
 20
7.31574445155877
 30
0.0
 10
-28.31980497541381
 20
7.386794927568257
 30
0.0
 10
-29.07410946532252
 20
7.39559981054248
 30
0.0
 10
-29.45101346883202
 20
7.39999935434449
 30
0.0
  0
SPLINE
  5
4800
330
1F
100
AcDbEntity
  8
AM_0
100
AcDbSpline
210
0.0
220
0.0
230
1.0
 70
     8
 71
     3
 72
    23
 73
    19
 74
     0
 42
0.0000000001
 43
0.0000000001
 40
16.03460024169435
 40
16.03460024169435
 40
16.03460024169435
 40
16.03460024169435
 40
16.35212704903564
 40
17.38177054169784
 40
18.41822485651776
 40
19.46214173629503
 40
20.51396345435107
 40
21.57393551351153
 40
22.64208202342361
 40
23.7182574881101
 40
24.80209208578934
 40
25.89306333925047
 40
26.99048218457928
 40
28.09348763352352
 40
29.20111863782268
 40
30.31232390128032
 40
31.42594612798585
 40
32.5407912310448
 40
32.5407912310486
 40
32.5407912310486
 40
32.5407912310486
 10
-66.9585455127741
 20
7.401050658642476
 30
0.0
 10
-66.84233136721862
 20
7.376069561779622
 30
0.0
 10
-66.3497647520203
 20
7.267283916025565
 30
0.0
 10
-65.48210335476953
 20
7.054135045953055
 30
0.0
 10
-64.35847957392457
 20
6.737185007128584
 30
0.0
 10
-63.2358994676989
 20
6.381302943751539
 30
0.0
 10
-62.11429670193883
 20
5.988548519686002
 30
0.0
 10
-60.99363146897456
 20
5.561111349638722
 30
0.0
 10
-59.87383899704145
 20
5.101434844729562
 30
0.0
 10
-58.75484130804792
 20
4.612194206913803
 30
0.0
 10
-57.63657481652632
 20
4.096159977398847
 30
0.0
 10
-56.51894986699697
 20
3.556334839127559
 30
0.0
 10
-55.40187588845573
 20
2.995856489034144
 30
0.0
 10
-54.28527845344953
 20
2.417947442664047
 30
0.0
 10
-53.16906413762708
 20
1.825968161980491
 30
0.0
 10
-52.05312955590308
 20
1.223375371672869
 30
0.0
 10
-50.93738383970102
 20
0.6136609337846448
 30
0.0
 10
-50.19375315483975
 20
0.2048807420214771
 30
0.0
 10
-49.82173501973414
 20
0.0003757378073613
 30
0.0
  0
SPLINE
  5
4801
330
1F
100
AcDbEntity
  8
AM_0
100
AcDbSpline
210
0.0
220
0.0
230
1.0
 70
     8
 71
     3
 72
    11
 73
     7
 74
     0
 42
0.0000000001
 43
0.0000000001
 40
11.27226913003534
 40
11.27226913003534
 40
11.27226913003534
 40
11.2722691300354
 40
12.28301561507924
 40
13.29510212255852
 40
14.30984805882082
 40
15.18258238371378
 40
15.18258238371378
 40
15.18258238371378
 40
15.18258238371378
 10
-69.72055660462951
 20
-7.40000064565361
 30
0.0
 10
-70.09602168921877
 20
-7.363782895227633
 30
0.0
 10
-70.8462436598506
 20
-7.276101297707213
 30
0.0
 10
-71.96770260940353
 20
-7.099225827516812
 30
0.0
 10
-73.0319869269298
 20
-6.887967472013334
 30
0.0
 10
-73.7203035512697
 20
-6.725566886685826
 30
0.0
 10
-74.03749945156346
 20
-6.645345483199839
 30
0.0
  0
SPLINE
  5
4802
330
1F
100
AcDbEntity
  8
AM_0
100
AcDbSpline
210
0.0
220
0.0
230
1.0
 70
     8
 71
     3
 72
    17
 73
    13
 74
     0
 42
0.0000000001
 43
0.0000000001
 40
1.580019955310467
 40
1.580019955310467
 40
1.580019955310467
 40
1.580019955310467
 40
2.030549285115227
 40
3.082371838836284
 40
4.126290986361125
 40
5.162752068350215
 40
6.192395305374981
 40
7.216039564037012
 40
8.234688489606833
 40
9.249433870634691
 40
10.26152376260694
 40
11.27226744710342
 40
11.27226744710342
 40
11.27226744710342
 40
11.27226744710352
 10
-59.0655301656342
 20
-5.461418550422818
 30
0.0
 10
-59.2255722935765
 20
-5.517666617835107
 30
0.0
 10
-59.76016676900852
 20
-5.702027171782212
 30
0.0
 10
-60.67285211245284
 20
-5.991203297183322
 30
0.0
 10
-61.80334792794497
 20
-6.315042195795445
 30
0.0
 10
-62.9341549678767
 20
-6.599329752153515
 30
0.0
 10
-64.06501382099225
 20
-6.843111264748758
 30
0.0
 10
-65.19599587915305
 20
-7.04461345508565
 30
0.0
 10
-66.32705607361888
 20
-7.202686439014103
 30
0.0
 10
-67.45818669694648
 20
-7.316305850706418
 30
0.0
 10
-68.58935988100656
 20
-7.384740308814671
 30
0.0
 10
-69.34365836739106
 20
-7.400000687996816
 30
0.0
 10
-69.72055660462944
 20
-7.40000064565361
 30
0.0
  0
SPLINE
  5
4803
330
1F
100
AcDbEntity
  8
AM_0
 48
0.5
100
AcDbSpline
210
0.0
220
0.0
230
1.0
 70
     8
 71
     3
 72
    17
 73
    13
 74
     0
 42
0.0000000001
 43
0.0000000001
 40
0.0
 40
0.0
 40
0.0
 40
0.0
 40
1.010743614677189
 40
2.022833924044153
 40
3.037578959561199
 40
4.056212747067873
 40
5.079857613375832
 40
6.109500119648989
 40
7.14596120163808
 40
8.18989512056258
 40
9.241717674284874
 40
9.693948937866434
 40
9.693948937866434
 40
9.693948937866434
 40
9.693948937866434
 10
-8.142623058692711
 20
7.399999354343402
 30
0.0
 10
-8.519521369494485
 20
7.395599706506079
 30
0.0
 10
-9.273820162911357
 20
7.386794548828232
 30
0.0
 10
-10.40499241800277
 20
7.31574448503778
 30
0.0
 10
-11.53611810338903
 20
7.202836295196532
 30
0.0
 10
-12.66717344238389
 20
7.044574111522607
 30
0.0
 10
-13.79814496444593
 20
6.843104332495177
 30
0.0
 10
-14.92901885587599
 20
6.599361044112899
 30
0.0
 10
-16.05977993844586
 20
6.314913302531839
 30
0.0
 10
-17.19047209022452
 20
5.99167608320501
 30
0.0
 10
-18.1031962793825
 20
5.700488209628545
 30
0.0
 10
-18.63920143726078
 20
5.518453913994791
 30
0.0
 10
-18.80008142862361
 20
5.462734434692358
 30
0.0
  0
SPLINE
  5
4805
330
1F
100
AcDbEntity
  8
AM_0
 48
0.5
100
AcDbSpline
210
0.0
220
0.0
230
1.0
 70
     8
 71
     3
 72
    10
 73
     6
 74
     0
 42
0.0000000001
 43
0.0000000001
 40
0.0
 40
0.0
 40
0.0
 40
0.0
 40
2.69986029516136
 40
4.147722969032201
 40
6.285750005020438
 40
6.285750005020438
 40
6.285750005020438
 40
6.285750005020438
 10
-9.461674879442327
 20
1.339359909356353
 30
0.0
 10
-8.65659606946318
 20
0.6518487730516128
 30
0.0
 10
-7.419775083571419
 20
-0.4043561485983044
 30
0.0
 10
-4.494859597090668
 20
0.1069711571214926
 30
0.0
 10
-5.04570625960715
 20
1.82918918145946
 30
0.0
 10
-5.409670539162495
 20
2.878934110180926
 30
0.0
  0
SPLINE
  5
4806
330
1F
100
AcDbEntity
  8
AM_0
100
AcDbSpline
210
0.0
220
0.0
230
1.0
 70
     8
 71
     3
 72
    55
 73
    51
 74
     0
 42
0.0000000001
 43
0.0000000001
 40
0.0
 40
0.0
 40
0.0
 40
0.0
 40
1.010743684496582
 40
2.022833576467832
 40
3.037578957496688
 40
4.056212745003489
 40
5.079857003664532
 40
6.109500240690281
 40
7.145961322679372
 40
8.189895241603872
 40
9.241717795325891
 40
10.30168407291828
 40
11.36983447792315
 40
12.44600489715814
 40
13.52984294512926
 40
14.62081576220742
 40
15.7182257034828
 40
16.82123173843959
 40
17.92886860250316
 40
19.0400688939571
 40
20.15368796660465
 40
21.26852814259644
 40
22.38336992938901
 40
23.49698739941135
 40
24.6081876908653
 40
25.71582455492886
 40
26.81883757994213
 40
27.91624752121713
 40
29.00722033829659
 40
30.09105838626677
 40
31.16722880550176
 40
32.23537921050758
 40
33.29534548809967
 40
34.347168041821
 40
35.39108718934584
 40
36.42754827133493
 40
37.45720575381954
 40
38.48085062012849
 40
39.49948440763516
 40
40.51422944315121
 40
41.52631975251916
 40
42.53706336719636
 40
43.54780698187354
 40
44.55989729124051
 40
45.57464232675757
 40
46.59327611426424
 40
47.6169209805722
 40
48.64656348684535
 40
49.68302456883444
 40
50.58557219878025
 40
50.58557219878025
 40
50.58557219878025
 40
50.58557219878025
 10
-8.142623058693375
 20
-7.400000645656596
 30
0.0
 10
-8.51952130090418
 20
-7.395597824932538
 30
0.0
 10
-9.273819775334366
 20
-7.386786319376399
 30
0.0
 10
-10.40499298338723
 20
-7.315755692437507
 30
0.0
 10
-11.53611790592088
 20
-7.202835550874601
 30
0.0
 10
-12.66717282292687
 20
-7.04457367779784
 30
0.0
 10
-13.79814644825762
 20
-6.843114825016425
 30
0.0
 10
-14.92901647033217
 20
-6.599354847944014
 30
0.0
 10
-16.0597866718606
 20
-6.314935800669567
 30
0.0
 10
-17.19044702519647
 20
-5.991599329354551
 30
0.0
 10
-18.32098982848216
 20
-5.631330700317935
 30
0.0
 10
-19.45142071684851
 20
-5.23639128250276
 30
0.0
 10
-20.58174271781488
 20
-4.809198132221323
 30
0.0
 10
-21.71196995384929
 20
-4.352410635348562
 30
0.0
 10
-22.84210759955303
 20
-3.868835848922398
 30
0.0
 10
-23.97216613439626
 20
-3.361456026477184
 30
0.0
 10
-25.10215809088108
 20
-2.83340129633138
 30
0.0
 10
-26.23209338642018
 20
-2.287918945234341
 30
0.0
 10
-27.36198298716432
 20
-1.72836390184318
 30
0.0
 10
-28.49183898341244
 20
-1.158180160971507
 30
0.0
 10
-29.62167128507708
 20
-0.5808729779332204
 30
0.0
 10
-30.75149584714048
 20
-0.0000021555242496
 30
0.0
 10
-31.88131533723697
 20
0.5808791229215283
 30
0.0
 10
-33.01115142585323
 20
1.158177315759962
 30
0.0
 10
-34.14100602727891
 20
1.728362782545355
 30
0.0
 10
-35.27089764260375
 20
2.28791995759183
 30
0.0
 10
-36.40083762565648
 20
2.833397653446702
 30
0.0
 10
-37.53083136556715
 20
3.361455061564711
 30
0.0
 10
-38.66089006355326
 20
3.868834472577199
 30
0.0
 10
-39.79102766813488
 20
4.352409360697321
 30
0.0
 10
-40.92125490706334
 20
4.80919685823826
 30
0.0
 10
-42.0515769368199
 20
5.236389906371381
 30
0.0
 10
-43.18200770851346
 20
5.631329727456032
 30
0.0
 10
-44.31254565314147
 20
5.991595175325269
 30
0.0
 10
-45.44319901464901
 20
6.314935881541355
 30
0.0
 10
-46.57396879672037
 20
6.599360648125026
 30
0.0
 10
-47.70484689358589
 20
6.843092784424321
 30
0.0
 10
-48.83582425533389
 20
7.04461399297944
 30
0.0
 10
-49.96687950763516
 20
7.20268826703294
 30
0.0
 10
-51.0980052161088
 20
7.316294131480648
 30
0.0
 10
-52.22917746506158
 20
7.384750062654894
 30
0.0
 10
-53.36037457083855
 20
7.407618924118438
 30
0.0
 10
-54.49157167495108
 20
7.38475006261915
 30
0.0
 10
-55.62274392890678
 20
7.316294131624699
 30
0.0
 10
-56.75386961896119
 20
7.202688266491146
 30
0.0
 10
-57.88492494032055
 20
7.044613995016923
 30
0.0
 10
-59.01589652872289
 20
6.843093759213261
 30
0.0
 10
-60.14677017035919
 20
6.599363140155021
 30
0.0
 10
-61.22612630440502
 20
6.327846965240792
 30
0.0
 10
-61.926424856231
 20
6.129284619700734
 30
0.0
 10
-62.25132256792658
 20
6.03251550226451
 30
0.0
  0
SPLINE
  5
4807
330
1F
100
AcDbEntity
  8
AM_0
100
AcDbSpline
210
0.0
220
0.0
230
1.0
 70
     8
 71
     3
 72
    11
 73
     7
 74
     0
 42
0.0000000001
 43
0.0000000001
 40
11.27226913003534
 40
11.27226913003534
 40
11.27226913003534
 40
11.2722691300354
 40
12.28301561507924
 40
13.29510212255852
 40
14.30984805882082
 40
15.18258238371378
 40
15.18258238371378
 40
15.18258238371378
 40
15.18258238371378
 10
-29.45101346883266
 20
-7.400000645655508
 30
0.0
 10
-29.82647855342195
 20
-7.363782895229533
 30
0.0
 10
-30.57670052405379
 20
-7.276101297709116
 30
0.0
 10
-31.69815947360671
 20
-7.099225827518712
 30
0.0
 10
-32.76244379113297
 20
-6.887967472015231
 30
0.0
 10
-33.45076041547283
 20
-6.725566886687727
 30
0.0
 10
-33.76795631576658
 20
-6.645345483201738
 30
0.0
  0
SPLINE
  5
4808
330
1F
100
AcDbEntity
  8
AM_0
100
AcDbSpline
210
0.0
220
0.0
230
1.0
 70
     8
 71
     3
 72
    22
 73
    18
 74
     0
 42
0.0000000001
 43
0.0000000001
 40
17.17441611292
 40
17.17441611292
 40
17.17441611292
 40
17.17441611292
 40
17.38177636558528
 40
18.41823744757437
 40
19.46215659509824
 40
20.51397914882054
 40
21.57394542641293
 40
22.64209583141747
 40
23.71826625065247
 40
24.80210429862395
 40
25.8930771157021
 40
26.99048705697709
 40
28.09349309193389
 40
29.20112995599786
 40
30.31233024745139
 40
31.42594771747373
 40
32.5407895042663
 40
32.54078950426994
 40
32.54078950426994
 40
32.54078950426994
 10
-33.76845101679927
 20
-6.645254204258325
 30
0.0
 10
-33.84419598579801
 20
-6.628123930063417
 30
0.0
 10
-34.29824570820851
 20
-6.523781557557119
 30
0.0
 10
-35.13003921406461
 20
-6.314561520219846
 30
0.0
 10
-36.26069241389523
 20
-5.991219885043356
 30
0.0
 10
-37.39123040253818
 20
-5.63095468941311
 30
0.0
 10
-38.52166116152827
 20
-5.236014798009118
 30
0.0
 10
-39.65198319764503
 20
-4.808821776291631
 30
0.0
 10
-40.78221042384208
 20
-4.352034243838409
 30
0.0
 10
-41.91234807338914
 20
-3.868459469852184
 30
0.0
 10
-43.04240660274692
 20
-3.361079633467298
 30
0.0
 10
-44.17239857744982
 20
-2.833024946894507
 30
0.0
 10
-45.30233380514634
 20
-2.287542434370303
 30
0.0
 10
-46.43222366046141
 20
-1.72798799648721
 30
0.0
 10
-47.56207815888503
 20
-1.157802259659006
 30
0.0
 10
-48.69191403822926
 20
-0.5805035780718694
 30
0.0
 10
-49.44499010895688
 20
-0.1933215980641692
 30
0.0
 10
-49.82173501973915
 20
0.00037573781002
 30
0.0
  0
SPLINE
  5
4809
330
1F
100
AcDbEntity
  8
AM_0
100
AcDbSpline
210
0.0
220
0.0
230
1.0
 70
     8
 71
     3
 72
    17
 73
    13
 74
     0
 42
0.0000000001
 43
0.0000000001
 40
1.580019955310467
 40
1.580019955310467
 40
1.580019955310467
 40
1.580019955310467
 40
2.030549285115227
 40
3.082371838836284
 40
4.126290986361125
 40
5.162752068350215
 40
6.192395305374981
 40
7.216039564037012
 40
8.234688489606833
 40
9.249433870634691
 40
10.26152376260694
 40
11.27226744710342
 40
11.27226744710342
 40
11.27226744710342
 40
11.27226744710352
 10
-18.79598702983731
 20
-5.461418550424719
 30
0.0
 10
-18.95602915777961
 20
-5.517666617837004
 30
0.0
 10
-19.49062363321164
 20
-5.702027171784111
 30
0.0
 10
-20.40330897665597
 20
-5.991203297185224
 30
0.0
 10
-21.53380479214813
 20
-6.315042195797341
 30
0.0
 10
-22.66461183207984
 20
-6.599329752155406
 30
0.0
 10
-23.79547068519538
 20
-6.843111264750656
 30
0.0
 10
-24.92645274335621
 20
-7.044613455087551
 30
0.0
 10
-26.05751293782206
 20
-7.202686439016006
 30
0.0
 10
-27.18864356114968
 20
-7.316305850708321
 30
0.0
 10
-28.31981674520973
 20
-7.384740308816568
 30
0.0
 10
-29.07411523159421
 20
-7.400000687998723
 30
0.0
 10
-29.4510134688326
 20
-7.400000645655508
 30
0.0
  0
SPLINE
  5
480A
330
1F
100
AcDbEntity
  8
AM_0
100
AcDbSpline
210
0.0
220
0.0
230
1.0
 70
     8
 71
     3
 72
    46
 73
    42
 74
     0
 42
0.0000000001
 43
0.0000000001
 40
0.0
 40
0.0
 40
0.0
 40
0.0
 40
1.348332046947657
 40
2.024828967632895
 40
2.703918159304097
 40
3.386347665078124
 40
4.072776489761952
 40
4.763750544421347
 40
5.459696642770596
 40
6.160921452191754
 40
6.867565637253344
 40
7.579665907256596
 40
8.297112853413899
 40
9.019671552060676
 40
9.746986763446127
 40
10.47859339096366
 40
11.21393074760089
 40
11.95235532364328
 40
12.69315551794651
 40
13.43556823304427
 40
14.1787950170388
 40
14.92202180103393
 40
15.66443451613169
 40
16.40523471043432
 40
17.14365928647669
 40
17.87899664311455
 40
18.61060327063121
 40
19.3379184820169
 40
20.06048192311554
 40
20.77792886927283
 40
21.49002913927608
 40
22.19667332433747
 40
22.89788836015233
 40
23.59383445850158
 40
24.28480851316097
 40
24.97123685067576
 40
25.65366676154838
 40
26.33276604526152
 40
27.00926273560555
 40
27.68398960851751
 40
28.357818684969
 40
28.357818684969
 40
28.357818684969
 40
28.357818684969
 10
-4.976106701362863
 20
-7.400000645656756
 30
0.0
 10
-5.730442029614415
 20
-7.38314287362995
 30
0.0
 10
-6.863249061391432
 20
-7.357827073114127
 30
0.0
 10
-8.369591971262796
 20
-7.201962340098411
 30
0.0
 10
-9.500659040280348
 20
-7.044809227361659
 30
0.0
 10
-10.63162942998905
 20
-6.843051325559993
 30
0.0
 10
-11.76250016102563
 20
-6.599371482592198
 30
0.0
 10
-12.89326542388536
 20
-6.314934695703541
 30
0.0
 10
-14.02392332470635
 20
-5.991593890001198
 30
0.0
 10
-15.15446883166155
 20
-5.631334425896898
 30
0.0
 10
-16.28490420444029
 20
-5.236390766186879
 30
0.0
 10
-17.41522640251517
 20
-4.809198272153183
 30
0.0
 10
-18.545453585117
 20
-4.352410597404575
 30
0.0
 10
-19.67559124537587
 20
-3.868835859350966
 30
0.0
 10
-20.80564977596154
 20
-3.3614560230603
 30
0.0
 10
-21.93564173479744
 20
-2.833401299501136
 30
0.0
 10
-23.0655770251903
 20
-2.287918935936036
 30
0.0
 10
-24.19546664426135
 20
-1.728363936043054
 30
0.0
 10
-25.32532257206166
 20
-1.158180032969958
 30
0.0
 10
-26.45515512989881
 20
-0.5808734569165245
 30
0.0
 10
-27.58497819016405
 20
-0.0000006457731338
 30
0.0
 10
-28.71480125018108
 20
0.580872166076135
 30
0.0
 10
-29.84463380876275
 20
1.158178740012971
 30
0.0
 10
-30.97448973384178
 20
1.728362650821291
 30
0.0
 10
-32.10437936300341
 20
2.287917622027119
 30
0.0
 10
-33.23431461598139
 20
2.833400091961327
 30
0.0
 10
-34.3643067133773
 20
3.361454421598236
 30
0.0
 10
-35.49436718813069
 20
3.868836818033122
 30
0.0
 10
-36.62450923955926
 20
4.352407162565106
 30
0.0
 10
-37.75473843831316
 20
4.809197179564479
 30
0.0
 10
-38.88506061007089
 20
5.236389800710659
 30
0.0
 10
-40.01549133914958
 20
5.63132983122596
 30
0.0
 10
-41.14602931351256
 20
5.991594868239006
 30
0.0
 10
-42.27668259906383
 20
6.314936994823917
 30
0.0
 10
-43.40744720749603
 20
6.599355172364711
 30
0.0
 10
-44.53831876761781
 20
6.843105692089442
 30
0.0
 10
-45.66929637526679
 20
7.044575481020257
 30
0.0
 10
-46.80035761618248
 20
7.202834922394375
 30
0.0
 10
-47.93148883530676
 20
7.315744700486689
 30
0.0
 10
-49.06266111365287
 20
7.386794495110795
 30
0.0
 10
-49.81695990397535
 20
7.39559968860967
 30
0.0
 10
-50.19385821323082
 20
7.399999354345546
 30
0.0
  0
ELLIPSE
  5
480B
330
1F
100
AcDbEntity
  8
AM_0
 48
0.5
100
AcDbEllipse
 10
-20.78707180991544
 20
50.79534140750682
 30
0.0
 11
0.0023462853705407
 21
55.48089809818876
 31
0.0
210
0.0
220
0.0
230
1.0
 40
0.9315379687235113
 41
3.480497618246127
 42
3.555563844476831
  0
ELLIPSE
  5
480C
330
1F
100
AcDbEntity
  8
AM_0
 48
0.5
100
AcDbEllipse
 10
-13.69595770308971
 20
12.41988206511787
 30
0.0
 11
-0.0000000000007706
 21
17.84218403498272
 31
0.0
210
0.0
220
0.0
230
1.0
 40
0.9069844168492622
 41
3.652175978818104
 42
3.740670756497602
  0
ELLIPSE
  5
480D
330
1F
100
AcDbEntity
  8
AM_0
 48
0.5
100
AcDbEllipse
 10
2.206827633539401
 20
8.884154627780338
 30
0.0
 11
0.000000000000801
 21
14.91429119110073
 31
0.0
210
0.0
220
0.0
230
1.0
 40
0.9069844168492839
 41
2.10116388002899
 42
2.509284810223888
  0
ELLIPSE
  5
480E
330
1F
100
AcDbEntity
  8
AM_0
 48
0.5
100
AcDbEllipse
 10
-4.077388608246389
 20
-1.928547169705141
 30
0.0
 11
-0.9499532564314769
 21
0.6479998991576871
 31
0.0
210
0.0
220
0.0
230
1.0
 40
0.5216721936635476
 41
4.544681744282865
 42
7.688122085612375
  0
ELLIPSE
  5
480F
330
1F
100
AcDbEntity
  8
AM_0
 48
0.5
100
AcDbEllipse
 10
-4.077388608246389
 20
-1.928547169705141
 30
0.0
 11
-0.1836057833968312
 21
1.216429937025067
 31
0.0
210
0.0
220
0.0
230
1.0
 40
0.4557952528165523
 41
1.825107967612387
 42
4.960449857324362
  0
ELLIPSE
  5
4810
330
1F
100
AcDbEntity
  8
AM_0
 48
0.5
100
AcDbEllipse
 10
4.864201833735013
 20
-1.644918705959535
 30
0.0
 11
10.57898510988645
 21
2.040590937569406
 31
0.0
210
0.0
220
0.0
230
1.0
 40
0.6712881864618111
 41
3.066460919529452
 42
3.754666131930326
  0
SPLINE
  5
4811
330
1F
100
AcDbEntity
  8
AM_0
100
AcDbSpline
210
0.0
220
0.0
230
1.0
 70
     8
 71
     3
 72
    22
 73
    18
 74
     0
 42
0.0000000001
 43
0.0000000001
 40
30.51371389116273
 40
30.51371389116273
 40
30.51371389116273
 40
30.51371389116273
 40
31.16722880550176
 40
32.23537921050758
 40
33.29534548809967
 40
34.347168041821
 40
35.39108718934584
 40
36.42754827133493
 40
37.45720575381954
 40
38.48085062012849
 40
39.49948440763516
 40
40.51422944315121
 40
41.52631975251916
 40
42.53706336719636
 40
43.54780698187354
 40
44.55989729124051
 40
45.14939243453665
 40
45.14939243453665
 40
45.14939243453665
 40
45.14939243453665
 10
-90.09054733852584
 20
0.0000000000015795
 30
0.0
 10
-99.811808810475
 20
4.015094084741344
 30
0.0
 10
-100.5064677978271
 20
4.237623987121148
 30
0.0
 10
-101.6355822305219
 20
4.580273943058743
 30
0.0
 10
-102.9363852862846
 20
4.945186862491904
 30
0.0
 10
-104.2373116674947
 20
5.278061668561875
 30
0.0
 10
-105.5383708605792
 20
5.576819086218181
 30
0.0
 10
-106.839564020492
 20
5.839619306383648
 30
0.0
 10
-108.1408818198066
 20
6.064820718518769
 30
0.0
 10
-109.4423138446588
 20
6.251020459885926
 30
0.0
 10
-110.7438354992982
 20
6.39707649615425
 30
0.0
 10
-112.0454382288753
 20
6.502045014007126
 30
0.0
 10
-113.3470945132555
 20
6.565296305377811
 30
0.0
 10
-114.6487794007433
 20
6.586426468899572
 30
0.0
 10
-115.9504642863158
 20
6.565296305344777
 30
0.0
 10
-117.0698934789985
 20
6.510899962480873
 30
0.0
 10
-117.5609563366264
 20
6.573716265033497
 30
0.0
 10
-118.3994179231924
 20
6.559900587393073
 30
0.0
  0
SPLINE
  5
4812
330
1F
100
AcDbEntity
  8
AM_0
100
AcDbSpline
210
0.0
220
0.0
230
1.0
 70
     8
 71
     3
 72
    13
 73
     9
 74
     0
 42
0.0000000001
 43
0.0000000001
 40
26.13201924531566
 40
26.13201924531566
 40
26.13201924531566
 40
26.13201924531566
 40
26.99048218457928
 40
28.09348763352352
 40
29.20111863782268
 40
30.31232390128032
 40
31.42594612798585
 40
32.5407912310448
 40
32.5407912310486
 40
32.5407912310486
 40
32.5407912310486
 10
-120.6518567451919
 20
2.969558254212611
 30
0.0
 10
-120.1707167104875
 20
2.780999214730435
 30
0.0
 10
-119.4051321983979
 20
2.471514995440583
 30
0.0
 10
-118.2130604491449
 20
1.976114998383854
 30
0.0
 10
-116.9286164749839
 20
1.429143343398756
 30
0.0
 10
-115.6444943949
 20
0.8723651139038793
 30
0.0
 10
-114.3605896451067
 20
0.3090066889688831
 30
0.0
 10
-113.5048830494898
 20
-0.0686943308297047
 30
0.0
 10
-113.0767963952141
 20
-0.2576510126895416
 30
0.0
  0
LINE
  5
4813
330
1F
100
AcDbEntity
  8
AM_0
100
AcDbLine
 10
-93.63006449559772
 20
7.399999354347611
 30
0.0
 11
-66.9585455127741
 21
7.401050658642479
 31
0.0
  0
SPLINE
  5
4814
330
1F
100
AcDbEntity
  8
AM_0
100
AcDbSpline
210
0.0
220
0.0
230
1.0
 70
     8
 71
     3
 72
    22
 73
    18
 74
     0
 42
0.0000000001
 43
0.0000000001
 40
17.17441611292
 40
17.17441611292
 40
17.17441611292
 40
17.17441611292
 40
17.38177636558528
 40
18.41823744757437
 40
19.46215659509824
 40
20.51397914882054
 40
21.57394542641293
 40
22.64209583141747
 40
23.71826625065247
 40
24.80210429862395
 40
25.8930771157021
 40
26.99048705697709
 40
28.09349309193389
 40
29.20112995599786
 40
30.31233024745139
 40
31.42594771747373
 40
32.5407895042663
 40
32.54078950426994
 40
32.54078950426994
 40
32.54078950426994
 10
-74.03799415259616
 20
-6.645254204256421
 30
0.0
 10
-74.11373912159487
 20
-6.628123930061517
 30
0.0
 10
-74.56778884400541
 20
-6.523781557555219
 30
0.0
 10
-75.39958234986151
 20
-6.31456152021795
 30
0.0
 10
-76.53023554969215
 20
-5.991219885041454
 30
0.0
 10
-77.66077353833508
 20
-5.630954689411205
 30
0.0
 10
-78.79120429732513
 20
-5.236014798007214
 30
0.0
 10
-79.92152633344196
 20
-4.808821776289734
 30
0.0
 10
-81.05175355963904
 20
-4.352034243836508
 30
0.0
 10
-82.18189120918614
 20
-3.868459469850286
 30
0.0
 10
-83.31194973854396
 20
-3.361079633465402
 30
0.0
 10
-84.44194171324673
 20
-2.833024946892607
 30
0.0
 10
-85.57187694094309
 20
-2.287542434368402
 30
0.0
 10
-86.70176679625816
 20
-1.72798799648531
 30
0.0
 10
-87.83162129468193
 20
-1.157802259657104
 30
0.0
 10
-88.96145717402616
 20
-0.5805035780699691
 30
0.0
 10
-89.71453324475378
 20
-0.1933215980622692
 30
0.0
 10
-90.09127815553604
 20
0.00037573781192
 30
0.0
  0
SPLINE
  5
4815
330
1F
100
AcDbEntity
  8
AM_0
100
AcDbSpline
210
0.0
220
0.0
230
1.0
 70
     8
 71
     3
 72
    46
 73
    42
 74
     0
 42
0.0000000001
 43
0.0000000001
 40
0.0
 40
0.0
 40
0.0
 40
0.0
 40
1.348332046947654
 40
2.024828967632893
 40
2.703918159304094
 40
3.386347665078122
 40
4.072776489761951
 40
4.763750544421345
 40
5.459696642770595
 40
6.160921452191748
 40
6.867565637253344
 40
7.579665907256597
 40
8.297112853413899
 40
9.019671552060666
 40
9.746986763446125
 40
10.47859339096365
 40
11.21393074760088
 40
11.95235532364327
 40
12.69315551794651
 40
13.43556823304427
 40
14.1787950170388
 40
14.92202180103393
 40
15.66443451613169
 40
16.40523471043432
 40
17.14365928647669
 40
17.87899664311455
 40
18.61060327063121
 40
19.33791848201689
 40
20.06048192311554
 40
20.77792886927282
 40
21.49002913927608
 40
22.19667332433747
 40
22.89788836015233
 40
23.59383445850157
 40
24.28480851316097
 40
24.97123685067575
 40
25.65366676154837
 40
26.33276604526151
 40
27.00926273560554
 40
27.68398960851752
 40
28.35781868496899
 40
28.35781868496899
 40
28.35781868496899
 40
28.35781868496899
 10
-45.24564983715975
 20
-7.400000645654858
 30
0.0
 10
-45.99998516541129
 20
-7.383142873628051
 30
0.0
 10
-47.1327921971883
 20
-7.357827073112226
 30
0.0
 10
-48.63913510705966
 20
-7.201962340096513
 30
0.0
 10
-49.77020217607724
 20
-7.044809227359761
 30
0.0
 10
-50.90117256578592
 20
-6.843051325558095
 30
0.0
 10
-52.0320432968225
 20
-6.599371482590298
 30
0.0
 10
-53.16280855968224
 20
-6.314934695701641
 30
0.0
 10
-54.29346646050319
 20
-5.991593889999294
 30
0.0
 10
-55.42401196745844
 20
-5.631334425894989
 30
0.0
 10
-56.55444734023721
 20
-5.236390766184983
 30
0.0
 10
-57.68476953831206
 20
-4.809198272151284
 30
0.0
 10
-58.81499672091391
 20
-4.35241059740268
 30
0.0
 10
-59.9451343811727
 20
-3.868835859349053
 30
0.0
 10
-61.07519291175844
 20
-3.361456023058414
 30
0.0
 10
-62.20518487059435
 20
-2.833401299499222
 30
0.0
 10
-63.33512016098716
 20
-2.287918935934147
 30
0.0
 10
-64.46500978005821
 20
-1.728363936041146
 30
0.0
 10
-65.59486570785847
 20
-1.158180032968064
 30
0.0
 10
-66.72469826569571
 20
-0.5808734569146234
 30
0.0
 10
-67.85452132596096
 20
-0.0000006457712321
 30
0.0
 10
-68.98434438597798
 20
0.5808721660780345
 30
0.0
 10
-70.1141769445597
 20
1.15817874001487
 30
0.0
 10
-71.24403286963875
 20
1.728362650823192
 30
0.0
 10
-72.37392249880042
 20
2.287917622029018
 30
0.0
 10
-73.50385775177828
 20
2.833400091963227
 30
0.0
 10
-74.63384984917407
 20
3.361454421600134
 30
0.0
 10
-75.76391032392748
 20
3.868836818035025
 30
0.0
 10
-76.89405237535609
 20
4.352407162567001
 30
0.0
 10
-78.02428157411004
 20
4.809197179566377
 30
0.0
 10
-79.1546037458678
 20
5.236389800712565
 30
0.0
 10
-80.28503447494648
 20
5.631329831227863
 30
0.0
 10
-81.41557244930949
 20
5.991594868240906
 30
0.0
 10
-82.54622573486075
 20
6.314936994825818
 30
0.0
 10
-83.67699034329294
 20
6.599355172366609
 30
0.0
 10
-84.80786190341476
 20
6.843105692091342
 30
0.0
 10
-85.93883951106372
 20
7.04457548102215
 30
0.0
 10
-87.06990075197944
 20
7.202834922396277
 30
0.0
 10
-88.20103197110373
 20
7.315744700488595
 30
0.0
 10
-89.33220424944984
 20
7.386794495112694
 30
0.0
 10
-90.08650303977232
 20
7.395599688611572
 30
0.0
 10
-90.46340134902777
 20
7.399999354347449
 30
0.0
  0
SPLINE
  5
4816
330
1F
100
AcDbEntity
  8
AM_0
100
AcDbSpline
210
0.0
220
0.0
230
1.0
 70
     8
 71
     3
 72
    55
 73
    51
 74
     0
 42
0.0000000001
 43
0.0000000001
 40
0.0
 40
0.0
 40
0.0
 40
0.0
 40
1.010743684496582
 40
2.022833576467832
 40
3.037578957496688
 40
4.056212745003489
 40
5.079857003664532
 40
6.109500240690281
 40
7.145961322679372
 40
8.189895241603872
 40
9.241717795325891
 40
10.30168407291828
 40
11.36983447792315
 40
12.44600489715814
 40
13.52984294512926
 40
14.62081576220742
 40
15.7182257034828
 40
16.82123173843959
 40
17.92886860250316
 40
19.0400688939571
 40
20.15368796660465
 40
21.26852814259644
 40
22.38336992938901
 40
23.49698739941135
 40
24.6081876908653
 40
25.71582455492886
 40
26.81883757994213
 40
27.91624752121713
 40
29.00722033829659
 40
30.09105838626677
 40
31.16722880550176
 40
32.23537921050758
 40
33.29534548809967
 40
34.347168041821
 40
35.39108718934584
 40
36.42754827133493
 40
37.45720575381954
 40
38.48085062012849
 40
39.49948440763516
 40
40.51422944315121
 40
41.52631975251916
 40
42.53706336719636
 40
43.54780698187354
 40
44.55989729124051
 40
45.57464232675757
 40
46.59327611426424
 40
47.6169209805722
 40
48.64656348684535
 40
49.68302456883444
 40
50.58557219878025
 40
50.58557219878025
 40
50.58557219878025
 40
50.58557219878025
 10
-48.41216619449026
 20
-7.400000645654698
 30
0.0
 10
-48.78906443670106
 20
-7.395597824930632
 30
0.0
 10
-49.54336291113125
 20
-7.386786319374492
 30
0.0
 10
-50.67453611918411
 20
-7.315755692435605
 30
0.0
 10
-51.80566104171775
 20
-7.202835550872698
 30
0.0
 10
-52.93671595872377
 20
-7.044573677795945
 30
0.0
 10
-54.06768958405449
 20
-6.843114825014526
 30
0.0
 10
-55.19855960612903
 20
-6.599354847942113
 30
0.0
 10
-56.32932980765745
 20
-6.314935800667672
 30
0.0
 10
-57.45999016099333
 20
-5.991599329352647
 30
0.0
 10
-58.59053296427905
 20
-5.63133070031604
 30
0.0
 10
-59.72096385264541
 20
-5.236391282500864
 30
0.0
 10
-60.85128585361179
 20
-4.809198132219422
 30
0.0
 10
-61.98151308964616
 20
-4.352410635346663
 30
0.0
 10
-63.11165073534989
 20
-3.868835848920498
 30
0.0
 10
-64.24170927019318
 20
-3.361456026475282
 30
0.0
 10
-65.37170122667804
 20
-2.83340129632948
 30
0.0
 10
-66.50163652221701
 20
-2.287918945232444
 30
0.0
 10
-67.63152612296117
 20
-1.728363901841281
 30
0.0
 10
-68.76138211920928
 20
-1.158180160969607
 30
0.0
 10
-69.89121442087396
 20
-0.5808729779313203
 30
0.0
 10
-71.0210389829374
 20
-0.0000021555223496
 30
0.0
 10
-72.15085847303384
 20
0.5808791229234284
 30
0.0
 10
-73.28069456165017
 20
1.158177315761862
 30
0.0
 10
-74.41054916307591
 20
1.728362782547257
 30
0.0
 10
-75.54044077840075
 20
2.28791995759373
 30
0.0
 10
-76.67038076145336
 20
2.833397653448601
 30
0.0
 10
-77.80037450136392
 20
3.361455061566609
 30
0.0
 10
-78.93043319935002
 20
3.8688344725791
 30
0.0
 10
-80.06057080393173
 20
4.352409360699222
 30
0.0
 10
-81.19079804286021
 20
4.809196858240164
 30
0.0
 10
-82.32112007261681
 20
5.236389906373283
 30
0.0
 10
-83.45155084431032
 20
5.631329727457933
 30
0.0
 10
-84.58208878893836
 20
5.991595175327168
 30
0.0
 10
-85.71274215044592
 20
6.314935881543261
 30
0.0
 10
-86.84351193251728
 20
6.599360648126933
 30
0.0
 10
-87.97439002938283
 20
6.843092784426218
 30
0.0
 10
-89.10536739113085
 20
7.044613992981341
 30
0.0
 10
-90.23642264343214
 20
7.202688267034834
 30
0.0
 10
-91.36754835190577
 20
7.316294131482547
 30
0.0
 10
-92.49872060085854
 20
7.384750062656793
 30
0.0
 10
-93.62991770663548
 20
7.407618924120335
 30
0.0
 10
-94.76111481074807
 20
7.38475006262105
 30
0.0
 10
-95.89228706470374
 20
7.316294131626601
 30
0.0
 10
-97.02341275475816
 20
7.202688266493047
 30
0.0
 10
-98.15446807611753
 20
7.044613995018829
 30
0.0
 10
-99.28543966451982
 20
6.843093759215159
 30
0.0
 10
-100.416313306156
 20
6.59936314015692
 30
0.0
 10
-101.4956694402019
 20
6.327846965242688
 30
0.0
 10
-102.1959679920278
 20
6.12928461970263
 30
0.0
 10
-104.2000949753881
 20
5.263322265332289
 30
0.0
  0
DIMENSION
  5
4918
330
1F
100
AcDbEntity
  8
AM_5
100
AcDbDimension
  2
*D9
 10
-0.6134061199818614
 20
-1.68530675228652
 30
0.0
 11
21.94858732319282
 21
-0.0000266319865319
 31
0.0
 70
    34
  1
<>
 51
359.9999999999998
  3
AM_JIS$2
100
AcDb2LineAngularDimension
 13
0.0000000000001421
 23
-0.0000000000000106
 33
0.0
 14
-0.6133936239359067
 24
1.685285145005416
 34
0.0
 15
0.0000000000001705
 25
-0.0000000000000887
 35
0.0
 16
23.00000830043694
 26
-9.921257232239184
 36
0.0
1001
GENIUS_GENDTOL_13
1000

1000
h7
1000

1040
0.0
1001
ACAD
1000
DSTYLE
1002
{
1070
   271
1070
     0
1002
}
  0
ELLIPSE
  5
4A18
330
1F
100
AcDbEntity
  8
AM_11
 48
0.5
100
AcDbEllipse
 10
-195.3165719824545
 20
29.81452126569884
 30
0.0
 11
-33.29749107360793
 21
0.000000000000904
 31
0.0
210
0.0
220
0.0
230
1.0
 40
0.9899999999999995
 41
1.792337542479572
 42
2.011520147323624
  0
ELLIPSE
  5
4A19
330
1F
100
AcDbEntity
  8
AM_11
 48
0.5
100
AcDbEllipse
 10
-195.3165719824544
 20
-29.81452135972813
 30
0.0
 11
-33.29749107360789
 21
0.0000000000016878
 31
0.0
210
0.0
220
0.0
230
1.0
 40
0.9900000000000011
 41
4.271664206181739
 42
4.490847764700085
  0
ELLIPSE
  5
4A1A
330
1F
100
AcDbEntity
  8
AM_11
 48
0.5
100
AcDbEllipse
 10
-166.9075763918497
 20
-29.81448562198002
 30
0.0
 11
-33.29749107360783
 21
0.0000000000013772
 31
0.0
210
0.0
220
0.0
230
1.0
 40
0.9900000000000032
 41
4.271664206181728
 42
5.153113667165039
  0
ELLIPSE
  5
4A1B
330
1F
100
AcDbEntity
  8
AM_11
 48
0.5
100
AcDbEllipse
 10
-138.4984854827588
 20
-29.81448562197993
 30
0.0
 11
-33.29749107360789
 21
0.0000000000016878
 31
0.0
210
0.0
220
0.0
230
1.0
 40
0.9900000000000011
 41
4.271664206181739
 42
5.153113667165048
  0
ELLIPSE
  5
4A1C
330
1F
100
AcDbEntity
  8
AM_11
 48
0.5
100
AcDbEllipse
 10
-166.9075763918499
 20
29.81455700344696
 30
0.0
 11
-33.29749107360793
 21
-0.0000000000000349
 31
0.0
210
0.0
220
0.0
230
1.0
 40
0.99
 41
1.130070686340306
 42
2.011520147323597
  0
ELLIPSE
  5
4A1D
330
1F
100
AcDbEntity
  8
AM_11
 48
0.5
100
AcDbEllipse
 10
-138.4984854827589
 20
29.81455700344705
 30
0.0
 11
-33.29749107360793
 21
0.000000000000904
 31
0.0
210
0.0
220
0.0
230
1.0
 40
0.9899999999999995
 41
1.130070686340335
 42
2.011520147323624
  0
ELLIPSE
  5
4A1E
330
1F
100
AcDbEntity
  8
AM_11
 48
0.5
100
AcDbEllipse
 10
-81.6802860953164
 20
29.81454002844736
 30
0.0
 11
-33.29749107360793
 21
0.000000000000904
 31
0.0
210
0.0
220
0.0
230
1.0
 40
0.9899999999999995
 41
1.130070686340335
 42
2.011520147323624
  0
ELLIPSE
  5
4A1F
330
1F
100
AcDbEntity
  8
AM_11
 48
0.5
100
AcDbEllipse
 10
-81.6802860953163
 20
-29.81450259697961
 30
0.0
 11
-33.29749107360789
 21
0.0000000000016878
 31
0.0
210
0.0
220
0.0
230
1.0
 40
0.9900000000000011
 41
4.271664206181739
 42
5.153113667165048
  0
ELLIPSE
  5
4A20
330
1F
100
AcDbEntity
  8
AM_11
 48
0.5
100
AcDbEllipse
 10
-110.0893770044071
 20
-29.81450259697972
 30
0.0
 11
-33.29749107360783
 21
0.0000000000013772
 31
0.0
210
0.0
220
0.0
230
1.0
 40
0.9900000000000032
 41
4.271664206181728
 42
5.153113667165039
  0
ELLIPSE
  5
4A21
330
1F
100
AcDbEntity
  8
AM_11
 48
0.5
100
AcDbEllipse
 10
-110.0893770044073
 20
29.81454002844726
 30
0.0
 11
-33.29749107360793
 21
-0.0000000000000349
 31
0.0
210
0.0
220
0.0
230
1.0
 40
0.99
 41
1.130070686340306
 42
2.011520147323597
  0
ELLIPSE
  5
4A22
330
1F
100
AcDbEntity
  8
AM_11
 48
0.5
100
AcDbEllipse
 10
-24.86214030075624
 20
29.81453197828642
 30
0.0
 11
-33.29749107360793
 21
0.000000000000904
 31
0.0
210
0.0
220
0.0
230
1.0
 40
0.9899999999999995
 41
1.130070686340335
 42
2.011520147323624
  0
ELLIPSE
  5
4A23
330
1F
100
AcDbEntity
  8
AM_11
 48
0.5
100
AcDbEllipse
 10
-53.271231209847
 20
-29.81451064714065
 30
0.0
 11
-33.29749107360783
 21
0.0000000000013772
 31
0.0
210
0.0
220
0.0
230
1.0
 40
0.9900000000000032
 41
4.271664206181728
 42
5.153113667165039
  0
ELLIPSE
  5
4A24
330
1F
100
AcDbEntity
  8
AM_11
 48
0.5
100
AcDbEllipse
 10
-24.86214030075612
 20
-29.81451064714055
 30
0.0
 11
-33.29749107360789
 21
0.0000000000016878
 31
0.0
210
0.0
220
0.0
230
1.0
 40
0.9900000000000011
 41
4.271664206181739
 42
5.153113667165048
  0
ELLIPSE
  5
4A25
330
1F
100
AcDbEntity
  8
AM_11
 48
0.5
100
AcDbEllipse
 10
-53.2712312098472
 20
29.81453197828633
 30
0.0
 11
-33.29749107360793
 21
-0.0000000000000349
 31
0.0
210
0.0
220
0.0
230
1.0
 40
0.99
 41
1.130070686340306
 42
2.011520147323597
  0
ELLIPSE
  5
4A26
330
1F
100
AcDbEntity
  8
AM_11
 48
0.5
100
AcDbEllipse
 10
3.54695060833464
 20
29.81453197828647
 30
0.0
 11
-33.29749107360851
 21
0.0000000000307517
 31
0.0
210
0.0
220
0.0
230
1.0
 40
0.9899999999999861
 41
1.130070686341231
 42
1.291800737381917
  0
VIEWPORT
  5
110
330
101
100
AcDbEntity
 67
     1
  8
0
100
AcDbViewport
 10
420.5
 20
297.0
 30
0.0
 40
948.9782706766916
 41
628.452
 68
     1
 69
     1
1001
ACAD
1000
MVIEW
1002
{
1070
    16
1010
0.0
1020
0.0
1030
0.0
1010
0.0
1020
0.0
1030
1.0
1040
0.0
1040
628.452
1040
420.5
1040
297.0
1040
50.0
1040
0.0
1040
0.0
1070
     0
1070
   100
1070
     1
1070
     1
1070
     0
1070
     0
1070
     0
1070
     0
1040
0.0
1040
0.0
1040
0.0
1040
10.0
1040
10.0
1040
10.0
1040
10.0
1070
     0
1002
{
1002
}
1002
}
  0
ENDSEC
  0
SECTION
  2
OBJECTS
  0
DICTIONARY
  5
C
330
0
100
AcDbDictionary
  3
ACAD_GROUP
350
D
  3
ACAD_LAYOUT
350
1A
  3
ACAD_MLINESTYLE
350
17
  3
ACAD_PLOTSETTINGS
350
19
  3
ACAD_PLOTSTYLENAME
350
E
  3
ACDBVARIABLEDICTIONARY
350
34
  3
ACMDICTIONARY
350
43
  3
AMG
350
2B
  3
AMGSNAPSETTINGS
350
6E
  3
DWGPROPS
350
4A40
  3
ACDBHEADERROUNDTRIPXREC
350
4A4D
  0
DICTIONARY
  5
74
330
1F
100
AcDbDictionary
280
     1
  3
ACAD_INDEX
360
4A42
  3
ACAD_LAYOUTSELFREF
360
4A70
  0
DICTIONARY
  5
4A75
330
101
100
AcDbDictionary
280
     1
  3
ACAD_LAYOUTSELFREF
360
4A76
  0
DICTIONARY
  5
D
102
{ACAD_REACTORS
330
C
102
}
330
C
100
AcDbDictionary
  0
DICTIONARY
  5
1A
102
{ACAD_REACTORS
330
C
102
}
330
C
100
AcDbDictionary
  0
DICTIONARY
  5
17
102
{ACAD_REACTORS
330
C
102
}
330
C
100
AcDbDictionary
  3
STANDARD
350
18
  0
DICTIONARY
  5
19
102
{ACAD_REACTORS
330
C
102
}
330
C
100
AcDbDictionary
  0
ACDBDICTIONARYWDFLT
  5
E
102
{ACAD_REACTORS
330
C
102
}
330
C
100
AcDbDictionary
281
     1
  3
Normal
350
F
100
AcDbDictionaryWithDefault
340
F
  0
DICTIONARY
  5
34
102
{ACAD_REACTORS
330
C
102
}
330
C
100
AcDbDictionary
  3
INDEXCTL
350
35
  3
SORTENTS
350
B5E
  0
DICTIONARY
  5
43
102
{ACAD_REACTORS
330
C
102
}
330
C
100
AcDbDictionary
  3
ACMSTDDICTIONARY
350
260
  0
DICTIONARY
  5
2B
102
{ACAD_REACTORS
330
C
102
}
330
C
100
AcDbDictionary
  3
ACMGSETTINGS
350
2C
  0
DICTIONARY
  5
6E
102
{ACAD_REACTORS
330
C
102
}
330
C
100
AcDbDictionary
  0
XRECORD
  5
4A40
102
{ACAD_REACTORS
330
C
102
}
330
C
100
AcDbXrecord
  1
DWGPROPS COOKIE
  2

  3

  4

  6

  7

  8

  9

300
AmdtFileType=82
301
=
302
=
303
=
304
=
305
=
306
=
307
=
308
=
309
=
 40
0.2464823842592593
 41
2452800.443498622
 42
2452948.66683412
  1

 90
        1
  0
DICTIONARY
  5
4A4D
102
{ACAD_REACTORS
330
C
102
}
330
C
100
AcDbDictionary
  3
TSTACKALIGN
350
4A4E
  3
TSTACKSIZE
350
4A4F
  3
HYPERLINKBASE
350
4A50
  3
STYLESHEET
350
4A51
  3
LAYOUTDICT
350
4A52
  3
PLOTSETDICT
350
4A53
  3
PLOTSTYLNAMDICT
350
4A54
  3
LWETCUNION
350
4A55
  3
INSUNITS
350
4A56
  3
CEPSNTYPE
350
4A57
  3
FINGERPRINTGUID
350
4A58
  3
VERSIONGUID
350
4A59
  3
PSVPSCALE
350
4A5A
  3
DIMSTYLEDATA
350
4A5B
  3
PUCSORTHOREF
350
4A5C
  3
PUCSORTHOVIEW
350
4A5D
  3
PUCSBASE
350
4A5E
  3
PUCSORGTOP
350
4A5F
  3
PUCSORGBOTTOM
350
4A60
  3
PUCSORGLEFT
350
4A61
  3
PUCSORGRIGHT
350
4A62
  3
PUCSORGFRONT
350
4A63
  3
PUCSORGBACK
350
4A64
  3
UCSORTHOREF
350
4A65
  3
UCSORTHOVIEW
350
4A66
  3
UCSBASE
350
4A67
  3
UCSORGTOP
350
4A68
  3
UCSORGBOTTOM
350
4A69
  3
UCSORGLEFT
350
4A6A
  3
UCSORGRIGHT
350
4A6B
  3
UCSORGFRONT
350
4A6C
  3
UCSORGBACK
350
4A6D
  0
DICTIONARY
  5
4A42
102
{ACAD_REACTORS
330
74
102
}
330
74
100
AcDbDictionary
  3
*A1
350
4A43
  0
XRECORD
  5
4A70
102
{ACAD_REACTORS
330
74
102
}
330
74
100
AcDbXrecord
340
1F
  0
XRECORD
  5
4A76
102
{ACAD_REACTORS
330
4A75
102
}
330
4A75
100
AcDbXrecord
340
101
  0
MLINESTYLE
  5
18
102
{ACAD_REACTORS
330
17
102
}
330
17
100
AcDbMlineStyle
  2
STANDARD
 70
     0
  3

 62
   256
 51
90.0
 52
90.0
 71
     2
 49
0.5
 62
   256
  6
BYLAYER
 49
-0.5
 62
   256
  6
BYLAYER
  0
ACDBPLACEHOLDER
  5
F
102
{ACAD_REACTORS
330
E
102
}
330
E
100
AcDbPlaceHolder
280
     0
  0
DICTIONARYVAR
  5
35
102
{ACAD_REACTORS
330
34
102
}
330
34
100
DictionaryVariables
280
     0
  1
1
  0
DICTIONARYVAR
  5
B5E
102
{ACAD_REACTORS
330
34
102
}
330
34
100
DictionaryVariables
280
     0
  1
96
  0
DICTIONARY
  5
260
102
{ACAD_REACTORS
330
43
102
}
330
43
100
AcDbDictionary
  0
DICTIONARY
  5
2C
102
{ACAD_REACTORS
330
2B
102
}
330
2B
100
AcDbDictionary
  3
DWGSETTINGS
350
2D
  0
XRECORD
  5
4A4E
102
{ACAD_REACTORS
330
4A4D
102
}
330
4A4D
100
AcDbXrecord
 90
        1
  0
XRECORD
  5
4A4F
102
{ACAD_REACTORS
330
4A4D
102
}
330
4A4D
100
AcDbXrecord
 90
       70
  0
XRECORD
  5
4A50
102
{ACAD_REACTORS
330
4A4D
102
}
330
4A4D
100
AcDbXrecord
  1

  0
XRECORD
  5
4A51
102
{ACAD_REACTORS
330
4A4D
102
}
330
4A4D
100
AcDbXrecord
  1
ASAMI.ctb
  0
XRECORD
  5
4A52
102
{ACAD_REACTORS
330
4A4D
102
}
330
4A4D
100
AcDbXrecord
340
1A
  0
XRECORD
  5
4A53
102
{ACAD_REACTORS
330
4A4D
102
}
330
4A4D
100
AcDbXrecord
340
19
  0
XRECORD
  5
4A54
102
{ACAD_REACTORS
330
4A4D
102
}
330
4A4D
100
AcDbXrecord
340
E
  0
XRECORD
  5
4A55
102
{ACAD_REACTORS
330
4A4D
102
}
330
4A4D
100
AcDbXrecord
 90
    10781
  0
XRECORD
  5
4A56
102
{ACAD_REACTORS
330
4A4D
102
}
330
4A4D
100
AcDbXrecord
 90
        4
  0
XRECORD
  5
4A57
102
{ACAD_REACTORS
330
4A4D
102
}
330
4A4D
100
AcDbXrecord
 90
        0
  0
XRECORD
  5
4A58
102
{ACAD_REACTORS
330
4A4D
102
}
330
4A4D
100
AcDbXrecord
  1
{AFB28963-8C59-40AE-9337-C84526B81ACE}
  0
XRECORD
  5
4A59
102
{ACAD_REACTORS
330
4A4D
102
}
330
4A4D
100
AcDbXrecord
  1
{B1C02E77-A6DE-4056-A108-622667BFEAB3}
  0
XRECORD
  5
4A5A
102
{ACAD_REACTORS
330
4A4D
102
}
330
4A4D
100
AcDbXrecord
 40
0.0
  0
XRECORD
  5
4A5B
102
{ACAD_REACTORS
330
4A4D
102
}
330
4A4D
100
AcDbXrecord
1000
DSTYLE
1002
{
1070
    79
 70
     2
1070
   341
340
59
1070
   342
340
59
1070
   371
 70
    -1
1070
   372
 70
    -1
1002
}
  0
XRECORD
  5
4A5C
102
{ACAD_REACTORS
330
4A4D
102
}
330
4A4D
100
AcDbXrecord
340
0
  0
XRECORD
  5
4A5D
102
{ACAD_REACTORS
330
4A4D
102
}
330
4A4D
100
AcDbXrecord
 70
     0
  0
XRECORD
  5
4A5E
102
{ACAD_REACTORS
330
4A4D
102
}
330
4A4D
100
AcDbXrecord
340
0
  0
XRECORD
  5
4A5F
102
{ACAD_REACTORS
330
4A4D
102
}
330
4A4D
100
AcDbXrecord
 10
0.0
 20
0.0
 30
0.0
  0
XRECORD
  5
4A60
102
{ACAD_REACTORS
330
4A4D
102
}
330
4A4D
100
AcDbXrecord
 10
0.0
 20
0.0
 30
0.0
  0
XRECORD
  5
4A61
102
{ACAD_REACTORS
330
4A4D
102
}
330
4A4D
100
AcDbXrecord
 10
0.0
 20
0.0
 30
0.0
  0
XRECORD
  5
4A62
102
{ACAD_REACTORS
330
4A4D
102
}
330
4A4D
100
AcDbXrecord
 10
0.0
 20
0.0
 30
0.0
  0
XRECORD
  5
4A63
102
{ACAD_REACTORS
330
4A4D
102
}
330
4A4D
100
AcDbXrecord
 10
0.0
 20
0.0
 30
0.0
  0
XRECORD
  5
4A64
102
{ACAD_REACTORS
330
4A4D
102
}
330
4A4D
100
AcDbXrecord
 10
0.0
 20
0.0
 30
0.0
  0
XRECORD
  5
4A65
102
{ACAD_REACTORS
330
4A4D
102
}
330
4A4D
100
AcDbXrecord
340
0
  0
XRECORD
  5
4A66
102
{ACAD_REACTORS
330
4A4D
102
}
330
4A4D
100
AcDbXrecord
 70
     0
  0
XRECORD
  5
4A67
102
{ACAD_REACTORS
330
4A4D
102
}
330
4A4D
100
AcDbXrecord
340
0
  0
XRECORD
  5
4A68
102
{ACAD_REACTORS
330
4A4D
102
}
330
4A4D
100
AcDbXrecord
 10
0.0
 20
0.0
 30
0.0
  0
XRECORD
  5
4A69
102
{ACAD_REACTORS
330
4A4D
102
}
330
4A4D
100
AcDbXrecord
 10
0.0
 20
0.0
 30
0.0
  0
XRECORD
  5
4A6A
102
{ACAD_REACTORS
330
4A4D
102
}
330
4A4D
100
AcDbXrecord
 10
0.0
 20
0.0
 30
0.0
  0
XRECORD
  5
4A6B
102
{ACAD_REACTORS
330
4A4D
102
}
330
4A4D
100
AcDbXrecord
 10
0.0
 20
0.0
 30
0.0
  0
XRECORD
  5
4A6C
102
{ACAD_REACTORS
330
4A4D
102
}
330
4A4D
100
AcDbXrecord
 10
0.0
 20
0.0
 30
0.0
  0
XRECORD
  5
4A6D
102
{ACAD_REACTORS
330
4A4D
102
}
330
4A4D
100
AcDbXrecord
 10
0.0
 20
0.0
 30
0.0
  0
LAYER_INDEX
  5
4A43
102
{ACAD_REACTORS
330
4A42
102
}
330
4A42
100
AcDbIndex
 40
2453151.670319178
100
AcDbLayerIndex
  8
0
360
4A44
 90
        0
  8
AM_0
360
4A45
 90
       69
  8
AM_7
360
4A46
 90
        1
  8
AM_11
360
4A47
 90
       20
  8
AM_5
360
4A48
 90
        5
  8
Defpoints
360
4A49
 90
        0
  8
AM_6
360
4A4A
 90
        1
  8
AM_CL
360
4A4B
 90
        0
  0
XRECORD
  5
2D
102
{ACAD_REACTORS
330
2C
102
}
330
2C
100
AcDbXrecord
  1
VERSION
140
15.0
  1
PRODUCT
  2
AutoCAD Mechanical 2000
  0
IDBUFFER
  5
4A44
330
0
100
AcDbIdBuffer
  0
IDBUFFER
  5
4A45
330
0
100
AcDbIdBuffer
330
4801
330
4802
330
4803
330
4805
330
4806
330
4807
330
4808
330
4809
330
480A
330
480B
330
480C
330
480D
330
480E
330
480F
330
4810
330
4811
330
4812
330
4813
330
4814
330
4815
330
4816
330
1E25
330
1E26
330
1FD9
330
21D7
330
21D8
330
21D9
330
21DC
330
21DD
330
2694
330
2695
330
2696
330
2699
330
2CB4
330
2CB7
330
3366
330
3367
330
46B5
330
46B6
330
46B7
330
47D1
330
47D2
330
47D3
330
47D4
330
47D5
330
47D6
330
47D7
330
47D8
330
47D9
330
47DA
330
47DB
330
47DC
330
47DD
330
47DE
330
47DF
330
47E0
330
47E1
330
47E2
330
47E3
330
47E4
330
47E6
330
47F5
330
47F6
330
47F7
330
47FC
330
47FD
330
47FE
330
47FF
330
4800
  0
IDBUFFER
  5
4A46
330
0
100
AcDbIdBuffer
330
C9F
  0
IDBUFFER
  5
4A47
330
0
100
AcDbIdBuffer
330
4A23
330
4A24
330
4A25
330
4A26
330
47E5
330
47F8
330
47F9
330
47FA
330
47FB
330
4A18
330
4A19
330
4A1A
330
4A1B
330
4A1C
330
4A1D
330
4A1E
330
4A1F
330
4A20
330
4A21
330
4A22
  0
IDBUFFER
  5
4A48
330
0
100
AcDbIdBuffer
330
CC6
330
DF5
330
1FB6
330
2216
330
4918
  0
IDBUFFER
  5
4A49
330
0
100
AcDbIdBuffer
  0
IDBUFFER
  5
4A4A
330
0
100
AcDbIdBuffer
330
19BD
  0
IDBUFFER
  5
4A4B
330
0
100
AcDbIdBuffer
  0
ENDSEC
  0
EOF
