  0
SECTION
  2
HEADER
  9
$ACADVER
  1
AC1014
  9
$ACADMAINTVER
 70
     9
  9
$DWGCODEPAGE
  3
ANSI_932
  9
$INSBASE
 10
0.0
 20
0.0
 30
0.0
  9
$EXTMIN
 10
-164.800001
 20
-54.00000099999958
 30
-0.00000001
  9
$EXTMAX
 10
24.11276277707262
 20
23.59825886606251
 30
0.00000001
  9
$LIMMIN
 10
-174.4563797951447
 20
-70.82206914383238
  9
$LIMMAX
 10
45.85902212792825
 20
52.2453258987743
  9
$ORTHOMODE
 70
     0
  9
$REGENMODE
 70
     1
  9
$FILLMODE
 70
     1
  9
$QTEXTMODE
 70
     0
  9
$MIRRTEXT
 70
     0
  9
$DRAGMODE
 70
     2
  9
$LTSCALE
 40
1.0
  9
$OSMODE
 70
    55
  9
$ATTMODE
 70
     1
  9
$TEXTSIZE
 40
2.5
  9
$TRACEWID
 40
1.0
  9
$TEXTSTYLE
  7
STANDARD
  9
$CLAYER
  8
AM_0
  9
$CELTYPE
  6
BYLAYER
  9
$CECOLOR
 62
   256
  9
$CELTSCALE
 40
1.0
  9
$DELOBJ
 70
     1
  9
$DISPSILH
 70
     0
  9
$DIMSCALE
 40
1.0
  9
$DIMASZ
 40
2.5
  9
$DIMEXO
 40
1.0
  9
$DIMDLI
 40
12.0
  9
$DIMRND
 40
0.0
  9
$DIMDLE
 40
0.0
  9
$DIMEXE
 40
1.0
  9
$DIMTP
 40
0.1
  9
$DIMTM
 40
0.1
  9
$DIMTXT
 40
3.2
  9
$DIMCEN
 40
0.0
  9
$DIMTSZ
 40
0.0
  9
$DIMTOL
 70
     0
  9
$DIMLIM
 70
     0
  9
$DIMTIH
 70
     0
  9
$DIMTOH
 70
     0
  9
$DIMSE1
 70
     0
  9
$DIMSE2
 70
     0
  9
$DIMTAD
 70
     3
  9
$DIMZIN
 70
     8
  9
$DIMBLK
  1
OPEN30
  9
$DIMASO
 70
     1
  9
$DIMSHO
 70
     1
  9
$DIMPOST
  1

  9
$DIMAPOST
  1
"
  9
$DIMALT
 70
     0
  9
$DIMALTD
 70
     2
  9
$DIMALTF
 40
0.0393701
  9
$DIMLFAC
 40
1.0
  9
$DIMTOFL
 70
     1
  9
$DIMTVP
 40
0.0
  9
$DIMTIX
 70
     0
  9
$DIMSOXD
 70
     0
  9
$DIMSAH
 70
     0
  9
$DIMBLK1
  1

  9
$DIMBLK2
  1

  9
$DIMSTYLE
  2
AM_JIS
  9
$DIMCLRD
 70
   256
  9
$DIMCLRE
 70
   256
  9
$DIMCLRT
 70
     2
  9
$DIMTFAC
 40
0.71
  9
$DIMGAP
 40
1.5
  9
$DIMJUST
 70
     0
  9
$DIMSD1
 70
     0
  9
$DIMSD2
 70
     0
  9
$DIMTOLJ
 70
     0
  9
$DIMTZIN
 70
     0
  9
$DIMALTZ
 70
     0
  9
$DIMALTTZ
 70
     0
  9
$DIMFIT
 70
     3
  9
$DIMUPT
 70
     0
  9
$DIMUNIT
 70
     2
  9
$DIMDEC
 70
     3
  9
$DIMTDEC
 70
     3
  9
$DIMALTU
 70
     2
  9
$DIMALTTD
 70
     2
  9
$DIMTXSTY
  7
ASAMI
  9
$DIMAUNIT
 70
     0
  9
$LUNITS
 70
     2
  9
$LUPREC
 70
     2
  9
$SKETCHINC
 40
1.0
  9
$FILLETRAD
 40
2.5
  9
$AUNITS
 70
     0
  9
$AUPREC
 70
     0
  9
$MENU
  1
.
  9
$ELEVATION
 40
0.0
  9
$PELEVATION
 40
0.0
  9
$THICKNESS
 40
0.0
  9
$LIMCHECK
 70
     0
  9
$BLIPMODE
 70
     0
  9
$CHAMFERA
 40
0.75
  9
$CHAMFERB
 40
0.75
  9
$CHAMFERC
 40
20.0
  9
$CHAMFERD
 40
0.0
  9
$SKPOLY
 70
     0
  9
$TDCREATE
 40
2452800.443498622
  9
$TDUPDATE
 40
2453151.565714687
  9
$TDINDWG
 40
0.0977902431
  9
$TDUSRTIMER
 40
0.0977902431
  9
$USRTIMER
 70
     1
  9
$ANGBASE
 50
0.0
  9
$ANGDIR
 70
     0
  9
$PDMODE
 70
     0
  9
$PDSIZE
 40
0.0
  9
$PLINEWID
 40
0.0
  9
$COORDS
 70
     1
  9
$SPLFRAME
 70
     0
  9
$SPLINETYPE
 70
     6
  9
$SPLINESEGS
 70
     8
  9
$ATTDIA
 70
     1
  9
$ATTREQ
 70
     1
  9
$HANDLING
 70
 12289
  9
$HANDSEED
  5
464B
  9
$SURFTAB1
 70
     6
  9
$SURFTAB2
 70
     6
  9
$SURFTYPE
 70
     6
  9
$SURFU
 70
     6
  9
$SURFV
 70
     6
  9
$UCSNAME
  2

  9
$UCSORG
 10
0.0
 20
0.0
 30
0.0
  9
$UCSXDIR
 10
1.0
 20
0.0000000000000027
 30
0.0
  9
$UCSYDIR
 10
-0.0000000000000027
 20
1.0
 30
0.0
  9
$PUCSNAME
  2

  9
$PUCSORG
 10
0.0
 20
0.0
 30
0.0
  9
$PUCSXDIR
 10
1.0
 20
0.0
 30
0.0
  9
$PUCSYDIR
 10
0.0
 20
1.0
 30
0.0
  9
$USERI1
 70
     0
  9
$USERI2
 70
     0
  9
$USERI3
 70
     0
  9
$USERI4
 70
     0
  9
$USERI5
 70
     0
  9
$USERR1
 40
0.0
  9
$USERR2
 40
0.0
  9
$USERR3
 40
0.0
  9
$USERR4
 40
0.0
  9
$USERR5
 40
0.0
  9
$WORLDVIEW
 70
     1
  9
$SHADEDGE
 70
     3
  9
$SHADEDIF
 70
    70
  9
$TILEMODE
 70
     1
  9
$MAXACTVP
 70
    64
  9
$PINSBASE
 10
0.0
 20
0.0
 30
0.0
  9
$PLIMCHECK
 70
     0
  9
$PEXTMIN
 10
1.000000000000000E+20
 20
1.000000000000000E+20
 30
1.000000000000000E+20
  9
$PEXTMAX
 10
-1.000000000000000E+20
 20
-1.000000000000000E+20
 30
-1.000000000000000E+20
  9
$PLIMMIN
 10
0.0
 20
0.0
  9
$PLIMMAX
 10
841.0
 20
594.0
  9
$UNITMODE
 70
     0
  9
$VISRETAIN
 70
     1
  9
$PLINEGEN
 70
     0
  9
$PSLTSCALE
 70
     0
  9
$TREEDEPTH
 70
  3020
  9
$PICKSTYLE
 70
     0
  9
$CMLSTYLE
  2
STANDARD
  9
$CMLJUST
 70
     0
  9
$CMLSCALE
 40
20.0
  9
$PROXYGRAPHICS
 70
     1
  9
$MEASUREMENT
 70
     1
  0
ENDSEC
  0
SECTION
  2
CLASSES
  0
CLASS
  1
ACDBDICTIONARYWDFLT
  2
AcDbDictionaryWithDefault
  3
AutoCAD 2000
 90
        0
280
     0
281
     0
  0
CLASS
  1
ACDBPLACEHOLDER
  2
AcDbPlaceHolder
  3
AutoCAD 2000
 90
        0
280
     0
281
     0
  0
CLASS
  1
LAYOUT
  2
AcDbLayout
  3
AutoCAD 2000
 90
        0
280
     0
281
     0
  0
CLASS
  1
AMGSETTINGSOBJ
  2
AmgSettingsObj
  3
"AcadM|Product Description: AutoCAD Mechanical 2000|Company: Autodesk"
 90
        0
280
     0
281
     0
  0
CLASS
  1
ACME_DOCUMENT
  2
AcMeDbDoc
  3
AcMeServices
 90
        0
280
     0
281
     0
  0
CLASS
  1
ACMESCOPE
  2
AcMeScope
  3
AcMeServices
 90
        0
280
     0
281
     0
  0
CLASS
  1
ACMECOMMANDHISTORY
  2
AcMeCommandHistory
  3
AcMeServices
 90
        0
280
     0
281
     0
  0
CLASS
  1
DICTIONARYVAR
  2
AcDbDictionaryVar
  3
AutoCAD 2000
 90
        0
280
     0
281
     0
  0
CLASS
  1
ACIMSYSVARMAN
  2
AcImSysVarManager
  3
AcMeServices
 90
        0
280
     0
281
     0
  0
CLASS
  1
ACIMREALSYSVAR
  2
AcImRealSysVar
  3
AcMeServices
 90
        0
280
     0
281
     0
  0
CLASS
  1
ACIMINTSYSVAR
  2
AcImIntSysVar
  3
AcMeServices
 90
        0
280
     0
281
     0
  0
CLASS
  1
ACMEDRAWINGMAN
  2
AcMeDrawingMan
  3
AcMeServices
 90
        0
280
     0
281
     0
  0
CLASS
  1
ACMEVIEW
  2
AcMeView
  3
AcMeServices
 90
        0
280
     0
281
     0
  0
CLASS
  1
ACDBENTITYCACHE
  2
AcMeEntityCache
  3
AcMeServices
 90
        0
280
     0
281
     0
  0
CLASS
  1
GSMANAGER
  2
AcMeGSManager
  3
AcMeServices
 90
        0
280
     0
281
     0
  0
CLASS
  1
AmdtInternalReactor
  2
AmdtInternalReactor
  3
AcMeServices
 90
        0
280
     0
281
     0
  0
CLASS
  1
ACMESTATEMGR
  2
AcMeStateMgr
  3
AcMeServices
 90
        0
280
     0
281
     0
  0
CLASS
  1
ACME_DATABASE
  2
AcMeDbDatabase
  3
AcMeServices
 90
        0
280
     0
281
     0
  0
CLASS
  1
ACRFINSADJUSTERMGR
  2
AcRfInsAdjusterMgr
  3
AcMeServices
 90
        0
280
     0
281
     0
  0
CLASS
  1
ACMDATADICTIONARY
  2
AcmDataDictionary
  3
"AcmSymBB|Product Description: AutoCAD Mechanical 2000|Company: Autodesk"
 90
        0
280
     0
281
     0
  0
CLASS
  1
ACMDATAENTRYBLOCK
  2
AcmDataEntryBlock
  3
"AcmSymBB|Product Description: AutoCAD Mechanical 2000|Company: Autodesk"
 90
        0
280
     0
281
     0
  0
CLASS
  1
AMGOBJPROPCFG
  2
AmgObjPropCfg
  3
"AmgLay|Product Description: AutoCAD Mechanical 2000|Company: Autodesk"
 90
        1
280
     0
281
     0
  0
CLASS
  1
ACAMGFILTERDAT
  2
AcAmgFilterDat
  3
"AcadM|Product Description: AutoCAD Mechanical 2000|Company: Autodesk"
 90
        0
280
     0
281
     0
  0
CLASS
  1
LAYER_INDEX
  2
AcDbLayerIndex
  3
AutoCAD 2000
 90
        0
280
     0
281
     0
  0
CLASS
  1
IDBUFFER
  2
AcDbIdBuffer
  3
AutoCAD 2000
 90
        0
280
     0
281
     0
  0
CLASS
  1
ACIMSTRSYSVAR
  2
AcImStrSysVar
  3
AcMeServices
 90
        0
280
     0
281
     0
  0
CLASS
  1
ACMSTANDARDJIS
  2
AcmStandardJIS
  3
"AcmSymBB|Product Description: AutoCAD Mechanical 2000|Company: Autodesk"
 90
        0
280
     0
281
     0
  0
CLASS
  1
ACMSURFSTANDARDJIS
  2
AcmSurfTextStdJIS
  3
"AcmSymBB|Product Description: AutoCAD Mechanical 2000|Company: Autodesk"
 90
        0
280
     0
281
     0
  0
CLASS
  1
ACMFCFSTANDARDJIS
  2
AcmFCFStdJIS
  3
"AcmSymBB|Product Description: AutoCAD Mechanical 2000|Company: Autodesk"
 90
        0
280
     0
281
     0
  0
CLASS
  1
ACMWELDSTANDARDJIS
  2
AcmWeldingStdJIS
  3
"AcmSymBB|Product Description: AutoCAD Mechanical 2000|Company: Autodesk"
 90
        0
280
     0
281
     0
  0
CLASS
  1
ACMIDSTANDARDJIS
  2
AcmIdStdJIS
  3
"AcmSymBB|Product Description: AutoCAD Mechanical 2000|Company: Autodesk"
 90
        0
280
     0
281
     0
  0
CLASS
  1
ACMDATUMSTANDARDJIS
  2
AcmDatumStdJIS
  3
"AcmSymBB|Product Description: AutoCAD Mechanical 2000|Company: Autodesk"
 90
        0
280
     0
281
     0
  0
CLASS
  1
ACMBOMSTANDARDJIS
  2
AcmBOMStdJIS
  3
"AcmSymBB|Product Description: AutoCAD Mechanical 2000|Company: Autodesk"
 90
        0
280
     0
281
     0
  0
CLASS
  1
ACMSTANDARDANSI
  2
AcmStandardANSI
  3
"AcmSymBB|Product Description: AutoCAD Mechanical 2000|Company: Autodesk"
 90
        0
280
     0
281
     0
  0
CLASS
  1
ACMSURFSTANDARDANSI
  2
AcmSurfTextStdANSI
  3
"AcmSymBB|Product Description: AutoCAD Mechanical 2000|Company: Autodesk"
 90
        0
280
     0
281
     0
  0
CLASS
  1
ACMFCFSTANDARDANSI
  2
AcmFCFStdANSI
  3
"AcmSymBB|Product Description: AutoCAD Mechanical 2000|Company: Autodesk"
 90
        0
280
     0
281
     0
  0
CLASS
  1
ACMWELDSTANDARDANSI
  2
AcmWeldingStdANSI
  3
"AcmSymBB|Product Description: AutoCAD Mechanical 2000|Company: Autodesk"
 90
        0
280
     0
281
     0
  0
CLASS
  1
ACMIDSTANDARDANSI
  2
AcmIdStdANSI
  3
"AcmSymBB|Product Description: AutoCAD Mechanical 2000|Company: Autodesk"
 90
        0
280
     0
281
     0
  0
CLASS
  1
ACMDATUMSTANDARDANSI
  2
AcmDatumStdANSI
  3
"AcmSymBB|Product Description: AutoCAD Mechanical 2000|Company: Autodesk"
 90
        0
280
     0
281
     0
  0
CLASS
  1
ACMBOMSTANDARDANSI
  2
AcmBOMStdANSI
  3
"AcmSymBB|Product Description: AutoCAD Mechanical 2000|Company: Autodesk"
 90
        0
280
     0
281
     0
  0
CLASS
  1
ACMSTANDARDBSI
  2
AcmStandardBSI
  3
"AcmSymBB|Product Description: AutoCAD Mechanical 2000|Company: Autodesk"
 90
        0
280
     0
281
     0
  0
CLASS
  1
ACMSURFSTANDARDBSI
  2
AcmSurfTextStdBSI
  3
"AcmSymBB|Product Description: AutoCAD Mechanical 2000|Company: Autodesk"
 90
        0
280
     0
281
     0
  0
CLASS
  1
ACMFCFSTANDARDBSI
  2
AcmFCFStdBSI
  3
"AcmSymBB|Product Description: AutoCAD Mechanical 2000|Company: Autodesk"
 90
        0
280
     0
281
     0
  0
CLASS
  1
ACMWELDSTANDARDBSI
  2
AcmWeldingStdBSI
  3
"AcmSymBB|Product Description: AutoCAD Mechanical 2000|Company: Autodesk"
 90
        0
280
     0
281
     0
  0
CLASS
  1
ACMIDSTANDARDBSI
  2
AcmIdStdBSI
  3
"AcmSymBB|Product Description: AutoCAD Mechanical 2000|Company: Autodesk"
 90
        0
280
     0
281
     0
  0
CLASS
  1
ACMDATUMSTANDARDBSI
  2
AcmDatumStdBSI
  3
"AcmSymBB|Product Description: AutoCAD Mechanical 2000|Company: Autodesk"
 90
        0
280
     0
281
     0
  0
CLASS
  1
ACMBOMSTANDARDBSI
  2
AcmBOMStdBSI
  3
"AcmSymBB|Product Description: AutoCAD Mechanical 2000|Company: Autodesk"
 90
        0
280
     0
281
     0
  0
CLASS
  1
LONG_TRANSACTION
  2
AcDbLongTransaction
  3
AutoCAD 2000
 90
        0
280
     0
281
     0
  0
CLASS
  1
LWPOLYLINE
  2
AcDbPolyline
  3
AutoCAD 2000
 90
        0
280
     0
281
     1
  0
CLASS
  1
HATCH
  2
AcDbHatch
  3
AutoCAD 2000
 90
        0
280
     0
281
     1
  0
CLASS
  1
XRECORD
  2
AcDbXrecord
  3
AutoCAD 2000
 90
        0
280
     0
281
     0
  0
ENDSEC
  0
SECTION
  2
TABLES
  0
TABLE
  2
VPORT
  5
8
330
0
100
AcDbSymbolTable
 70
     3
  0
VPORT
  5
4615
330
8
100
AcDbSymbolTableRecord
100
AcDbViewportTableRecord
  2
*ACTIVE
 70
     0
 10
0.0
 20
0.0
 11
1.0
 21
1.0
 12
-66.84902479771894
 22
-15.1989338718111
 13
0.0
 23
0.0
 14
2.5
 24
2.5
 15
10.0
 25
10.0
 16
0.0
 26
0.0
 36
1.0
 17
0.0
 27
0.0
 37
0.0
 40
125.7394312412681
 41
1.56570841889117
 42
50.0
 43
0.0
 44
0.0
 50
0.0
 51
0.0
 71
     0
 72
   100
 73
     1
 74
     1
 75
     0
 76
     0
 77
     0
 78
     0
  0
ENDTAB
  0
TABLE
  2
LTYPE
  5
5
330
0
100
AcDbSymbolTable
 70
    10
  0
LTYPE
  5
14
330
5
100
AcDbSymbolTableRecord
100
AcDbLinetypeTableRecord
  2
BYBLOCK
 70
     0
  3

 72
    65
 73
     0
 40
0.0
  0
LTYPE
  5
15
330
5
100
AcDbSymbolTableRecord
100
AcDbLinetypeTableRecord
  2
BYLAYER
 70
     0
  3

 72
    65
 73
     0
 40
0.0
  0
LTYPE
  5
16
330
5
100
AcDbSymbolTableRecord
100
AcDbLinetypeTableRecord
  2
CONTINUOUS
 70
     0
  3
Solid line
 72
    65
 73
     0
 40
0.0
  0
LTYPE
  5
4B
330
5
100
AcDbSymbolTableRecord
100
AcDbLinetypeTableRecord
  2
AM_ISO02W050
 70
     0
  3
__ __ __ __ __ __ __ __ __ __ __ __ __ __ __
 72
    65
 73
     2
 40
7.5
 49
6.0
 74
     0
 49
-1.5
 74
     0
  0
LTYPE
  5
4C
330
5
100
AcDbSymbolTableRecord
100
AcDbLinetypeTableRecord
  2
AM_ISO08W050
 70
     0
  3
____ . ____ . ____ . ____ . ____ . ____ . ____
 72
    65
 73
     4
 40
18.0
 49
12.0
 74
     0
 49
-1.5
 74
     0
 49
3.0
 74
     0
 49
-1.5
 74
     0
  0
LTYPE
  5
4D
330
5
100
AcDbSymbolTableRecord
100
AcDbLinetypeTableRecord
  2
AM_ISO09W050
 70
     0
  3
_____ . . _____ . . _____ . . ____ .. ____
 72
    65
 73
     6
 40
22.5
 49
12.0
 74
     0
 49
-1.5
 74
     0
 49
3.0
 74
     0
 49
-1.5
 74
     0
 49
3.0
 74
     0
 49
-1.5
 74
     0
  0
LTYPE
  5
4E
330
5
100
AcDbSymbolTableRecord
100
AcDbLinetypeTableRecord
  2
AMCONSTR
 70
     0
  3
_______________________
 72
    65
 73
     2
 40
9999.0
 49
9999.0
 74
     0
 49
0.0
 74
     0
  0
LTYPE
  5
4F
330
5
100
AcDbSymbolTableRecord
100
AcDbLinetypeTableRecord
  2
AM_ISO02W050X2
 70
     0
  3
 _ _ _ _ _ _ _ _ _ _ _ _
 72
    65
 73
     2
 40
3.75
 49
3.0
 74
     0
 49
-0.75
 74
     0
  0
LTYPE
  5
50
330
5
100
AcDbSymbolTableRecord
100
AcDbLinetypeTableRecord
  2
AM_ISO08W050X2
 70
     0
  3
__ . __ . __ . __ . __ . __
 72
    65
 73
     4
 40
9.0
 49
6.0
 74
     0
 49
-0.75
 74
     0
 49
1.5
 74
     0
 49
-0.75
 74
     0
  0
LTYPE
  5
53
330
5
100
AcDbSymbolTableRecord
100
AcDbLinetypeTableRecord
  2
AMZIGZAG
 70
     0
  3
/\/-/\/-/\/-/\/-/\/-/\/
 72
    65
 73
     2
 40
11.00009999999999
 49
0.0001
 74
     4
 75
   135
340
52
 46
0.04
 50
0.0
 44
0.0
 45
0.0
 49
-11.0
 74
     0
  0
LTYPE
  5
166
330
5
100
AcDbSymbolTableRecord
100
AcDbLinetypeTableRecord
  2
ACJISTGL
 70
     0
  3
_ _ _ _ _
 72
    65
 73
     2
 40
3.0
 49
2.0
 74
     0
 49
-1.0
 74
     0
  0
LTYPE
  5
26A
330
5
100
AcDbSymbolTableRecord
100
AcDbLinetypeTableRecord
  2
ACJISTGB
 70
     0
  3
__ . . __ . .
 72
    65
 73
     6
 40
9.0
 49
4.0
 74
     0
 49
-1.0
 74
     0
 49
1.0
 74
     0
 49
-1.0
 74
     0
 49
1.0
 74
     0
 49
-1.0
 74
     0
  0
ENDTAB
  0
TABLE
  2
LAYER
  5
2
330
0
100
AcDbSymbolTable
 70
     7
  0
LAYER
  5
10
330
2
100
AcDbSymbolTableRecord
100
AcDbLayerTableRecord
  2
0
 70
     0
 62
     7
  6
CONTINUOUS
  0
LAYER
  5
3F9
330
2
100
AcDbSymbolTableRecord
100
AcDbLayerTableRecord
  2
AM_0
 70
     0
 62
     7
  6
CONTINUOUS
  0
LAYER
  5
C7C
330
2
100
AcDbSymbolTableRecord
100
AcDbLayerTableRecord
  2
AM_7
 70
     0
 62
     4
  6
AM_ISO08W050
  0
LAYER
  5
C97
330
2
100
AcDbSymbolTableRecord
100
AcDbLayerTableRecord
  2
AM_11
 70
     0
 62
     3
  6
AM_ISO09W050
  0
LAYER
  5
CC5
330
2
100
AcDbSymbolTableRecord
100
AcDbLayerTableRecord
  2
AM_5
 70
     0
 62
     3
  6
CONTINUOUS
  0
LAYER
  5
CC7
330
2
100
AcDbSymbolTableRecord
100
AcDbLayerTableRecord
  2
DEFPOINTS
 70
     0
 62
     7
  6
CONTINUOUS
  0
LAYER
  5
19BC
330
2
100
AcDbSymbolTableRecord
100
AcDbLayerTableRecord
  2
AM_6
 70
     0
 62
     2
  6
CONTINUOUS
  0
ENDTAB
  0
TABLE
  2
STYLE
  5
3
330
0
100
AcDbSymbolTable
 70
     5
  0
STYLE
  5
11
330
3
100
AcDbSymbolTableRecord
100
AcDbTextStyleTableRecord
  2
STANDARD
 70
     0
 40
0.0
 41
1.0
 50
0.0
 71
     0
 42
2.5
  3
simplex.shx
  4
EXTFONT.SHX
  0
STYLE
  5
52
330
3
100
AcDbSymbolTableRecord
100
AcDbTextStyleTableRecord
  2

 70
     1
 40
0.0
 41
1.0
 50
0.0
 71
     0
 42
2.5
  3
ltypeshp.shx
  4

  0
STYLE
  5
6B
330
3
100
AcDbSymbolTableRecord
100
AcDbTextStyleTableRecord
  2
ASAMI
 70
     0
 40
0.0
 41
1.0
 50
0.0
 71
     0
 42
2.5
  3
simplex.shx
  4
EXTFONT.SHX
  0
STYLE
  5
262
330
3
100
AcDbSymbolTableRecord
100
AcDbTextStyleTableRecord
  2
ACJISTS
 70
     0
 40
1.0
 41
1.0
 50
0.0
 71
     0
 42
2.5
  3
simplex.shx
  4
bigfont.shx
  0
STYLE
  5
269
330
3
100
AcDbSymbolTableRecord
100
AcDbTextStyleTableRecord
  2
ACJISGDT
 70
     0
 40
0.0
 41
1.0
 50
0.0
 71
     0
 42
2.5
  3
amgdtans.shx
  4

  0
ENDTAB
  0
TABLE
  2
VIEW
  5
6
330
0
100
AcDbSymbolTable
 70
     0
  0
ENDTAB
  0
TABLE
  2
UCS
  5
7
330
0
100
AcDbSymbolTable
 70
     0
  0
ENDTAB
  0
TABLE
  2
APPID
  5
9
330
0
100
AcDbSymbolTable
 70
    16
  0
APPID
  5
12
330
9
100
AcDbSymbolTableRecord
100
AcDbRegAppTableRecord
  2
ACAD
 70
     0
  0
APPID
  5
30
330
9
100
AcDbSymbolTableRecord
100
AcDbRegAppTableRecord
  2
MCAD_NO_VIS
 70
     0
  0
APPID
  5
31
330
9
100
AcDbSymbolTableRecord
100
AcDbRegAppTableRecord
  2
ACAD_TEMP_GRAPHIC
 70
     0
  0
APPID
  5
2C2
330
9
100
AcDbSymbolTableRecord
100
AcDbRegAppTableRecord
  2
GENIUS_GENDTOL_13
 70
     0
  0
APPID
  5
339
330
9
100
AcDbSymbolTableRecord
100
AcDbRegAppTableRecord
  2
GENIUS_GENODEF_13
 70
     0
  0
APPID
  5
33A
330
9
100
AcDbSymbolTableRecord
100
AcDbRegAppTableRecord
  2
GENIUS_GENOBJ-N-RSBK_13
 70
     0
  0
APPID
  5
33B
330
9
100
AcDbSymbolTableRecord
100
AcDbRegAppTableRecord
  2
GENIUS_GENOBJ-N-LIB_13
 70
     0
  0
APPID
  5
33C
330
9
100
AcDbSymbolTableRecord
100
AcDbRegAppTableRecord
  2
GENIUS_GENSCALE_13
 70
     0
  0
APPID
  5
378
330
9
100
AcDbSymbolTableRecord
100
AcDbRegAppTableRecord
  2
GENIUS_GENDIMSH_14
 70
     0
  0
APPID
  5
C82
330
9
100
AcDbSymbolTableRecord
100
AcDbRegAppTableRecord
  2
GENIUS_GENOBJ-N-CRS_13
 70
     0
  0
APPID
  5
C83
330
9
100
AcDbSymbolTableRecord
100
AcDbRegAppTableRecord
  2
GENIUS_GENOENT_13
 70
     0
  0
APPID
  5
C84
330
9
100
AcDbSymbolTableRecord
100
AcDbRegAppTableRecord
  2
GENIUS_GENOREF_13
 70
     0
  0
APPID
  5
C85
330
9
100
AcDbSymbolTableRecord
100
AcDbRegAppTableRecord
  2
GENIUS_GENOLIS_13
 70
     0
  0
APPID
  5
CA0
330
9
100
AcDbSymbolTableRecord
100
AcDbRegAppTableRecord
  2
GENIUS_GENOBJ-N-CEN_13
 70
     0
  0
APPID
  5
2796
330
9
100
AcDbSymbolTableRecord
100
AcDbRegAppTableRecord
  2
GENIUS_GENFIL_13
 70
     0
  0
APPID
  5
2797
330
9
100
AcDbSymbolTableRecord
100
AcDbRegAppTableRecord
  2
GENIUS_GENOBJ-N-CHA_13
 70
     0
  0
ENDTAB
  0
TABLE
  2
DIMSTYLE
  5
A
330
0
100
AcDbSymbolTable
 70
     9
  0
DIMSTYLE
105
58
330
A
100
AcDbSymbolTableRecord
100
AcDbDimStyleTableRecord
  2
AM_JIS
 70
     0
  3

  4
"
  5
OPEN30
  6

  7

 40
1.0
 41
2.5
 42
1.0
 43
12.0
 44
1.0
 45
0.0
 46
0.0
 47
0.1
 48
0.1
140
3.2
141
0.0
142
0.0
143
0.0393701
144
1.0
145
0.0
146
0.71
147
1.5
 71
     0
 72
     0
 73
     0
 74
     0
 75
     0
 76
     0
 77
     3
 78
     8
170
     0
171
     2
172
     1
173
     0
174
     0
175
     0
176
   256
177
   256
178
     2
270
     2
271
     3
272
     3
273
     2
274
     2
340
6B
275
     0
280
     0
281
     0
282
     0
283
     0
284
     0
285
     0
286
     0
287
     3
288
     0
  0
DIMSTYLE
105
5F
330
A
100
AcDbSymbolTableRecord
100
AcDbDimStyleTableRecord
  2
AM_JIS$3
 70
     0
  3

  4
"
  5
OPEN30
  6

  7

 40
1.0
 41
2.5
 42
1.0
 43
10.0
 44
1.0
 45
0.0
 46
0.0
 47
0.1
 48
0.1
140
3.2
141
0.0
142
0.0
143
0.0393701
144
1.0
145
0.0
146
0.71
147
1.5
 71
     0
 72
     0
 73
     0
 74
     1
 75
     0
 76
     0
 77
     3
 78
     8
170
     0
171
     2
172
     0
173
     0
174
     0
175
     0
176
   256
177
   256
178
     2
270
     2
271
     2
272
     3
273
     2
274
     2
340
6B
275
     0
280
     0
281
     0
282
     0
283
     0
284
     0
285
     0
286
     0
287
     0
288
     1
  0
DIMSTYLE
105
60
330
A
100
AcDbSymbolTableRecord
100
AcDbDimStyleTableRecord
  2
AM_JIS$4
 70
     0
  3

  4
"
  5
OPEN30
  6

  7

 40
1.0
 41
2.5
 42
1.0
 43
10.0
 44
1.0
 45
0.0
 46
0.0
 47
0.1
 48
0.1
140
3.2
141
0.0
142
0.0
143
0.0393701
144
1.0
145
0.0
146
0.71
147
1.5
 71
     0
 72
     0
 73
     0
 74
     1
 75
     0
 76
     0
 77
     3
 78
     8
170
     0
171
     2
172
     0
173
     0
174
     0
175
     0
176
   256
177
   256
178
     2
270
     2
271
     2
272
     3
273
     2
274
     2
340
6B
275
     0
280
     0
281
     0
282
     0
283
     0
284
     0
285
     0
286
     0
287
     0
288
     1
  0
DIMSTYLE
105
61
330
A
100
AcDbSymbolTableRecord
100
AcDbDimStyleTableRecord
  2
AM_JIS$6
 70
     0
  3

  4
"
  5
OPEN30
  6

  7

 40
1.0
 41
2.5
 42
1.0
 43
10.0
 44
1.0
 45
0.0
 46
0.0
 47
0.1
 48
0.1
140
3.2
141
0.0
142
0.0
143
0.0393701
144
1.0
145
0.0
146
0.71
147
1.5
 71
     0
 72
     0
 73
     0
 74
     0
 75
     0
 76
     0
 77
     0
 78
     8
170
     0
171
     2
172
     1
173
     0
174
     0
175
     0
176
   256
177
   256
178
     2
270
     2
271
     2
272
     2
273
     2
274
     2
340
6B
275
     0
280
     0
281
     0
282
     0
283
     0
284
     0
285
     0
286
     0
287
     3
288
     0
  0
DIMSTYLE
105
62
330
A
100
AcDbSymbolTableRecord
100
AcDbDimStyleTableRecord
  2
AM_JIS$7
 70
     0
  3

  4
"
  5
OPEN30
  6

  7

 40
1.0
 41
2.5
 42
1.0
 43
10.0
 44
1.0
 45
0.0
 46
0.0
 47
0.1
 48
0.1
140
3.2
141
0.0
142
0.0
143
0.0393701
144
1.0
145
0.0
146
0.71
147
1.5
 71
     0
 72
     0
 73
     0
 74
     0
 75
     0
 76
     0
 77
     3
 78
     8
170
     0
171
     2
172
     1
173
     0
174
     0
175
     0
176
   256
177
   256
178
     2
270
     2
271
     2
272
     3
273
     2
274
     2
340
6B
275
     0
280
     0
281
     0
282
     0
283
     0
284
     0
285
     0
286
     0
287
     3
288
     0
  0
DIMSTYLE
105
63
330
A
100
AcDbSymbolTableRecord
100
AcDbDimStyleTableRecord
  2
AM_JIS$SF
 70
     0
  3

  4
"
  5
OPEN30
  6

  7

 40
1.0
 41
2.5
 42
1.0
 43
10.0
 44
1.0
 45
0.0
 46
0.0
 47
0.1
 48
0.1
140
3.2
141
0.0
142
0.0
143
0.0393701
144
1.0
145
0.0
146
0.71
147
1.5
 71
     0
 72
     0
 73
     0
 74
     0
 75
     1
 76
     1
 77
     3
 78
     8
170
     0
171
     2
172
     1
173
     0
174
     0
175
     0
176
   256
177
   256
178
     2
270
     2
271
     2
272
     2
273
     2
274
     2
340
6B
275
     0
280
     0
281
     0
282
     0
283
     0
284
     0
285
     0
286
     0
287
     3
288
     0
  0
DIMSTYLE
105
68
330
A
100
AcDbSymbolTableRecord
100
AcDbDimStyleTableRecord
  2
AM_JIS$SH
 70
     0
  3

  4
"
  5

  6
GENAXEH
  7
OPEN30
 40
1.0
 41
2.5
 42
1.0
 43
10.0
 44
1.0
 45
0.0
 46
0.0
 47
0.1
 48
0.1
140
3.2
141
0.0
142
0.0
143
0.0393701
144
2.0
145
0.0
146
0.71
147
1.5
 71
     0
 72
     0
 73
     0
 74
     0
 75
     1
 76
     1
 77
     3
 78
     8
170
     0
171
     2
172
     1
173
     1
174
     0
175
     0
176
   256
177
   256
178
     2
270
     2
271
     2
272
     2
273
     2
274
     2
340
6B
275
     0
280
     0
281
     0
282
     0
283
     0
284
     0
285
     0
286
     0
287
     3
288
     0
  0
DIMSTYLE
105
B34
102
{ACAD_REACTORS
330
3D2F
102
}
330
A
100
AcDbSymbolTableRecord
100
AcDbDimStyleTableRecord
  2
AM_JIS$2
 70
     0
  3

  4
"
  5
OPEN30
  6

  7

 40
1.0
 41
2.5
 42
1.0
 43
12.0
 44
1.0
 45
0.0
 46
0.0
 47
0.1
 48
0.1
140
3.2
141
0.0
142
0.0
143
0.0393701
144
1.0
145
0.0
146
0.71
147
1.5
 71
     0
 72
     0
 73
     0
 74
     0
 75
     0
 76
     0
 77
     3
 78
     8
170
     0
171
     2
172
     1
173
     0
174
     0
175
     0
176
   256
177
   256
178
     2
270
     2
271
     3
272
     3
273
     2
274
     2
340
6B
275
     0
280
     0
281
     0
282
     0
283
     0
284
     0
285
     0
286
     0
287
     3
288
     0
  0
DIMSTYLE
105
BA5
102
{ACAD_REACTORS
330
4485
330
3C5B
330
CC6
330
2069
102
}
330
A
100
AcDbSymbolTableRecord
100
AcDbDimStyleTableRecord
  2
AM_JIS$0
 70
     0
  3

  4
"
  5
OPEN30
  6

  7

 40
1.0
 41
2.5
 42
0.0
 43
10.0
 44
1.0
 45
0.0
 46
0.0
 47
0.1
 48
0.1000000001
140
3.799999999999999
141
0.0
142
0.0
143
0.0393701
144
1.0
145
0.0
146
0.71
147
1.5
 71
     0
 72
     0
 73
     0
 74
     0
 75
     0
 76
     0
 77
     3
 78
     1
170
     0
171
     2
172
     1
173
     0
174
     0
175
     0
176
     3
177
     3
178
     2
270
     2
271
     2
272
     2
273
     2
274
     2
340
11
275
     1
280
     0
281
     0
282
     0
283
     0
284
     8
285
     0
286
     0
287
     0
288
     0
  0
ENDTAB
  0
TABLE
  2
BLOCK_RECORD
  5
1
330
0
100
AcDbSymbolTable
 70
    10
  0
BLOCK_RECORD
  5
1F
102
{ACAD_XDICTIONARY
360
74
102
}
330
1
100
AcDbSymbolTableRecord
100
AcDbBlockTableRecord
  2
*MODEL_SPACE
  0
BLOCK_RECORD
  5
101
102
{ACAD_XDICTIONARY
360
463E
102
}
330
1
100
AcDbSymbolTableRecord
100
AcDbBlockTableRecord
  2
*PAPER_SPACE
  0
BLOCK_RECORD
  5
59
330
1
100
AcDbSymbolTableRecord
100
AcDbBlockTableRecord
  2
_OPEN30
  0
BLOCK_RECORD
  5
64
330
1
100
AcDbSymbolTableRecord
100
AcDbBlockTableRecord
  2
GENAXEH
  0
BLOCK_RECORD
  5
CC8
330
1
100
AcDbSymbolTableRecord
100
AcDbBlockTableRecord
  2
*D5
  0
BLOCK_RECORD
  5
206A
330
1
100
AcDbSymbolTableRecord
100
AcDbBlockTableRecord
  2
*D6
  0
BLOCK_RECORD
  5
3C5C
330
1
100
AcDbSymbolTableRecord
100
AcDbBlockTableRecord
  2
*D7
  0
BLOCK_RECORD
  5
3D30
330
1
100
AcDbSymbolTableRecord
100
AcDbBlockTableRecord
  2
*D8
  0
BLOCK_RECORD
  5
4486
330
1
100
AcDbSymbolTableRecord
100
AcDbBlockTableRecord
  2
*D9
  0
ENDTAB
  0
ENDSEC
  0
SECTION
  2
BLOCKS
  0
BLOCK
  5
20
330
1F
100
AcDbEntity
  8
0
100
AcDbBlockBegin
  2
*MODEL_SPACE
 70
     0
 10
0.0
 20
0.0
 30
0.0
  3
*MODEL_SPACE
  1

  0
ENDBLK
  5
21
330
1F
100
AcDbEntity
  8
0
100
AcDbBlockEnd
  0
BLOCK
  5
103
330
101
100
AcDbEntity
 67
     1
  8
0
100
AcDbBlockBegin
  2
*PAPER_SPACE
 70
     0
 10
0.0
 20
0.0
 30
0.0
  3
*PAPER_SPACE
  1

  0
ENDBLK
  5
104
330
101
100
AcDbEntity
 67
     1
  8
0
100
AcDbBlockEnd
  0
BLOCK
  5
5D
330
59
100
AcDbEntity
  8
0
100
AcDbBlockBegin
  2
_OPEN30
 70
     0
 10
0.0
 20
0.0
 30
0.0
  3
_OPEN30
  1

  0
LINE
  5
5A
330
59
100
AcDbEntity
  8
0
 62
     0
100
AcDbLine
 10
-1.0
 20
0.26794919
 30
0.0
 11
0.0
 21
0.0
 31
0.0
  0
LINE
  5
5B
330
59
100
AcDbEntity
  8
0
 62
     0
100
AcDbLine
 10
0.0
 20
0.0
 30
0.0
 11
-1.0
 21
-0.26794919
 31
0.0
  0
LINE
  5
5C
330
59
100
AcDbEntity
  8
0
 62
     0
100
AcDbLine
 10
0.0
 20
0.0
 30
0.0
 11
-1.0
 21
0.0
 31
0.0
  0
ENDBLK
  5
5E
330
59
100
AcDbEntity
  8
0
100
AcDbBlockEnd
  0
BLOCK
  5
66
330
64
100
AcDbEntity
  8
0
100
AcDbBlockBegin
  2
GENAXEH
 70
     0
 10
0.0
 20
0.0
 30
0.0
  3
GENAXEH
  1

  0
LINE
  5
65
330
64
100
AcDbEntity
  8
0
100
AcDbLine
 10
-1.0
 20
0.0
 30
0.0
 11
1.0
 21
0.0
 31
0.0
  0
ENDBLK
  5
67
330
64
100
AcDbEntity
  8
0
100
AcDbBlockEnd
  0
BLOCK
  5
CD2
330
CC8
100
AcDbEntity
  8
0
100
AcDbBlockBegin
  2
*D5
 70
     1
 10
0.0
 20
0.0
 30
0.0
  3
*D5
  1

  0
LINE
  5
45CC
330
CC8
100
AcDbEntity
  8
AM_5
 62
     3
100
AcDbLine
 10
-143.0
 20
-6.749999999999399
 30
0.0
 11
-143.0
 21
-32.50038246972451
 31
0.0
  0
LINE
  5
45CD
330
CC8
100
AcDbEntity
  8
AM_5
 62
     3
100
AcDbLine
 10
-3.000000028892317
 20
-7.500000000000344
 30
0.0
 11
-3.000000028892319
 21
-32.50038246972451
 31
0.0
  0
LINE
  5
45CE
330
CC8
100
AcDbEntity
  8
AM_5
 62
     3
100
AcDbLine
 10
-140.5
 20
-31.50038246972451
 30
0.0
 11
-5.500000028892319
 21
-31.50038246972451
 31
0.0
  0
INSERT
  5
45CF
330
CC8
100
AcDbEntity
  8
AM_5
 62
     3
100
AcDbBlockReference
  2
_OPEN30
 10
-143.0
 20
-31.50038246972451
 30
0.0
 41
2.5
 42
2.5
 43
2.5
 50
180.0
  0
INSERT
  5
45D0
330
CC8
100
AcDbEntity
  8
AM_5
 62
     3
100
AcDbBlockReference
  2
_OPEN30
 10
-3.000000028892319
 20
-31.50038246972451
 30
0.0
 41
2.5
 42
2.5
 43
2.5
  0
MTEXT
  5
45D1
330
CC8
100
AcDbEntity
  8
AM_5
 62
     2
100
AcDbMText
 10
-73.0000000144462
 20
-28.10038246972451
 30
0.0
 40
3.799999999999999
 41
0.0
 71
     5
 72
     1
  1
140
1001
ACAD
1000
MTEXTBEGIN
1070
    73
1070
     1
1070
    44
1040
1.0
1070
    74
1070
     0
1000
MTEXTEND
  0
POINT
  5
45D2
330
CC8
100
AcDbEntity
  8
DEFPOINTS
 62
     0
100
AcDbPoint
 10
-143.0
 20
-6.749999999999399
 30
0.0
  0
POINT
  5
45D3
330
CC8
100
AcDbEntity
  8
DEFPOINTS
 62
     0
100
AcDbPoint
 10
-3.000000028892317
 20
-7.500000000000344
 30
0.0
  0
POINT
  5
45D4
330
CC8
100
AcDbEntity
  8
DEFPOINTS
 62
     0
100
AcDbPoint
 10
-3.000000028892319
 20
-31.50038246972451
 30
0.0
  0
ENDBLK
  5
CD3
330
CC8
100
AcDbEntity
  8
0
100
AcDbBlockEnd
  0
BLOCK
  5
2074
330
206A
100
AcDbEntity
  8
0
100
AcDbBlockBegin
  2
*D6
 70
     1
 10
0.0
 20
0.0
 30
0.0
  3
*D6
  1

  0
LINE
  5
45C3
330
206A
100
AcDbEntity
  8
AM_5
 62
     3
100
AcDbLine
 10
-77.99999999999982
 20
-4.716737572992698
 30
0.0
 11
-77.99999999999975
 21
-22.50038246972465
 31
0.0
  0
LINE
  5
45C4
330
206A
100
AcDbEntity
  8
AM_5
 62
     3
100
AcDbLine
 10
-3.000000028892296
 20
-7.500000000000353
 30
0.0
 11
-3.000000028892253
 21
-22.50038246972442
 31
0.0
  0
LINE
  5
45C5
330
206A
100
AcDbEntity
  8
AM_5
 62
     3
100
AcDbLine
 10
-75.49999999999977
 20
-21.50038246972464
 30
0.0
 11
-5.500000028892256
 21
-21.50038246972444
 31
0.0
  0
INSERT
  5
45C6
330
206A
100
AcDbEntity
  8
AM_5
 62
     3
100
AcDbBlockReference
  2
_OPEN30
 10
-77.99999999999977
 20
-21.50038246972465
 30
0.0
 41
2.5
 42
2.5
 43
2.5
 50
180.0000000000001
  0
INSERT
  5
45C7
330
206A
100
AcDbEntity
  8
AM_5
 62
     3
100
AcDbBlockReference
  2
_OPEN30
 10
-3.000000028892256
 20
-21.50038246972442
 30
0.0
 41
2.5
 42
2.5
 43
2.5
 50
0.0000000000001527
  0
MTEXT
  5
45C8
330
206A
100
AcDbEntity
  8
AM_5
 62
     2
100
AcDbMText
 10
-40.50000001444602
 20
-18.10038246972453
 30
0.0
 40
3.799999999999999
 41
0.0
 71
     5
 72
     1
  1
75
1001
ACAD
1000
MTEXTBEGIN
1070
    73
1070
     1
1070
    44
1040
1.0
1070
    74
1070
     0
1000
MTEXTEND
  0
POINT
  5
45C9
330
206A
100
AcDbEntity
  8
DEFPOINTS
 62
     0
100
AcDbPoint
 10
-77.99999999999982
 20
-4.716737572992471
 30
0.0
  0
POINT
  5
45CA
330
206A
100
AcDbEntity
  8
DEFPOINTS
 62
     0
100
AcDbPoint
 10
-3.000000028892317
 20
-7.500000000000344
 30
0.0
  0
POINT
  5
45CB
330
206A
100
AcDbEntity
  8
DEFPOINTS
 62
     0
100
AcDbPoint
 10
-3.000000028892318
 20
-21.50038246972442
 30
0.0
  0
ENDBLK
  5
2075
330
206A
100
AcDbEntity
  8
0
100
AcDbBlockEnd
  0
BLOCK
  5
3C66
330
3C5C
100
AcDbEntity
  8
0
100
AcDbBlockBegin
  2
*D7
 70
     1
 10
0.0
 20
0.0
 30
0.0
  3
*D7
  1

  0
LINE
  5
45D5
330
3C5C
100
AcDbEntity
  8
AM_5
 62
     3
100
AcDbLine
 10
-142.25
 20
7.500000000000142
 30
0.0
 11
-160.500001
 21
7.500000000000089
 31
0.0
  0
LINE
  5
45D6
330
3C5C
100
AcDbEntity
  8
AM_5
 62
     3
100
AcDbLine
 10
-142.25
 20
-7.499999999999856
 30
0.0
 11
-160.5000009999999
 21
-7.499999999999908
 31
0.0
  0
LINE
  5
45D7
330
3C5C
100
AcDbEntity
  8
AM_5
 62
     3
100
AcDbLine
 10
-159.500001
 20
5.000000000000093
 30
0.0
 11
-159.5000009999999
 21
-4.999999999999904
 31
0.0
  0
INSERT
  5
45D8
330
3C5C
100
AcDbEntity
  8
AM_5
 62
     3
100
AcDbBlockReference
  2
_OPEN30
 10
-159.500001
 20
7.500000000000093
 30
0.0
 41
2.5
 42
2.5
 43
2.5
 50
90.00000000000017
  0
INSERT
  5
45D9
330
3C5C
100
AcDbEntity
  8
AM_5
 62
     3
100
AcDbBlockReference
  2
_OPEN30
 10
-159.5000009999999
 20
-7.499999999999904
 30
0.0
 41
2.5
 42
2.5
 43
2.5
 50
270.0000000000001
  0
MTEXT
  5
45DA
330
3C5C
100
AcDbEntity
  8
AM_5
 62
     2
100
AcDbMText
 10
-162.900001
 20
0.0000000000000905
 30
0.0
 40
3.799999999999999
 41
0.0
 71
     5
 72
     1
  1
%%c15
 11
-0.0000000000000028
 21
1.0
 31
0.0
1001
ACAD
1000
MTEXTBEGIN
1070
    73
1070
     1
1070
    44
1040
1.0
1070
    74
1070
     0
1000
MTEXTEND
  0
POINT
  5
45DB
330
3C5C
100
AcDbEntity
  8
DEFPOINTS
 62
     0
100
AcDbPoint
 10
-142.25
 20
7.500000000000584
 30
0.0
  0
POINT
  5
45DC
330
3C5C
100
AcDbEntity
  8
DEFPOINTS
 62
     0
100
AcDbPoint
 10
-142.25
 20
-7.499999999999413
 30
0.0
  0
POINT
  5
45DD
330
3C5C
100
AcDbEntity
  8
DEFPOINTS
 62
     0
100
AcDbPoint
 10
-159.500001
 20
-7.499999999999409
 30
0.0
  0
ENDBLK
  5
3C67
330
3C5C
100
AcDbEntity
  8
0
100
AcDbBlockEnd
  0
BLOCK
  5
3D3E
330
3D30
100
AcDbEntity
  8
0
100
AcDbBlockBegin
  2
*D8
 70
     1
 10
0.0
 20
0.0
 30
0.0
  3
*D8
  1

  0
LINE
  5
4640
330
3D30
100
AcDbEntity
  8
AM_5
100
AcDbLine
 10
0.342020140816062
 20
-0.9396926216993206
 30
0.0
 11
8.589070661301621
 21
-23.59827789211399
 31
0.0
  0
LINE
  5
4641
330
3D30
100
AcDbEntity
  8
AM_5
100
AcDbLine
 10
0.3420222223658895
 20
0.9396918640745193
 30
0.0
 11
8.589122934768651
 21
23.59825886606251
 31
0.0
  0
ARC
  5
4642
330
3D30
100
AcDbEntity
  8
AM_5
100
AcDbCircle
 10
-0.0000000000000783
 20
-0.0000000000000092
 30
0.0
 40
24.11276277708745
100
AcDbArc
 50
295.9430634371988
 51
64.05680964463086
  0
INSERT
  5
4643
330
3D30
100
AcDbEntity
  8
AM_5
100
AcDbBlockReference
  2
_OPEN30
 10
8.247050520485485
 20
-22.65858527041469
 30
0.0
 41
2.5
 42
2.5
 43
2.5
 50
202.9715316420926
  0
INSERT
  5
4644
330
3D30
100
AcDbEntity
  8
AM_5
100
AcDbBlockReference
  2
_OPEN30
 10
8.247100712402685
 20
22.658567001988
 30
0.0
 41
2.5
 42
2.5
 43
2.5
 50
157.0283414397371
  0
MTEXT
  5
4645
330
3D30
100
AcDbEntity
  8
AM_5
 62
     2
100
AcDbMText
 10
21.01276277707448
 20
-0.0000232731051687
 30
0.0
 40
3.2
 41
0.0
 71
     5
 72
     1
  1
140°
  7
ASAMI
 11
0.0000011075699751
 21
0.9999999999993868
 31
0.0
  0
POINT
  5
4646
330
3D30
100
AcDbEntity
  8
DEFPOINTS
 62
     0
100
AcDbPoint
 10
22.14072010284156
 20
-9.550593807283298
 30
0.0
  0
POINT
  5
4647
330
3D30
100
AcDbEntity
  8
DEFPOINTS
 62
     0
100
AcDbPoint
 10
-0.0000000000000753
 20
-0.0000000000000009
 30
0.0
  0
POINT
  5
4648
330
3D30
100
AcDbEntity
  8
DEFPOINTS
 62
     0
100
AcDbPoint
 10
-0.0000000000000753
 20
-0.0000000000000175
 30
0.0
  0
POINT
  5
4649
330
3D30
100
AcDbEntity
  8
DEFPOINTS
 62
     0
100
AcDbPoint
 10
-0.8779186122630958
 20
2.412061583354362
 30
0.0
  0
POINT
  5
464A
330
3D30
100
AcDbEntity
  8
DEFPOINTS
 62
     0
100
AcDbPoint
 10
-0.8779361609658991
 20
-2.412093173155441
 30
0.0
  0
ENDBLK
  5
3D3F
330
3D30
100
AcDbEntity
  8
0
100
AcDbBlockEnd
  0
BLOCK
  5
4490
330
4486
100
AcDbEntity
  8
0
100
AcDbBlockBegin
  2
*D9
 70
     1
 10
0.0
 20
0.0
 30
0.0
  3
*D9
  1

  0
LINE
  5
45E9
330
4486
100
AcDbEntity
  8
AM_5
 62
     3
100
AcDbLine
 10
-2.999999999999907
 20
7.500000000000023
 30
0.0
 11
16.31990103107158
 21
7.500000000000078
 31
0.0
  0
LINE
  5
45EA
330
4486
100
AcDbEntity
  8
AM_5
 62
     3
100
AcDbLine
 10
-2.999999999999809
 20
-7.500000083611903
 30
0.0
 11
16.31990103107163
 21
-7.500000083611848
 31
0.0
  0
LINE
  5
45EB
330
4486
100
AcDbEntity
  8
AM_5
 62
     3
100
AcDbLine
 10
15.31990103107159
 20
5.000000000000075
 30
0.0
 11
15.31990103107162
 21
-5.00000008361185
 31
0.0
  0
INSERT
  5
45EC
330
4486
100
AcDbEntity
  8
AM_5
 62
     3
100
AcDbBlockReference
  2
_OPEN30
 10
15.31990103107158
 20
7.500000000000075
 30
0.0
 41
2.5
 42
2.5
 43
2.5
 50
90.00000000000017
  0
INSERT
  5
45ED
330
4486
100
AcDbEntity
  8
AM_5
 62
     3
100
AcDbBlockReference
  2
_OPEN30
 10
15.31990103107163
 20
-7.50000008361185
 30
0.0
 41
2.5
 42
2.5
 43
2.5
 50
270.0000000000001
  0
MTEXT
  5
45EE
330
4486
100
AcDbEntity
  8
AM_5
 62
     2
100
AcDbMText
 10
11.91990103107161
 20
-0.0000000418058979
 30
0.0
 40
3.799999999999999
 41
0.0
 71
     5
 72
     1
  1
%%c15
 11
-0.0000000000000028
 21
1.0
 31
0.0
1001
ACAD
1000
MTEXTBEGIN
1070
    73
1070
     1
1070
    44
1040
1.0
1070
    74
1070
     0
1000
MTEXTEND
  0
POINT
  5
45EF
330
4486
100
AcDbEntity
  8
DEFPOINTS
 62
     0
100
AcDbPoint
 10
-2.999999999999883
 20
7.500000000000032
 30
0.0
  0
POINT
  5
45F0
330
4486
100
AcDbEntity
  8
DEFPOINTS
 62
     0
100
AcDbPoint
 10
-2.999999999999833
 20
-7.500000083611893
 30
0.0
  0
POINT
  5
45F1
330
4486
100
AcDbEntity
  8
DEFPOINTS
 62
     0
100
AcDbPoint
 10
15.3199010310716
 20
-7.500000083611898
 30
0.0
  0
ENDBLK
  5
4491
330
4486
100
AcDbEntity
  8
0
100
AcDbBlockEnd
  0
ENDSEC
  0
SECTION
  2
ENTITIES
  0
LINE
  5
C1D
330
1F
100
AcDbEntity
  8
AM_0
 48
0.5
100
AcDbLine
 10
-0.0000000000000753
 20
-0.0000000000000175
 30
0.0
 11
-0.8779186122630957
 21
2.412061583354362
 31
0.0
  0
LINE
  5
C20
330
1F
100
AcDbEntity
  8
AM_0
 48
0.5
100
AcDbLine
 10
-0.0000000000000753
 20
-0.0000000000000009
 30
0.0
 11
-0.8779361609658991
 21
-2.41209317315544
 31
0.0
  0
DIMENSION
  5
CC6
330
1F
100
AcDbEntity
  8
AM_5
100
AcDbDimension
  2
*D5
 10
-3.000000028892319
 20
-31.50038246972451
 30
0.0
 11
-73.0000000144462
 21
-28.10038246972451
 31
0.0
 70
    32
  1
<>
  3
AM_JIS$0
100
AcDbAlignedDimension
 13
-143.0
 23
-6.749999999999399
 33
0.0
 14
-3.000000028892317
 24
-7.500000000000344
 34
0.0
 50
0.0000000000001132
100
AcDbRotatedDimension
1001
GENIUS_GENDTOL_13
1000

1000
h7
1000

1040
0.0
1001
ACAD
1000
DSTYLE
1002
{
1070
   271
1070
     0
1002
}
  0
TEXT
  5
19BD
330
1F
100
AcDbEntity
  8
AM_6
100
AcDbText
 10
-95.02380953825555
 20
-54.00000099999958
 30
0.0
 40
5.0
  1
MDW150MHK
 50
0.0000000000001527
 72
     4
 11
-73.00000001444605
 21
-51.50000099999953
 31
0.0
100
AcDbText
  0
DIMENSION
  5
2069
330
1F
100
AcDbEntity
  8
AM_5
100
AcDbDimension
  2
*D6
 10
-3.000000028892318
 20
-21.50038246972442
 30
0.0
 11
-40.50000001444607
 21
-18.10038246972442
 31
0.0
 70
    32
  1
<>
 51
359.9999999999998
  3
AM_JIS$0
100
AcDbAlignedDimension
 13
-77.99999999999982
 23
-4.716737572992471
 33
0.0
 14
-3.000000028892317
 24
-7.500000000000344
 34
0.0
 50
0.0000000000001527
100
AcDbRotatedDimension
1001
ACAD
1000
DSTYLE
1002
{
1070
   271
1070
     0
1070
   174
1070
     1
1002
}
1001
GENIUS_GENDTOL_13
1000

1000
h7
1000

1040
0.0
  0
LINE
  5
23EF
330
1F
100
AcDbEntity
  8
AM_7
100
AcDbLine
 10
-145.5
 20
0.0000000000006045
 30
0.0
 11
1.319900031072474
 21
-0.0000000000000055
 31
0.0
1001
GENIUS_GENODEF_13
1002
{
1000
HIER
1070
     0
1002
}
1002
{
1000
MANEDIT
1070
     0
1002
}
1002
{
1000
NOSEL
1070
     0
1002
}
1002
{
1000
BEHIND
1070
     0
1002
}
1002
{
1000
REACTOR
1002
}
1001
GENIUS_GENOBJ-N-CEN_13
1002
{
1000
OWNER
1000
GEN
1002
}
  0
LINE
  5
24A7
330
1F
100
AcDbEntity
  8
AM_0
 48
0.5
100
AcDbLine
 10
-2.190873760329959
 20
5.637994789760915
 30
0.0
 11
-2.999999999999883
 21
7.500000000000033
 31
0.0
  0
ELLIPSE
  5
24B7
330
1F
100
AcDbEntity
  8
AM_11
 48
0.5
100
AcDbEllipse
 10
-21.92810796254739
 20
27.40527015297147
 30
0.0
 11
-31.63261651992755
 21
0.0000000000002407
 31
0.0
210
0.0
220
0.0
230
1.0
 40
0.9578947368421056
 41
1.130070686340284
 42
2.011520147323574
  0
ELLIPSE
  5
24B8
330
1F
100
AcDbEntity
  8
AM_11
 48
0.5
100
AcDbEllipse
 10
-21.9281079625489
 20
-27.40526397747153
 30
0.0
 11
-31.6326165199275
 21
0.0000000000001424
 31
0.0
210
0.0
220
0.0
230
1.0
 40
0.9578947368421054
 41
4.271664206181664
 42
5.153113667164971
  0
ELLIPSE
  5
24BE
330
1F
100
AcDbEntity
  8
AM_0
 48
0.5
100
AcDbEllipse
 10
6.918623594257095
 20
7.342926428848114
 30
0.0
 11
-4.440095187034224
 21
8.904787688231298
 31
0.0
210
0.0
220
0.0
230
1.0
 40
0.9264225005910461
 41
1.312765717361252
 42
1.664773036319176
  0
ELLIPSE
  5
24C7
330
1F
100
AcDbEntity
  8
AM_11
 48
0.5
100
AcDbEllipse
 10
-102.8940170534488
 20
27.40527015297354
 30
0.0
 11
-31.63261651992755
 21
0.0000000000007043
 31
0.0
210
0.0
220
0.0
230
1.0
 40
0.9578947368421056
 41
1.130070686340301
 42
2.011520147323591
  0
ELLIPSE
  5
24C8
330
1F
100
AcDbEntity
  8
AM_11
 48
0.5
100
AcDbEllipse
 10
-102.8940170534504
 20
-27.40526397746946
 30
0.0
 11
31.6326165199275
 21
0.0000000000005287
 31
0.0
210
0.0
220
0.0
230
1.0
 40
0.957894736842107
 41
1.13007155259185
 42
2.011521013575156
  0
ELLIPSE
  5
24D4
330
1F
100
AcDbEntity
  8
AM_11
 48
0.5
100
AcDbEllipse
 10
-75.90538068981253
 20
27.40527015297288
 30
0.0
 11
-31.63261651992759
 21
0.0000000000001846
 31
0.0
210
0.0
220
0.0
230
1.0
 40
0.9578947368421051
 41
1.130070686340283
 42
2.011520147323574
  0
ELLIPSE
  5
24D5
330
1F
100
AcDbEntity
  8
AM_11
 48
0.5
100
AcDbEllipse
 10
-75.90538068981405
 20
-27.40526397747012
 30
0.0
 11
-31.63261651992745
 21
0.0000000000005709
 31
0.0
210
0.0
220
0.0
230
1.0
 40
0.9578947368421081
 41
4.271664206181676
 42
5.153113667164986
  0
ELLIPSE
  5
24E6
330
1F
100
AcDbEntity
  8
AM_11
 48
0.5
100
AcDbEllipse
 10
-48.91674432618525
 20
-27.40526397747084
 30
0.0
 11
-31.63261651992749
 21
0.0000000000008588
 31
0.0
210
0.0
220
0.0
230
1.0
 40
0.9578947368421058
 41
4.271664206181685
 42
5.153113667164993
  0
ELLIPSE
  5
24E7
330
1F
100
AcDbEntity
  8
AM_11
 48
0.5
100
AcDbEllipse
 10
-48.91674432618374
 20
27.40527015297216
 30
0.0
 11
31.63261651992755
 21
0.0000000000000511
 31
0.0
210
0.0
220
0.0
230
1.0
 40
0.9578947368421051
 41
4.271663339930067
 42
5.153112800913361
  0
ELLIPSE
  5
2BF3
330
1F
100
AcDbEntity
  8
AM_11
 48
0.5
100
AcDbEllipse
 10
-129.8826534170741
 20
27.40527015297269
 30
0.0
 11
-31.63261651992759
 21
0.0000000000001846
 31
0.0
210
0.0
220
0.0
230
1.0
 40
0.9578947368421051
 41
1.143207534912556
 42
2.011520147323574
  0
ELLIPSE
  5
2BF5
330
1F
100
AcDbEntity
  8
AM_11
 48
0.5
100
AcDbEllipse
 10
-129.8826534170756
 20
-27.4052639774703
 30
0.0
 11
-31.63261651992745
 21
0.0000000000005709
 31
0.0
210
0.0
220
0.0
230
1.0
 40
0.9578947368421081
 41
4.271664206181676
 42
5.139977772267002
  0
LINE
  5
324C
330
1F
100
AcDbEntity
  8
AM_0
100
AcDbLine
 10
-142.2500000000001
 20
-7.499999999999413
 30
0.0
 11
-75.18443756114499
 21
-7.499999999999425
 31
0.0
  0
LINE
  5
325C
330
1F
100
AcDbEntity
  8
AM_0
 48
0.5
100
AcDbLine
 10
-142.25
 20
-7.499999999999445
 30
0.0
 11
-142.25
 21
7.500000000000591
 31
0.0
  0
LINE
  5
325D
330
1F
100
AcDbEntity
  8
AM_0
 48
0.5
100
AcDbLine
 10
-143.0
 20
-6.749999999999399
 30
0.0
 11
-143.0
 21
6.750000000000579
 31
0.0
  0
LINE
  5
325E
330
1F
100
AcDbEntity
  8
AM_0
100
AcDbLine
 10
-74.25344965495998
 20
7.500000000001599
 30
0.0
 11
-142.25
 21
7.500000000000584
 31
0.0
  0
LINE
  5
3921
330
1F
100
AcDbEntity
  8
AM_0
 48
0.5
100
AcDbLine
 10
-142.25
 20
7.500000000000584
 30
0.0
 11
-143.0
 21
6.750000000000585
 31
0.0
1001
GENIUS_GENFIL_13
1070
     0
1040
0.75
1040
0.75
1040
20.0
1040
0.0
1002
{
1002
}
1001
GENIUS_GENODEF_13
1002
{
1000
HIER
1070
     0
1002
}
1002
{
1000
MANEDIT
1070
     0
1002
}
1002
{
1000
NOSEL
1070
     0
1002
}
1002
{
1000
BEHIND
1070
     0
1002
}
1002
{
1000
REACTOR
1002
}
1001
GENIUS_GENOBJ-N-CHA_13
1002
{
1000
OWNER
1000
GEN
1002
}
  0
LINE
  5
3924
330
1F
100
AcDbEntity
  8
AM_0
100
AcDbLine
 10
-143.0
 20
-6.749999999999412
 30
0.0
 11
-142.2500000000001
 21
-7.499999999999413
 31
0.0
1001
GENIUS_GENFIL_13
1070
     0
1040
0.75
1040
0.75
1040
20.0
1040
0.0
1002
{
1002
}
1001
GENIUS_GENODEF_13
1002
{
1000
HIER
1070
     0
1002
}
1002
{
1000
MANEDIT
1070
     0
1002
}
1002
{
1000
NOSEL
1070
     0
1002
}
1002
{
1000
BEHIND
1070
     0
1002
}
1002
{
1000
REACTOR
1002
}
1001
GENIUS_GENOBJ-N-CHA_13
1002
{
1000
OWNER
1000
GEN
1002
}
  0
ELLIPSE
  5
3976
330
1F
100
AcDbEntity
  8
AM_0
 48
0.5
100
AcDbEllipse
 10
6.918623594257795
 20
-7.3429264288476
 30
0.0
 11
-4.440095187033376
 21
-8.904787688231721
 31
0.0
210
0.0
220
0.0
230
-1.0
 40
0.9264225005910461
 41
1.312765717361252
 42
1.664773036319176
  0
LINE
  5
3977
330
1F
100
AcDbEntity
  8
AM_0
 48
0.5
100
AcDbLine
 10
-2.190873760329422
 20
-5.637994789761268
 30
0.0
 11
-3.000000028892338
 21
-7.500000000000338
 31
0.0
  0
DIMENSION
  5
3C5B
330
1F
100
AcDbEntity
  8
AM_5
100
AcDbDimension
  2
*D7
 10
-159.500001
 20
-7.499999999999409
 30
0.0
 11
-162.900001
 21
0.0000000000005644
 31
0.0
 70
    32
  1
%%c<>
 51
359.9999999999998
  3
AM_JIS$0
100
AcDbAlignedDimension
 13
-142.25
 23
7.500000000000584
 33
0.0
 14
-142.25
 24
-7.499999999999413
 34
0.0
 50
270.0
100
AcDbRotatedDimension
1001
ACAD
1000
DSTYLE
1002
{
1070
   271
1070
     0
1002
}
1001
GENIUS_GENDTOL_13
1000

1000
h7
1000

1040
0.0
  0
DIMENSION
  5
3D2F
330
1F
100
AcDbEntity
  8
AM_5
100
AcDbDimension
  2
*D8
 10
-0.8779361609658991
 20
-2.41209317315544
 30
0.0
 11
21.01276277707448
 21
-0.0000232731052308
 31
0.0
 70
    34
  1
<>
 51
359.9999999999998
  3
AM_JIS$2
100
AcDb2LineAngularDimension
 13
-0.0000000000000753
 23
-0.0000000000000175
 33
0.0
 14
-0.8779186122630957
 24
2.412061583354362
 34
0.0
 15
-0.0000000000000753
 25
-0.0000000000000009
 35
0.0
 16
22.14072010284156
 26
-9.550593807283298
 36
0.0
1001
GENIUS_GENDTOL_13
1000

1000
h7
1000

1040
0.0
1001
ACAD
1000
DSTYLE
1002
{
1070
   271
1070
     0
1002
}
  0
LINE
  5
4421
330
1F
100
AcDbEntity
  8
AM_0
 48
0.5
100
AcDbLine
 10
-8.09501950364002
 20
7.500000000000317
 30
0.0
 11
-2.999999999999883
 21
7.500000000000033
 31
0.0
  0
LINE
  5
4422
330
1F
100
AcDbEntity
  8
AM_0
 48
0.5
100
AcDbLine
 10
-8.095019501994819
 20
-7.499999224502265
 30
0.0
 11
-3.00000000000023
 21
-7.500000083611892
 31
0.0
  0
LINE
  5
4423
330
1F
100
AcDbEntity
  8
AM_0
 48
0.5
100
AcDbLine
 10
-0.0000000000000933
 20
0.0000000000000319
 30
0.0
 11
-4.782354253524326
 21
2.879772961776336
 31
0.0
  0
LINE
  5
4424
330
1F
100
AcDbEntity
  8
AM_0
 48
0.5
100
AcDbLine
 10
-57.67983091174443
 20
7.500000775500332
 30
0.0
 11
-31.46134542701425
 21
7.500000000001539
 31
0.0
  0
LINE
  5
4425
330
1F
100
AcDbEntity
  8
AM_0
 48
0.5
100
AcDbLine
 10
-56.50912392460499
 20
-7.499999224500021
 30
0.0
 11
-31.46135037969026
 21
-7.499999999999311
 31
0.0
  0
LINE
  5
4426
330
1F
100
AcDbEntity
  8
AM_11
 48
0.5
100
AcDbLine
 10
-31.46135037969026
 20
-7.499999999999311
 30
0.0
 11
-8.095019501994819
 21
-7.499999224502265
 31
0.0
  0
LINE
  5
4427
330
1F
100
AcDbEntity
  8
AM_11
 48
0.5
100
AcDbLine
 10
-31.46134542701425
 20
7.500000000001539
 30
0.0
 11
-8.09501950364002
 21
7.500000000000317
 31
0.0
  0
ELLIPSE
  5
4428
330
1F
100
AcDbEntity
  8
AM_11
 48
0.5
100
AcDbEllipse
 10
5.06052840108907
 20
27.5891981866088
 30
0.0
 11
-31.63261651992849
 21
0.0000000000148223
 31
0.0
210
0.0
220
0.0
230
1.0
 40
0.9643235605792835
 41
1.130070686340739
 42
1.291800737381424
  0
SPLINE
  5
4429
330
1F
100
AcDbEntity
  8
AM_0
100
AcDbSpline
210
0.0
220
0.0
230
1.0
 70
     8
 71
     3
 72
    22
 73
    18
 74
     0
 42
0.0000000001
 43
0.0000000001
 40
17.17441611292
 40
17.17441611292
 40
17.17441611292
 40
17.17441611292
 40
17.38177636558528
 40
18.41823744757437
 40
19.46215659509824
 40
20.51397914882054
 40
21.57394542641293
 40
22.64209583141747
 40
23.71826625065247
 40
24.80210429862395
 40
25.8930771157021
 40
26.99048705697709
 40
28.09349309193389
 40
29.20112995599786
 40
30.31233024745139
 40
31.42594771747373
 40
32.5407895042663
 40
32.54078950426994
 40
32.54078950426994
 40
32.54078950426994
 10
-36.19575524975431
 20
-6.73505350686874
 30
0.0
 10
-36.27881556536776
 20
-6.717691742482014
 30
0.0
 10
-36.77671679558988
 20
-6.611939337914813
 30
0.0
 10
-37.68884379273423
 20
-6.399892002775681
 30
0.0
 10
-38.9286939487074
 20
-6.072180886042743
 30
0.0
 10
-40.16841776655227
 20
-5.707047241822889
 30
0.0
 10
-41.40802399864948
 20
-5.306770324859372
 30
0.0
 10
-42.6475110075654
 20
-4.873804424470034
 30
0.0
 10
-43.88689404994788
 20
-4.410844087524193
 30
0.0
 10
-45.12617886448869
 20
-3.920734519294898
 30
0.0
 10
-46.36537691751942
 20
-3.406498198634539
 30
0.0
 10
-47.60450198813668
 20
-2.871307637918861
 30
0.0
 10
-48.84356483119856
 20
-2.318453740090272
 30
0.0
 10
-50.0825779198757
 20
-1.751337755749289
 30
0.0
 10
-51.32155223694073
 20
-1.173446806261237
 30
0.0
 10
-52.56050613672085
 20
-0.5883467911391347
 30
0.0
 10
-53.38631327536531
 20
-0.1959326222124074
 30
0.0
 10
-53.79944369985394
 20
0.0003822452276515
 30
0.0
  0
SPLINE
  5
442A
330
1F
100
AcDbEntity
  8
AM_0
100
AcDbSpline
210
0.0
220
0.0
230
1.0
 70
     8
 71
     3
 72
    17
 73
    13
 74
     0
 42
0.0000000001
 43
0.0000000001
 40
1.580019955310467
 40
1.580019955310467
 40
1.580019955310467
 40
1.580019955310467
 40
2.030549285115227
 40
3.082371838836284
 40
4.126290986361125
 40
5.162752068350215
 40
6.192395305374981
 40
7.216039564037012
 40
8.234688489606833
 40
9.249433870634691
 40
10.26152376260694
 40
11.27226744710342
 40
11.27226744710342
 40
11.27226744710342
 40
11.27226744710352
 10
-19.77727095030839
 20
-5.535220073929358
 30
0.0
 10
-19.95276973041292
 20
-5.592228250360737
 30
0.0
 10
-20.53899461691754
 20
-5.779080163144957
 30
0.0
 10
-21.53982587586891
 20
-6.072164074024462
 30
0.0
 10
-22.77950344753716
 20
-6.400379173969169
 30
0.0
 10
-24.01952230128022
 20
-6.688508454061794
 30
0.0
 10
-25.25959797225427
 20
-6.935584311421835
 30
0.0
 10
-26.49980874725019
 20
-7.139809504330838
 30
0.0
 10
-27.74010520484976
 20
-7.300018609663729
 30
0.0
 10
-28.98047889323525
 20
-7.415173418811347
 30
0.0
 10
-30.22089925281114
 20
-7.484532666894017
 30
0.0
 10
-31.04804686636252
 20
-7.499999267416471
 30
0.0
 10
-31.46135037969027
 20
-7.499999999999314
 30
0.0
  0
SPLINE
  5
442B
330
1F
100
AcDbEntity
  8
AM_0
100
AcDbSpline
210
0.0
220
0.0
230
1.0
 70
     8
 71
     3
 72
    11
 73
     7
 74
     0
 42
0.0000000001
 43
0.0000000001
 40
11.27226913003534
 40
11.27226913003534
 40
11.27226913003534
 40
11.2722691300354
 40
12.28301561507924
 40
13.29510212255852
 40
14.30984805882082
 40
15.18258238371378
 40
15.18258238371378
 40
15.18258238371378
 40
15.18258238371378
 10
-31.46135037969033
 20
-7.499999999999314
 30
0.0
 10
-31.87307241978273
 20
-7.463292045015258
 30
0.0
 10
-32.69574981320603
 20
-7.374425561041848
 30
0.0
 10
-33.92551775065052
 20
-7.195159881794828
 30
0.0
 10
-35.09258920747068
 20
-6.981046683649395
 30
0.0
 10
-35.84738252002181
 20
-6.816451495817459
 30
0.0
 10
-36.19521277116531
 20
-6.735146019311392
 30
0.0
  0
SPLINE
  5
442C
330
1F
100
AcDbEntity
  8
AM_0
 48
0.5
100
AcDbSpline
210
0.0
220
0.0
230
1.0
 70
     8
 71
     3
 72
    25
 73
    21
 74
     0
 42
0.0000000001
 43
0.0000000001
 40
6.846175049578289
 40
6.846175049578289
 40
6.846175049578289
 40
6.846175049578289
 40
7.604337694224321
 40
8.711974558287883
 40
9.814980593243754
 40
10.91239053451967
 40
12.0033633515982
 40
13.08720139956839
 40
14.16337181880432
 40
15.23152222380919
 40
16.29148850140128
 40
17.34331105512262
 40
18.38723020264746
 40
19.42369128463655
 40
20.45333379090873
 40
21.47697865721768
 40
22.49561244472435
 40
23.5103574802404
 40
24.52244778960836
 40
25.53320666051913
 40
25.53320666051913
 40
25.53320666051913
 40
25.53320666051913
 10
-9.541661878681555
 20
1.357549876879098
 30
0.0
 10
-9.823442929386221
 20
1.48923653817822
 30
0.0
 10
-10.51748471073927
 20
1.811992924372676
 30
0.0
 10
-11.62481864263444
 20
2.318836637428026
 30
0.0
 10
-12.86388141798036
 20
2.871690691477678
 30
0.0
 10
-14.10300650659799
 20
3.406881210594247
 30
0.0
 10
-15.34220455488113
 20
3.921117542494042
 30
0.0
 10
-16.58148937055421
 20
4.411227107047295
 30
0.0
 10
-17.82087241310905
 20
4.874187447524853
 30
0.0
 10
-19.06035942023643
 20
5.307153337539138
 30
0.0
 10
-20.29996565923651
 20
5.707430292083109
 30
0.0
 10
-21.53968945153447
 20
6.072563797832529
 30
0.0
 10
-22.77953970180619
 20
6.400275425534547
 30
0.0
 10
-24.01951203456311
 20
6.688537019019453
 30
0.0
 10
-25.25960160584663
 20
6.935581740960684
 30
0.0
 10
-26.49980151514114
 20
7.139772064352663
 30
0.0
 10
-27.740092465434
 20
7.300173464674442
 30
0.0
 10
-28.98046078746021
 20
7.414607292945845
 30
0.0
 10
-30.22088634630424
 20
7.486617910523039
 30
0.0
 10
-31.04804054319208
 20
7.495541778402328
 30
0.0
 10
-31.46134542701425
 20
7.500000000001538
 30
0.0
  0
SPLINE
  5
442D
330
1F
100
AcDbEntity
  8
AM_0
 48
0.5
100
AcDbSpline
210
0.0
220
0.0
230
1.0
 70
     8
 71
     3
 72
    17
 73
    13
 74
     0
 42
0.0000000001
 43
0.0000000001
 40
0.0
 40
0.0
 40
0.0
 40
0.0
 40
1.010743614677189
 40
2.022833924044153
 40
3.037578959561199
 40
4.056212747067873
 40
5.079857613375832
 40
6.109500119648989
 40
7.14596120163808
 40
8.18989512056258
 40
9.241717674284874
 40
9.693948937866434
 40
9.693948937866434
 40
9.693948937866434
 40
9.693948937866434
 10
-8.09501950364002
 20
7.500000000000317
 30
0.0
 10
-8.508318143314507
 20
7.495540897462493
 30
0.0
 10
-9.335466093551044
 20
7.486616751167377
 30
0.0
 10
-10.57588543443974
 20
7.414606551379759
 30
0.0
 10
-11.81625370798419
 20
7.300172575189315
 30
0.0
 10
-13.05654484117793
 20
7.139771713357637
 30
0.0
 10
-14.29674406251289
 20
6.935579369748761
 30
0.0
 10
-15.53683622418156
 20
6.688542253145105
 30
0.0
 10
-16.77680468206295
 20
6.400250623164307
 30
0.0
 10
-18.01669755191058
 20
6.072645333306053
 30
0.0
 10
-19.01757140824207
 20
5.777522488465048
 30
0.0
 10
-19.60534321899477
 20
5.593028269917315
 30
0.0
 10
-19.78176078223525
 20
5.53655582467837
 30
0.0
  0
SPLINE
  5
442E
330
1F
100
AcDbEntity
  8
AM_0
 48
0.5
100
AcDbSpline
210
0.0
220
0.0
230
1.0
 70
     8
 71
     3
 72
    10
 73
     6
 74
     0
 42
0.0000000001
 43
0.0000000001
 40
0.0
 40
0.0
 40
0.0
 40
0.0
 40
2.69986029516136
 40
4.147722969032201
 40
6.285750005020438
 40
6.285750005020438
 40
6.285750005020438
 40
6.285750005020438
 10
-9.541463562770712
 20
1.357460797470323
 30
0.0
 10
-8.658631330683231
 20
0.6606589701344323
 30
0.0
 10
-7.302359847527736
 20
-0.4098189909972482
 30
0.0
 10
-4.094959981092344
 20
0.1084181431782055
 30
0.0
 10
-4.699006668919048
 20
1.853909384061285
 30
0.0
 10
-4.782354253524326
 20
2.879772961776336
 30
0.0
  0
ELLIPSE
  5
442F
330
1F
100
AcDbEntity
  8
AM_0
 48
0.5
100
AcDbEllipse
 10
-18.23013210725887
 20
33.41463015245993
 30
0.0
 11
0.0000000000106506
 21
38.63489796229812
 31
0.0
210
0.0
220
0.0
230
1.0
 40
0.9400000000000311
 41
3.579847691617342
 42
3.667473607414422
  0
ELLIPSE
  5
4430
330
1F
100
AcDbEntity
  8
AM_0
 48
0.5
100
AcDbEllipse
 10
-9.529289541212296
 20
7.651417937592618
 30
0.0
 11
-0.0000000000017618
 21
11.65236495214647
 31
0.0
210
0.0
220
0.0
230
1.0
 40
0.9399999999999836
 41
3.517054509082503
 42
3.68182157085601
  0
ELLIPSE
  5
4431
330
1F
100
AcDbEntity
  8
AM_0
 48
0.5
100
AcDbEllipse
 10
-3.357998318189533
 20
-1.951947132448975
 30
0.0
 11
-0.2085942632310048
 21
1.231360463487454
 31
0.0
210
0.0
220
0.0
230
1.0
 40
0.4904004964198159
 41
1.808695468730411
 42
4.944037358442388
  0
ELLIPSE
  5
4432
330
1F
100
AcDbEntity
  8
AM_0
 48
0.5
100
AcDbEllipse
 10
-3.358104075239933
 20
-1.954607188065015
 30
0.0
 11
-1.058855607510999
 21
0.6309471974221838
 31
0.0
210
0.0
220
0.0
230
1.0
 40
0.5046230954233574
 41
4.494894895338242
 42
7.638335236667755
  0
ELLIPSE
  5
4433
330
1F
100
AcDbEntity
  8
AM_0
 48
0.5
100
AcDbEllipse
 10
3.253967134158199
 20
9.004212201278358
 30
0.0
 11
-0.0000000000055088
 21
15.11583566665635
 31
0.0
210
0.0
220
0.0
230
1.0
 40
0.9813186813186788
 41
2.101163880028575
 42
2.509284810223464
  0
ELLIPSE
  5
4434
330
1F
100
AcDbEntity
  8
AM_0
 48
0.5
100
AcDbEllipse
 10
6.202494303903137
 20
-2.002985440495889
 30
0.0
 11
-11.37235868424974
 21
5.595073507017827
 31
0.0
210
0.0
220
0.0
230
1.0
 40
0.799298935065174
 41
0.6631221240525518
 42
1.092761959727933
  0
SPLINE
  5
4435
330
1F
100
AcDbEntity
  8
AM_0
100
AcDbSpline
210
0.0
220
0.0
230
1.0
 70
     8
 71
     3
 72
    55
 73
    51
 74
     0
 42
0.0000000001
 43
0.0000000001
 40
0.0
 40
0.0
 40
0.0
 40
0.0
 40
1.010743684496582
 40
2.022833576467832
 40
3.037578957496688
 40
4.056212745003489
 40
5.079857003664532
 40
6.109500240690281
 40
7.145961322679372
 40
8.189895241603872
 40
9.241717795325891
 40
10.30168407291828
 40
11.36983447792315
 40
12.44600489715814
 40
13.52984294512926
 40
14.62081576220742
 40
15.7182257034828
 40
16.82123173843959
 40
17.92886860250316
 40
19.0400688939571
 40
20.15368796660465
 40
21.26852814259644
 40
22.38336992938901
 40
23.49698739941135
 40
24.6081876908653
 40
25.71582455492886
 40
26.81883757994213
 40
27.91624752121713
 40
29.00722033829659
 40
30.09105838626677
 40
31.16722880550176
 40
32.23537921050758
 40
33.29534548809967
 40
34.347168041821
 40
35.39108718934584
 40
36.42754827133493
 40
37.45720575381954
 40
38.48085062012849
 40
39.49948440763516
 40
40.51422944315121
 40
41.52631975251916
 40
42.53706336719636
 40
43.54780698187354
 40
44.55989729124051
 40
45.57464232675757
 40
46.59327611426424
 40
47.6169209805722
 40
48.64656348684535
 40
49.68302456883444
 40
50.58557219878025
 40
50.58557219878025
 40
50.58557219878025
 40
50.58557219878025
 10
-8.095019501994819
 20
-7.499999224502266
 30
0.0
 10
-8.508318066453902
 20
-7.495536906200857
 30
0.0
 10
-9.335465666896453
 20
-7.486606326245313
 30
0.0
 10
-10.57588605278233
 20
-7.414615825969402
 30
0.0
 10
-11.81625348979889
 20
-7.300169736547522
 30
0.0
 10
-13.05654416024866
 20
-7.139769189510268
 30
0.0
 10
-14.29674568798318
 20
-6.935587919799372
 30
0.0
 10
-15.5368336065992
 20
-6.688533888982723
 30
0.0
 10
-16.77681206413582
 20
-6.400271341069433
 30
0.0
 10
-18.01667006449011
 20
-6.07256545797987
 30
0.0
 10
-19.25639916196939
 20
-5.707428333956274
 30
0.0
 10
-20.49600553593788
 20
-5.307151896981427
 30
0.0
 10
-21.73549250630864
 20
-4.874185866290764
 30
0.0
 10
-22.97487555947851
 20
-4.411225565406219
 30
0.0
 10
-24.21416036980485
 20
-3.921115984568876
 30
0.0
 10
-25.45335842885078
 20
-3.406879678036555
 30
0.0
 10
-26.6924834794905
 20
-2.87168907315905
 30
0.0
 10
-27.93154639694709
 20
-2.318835338939067
 30
0.0
 10
-29.17055920646724
 20
-1.751718740907478
 30
0.0
 10
-30.40953516601463
 20
-1.173829814348344
 30
0.0
 10
-31.64848514258768
 20
-0.5887211828906151
 30
0.0
 10
-32.88742663207932
 20
-0.000000754773408
 30
0.0
 10
-34.12636255976031
 20
0.5887302706784013
 30
0.0
 10
-35.36531668902366
 20
1.173829790447089
 30
0.0
 10
-36.60429111903855
 20
1.751720466243105
 30
0.0
 10
-37.84330613770487
 20
2.318839224736159
 30
0.0
 10
-39.0823741953888
 20
2.871688240805289
 30
0.0
 10
-40.32150120169522
 20
3.40688155984382
 30
0.0
 10
-41.56069943964016
 20
3.921117449383512
 30
0.0
 10
-42.79998420487284
 20
4.411227133289049
 30
0.0
 10
-44.03936726121631
 20
4.874187434850825
 30
0.0
 10
-45.27885426315775
 20
5.307153362012771
 30
0.0
 10
-46.51846050918534
 20
5.707430207706685
 30
0.0
 10
-47.75818427876439
 20
6.072564107574157
 30
0.0
 10
-48.99803461202898
 20
6.400274282793168
 30
0.0
 10
-50.23801260959798
 20
6.688542627303651
 30
0.0
 10
-51.47810938285731
 20
6.935568441120508
 30
0.0
 10
-52.71831500786719
 20
7.139812909250713
 30
0.0
 10
-53.95860604599461
 20
7.300023322142772
 30
0.0
 10
-55.19897434485616
 20
7.415164400974919
 30
0.0
 10
-56.43939367901339
 20
7.484545412300173
 30
0.0
 10
-57.67984027063322
 20
7.507723312432142
 30
0.0
 10
-58.92028686042789
 20
7.484545412263954
 30
0.0
 10
-60.16070620007116
 20
7.415164401120948
 30
0.0
 10
-61.40107447873461
 20
7.300023321593699
 30
0.0
 10
-62.64136559258965
 20
7.139812911315776
 30
0.0
 10
-63.88156488667195
 20
6.935569429082334
 30
0.0
 10
-65.12165677442209
 20
6.688545153009809
 30
0.0
 10
-66.30525566340749
 20
6.413359840596739
 30
0.0
 10
-67.07318810178856
 20
6.212114220116962
 30
0.0
 10
-67.4294639948577
 20
6.114037411904582
 30
0.0
  0
SPLINE
  5
4436
330
1F
100
AcDbEntity
  8
AM_0
100
AcDbSpline
210
0.0
220
0.0
230
1.0
 70
     8
 71
     3
 72
    46
 73
    42
 74
     0
 42
0.0000000001
 43
0.0000000001
 40
0.0
 40
0.0
 40
0.0
 40
0.0
 40
1.685415058684571
 40
2.531036209541119
 40
3.379897699130121
 40
4.232934581347655
 40
5.090970612202441
 40
5.954688180526682
 40
6.824620803463246
 40
7.701151815239689
 40
8.584457046566678
 40
9.474582384070741
 40
10.37139106676737
 40
11.27458944007583
 40
12.18373345430765
 40
13.09824173870457
 40
14.01741343450111
 40
14.9404441545541
 40
15.86644439743314
 40
16.79446029130534
 40
17.7234937712985
 40
18.65252725129241
 40
19.58054314516461
 40
20.50654338804289
 40
21.42957410809586
 40
22.34874580389317
 40
23.26325408828901
 40
24.17239810252111
 40
25.07560240389441
 40
25.97241108659103
 40
26.8625364240951
 40
27.74584165542183
 40
28.62236045019041
 40
29.49229307312697
 40
30.35601064145121
 40
31.21404606334468
 40
32.06708345193547
 40
32.91595755657689
 40
33.76157841950693
 40
34.60498701064689
 40
35.44727335621125
 40
35.44727335621125
 40
35.44727335621125
 40
35.44727335621125
 10
-4.622685279515325
 20
-7.499999224502462
 30
0.0
 10
-5.449873293071437
 20
-7.482913644745548
 30
0.0
 10
-6.692085295166007
 20
-7.457255738817335
 30
0.0
 10
-8.343908765026494
 20
-7.299284725625745
 30
0.0
 10
-9.584212761112656
 20
-7.140007922176317
 30
0.0
 10
-10.82441074073313
 20
-6.935523562242188
 30
0.0
 10
-12.06449943678178
 20
-6.688550748423464
 30
0.0
 10
-13.30447247867977
 20
-6.400270221171449
 30
0.0
 10
-14.54432778965858
 20
-6.072559945121771
 30
0.0
 10
-15.78405985192413
 20
-5.70743210988091
 30
0.0
 10
-17.0236711434035
 20
-5.307151373688315
 30
0.0
 10
-18.26315832991923
 20
-4.874186008113626
 30
0.0
 10
-19.50254132449608
 20
-4.411225526949487
 30
0.0
 10
-20.74182615078326
 20
-3.921115995138386
 30
0.0
 10
-21.98102420516042
 20
-3.406879674573518
 30
0.0
 10
-23.22014925837833
 20
-2.871689076371654
 30
0.0
 10
-24.45921217019162
 20
-2.318835329515132
 30
0.0
 10
-25.6982249998087
 20
-1.751718775569528
 30
0.0
 10
-26.93720088429766
 20
-1.173829684617065
 30
0.0
 10
-28.17615114178403
 20
-0.588721668346685
 30
0.0
 10
-29.41509098443587
 20
0.0000007753797317
 30
0.0
 10
-30.6540308268155
 20
0.5887232198215659
 30
0.0
 10
-31.89298108511827
 20
1.173831233946742
 30
0.0
 10
-33.13195696662317
 20
1.751720332738967
 30
0.0
 10
-34.37096980730533
 20
2.31883685760974
 30
0.0
 10
-35.6100326780903
 20
2.871690712272803
 30
0.0
 10
-36.84915788325011
 20
3.406880911229129
 30
0.0
 10
-38.0883580695601
 20
3.921119826534767
 30
0.0
 10
-39.32764771111017
 20
4.411224905452314
 30
0.0
 10
-40.56703291655638
 20
4.87418776051926
 30
0.0
 10
-41.80652007421332
 20
5.307153254924192
 30
0.0
 10
-43.04612627351033
 20
5.707430312878892
 30
0.0
 10
-44.28585007569608
 20
6.072563796338052
 30
0.0
 10
-45.5257003256687
 20
6.400275411120072
 30
0.0
 10
-46.76567264993543
 20
6.688537077546554
 30
0.0
 10
-48.0057622551412
 20
6.935581523213519
 30
0.0
 10
-49.24596814980084
 20
7.139773876859621
 30
0.0
 10
-50.48626575491495
 20
7.300171959333405
 30
0.0
 10
-51.72664009663828
 20
7.414607545237783
 30
0.0
 10
-52.9670594630276
 20
7.486617472221676
 30
0.0
 10
-53.7942074098709
 20
7.495541654821897
 30
0.0
 10
-54.20750604784974
 20
7.500000775500152
 30
0.0
  0
ELLIPSE
  5
4437
330
1F
100
AcDbEntity
  8
AM_0
 48
0.5
100
AcDbEllipse
 10
-75.92993771280619
 20
-4.533976482899698
 30
0.0
 11
1.677329798086147
 21
1.474376145556678
 31
0.0
210
0.0
220
0.0
230
1.0
 40
0.8326378623526855
 41
0.5909823056582338
 42
2.419228487920034
  0
ELLIPSE
  5
4438
330
1F
100
AcDbEntity
  8
AM_0
 48
0.5
100
AcDbEllipse
 10
-75.54100593489391
 20
-4.70586448846878
 30
0.0
 11
-1.302821338446789
 21
2.580614412260433
 31
0.0
210
0.0
220
0.0
230
0.9999999999999998
 40
0.8227471093446469
 41
1.181007363999905
 42
2.760973400162489
  0
SPLINE
  5
4439
330
1F
100
AcDbEntity
  8
AM_0
 48
0.5
100
AcDbSpline
210
0.0
220
0.0
230
1.0
 70
     8
 71
     3
 72
    26
 73
    22
 74
     0
 42
0.0000000001
 43
0.0000000001
 40
0.0
 40
0.0
 40
0.0
 40
0.0
 40
0.8422864037471089
 40
1.685694647057321
 40
2.531315797913884
 40
3.380177287502886
 40
4.233214169721234
 40
5.09125020057522
 40
5.954967768899448
 40
6.824900391836836
 40
7.701419186604396
 40
8.584724417931369
 40
9.47485577056355
 40
10.37165251267315
 40
11.27486274211709
 40
12.18400675634887
 40
13.09851504074504
 40
14.01768673654235
 40
14.94071745659532
 40
15.8667176994736
 40
16.76607142455336
 40
16.76607142455336
 40
16.76607142455336
 40
16.76607142455336
 10
-51.98549025399417
 20
-7.500381469724548
 30
0.0
 10
-52.39878881850298
 20
-7.495919151617591
 30
0.0
 10
-53.22593641904539
 20
-7.486988572051176
 30
0.0
 10
-54.46635680418362
 20
-7.41499806885116
 30
0.0
 10
-55.70672424405319
 20
-7.300551990586875
 30
0.0
 10
-56.9470149037787
 20
-7.140151401608914
 30
0.0
 10
-58.18721647184085
 20
-6.935970289612043
 30
0.0
 10
-59.42730423861342
 20
-6.688915664963854
 30
0.0
 10
-60.66727737912131
 20
-6.40065672456628
 30
0.0
 10
-61.90712743677491
 20
-6.072944208044473
 30
0.0
 10
-63.1468514804487
 20
-5.707811516808782
 30
0.0
 10
-64.38645971311783
 20
-5.307531267100078
 30
0.0
 10
-65.62594699825062
 20
-4.874575060436321
 30
0.0
 10
-66.8653273795871
 20
-4.411598757550944
 30
0.0
 10
-68.10461742849696
 20
-3.921503314613012
 30
0.0
 10
-69.34381982262067
 20
-3.40726177687866
 30
0.0
 10
-70.58294379956087
 20
-2.872069009309913
 30
0.0
 10
-71.82201211437116
 20
-2.319227035733777
 30
0.0
 10
-73.06100429007256
 20
-1.752065298009818
 30
0.0
 10
-74.2872693242697
 20
-1.180308582827509
 30
0.0
 10
-75.09971604631449
 20
-0.7961984109304817
 30
0.0
 10
-78.00000000000006
 20
0.5654144001793642
 30
0.0
  0
LINE
  5
443A
330
1F
100
AcDbEntity
  8
AM_0
 48
0.5
100
AcDbLine
 10
-63.34876049265085
 20
4.56593703400363
 30
0.0
 11
-78.00000000000006
 21
0.5654144001793698
 31
0.0
  0
SPLINE
  5
443B
330
1F
100
AcDbEntity
  8
AM_0
100
AcDbSpline
210
0.0
220
0.0
230
1.0
 70
     8
 71
     3
 72
    23
 73
    19
 74
     0
 42
0.0000000001
 43
0.0000000001
 40
16.03460024169435
 40
16.03460024169435
 40
16.03460024169435
 40
16.03460024169435
 40
16.35212704903564
 40
17.38177054169784
 40
18.41822485651776
 40
19.46214173629503
 40
20.51396345435107
 40
21.57393551351153
 40
22.64208202342361
 40
23.7182574881101
 40
24.80209208578934
 40
25.89306333925047
 40
26.99048218457928
 40
28.09348763352352
 40
29.20111863782268
 40
30.31232390128032
 40
31.42594612798585
 40
32.5407912310448
 40
32.5407912310486
 40
32.5407912310486
 40
32.5407912310486
 10
-74.25344965495998
 20
7.500000000001599
 30
0.0
 10
-72.54864237137907
 20
7.387582526711559
 30
0.0
 10
-71.83720073776754
 20
7.275527542175741
 30
0.0
 10
-70.97226921849503
 20
7.148396338492033
 30
0.0
 10
-69.74012737328163
 20
6.827163191034792
 30
0.0
 10
-68.50912999937001
 20
6.466471910585087
 30
0.0
 10
-67.27920435614376
 20
6.068409994302425
 30
0.0
 10
-66.05030679136214
 20
5.635196646281531
 30
0.0
 10
-64.82236627769109
 20
5.169308296711435
 30
0.0
 10
-63.59529730602047
 20
4.673456298925183
 30
0.0
 10
-62.36903014988419
 20
4.150448633876234
 30
0.0
 10
-61.14346649499777
 20
3.60332856130398
 30
0.0
 10
-59.91850702313194
 20
3.035276179452534
 30
0.0
 10
-58.69407011873095
 20
2.449557551374728
 30
0.0
 10
-57.4700533346462
 20
1.849578550681929
 30
0.0
 10
-56.2463433010004
 20
1.238842614559335
 30
0.0
 10
-55.0228403732532
 20
0.6208887923753144
 30
0.0
 10
-54.20739084306145
 20
0.2065845439666943
 30
0.0
 10
-53.79944369984848
 20
-0.0006840413854521
 30
0.0
  0
LINE
  5
443C
330
1F
100
AcDbEntity
  8
AM_11
 48
0.5
100
AcDbLine
 10
-74.25344965495998
 20
7.500000000001599
 30
0.0
 11
-57.67981078646533
 21
7.500000000001257
 31
0.0
  0
LINE
  5
443D
330
1F
100
AcDbEntity
  8
AM_11
 48
0.5
100
AcDbLine
 10
-75.12017792748209
 20
-7.499999948722873
 30
0.0
 11
-56.28414233553685
 21
-7.49999922450003
 31
0.0
  0
SPLINE
  5
443E
330
1F
100
AcDbEntity
  8
AM_0
100
AcDbSpline
210
0.0
220
0.0
230
1.0
 70
     8
 71
     3
 72
    13
 73
     9
 74
     0
 42
0.0000000001
 43
0.0000000001
 40
16.03460056234195
 40
16.03460056234195
 40
16.03460056234195
 40
16.03460056234195
 40
16.35212717791071
 40
17.38177067057215
 40
18.41822498539278
 40
19.46214186516937
 40
20.5139635832251
 40
21.34083983469381
 40
21.34083983469381
 40
21.34083983469381
 40
21.34083983469381
 10
-75.12017848114192
 20
-7.499999883901817
 30
0.0
 10
-74.8582874063746
 20
-7.47574551197791
 30
0.0
 10
-74.31814892702369
 20
-7.365492814991448
 30
0.0
 10
-73.36669048472188
 20
-7.149461032590578
 30
0.0
 10
-72.13454848444897
 20
-6.828228775836024
 30
0.0
 10
-70.90355115253061
 20
-6.467537254169083
 30
0.0
 10
-69.76447366020076
 20
-6.098878146004659
 30
0.0
 10
-69.03776227914024
 20
-5.84503011392641
 30
0.0
 10
-67.50285336526387
 20
-5.42034623948965
 30
0.0
  0
SPLINE
  5
443F
330
1F
100
AcDbEntity
  8
AM_0
 48
0.5
100
AcDbSpline
210
0.0
220
0.0
230
1.0
 70
     8
 71
     3
 72
    22
 73
    18
 74
     0
 42
0.0000000001
 43
0.0000000001
 40
0.0
 40
0.0
 40
0.0
 40
0.0
 40
1.010743684496582
 40
2.022833993863546
 40
3.037578683882831
 40
4.056212471389632
 40
5.079857945358201
 40
6.109499720892564
 40
7.145961650132166
 40
8.189873411961459
 40
9.241710626092514
 40
10.30166235592959
 40
11.36982472628033
 40
12.44598212828784
 40
13.52983440361964
 40
14.62080578343036
 40
14.90544694398022
 40
14.90544694398022
 40
14.90544694398022
 40
14.90544694398022
 10
-55.45761744932383
 20
-7.499999999998785
 30
0.0
 10
-55.87112311990702
 20
-7.495920484549599
 30
0.0
 10
-56.69827104907875
 20
-7.486992570780738
 30
0.0
 10
-57.93869013523703
 20
-7.414982016722347
 30
0.0
 10
-59.17905891446233
 20
-7.300555194707087
 30
0.0
 10
-60.41935024441808
 20
-7.140154499803721
 30
0.0
 10
-61.65954839425625
 20
-6.935954180868694
 30
0.0
 10
-62.89964042585854
 20
-6.688920917053314
 30
0.0
 10
-64.13960816747544
 20
-6.400651501622166
 30
0.0
 10
-65.37946014555777
 20
-6.072934240494962
 30
0.0
 10
-66.61918519341361
 20
-5.707815345463298
 30
0.0
 10
-67.8587897897244
 20
-5.307516971250576
 30
0.0
 10
-69.09828192538505
 20
-4.874586399430565
 30
0.0
 10
-70.33766066939155
 20
-4.4115973839254
 30
0.0
 10
-71.57694924004445
 20
-3.921499374383659
 30
0.0
 10
-72.50836120786222
 20
-3.535004067216602
 30
0.0
 10
-73.02737645922781
 20
-3.31409577319736
 30
0.0
 10
-75.22109591241413
 20
-2.531505718866287
 30
0.0
  0
DIMENSION
  5
4485
330
1F
100
AcDbEntity
  8
AM_5
100
AcDbDimension
  2
*D9
 10
15.3199010310716
 20
-7.500000083611898
 30
0.0
 11
11.91990103107161
 21
-0.0000000418059326
 31
0.0
 70
    32
  1
%%c<>
 51
359.9999999999998
  3
AM_JIS$0
100
AcDbAlignedDimension
 13
-2.999999999999883
 23
7.500000000000032
 33
0.0
 14
-2.999999999999833
 24
-7.500000083611893
 34
0.0
 50
89.99999999999678
100
AcDbRotatedDimension
1001
ACAD
1000
DSTYLE
1002
{
1070
   271
1070
     0
1002
}
1001
GENIUS_GENDTOL_13
1000

1000
h7
1000

1040
0.0
  0
VIEWPORT
  5
110
330
101
100
AcDbEntity
 67
     1
  8
0
100
AcDbViewport
 10
420.5
 20
297.0
 30
0.0
 40
948.9782706766916
 41
628.452
 68
     1
 69
     1
1001
ACAD
1000
MVIEW
1002
{
1070
    16
1010
0.0
1020
0.0
1030
0.0
1010
0.0
1020
0.0
1030
1.0
1040
0.0
1040
628.452
1040
420.5
1040
297.0
1040
50.0
1040
0.0
1040
0.0
1070
     0
1070
   100
1070
     1
1070
     1
1070
     0
1070
     0
1070
     0
1070
     0
1040
0.0
1040
0.0
1040
0.0
1040
10.0
1040
10.0
1040
10.0
1040
10.0
1070
     0
1002
{
1002
}
1002
}
  0
ENDSEC
  0
SECTION
  2
OBJECTS
  0
DICTIONARY
  5
C
330
0
100
AcDbDictionary
  3
ACAD_GROUP
350
D
  3
ACAD_LAYOUT
350
1A
  3
ACAD_MLINESTYLE
350
17
  3
ACAD_PLOTSETTINGS
350
19
  3
ACAD_PLOTSTYLENAME
350
E
  3
ACDBVARIABLEDICTIONARY
350
34
  3
ACMDICTIONARY
350
43
  3
AMG
350
2B
  3
AMGSNAPSETTINGS
350
6E
  3
DWGPROPS
350
460A
  3
ACDBHEADERROUNDTRIPXREC
350
4616
  0
DICTIONARY
  5
74
330
1F
100
AcDbDictionary
280
     1
  3
ACAD_INDEX
360
460C
  3
ACAD_LAYOUTSELFREF
360
4639
  0
DICTIONARY
  5
463E
330
101
100
AcDbDictionary
280
     1
  3
ACAD_LAYOUTSELFREF
360
463F
  0
DICTIONARY
  5
D
102
{ACAD_REACTORS
330
C
102
}
330
C
100
AcDbDictionary
  0
DICTIONARY
  5
1A
102
{ACAD_REACTORS
330
C
102
}
330
C
100
AcDbDictionary
  0
DICTIONARY
  5
17
102
{ACAD_REACTORS
330
C
102
}
330
C
100
AcDbDictionary
  3
STANDARD
350
18
  0
DICTIONARY
  5
19
102
{ACAD_REACTORS
330
C
102
}
330
C
100
AcDbDictionary
  0
ACDBDICTIONARYWDFLT
  5
E
102
{ACAD_REACTORS
330
C
102
}
330
C
100
AcDbDictionary
281
     1
  3
Normal
350
F
100
AcDbDictionaryWithDefault
340
F
  0
DICTIONARY
  5
34
102
{ACAD_REACTORS
330
C
102
}
330
C
100
AcDbDictionary
  3
INDEXCTL
350
35
  3
SORTENTS
350
B5E
  0
DICTIONARY
  5
43
102
{ACAD_REACTORS
330
C
102
}
330
C
100
AcDbDictionary
  3
ACMSTDDICTIONARY
350
260
  0
DICTIONARY
  5
2B
102
{ACAD_REACTORS
330
C
102
}
330
C
100
AcDbDictionary
  3
ACMGSETTINGS
350
2C
  0
DICTIONARY
  5
6E
102
{ACAD_REACTORS
330
C
102
}
330
C
100
AcDbDictionary
  0
XRECORD
  5
460A
102
{ACAD_REACTORS
330
C
102
}
330
C
100
AcDbXrecord
  1
DWGPROPS COOKIE
  2

  3

  4

  6

  7

  8

  9

300
AmdtFileType=82
301
=
302
=
303
=
304
=
305
=
306
=
307
=
308
=
309
=
 40
0.0977121180555556
 41
2452800.443498622
 42
2452946.638889247
  1

 90
        1
  0
DICTIONARY
  5
4616
102
{ACAD_REACTORS
330
C
102
}
330
C
100
AcDbDictionary
  3
TSTACKALIGN
350
4617
  3
TSTACKSIZE
350
4618
  3
HYPERLINKBASE
350
4619
  3
STYLESHEET
350
461A
  3
LAYOUTDICT
350
461B
  3
PLOTSETDICT
350
461C
  3
PLOTSTYLNAMDICT
350
461D
  3
LWETCUNION
350
461E
  3
INSUNITS
350
461F
  3
CEPSNTYPE
350
4620
  3
FINGERPRINTGUID
350
4621
  3
VERSIONGUID
350
4622
  3
PSVPSCALE
350
4623
  3
DIMSTYLEDATA
350
4624
  3
PUCSORTHOREF
350
4625
  3
PUCSORTHOVIEW
350
4626
  3
PUCSBASE
350
4627
  3
PUCSORGTOP
350
4628
  3
PUCSORGBOTTOM
350
4629
  3
PUCSORGLEFT
350
462A
  3
PUCSORGRIGHT
350
462B
  3
PUCSORGFRONT
350
462C
  3
PUCSORGBACK
350
462D
  3
UCSORTHOREF
350
462E
  3
UCSORTHOVIEW
350
462F
  3
UCSBASE
350
4630
  3
UCSORGTOP
350
4631
  3
UCSORGBOTTOM
350
4632
  3
UCSORGLEFT
350
4633
  3
UCSORGRIGHT
350
4634
  3
UCSORGFRONT
350
4635
  3
UCSORGBACK
350
4636
  0
DICTIONARY
  5
460C
102
{ACAD_REACTORS
330
74
102
}
330
74
100
AcDbDictionary
  3
*A1
350
460D
  0
XRECORD
  5
4639
102
{ACAD_REACTORS
330
74
102
}
330
74
100
AcDbXrecord
340
1F
  0
XRECORD
  5
463F
102
{ACAD_REACTORS
330
463E
102
}
330
463E
100
AcDbXrecord
340
101
  0
MLINESTYLE
  5
18
102
{ACAD_REACTORS
330
17
102
}
330
17
100
AcDbMlineStyle
  2
STANDARD
 70
     0
  3

 62
   256
 51
90.0
 52
90.0
 71
     2
 49
0.5
 62
   256
  6
BYLAYER
 49
-0.5
 62
   256
  6
BYLAYER
  0
ACDBPLACEHOLDER
  5
F
102
{ACAD_REACTORS
330
E
102
}
330
E
100
AcDbPlaceHolder
280
     0
  0
DICTIONARYVAR
  5
35
102
{ACAD_REACTORS
330
34
102
}
330
34
100
DictionaryVariables
280
     0
  1
1
  0
DICTIONARYVAR
  5
B5E
102
{ACAD_REACTORS
330
34
102
}
330
34
100
DictionaryVariables
280
     0
  1
96
  0
DICTIONARY
  5
260
102
{ACAD_REACTORS
330
43
102
}
330
43
100
AcDbDictionary
  0
DICTIONARY
  5
2C
102
{ACAD_REACTORS
330
2B
102
}
330
2B
100
AcDbDictionary
  3
DWGSETTINGS
350
2D
  0
XRECORD
  5
4617
102
{ACAD_REACTORS
330
4616
102
}
330
4616
100
AcDbXrecord
 90
        1
  0
XRECORD
  5
4618
102
{ACAD_REACTORS
330
4616
102
}
330
4616
100
AcDbXrecord
 90
       70
  0
XRECORD
  5
4619
102
{ACAD_REACTORS
330
4616
102
}
330
4616
100
AcDbXrecord
  1

  0
XRECORD
  5
461A
102
{ACAD_REACTORS
330
4616
102
}
330
4616
100
AcDbXrecord
  1
ASAMI.ctb
  0
XRECORD
  5
461B
102
{ACAD_REACTORS
330
4616
102
}
330
4616
100
AcDbXrecord
340
1A
  0
XRECORD
  5
461C
102
{ACAD_REACTORS
330
4616
102
}
330
4616
100
AcDbXrecord
340
19
  0
XRECORD
  5
461D
102
{ACAD_REACTORS
330
4616
102
}
330
4616
100
AcDbXrecord
340
E
  0
XRECORD
  5
461E
102
{ACAD_REACTORS
330
4616
102
}
330
4616
100
AcDbXrecord
 90
    10781
  0
XRECORD
  5
461F
102
{ACAD_REACTORS
330
4616
102
}
330
4616
100
AcDbXrecord
 90
        4
  0
XRECORD
  5
4620
102
{ACAD_REACTORS
330
4616
102
}
330
4616
100
AcDbXrecord
 90
        0
  0
XRECORD
  5
4621
102
{ACAD_REACTORS
330
4616
102
}
330
4616
100
AcDbXrecord
  1
{AFB28963-8C59-40AE-9337-C84526B81ACE}
  0
XRECORD
  5
4622
102
{ACAD_REACTORS
330
4616
102
}
330
4616
100
AcDbXrecord
  1
{655DCBCC-D295-45C3-AB17-5F225AD28039}
  0
XRECORD
  5
4623
102
{ACAD_REACTORS
330
4616
102
}
330
4616
100
AcDbXrecord
 40
0.0
  0
XRECORD
  5
4624
102
{ACAD_REACTORS
330
4616
102
}
330
4616
100
AcDbXrecord
1000
DSTYLE
1002
{
1070
    79
 70
     2
1070
   341
340
59
1070
   342
340
59
1070
   371
 70
    -1
1070
   372
 70
    -1
1002
}
  0
XRECORD
  5
4625
102
{ACAD_REACTORS
330
4616
102
}
330
4616
100
AcDbXrecord
340
0
  0
XRECORD
  5
4626
102
{ACAD_REACTORS
330
4616
102
}
330
4616
100
AcDbXrecord
 70
     0
  0
XRECORD
  5
4627
102
{ACAD_REACTORS
330
4616
102
}
330
4616
100
AcDbXrecord
340
0
  0
XRECORD
  5
4628
102
{ACAD_REACTORS
330
4616
102
}
330
4616
100
AcDbXrecord
 10
0.0
 20
0.0
 30
0.0
  0
XRECORD
  5
4629
102
{ACAD_REACTORS
330
4616
102
}
330
4616
100
AcDbXrecord
 10
0.0
 20
0.0
 30
0.0
  0
XRECORD
  5
462A
102
{ACAD_REACTORS
330
4616
102
}
330
4616
100
AcDbXrecord
 10
0.0
 20
0.0
 30
0.0
  0
XRECORD
  5
462B
102
{ACAD_REACTORS
330
4616
102
}
330
4616
100
AcDbXrecord
 10
0.0
 20
0.0
 30
0.0
  0
XRECORD
  5
462C
102
{ACAD_REACTORS
330
4616
102
}
330
4616
100
AcDbXrecord
 10
0.0
 20
0.0
 30
0.0
  0
XRECORD
  5
462D
102
{ACAD_REACTORS
330
4616
102
}
330
4616
100
AcDbXrecord
 10
0.0
 20
0.0
 30
0.0
  0
XRECORD
  5
462E
102
{ACAD_REACTORS
330
4616
102
}
330
4616
100
AcDbXrecord
340
0
  0
XRECORD
  5
462F
102
{ACAD_REACTORS
330
4616
102
}
330
4616
100
AcDbXrecord
 70
     0
  0
XRECORD
  5
4630
102
{ACAD_REACTORS
330
4616
102
}
330
4616
100
AcDbXrecord
340
0
  0
XRECORD
  5
4631
102
{ACAD_REACTORS
330
4616
102
}
330
4616
100
AcDbXrecord
 10
0.0
 20
0.0
 30
0.0
  0
XRECORD
  5
4632
102
{ACAD_REACTORS
330
4616
102
}
330
4616
100
AcDbXrecord
 10
0.0
 20
0.0
 30
0.0
  0
XRECORD
  5
4633
102
{ACAD_REACTORS
330
4616
102
}
330
4616
100
AcDbXrecord
 10
0.0
 20
0.0
 30
0.0
  0
XRECORD
  5
4634
102
{ACAD_REACTORS
330
4616
102
}
330
4616
100
AcDbXrecord
 10
0.0
 20
0.0
 30
0.0
  0
XRECORD
  5
4635
102
{ACAD_REACTORS
330
4616
102
}
330
4616
100
AcDbXrecord
 10
0.0
 20
0.0
 30
0.0
  0
XRECORD
  5
4636
102
{ACAD_REACTORS
330
4616
102
}
330
4616
100
AcDbXrecord
 10
0.0
 20
0.0
 30
0.0
  0
LAYER_INDEX
  5
460D
102
{ACAD_REACTORS
330
460C
102
}
330
460C
100
AcDbIndex
 40
2453151.565714687
100
AcDbLayerIndex
  8
0
360
460E
 90
        0
  8
AM_0
360
460F
 90
       38
  8
AM_7
360
4610
 90
        1
  8
AM_11
360
4611
 90
       15
  8
AM_5
360
4612
 90
        5
  8
Defpoints
360
4613
 90
        0
  8
AM_6
360
4614
 90
        1
  0
XRECORD
  5
2D
102
{ACAD_REACTORS
330
2C
102
}
330
2C
100
AcDbXrecord
  1
VERSION
140
15.0
  1
PRODUCT
  2
AutoCAD Mechanical 2000
  0
IDBUFFER
  5
460E
330
0
100
AcDbIdBuffer
  0
IDBUFFER
  5
460F
330
0
100
AcDbIdBuffer
330
4425
330
4429
330
442A
330
442B
330
442C
330
442D
330
442E
330
442F
330
4430
330
4431
330
4432
330
4433
330
4434
330
4435
330
4436
330
4437
330
4438
330
4439
330
443A
330
443B
330
443E
330
443F
330
C1D
330
C20
330
24A7
330
24BE
330
324C
330
325C
330
325D
330
325E
330
3921
330
3924
330
3976
330
3977
330
4421
330
4422
330
4423
330
4424
  0
IDBUFFER
  5
4610
330
0
100
AcDbIdBuffer
330
23EF
  0
IDBUFFER
  5
4611
330
0
100
AcDbIdBuffer
330
24B7
330
24B8
330
24C7
330
24C8
330
24D4
330
24D5
330
24E6
330
24E7
330
2BF3
330
2BF5
330
4426
330
4427
330
4428
330
443C
330
443D
  0
IDBUFFER
  5
4612
330
0
100
AcDbIdBuffer
330
CC6
330
2069
330
3C5B
330
3D2F
330
4485
  0
IDBUFFER
  5
4613
330
0
100
AcDbIdBuffer
  0
IDBUFFER
  5
4614
330
0
100
AcDbIdBuffer
330
19BD
  0
ENDSEC
  0
EOF
