  0
SECTION
  2
HEADER
  9
$ACADVER
  1
AC1014
  9
$ACADMAINTVER
 70
     9
  9
$DWGCODEPAGE
  3
ANSI_932
  9
$INSBASE
 10
0.0
 20
0.0
 30
0.0
  9
$EXTMIN
 10
-218.3000009999999
 20
-54.50000305448091
 30
-0.00000001
  9
$EXTMAX
 10
24.05440230361293
 20
23.54341619055744
 30
0.00000001
  9
$LIMMIN
 10
-235.3243199069245
 20
-84.95978435839356
  9
$LIMMAX
 10
43.00602480537361
 20
55.45771548967673
  9
$ORTHOMODE
 70
     0
  9
$REGENMODE
 70
     1
  9
$FILLMODE
 70
     1
  9
$QTEXTMODE
 70
     0
  9
$MIRRTEXT
 70
     0
  9
$DRAGMODE
 70
     2
  9
$LTSCALE
 40
1.0
  9
$OSMODE
 70
    55
  9
$ATTMODE
 70
     1
  9
$TEXTSIZE
 40
2.5
  9
$TRACEWID
 40
1.0
  9
$TEXTSTYLE
  7
STANDARD
  9
$CLAYER
  8
AM_0
  9
$CELTYPE
  6
BYLAYER
  9
$CECOLOR
 62
   256
  9
$CELTSCALE
 40
1.0
  9
$DELOBJ
 70
     1
  9
$DISPSILH
 70
     0
  9
$DIMSCALE
 40
1.0
  9
$DIMASZ
 40
2.5
  9
$DIMEXO
 40
1.0
  9
$DIMDLI
 40
12.0
  9
$DIMRND
 40
0.0
  9
$DIMDLE
 40
0.0
  9
$DIMEXE
 40
1.0
  9
$DIMTP
 40
0.1
  9
$DIMTM
 40
0.1
  9
$DIMTXT
 40
3.2
  9
$DIMCEN
 40
0.0
  9
$DIMTSZ
 40
0.0
  9
$DIMTOL
 70
     0
  9
$DIMLIM
 70
     0
  9
$DIMTIH
 70
     0
  9
$DIMTOH
 70
     0
  9
$DIMSE1
 70
     0
  9
$DIMSE2
 70
     0
  9
$DIMTAD
 70
     3
  9
$DIMZIN
 70
     8
  9
$DIMBLK
  1
OPEN30
  9
$DIMASO
 70
     1
  9
$DIMSHO
 70
     1
  9
$DIMPOST
  1

  9
$DIMAPOST
  1
"
  9
$DIMALT
 70
     0
  9
$DIMALTD
 70
     2
  9
$DIMALTF
 40
0.0393701
  9
$DIMLFAC
 40
1.0
  9
$DIMTOFL
 70
     1
  9
$DIMTVP
 40
0.0
  9
$DIMTIX
 70
     0
  9
$DIMSOXD
 70
     0
  9
$DIMSAH
 70
     0
  9
$DIMBLK1
  1

  9
$DIMBLK2
  1

  9
$DIMSTYLE
  2
AM_JIS
  9
$DIMCLRD
 70
   256
  9
$DIMCLRE
 70
   256
  9
$DIMCLRT
 70
     2
  9
$DIMTFAC
 40
0.71
  9
$DIMGAP
 40
1.5
  9
$DIMJUST
 70
     0
  9
$DIMSD1
 70
     0
  9
$DIMSD2
 70
     0
  9
$DIMTOLJ
 70
     0
  9
$DIMTZIN
 70
     0
  9
$DIMALTZ
 70
     0
  9
$DIMALTTZ
 70
     0
  9
$DIMFIT
 70
     3
  9
$DIMUPT
 70
     0
  9
$DIMUNIT
 70
     2
  9
$DIMDEC
 70
     3
  9
$DIMTDEC
 70
     3
  9
$DIMALTU
 70
     2
  9
$DIMALTTD
 70
     2
  9
$DIMTXSTY
  7
ASAMI
  9
$DIMAUNIT
 70
     0
  9
$LUNITS
 70
     2
  9
$LUPREC
 70
     2
  9
$SKETCHINC
 40
1.0
  9
$FILLETRAD
 40
2.5
  9
$AUNITS
 70
     0
  9
$AUPREC
 70
     0
  9
$MENU
  1
.
  9
$ELEVATION
 40
0.0
  9
$PELEVATION
 40
0.0
  9
$THICKNESS
 40
0.0
  9
$LIMCHECK
 70
     0
  9
$BLIPMODE
 70
     0
  9
$CHAMFERA
 40
0.5
  9
$CHAMFERB
 40
0.5
  9
$CHAMFERC
 40
20.0
  9
$CHAMFERD
 40
0.0
  9
$SKPOLY
 70
     0
  9
$TDCREATE
 40
2452800.443498622
  9
$TDUPDATE
 40
2453151.671424861
  9
$TDINDWG
 40
0.0973039815
  9
$TDUSRTIMER
 40
0.0973039815
  9
$USRTIMER
 70
     1
  9
$ANGBASE
 50
0.0
  9
$ANGDIR
 70
     0
  9
$PDMODE
 70
     3
  9
$PDSIZE
 40
0.0
  9
$PLINEWID
 40
0.0
  9
$COORDS
 70
     1
  9
$SPLFRAME
 70
     0
  9
$SPLINETYPE
 70
     6
  9
$SPLINESEGS
 70
     8
  9
$ATTDIA
 70
     1
  9
$ATTREQ
 70
     1
  9
$HANDLING
 70
 12289
  9
$HANDSEED
  5
4465
  9
$SURFTAB1
 70
     6
  9
$SURFTAB2
 70
     6
  9
$SURFTYPE
 70
     6
  9
$SURFU
 70
     6
  9
$SURFV
 70
     6
  9
$UCSNAME
  2

  9
$UCSORG
 10
0.0
 20
0.0
 30
0.0
  9
$UCSXDIR
 10
1.0
 20
0.0000000000000027
 30
0.0
  9
$UCSYDIR
 10
-0.0000000000000027
 20
1.0
 30
0.0
  9
$PUCSNAME
  2

  9
$PUCSORG
 10
0.0
 20
0.0
 30
0.0
  9
$PUCSXDIR
 10
1.0
 20
0.0
 30
0.0
  9
$PUCSYDIR
 10
0.0
 20
1.0
 30
0.0
  9
$USERI1
 70
     0
  9
$USERI2
 70
     0
  9
$USERI3
 70
     0
  9
$USERI4
 70
     0
  9
$USERI5
 70
     0
  9
$USERR1
 40
0.0
  9
$USERR2
 40
0.0
  9
$USERR3
 40
0.0
  9
$USERR4
 40
0.0
  9
$USERR5
 40
0.0
  9
$WORLDVIEW
 70
     1
  9
$SHADEDGE
 70
     3
  9
$SHADEDIF
 70
    70
  9
$TILEMODE
 70
     1
  9
$MAXACTVP
 70
    64
  9
$PINSBASE
 10
0.0
 20
0.0
 30
0.0
  9
$PLIMCHECK
 70
     0
  9
$PEXTMIN
 10
1.000000000000000E+20
 20
1.000000000000000E+20
 30
1.000000000000000E+20
  9
$PEXTMAX
 10
-1.000000000000000E+20
 20
-1.000000000000000E+20
 30
-1.000000000000000E+20
  9
$PLIMMIN
 10
0.0
 20
0.0
  9
$PLIMMAX
 10
841.0
 20
594.0
  9
$UNITMODE
 70
     0
  9
$VISRETAIN
 70
     1
  9
$PLINEGEN
 70
     0
  9
$PSLTSCALE
 70
     0
  9
$TREEDEPTH
 70
  3020
  9
$PICKSTYLE
 70
     0
  9
$CMLSTYLE
  2
STANDARD
  9
$CMLJUST
 70
     0
  9
$CMLSCALE
 40
20.0
  9
$PROXYGRAPHICS
 70
     1
  9
$MEASUREMENT
 70
     1
  0
ENDSEC
  0
SECTION
  2
CLASSES
  0
CLASS
  1
ACDBDICTIONARYWDFLT
  2
AcDbDictionaryWithDefault
  3
AutoCAD 2000
 90
        0
280
     0
281
     0
  0
CLASS
  1
ACDBPLACEHOLDER
  2
AcDbPlaceHolder
  3
AutoCAD 2000
 90
        0
280
     0
281
     0
  0
CLASS
  1
LAYOUT
  2
AcDbLayout
  3
AutoCAD 2000
 90
        0
280
     0
281
     0
  0
CLASS
  1
AMGSETTINGSOBJ
  2
AmgSettingsObj
  3
"AcadM|Product Description: AutoCAD Mechanical 2000|Company: Autodesk"
 90
        0
280
     0
281
     0
  0
CLASS
  1
ACME_DOCUMENT
  2
AcMeDbDoc
  3
AcMeServices
 90
        0
280
     0
281
     0
  0
CLASS
  1
ACMESCOPE
  2
AcMeScope
  3
AcMeServices
 90
        0
280
     0
281
     0
  0
CLASS
  1
ACMECOMMANDHISTORY
  2
AcMeCommandHistory
  3
AcMeServices
 90
        0
280
     0
281
     0
  0
CLASS
  1
DICTIONARYVAR
  2
AcDbDictionaryVar
  3
AutoCAD 2000
 90
        0
280
     0
281
     0
  0
CLASS
  1
ACIMSYSVARMAN
  2
AcImSysVarManager
  3
AcMeServices
 90
        0
280
     0
281
     0
  0
CLASS
  1
ACIMREALSYSVAR
  2
AcImRealSysVar
  3
AcMeServices
 90
        0
280
     0
281
     0
  0
CLASS
  1
ACIMINTSYSVAR
  2
AcImIntSysVar
  3
AcMeServices
 90
        0
280
     0
281
     0
  0
CLASS
  1
ACMEDRAWINGMAN
  2
AcMeDrawingMan
  3
AcMeServices
 90
        0
280
     0
281
     0
  0
CLASS
  1
ACMEVIEW
  2
AcMeView
  3
AcMeServices
 90
        0
280
     0
281
     0
  0
CLASS
  1
ACDBENTITYCACHE
  2
AcMeEntityCache
  3
AcMeServices
 90
        0
280
     0
281
     0
  0
CLASS
  1
GSMANAGER
  2
AcMeGSManager
  3
AcMeServices
 90
        0
280
     0
281
     0
  0
CLASS
  1
AmdtInternalReactor
  2
AmdtInternalReactor
  3
AcMeServices
 90
        0
280
     0
281
     0
  0
CLASS
  1
ACMESTATEMGR
  2
AcMeStateMgr
  3
AcMeServices
 90
        0
280
     0
281
     0
  0
CLASS
  1
ACME_DATABASE
  2
AcMeDbDatabase
  3
AcMeServices
 90
        0
280
     0
281
     0
  0
CLASS
  1
ACRFINSADJUSTERMGR
  2
AcRfInsAdjusterMgr
  3
AcMeServices
 90
        0
280
     0
281
     0
  0
CLASS
  1
ACMDATADICTIONARY
  2
AcmDataDictionary
  3
"AcmSymBB|Product Description: AutoCAD Mechanical 2000|Company: Autodesk"
 90
        0
280
     0
281
     0
  0
CLASS
  1
ACMDATAENTRYBLOCK
  2
AcmDataEntryBlock
  3
"AcmSymBB|Product Description: AutoCAD Mechanical 2000|Company: Autodesk"
 90
        0
280
     0
281
     0
  0
CLASS
  1
AMGOBJPROPCFG
  2
AmgObjPropCfg
  3
"AmgLay|Product Description: AutoCAD Mechanical 2000|Company: Autodesk"
 90
        1
280
     0
281
     0
  0
CLASS
  1
ACAMGFILTERDAT
  2
AcAmgFilterDat
  3
"AcadM|Product Description: AutoCAD Mechanical 2000|Company: Autodesk"
 90
        0
280
     0
281
     0
  0
CLASS
  1
LAYER_INDEX
  2
AcDbLayerIndex
  3
AutoCAD 2000
 90
        0
280
     0
281
     0
  0
CLASS
  1
IDBUFFER
  2
AcDbIdBuffer
  3
AutoCAD 2000
 90
        0
280
     0
281
     0
  0
CLASS
  1
ACIMSTRSYSVAR
  2
AcImStrSysVar
  3
AcMeServices
 90
        0
280
     0
281
     0
  0
CLASS
  1
ACMSTANDARDJIS
  2
AcmStandardJIS
  3
"AcmSymBB|Product Description: AutoCAD Mechanical 2000|Company: Autodesk"
 90
        0
280
     0
281
     0
  0
CLASS
  1
ACMSURFSTANDARDJIS
  2
AcmSurfTextStdJIS
  3
"AcmSymBB|Product Description: AutoCAD Mechanical 2000|Company: Autodesk"
 90
        0
280
     0
281
     0
  0
CLASS
  1
ACMFCFSTANDARDJIS
  2
AcmFCFStdJIS
  3
"AcmSymBB|Product Description: AutoCAD Mechanical 2000|Company: Autodesk"
 90
        0
280
     0
281
     0
  0
CLASS
  1
ACMWELDSTANDARDJIS
  2
AcmWeldingStdJIS
  3
"AcmSymBB|Product Description: AutoCAD Mechanical 2000|Company: Autodesk"
 90
        0
280
     0
281
     0
  0
CLASS
  1
ACMIDSTANDARDJIS
  2
AcmIdStdJIS
  3
"AcmSymBB|Product Description: AutoCAD Mechanical 2000|Company: Autodesk"
 90
        0
280
     0
281
     0
  0
CLASS
  1
ACMDATUMSTANDARDJIS
  2
AcmDatumStdJIS
  3
"AcmSymBB|Product Description: AutoCAD Mechanical 2000|Company: Autodesk"
 90
        0
280
     0
281
     0
  0
CLASS
  1
ACMBOMSTANDARDJIS
  2
AcmBOMStdJIS
  3
"AcmSymBB|Product Description: AutoCAD Mechanical 2000|Company: Autodesk"
 90
        0
280
     0
281
     0
  0
CLASS
  1
ACMSTANDARDANSI
  2
AcmStandardANSI
  3
"AcmSymBB|Product Description: AutoCAD Mechanical 2000|Company: Autodesk"
 90
        0
280
     0
281
     0
  0
CLASS
  1
ACMSURFSTANDARDANSI
  2
AcmSurfTextStdANSI
  3
"AcmSymBB|Product Description: AutoCAD Mechanical 2000|Company: Autodesk"
 90
        0
280
     0
281
     0
  0
CLASS
  1
ACMFCFSTANDARDANSI
  2
AcmFCFStdANSI
  3
"AcmSymBB|Product Description: AutoCAD Mechanical 2000|Company: Autodesk"
 90
        0
280
     0
281
     0
  0
CLASS
  1
ACMWELDSTANDARDANSI
  2
AcmWeldingStdANSI
  3
"AcmSymBB|Product Description: AutoCAD Mechanical 2000|Company: Autodesk"
 90
        0
280
     0
281
     0
  0
CLASS
  1
ACMIDSTANDARDANSI
  2
AcmIdStdANSI
  3
"AcmSymBB|Product Description: AutoCAD Mechanical 2000|Company: Autodesk"
 90
        0
280
     0
281
     0
  0
CLASS
  1
ACMDATUMSTANDARDANSI
  2
AcmDatumStdANSI
  3
"AcmSymBB|Product Description: AutoCAD Mechanical 2000|Company: Autodesk"
 90
        0
280
     0
281
     0
  0
CLASS
  1
ACMBOMSTANDARDANSI
  2
AcmBOMStdANSI
  3
"AcmSymBB|Product Description: AutoCAD Mechanical 2000|Company: Autodesk"
 90
        0
280
     0
281
     0
  0
CLASS
  1
ACMSTANDARDBSI
  2
AcmStandardBSI
  3
"AcmSymBB|Product Description: AutoCAD Mechanical 2000|Company: Autodesk"
 90
        0
280
     0
281
     0
  0
CLASS
  1
ACMSURFSTANDARDBSI
  2
AcmSurfTextStdBSI
  3
"AcmSymBB|Product Description: AutoCAD Mechanical 2000|Company: Autodesk"
 90
        0
280
     0
281
     0
  0
CLASS
  1
ACMFCFSTANDARDBSI
  2
AcmFCFStdBSI
  3
"AcmSymBB|Product Description: AutoCAD Mechanical 2000|Company: Autodesk"
 90
        0
280
     0
281
     0
  0
CLASS
  1
ACMWELDSTANDARDBSI
  2
AcmWeldingStdBSI
  3
"AcmSymBB|Product Description: AutoCAD Mechanical 2000|Company: Autodesk"
 90
        0
280
     0
281
     0
  0
CLASS
  1
ACMIDSTANDARDBSI
  2
AcmIdStdBSI
  3
"AcmSymBB|Product Description: AutoCAD Mechanical 2000|Company: Autodesk"
 90
        0
280
     0
281
     0
  0
CLASS
  1
ACMDATUMSTANDARDBSI
  2
AcmDatumStdBSI
  3
"AcmSymBB|Product Description: AutoCAD Mechanical 2000|Company: Autodesk"
 90
        0
280
     0
281
     0
  0
CLASS
  1
ACMBOMSTANDARDBSI
  2
AcmBOMStdBSI
  3
"AcmSymBB|Product Description: AutoCAD Mechanical 2000|Company: Autodesk"
 90
        0
280
     0
281
     0
  0
CLASS
  1
LONG_TRANSACTION
  2
AcDbLongTransaction
  3
AutoCAD 2000
 90
        0
280
     0
281
     0
  0
CLASS
  1
LWPOLYLINE
  2
AcDbPolyline
  3
AutoCAD 2000
 90
        0
280
     0
281
     1
  0
CLASS
  1
HATCH
  2
AcDbHatch
  3
AutoCAD 2000
 90
        0
280
     0
281
     1
  0
CLASS
  1
XRECORD
  2
AcDbXrecord
  3
AutoCAD 2000
 90
        0
280
     0
281
     0
  0
ENDSEC
  0
SECTION
  2
TABLES
  0
TABLE
  2
VPORT
  5
8
330
0
100
AcDbSymbolTable
 70
     3
  0
VPORT
  5
442F
330
8
100
AcDbSymbolTableRecord
100
AcDbViewportTableRecord
  2
*ACTIVE
 70
     0
 10
0.0
 20
0.0
 11
1.0
 21
1.0
 12
-92.62360352187521
 22
-15.47951845196573
 13
0.0
 23
0.0
 14
2.5
 24
2.5
 15
10.0
 25
10.0
 16
0.0
 26
0.0
 36
1.0
 17
0.0
 27
0.0
 37
0.0
 40
161.3090549887698
 41
1.56570841889117
 42
50.0
 43
0.0
 44
0.0
 50
0.0
 51
0.0
 71
     0
 72
   100
 73
     1
 74
     1
 75
     0
 76
     0
 77
     0
 78
     0
  0
ENDTAB
  0
TABLE
  2
LTYPE
  5
5
330
0
100
AcDbSymbolTable
 70
    10
  0
LTYPE
  5
14
330
5
100
AcDbSymbolTableRecord
100
AcDbLinetypeTableRecord
  2
BYBLOCK
 70
     0
  3

 72
    65
 73
     0
 40
0.0
  0
LTYPE
  5
15
330
5
100
AcDbSymbolTableRecord
100
AcDbLinetypeTableRecord
  2
BYLAYER
 70
     0
  3

 72
    65
 73
     0
 40
0.0
  0
LTYPE
  5
16
330
5
100
AcDbSymbolTableRecord
100
AcDbLinetypeTableRecord
  2
CONTINUOUS
 70
     0
  3
Solid line
 72
    65
 73
     0
 40
0.0
  0
LTYPE
  5
4B
330
5
100
AcDbSymbolTableRecord
100
AcDbLinetypeTableRecord
  2
AM_ISO02W050
 70
     0
  3
__ __ __ __ __ __ __ __ __ __ __ __ __ __ __
 72
    65
 73
     2
 40
7.5
 49
6.0
 74
     0
 49
-1.5
 74
     0
  0
LTYPE
  5
4C
330
5
100
AcDbSymbolTableRecord
100
AcDbLinetypeTableRecord
  2
AM_ISO08W050
 70
     0
  3
____ . ____ . ____ . ____ . ____ . ____ . ____
 72
    65
 73
     4
 40
18.0
 49
12.0
 74
     0
 49
-1.5
 74
     0
 49
3.0
 74
     0
 49
-1.5
 74
     0
  0
LTYPE
  5
4D
330
5
100
AcDbSymbolTableRecord
100
AcDbLinetypeTableRecord
  2
AM_ISO09W050
 70
     0
  3
_____ . . _____ . . _____ . . ____ .. ____
 72
    65
 73
     6
 40
22.5
 49
12.0
 74
     0
 49
-1.5
 74
     0
 49
3.0
 74
     0
 49
-1.5
 74
     0
 49
3.0
 74
     0
 49
-1.5
 74
     0
  0
LTYPE
  5
4E
330
5
100
AcDbSymbolTableRecord
100
AcDbLinetypeTableRecord
  2
AMCONSTR
 70
     0
  3
_______________________
 72
    65
 73
     2
 40
9999.0
 49
9999.0
 74
     0
 49
0.0
 74
     0
  0
LTYPE
  5
4F
330
5
100
AcDbSymbolTableRecord
100
AcDbLinetypeTableRecord
  2
AM_ISO02W050X2
 70
     0
  3
 _ _ _ _ _ _ _ _ _ _ _ _
 72
    65
 73
     2
 40
3.75
 49
3.0
 74
     0
 49
-0.75
 74
     0
  0
LTYPE
  5
50
330
5
100
AcDbSymbolTableRecord
100
AcDbLinetypeTableRecord
  2
AM_ISO08W050X2
 70
     0
  3
__ . __ . __ . __ . __ . __
 72
    65
 73
     4
 40
9.0
 49
6.0
 74
     0
 49
-0.75
 74
     0
 49
1.5
 74
     0
 49
-0.75
 74
     0
  0
LTYPE
  5
53
330
5
100
AcDbSymbolTableRecord
100
AcDbLinetypeTableRecord
  2
AMZIGZAG
 70
     0
  3
/\/-/\/-/\/-/\/-/\/-/\/
 72
    65
 73
     2
 40
11.00009999999999
 49
0.0001
 74
     4
 75
   135
340
52
 46
0.04
 50
0.0
 44
0.0
 45
0.0
 49
-11.0
 74
     0
  0
LTYPE
  5
166
330
5
100
AcDbSymbolTableRecord
100
AcDbLinetypeTableRecord
  2
ACJISTGL
 70
     0
  3
_ _ _ _ _
 72
    65
 73
     2
 40
3.0
 49
2.0
 74
     0
 49
-1.0
 74
     0
  0
LTYPE
  5
26A
330
5
100
AcDbSymbolTableRecord
100
AcDbLinetypeTableRecord
  2
ACJISTGB
 70
     0
  3
__ . . __ . .
 72
    65
 73
     6
 40
9.0
 49
4.0
 74
     0
 49
-1.0
 74
     0
 49
1.0
 74
     0
 49
-1.0
 74
     0
 49
1.0
 74
     0
 49
-1.0
 74
     0
  0
ENDTAB
  0
TABLE
  2
LAYER
  5
2
330
0
100
AcDbSymbolTable
 70
     8
  0
LAYER
  5
10
330
2
100
AcDbSymbolTableRecord
100
AcDbLayerTableRecord
  2
0
 70
     0
 62
     7
  6
CONTINUOUS
  0
LAYER
  5
3F9
330
2
100
AcDbSymbolTableRecord
100
AcDbLayerTableRecord
  2
AM_0
 70
     0
 62
     7
  6
CONTINUOUS
  0
LAYER
  5
C7C
330
2
100
AcDbSymbolTableRecord
100
AcDbLayerTableRecord
  2
AM_7
 70
     0
 62
     4
  6
AM_ISO08W050
  0
LAYER
  5
C97
330
2
100
AcDbSymbolTableRecord
100
AcDbLayerTableRecord
  2
AM_11
 70
     0
 62
     3
  6
AM_ISO09W050
  0
LAYER
  5
CC5
330
2
100
AcDbSymbolTableRecord
100
AcDbLayerTableRecord
  2
AM_5
 70
     0
 62
     3
  6
CONTINUOUS
  0
LAYER
  5
CC7
330
2
100
AcDbSymbolTableRecord
100
AcDbLayerTableRecord
  2
DEFPOINTS
 70
     0
 62
     7
  6
CONTINUOUS
  0
LAYER
  5
19BC
330
2
100
AcDbSymbolTableRecord
100
AcDbLayerTableRecord
  2
AM_6
 70
     0
 62
     2
  6
CONTINUOUS
  0
LAYER
  5
42B1
330
2
100
AcDbSymbolTableRecord
100
AcDbLayerTableRecord
  2
AM_CL
 70
     0
 62
     1
  6
AMCONSTR
  0
ENDTAB
  0
TABLE
  2
STYLE
  5
3
330
0
100
AcDbSymbolTable
 70
     5
  0
STYLE
  5
11
330
3
100
AcDbSymbolTableRecord
100
AcDbTextStyleTableRecord
  2
STANDARD
 70
     0
 40
0.0
 41
1.0
 50
0.0
 71
     0
 42
2.5
  3
simplex.shx
  4
EXTFONT.SHX
  0
STYLE
  5
52
330
3
100
AcDbSymbolTableRecord
100
AcDbTextStyleTableRecord
  2

 70
     1
 40
0.0
 41
1.0
 50
0.0
 71
     0
 42
2.5
  3
ltypeshp.shx
  4

  0
STYLE
  5
6B
330
3
100
AcDbSymbolTableRecord
100
AcDbTextStyleTableRecord
  2
ASAMI
 70
     0
 40
0.0
 41
1.0
 50
0.0
 71
     0
 42
2.5
  3
simplex.shx
  4
EXTFONT.SHX
  0
STYLE
  5
262
330
3
100
AcDbSymbolTableRecord
100
AcDbTextStyleTableRecord
  2
ACJISTS
 70
     0
 40
1.0
 41
1.0
 50
0.0
 71
     0
 42
2.5
  3
simplex.shx
  4
bigfont.shx
  0
STYLE
  5
269
330
3
100
AcDbSymbolTableRecord
100
AcDbTextStyleTableRecord
  2
ACJISGDT
 70
     0
 40
0.0
 41
1.0
 50
0.0
 71
     0
 42
2.5
  3
amgdtans.shx
  4

  0
ENDTAB
  0
TABLE
  2
VIEW
  5
6
330
0
100
AcDbSymbolTable
 70
     0
  0
ENDTAB
  0
TABLE
  2
UCS
  5
7
330
0
100
AcDbSymbolTable
 70
     0
  0
ENDTAB
  0
TABLE
  2
APPID
  5
9
330
0
100
AcDbSymbolTable
 70
    16
  0
APPID
  5
12
330
9
100
AcDbSymbolTableRecord
100
AcDbRegAppTableRecord
  2
ACAD
 70
     0
  0
APPID
  5
30
330
9
100
AcDbSymbolTableRecord
100
AcDbRegAppTableRecord
  2
MCAD_NO_VIS
 70
     0
  0
APPID
  5
31
330
9
100
AcDbSymbolTableRecord
100
AcDbRegAppTableRecord
  2
ACAD_TEMP_GRAPHIC
 70
     0
  0
APPID
  5
2C2
330
9
100
AcDbSymbolTableRecord
100
AcDbRegAppTableRecord
  2
GENIUS_GENDTOL_13
 70
     0
  0
APPID
  5
339
330
9
100
AcDbSymbolTableRecord
100
AcDbRegAppTableRecord
  2
GENIUS_GENODEF_13
 70
     0
  0
APPID
  5
33A
330
9
100
AcDbSymbolTableRecord
100
AcDbRegAppTableRecord
  2
GENIUS_GENOBJ-N-RSBK_13
 70
     0
  0
APPID
  5
33B
330
9
100
AcDbSymbolTableRecord
100
AcDbRegAppTableRecord
  2
GENIUS_GENOBJ-N-LIB_13
 70
     0
  0
APPID
  5
33C
330
9
100
AcDbSymbolTableRecord
100
AcDbRegAppTableRecord
  2
GENIUS_GENSCALE_13
 70
     0
  0
APPID
  5
378
330
9
100
AcDbSymbolTableRecord
100
AcDbRegAppTableRecord
  2
GENIUS_GENDIMSH_14
 70
     0
  0
APPID
  5
C82
330
9
100
AcDbSymbolTableRecord
100
AcDbRegAppTableRecord
  2
GENIUS_GENOBJ-N-CRS_13
 70
     0
  0
APPID
  5
C83
330
9
100
AcDbSymbolTableRecord
100
AcDbRegAppTableRecord
  2
GENIUS_GENOENT_13
 70
     0
  0
APPID
  5
C84
330
9
100
AcDbSymbolTableRecord
100
AcDbRegAppTableRecord
  2
GENIUS_GENOREF_13
 70
     0
  0
APPID
  5
C85
330
9
100
AcDbSymbolTableRecord
100
AcDbRegAppTableRecord
  2
GENIUS_GENOLIS_13
 70
     0
  0
APPID
  5
CA0
330
9
100
AcDbSymbolTableRecord
100
AcDbRegAppTableRecord
  2
GENIUS_GENOBJ-N-CEN_13
 70
     0
  0
APPID
  5
1E1E
330
9
100
AcDbSymbolTableRecord
100
AcDbRegAppTableRecord
  2
GENIUS_GENFIL_13
 70
     0
  0
APPID
  5
1E1F
330
9
100
AcDbSymbolTableRecord
100
AcDbRegAppTableRecord
  2
GENIUS_GENOBJ-N-CHA_13
 70
     0
  0
ENDTAB
  0
TABLE
  2
DIMSTYLE
  5
A
330
0
100
AcDbSymbolTable
 70
     9
  0
DIMSTYLE
105
58
330
A
100
AcDbSymbolTableRecord
100
AcDbDimStyleTableRecord
  2
AM_JIS
 70
     0
  3

  4
"
  5
OPEN30
  6

  7

 40
1.0
 41
2.5
 42
1.0
 43
12.0
 44
1.0
 45
0.0
 46
0.0
 47
0.1
 48
0.1
140
3.2
141
0.0
142
0.0
143
0.0393701
144
1.0
145
0.0
146
0.71
147
1.5
 71
     0
 72
     0
 73
     0
 74
     0
 75
     0
 76
     0
 77
     3
 78
     8
170
     0
171
     2
172
     1
173
     0
174
     0
175
     0
176
   256
177
   256
178
     2
270
     2
271
     3
272
     3
273
     2
274
     2
340
6B
275
     0
280
     0
281
     0
282
     0
283
     0
284
     0
285
     0
286
     0
287
     3
288
     0
  0
DIMSTYLE
105
5F
330
A
100
AcDbSymbolTableRecord
100
AcDbDimStyleTableRecord
  2
AM_JIS$3
 70
     0
  3

  4
"
  5
OPEN30
  6

  7

 40
1.0
 41
2.5
 42
1.0
 43
10.0
 44
1.0
 45
0.0
 46
0.0
 47
0.1
 48
0.1
140
3.2
141
0.0
142
0.0
143
0.0393701
144
1.0
145
0.0
146
0.71
147
1.5
 71
     0
 72
     0
 73
     0
 74
     1
 75
     0
 76
     0
 77
     3
 78
     8
170
     0
171
     2
172
     0
173
     0
174
     0
175
     0
176
   256
177
   256
178
     2
270
     2
271
     2
272
     3
273
     2
274
     2
340
6B
275
     0
280
     0
281
     0
282
     0
283
     0
284
     0
285
     0
286
     0
287
     0
288
     1
  0
DIMSTYLE
105
60
330
A
100
AcDbSymbolTableRecord
100
AcDbDimStyleTableRecord
  2
AM_JIS$4
 70
     0
  3

  4
"
  5
OPEN30
  6

  7

 40
1.0
 41
2.5
 42
1.0
 43
10.0
 44
1.0
 45
0.0
 46
0.0
 47
0.1
 48
0.1
140
3.2
141
0.0
142
0.0
143
0.0393701
144
1.0
145
0.0
146
0.71
147
1.5
 71
     0
 72
     0
 73
     0
 74
     1
 75
     0
 76
     0
 77
     3
 78
     8
170
     0
171
     2
172
     0
173
     0
174
     0
175
     0
176
   256
177
   256
178
     2
270
     2
271
     2
272
     3
273
     2
274
     2
340
6B
275
     0
280
     0
281
     0
282
     0
283
     0
284
     0
285
     0
286
     0
287
     0
288
     1
  0
DIMSTYLE
105
61
330
A
100
AcDbSymbolTableRecord
100
AcDbDimStyleTableRecord
  2
AM_JIS$6
 70
     0
  3

  4
"
  5
OPEN30
  6

  7

 40
1.0
 41
2.5
 42
1.0
 43
10.0
 44
1.0
 45
0.0
 46
0.0
 47
0.1
 48
0.1
140
3.2
141
0.0
142
0.0
143
0.0393701
144
1.0
145
0.0
146
0.71
147
1.5
 71
     0
 72
     0
 73
     0
 74
     0
 75
     0
 76
     0
 77
     0
 78
     8
170
     0
171
     2
172
     1
173
     0
174
     0
175
     0
176
   256
177
   256
178
     2
270
     2
271
     2
272
     2
273
     2
274
     2
340
6B
275
     0
280
     0
281
     0
282
     0
283
     0
284
     0
285
     0
286
     0
287
     3
288
     0
  0
DIMSTYLE
105
62
330
A
100
AcDbSymbolTableRecord
100
AcDbDimStyleTableRecord
  2
AM_JIS$7
 70
     0
  3

  4
"
  5
OPEN30
  6

  7

 40
1.0
 41
2.5
 42
1.0
 43
10.0
 44
1.0
 45
0.0
 46
0.0
 47
0.1
 48
0.1
140
3.2
141
0.0
142
0.0
143
0.0393701
144
1.0
145
0.0
146
0.71
147
1.5
 71
     0
 72
     0
 73
     0
 74
     0
 75
     0
 76
     0
 77
     3
 78
     8
170
     0
171
     2
172
     1
173
     0
174
     0
175
     0
176
   256
177
   256
178
     2
270
     2
271
     2
272
     3
273
     2
274
     2
340
6B
275
     0
280
     0
281
     0
282
     0
283
     0
284
     0
285
     0
286
     0
287
     3
288
     0
  0
DIMSTYLE
105
63
330
A
100
AcDbSymbolTableRecord
100
AcDbDimStyleTableRecord
  2
AM_JIS$SF
 70
     0
  3

  4
"
  5
OPEN30
  6

  7

 40
1.0
 41
2.5
 42
1.0
 43
10.0
 44
1.0
 45
0.0
 46
0.0
 47
0.1
 48
0.1
140
3.2
141
0.0
142
0.0
143
0.0393701
144
1.0
145
0.0
146
0.71
147
1.5
 71
     0
 72
     0
 73
     0
 74
     0
 75
     1
 76
     1
 77
     3
 78
     8
170
     0
171
     2
172
     1
173
     0
174
     0
175
     0
176
   256
177
   256
178
     2
270
     2
271
     2
272
     2
273
     2
274
     2
340
6B
275
     0
280
     0
281
     0
282
     0
283
     0
284
     0
285
     0
286
     0
287
     3
288
     0
  0
DIMSTYLE
105
68
330
A
100
AcDbSymbolTableRecord
100
AcDbDimStyleTableRecord
  2
AM_JIS$SH
 70
     0
  3

  4
"
  5

  6
GENAXEH
  7
OPEN30
 40
1.0
 41
2.5
 42
1.0
 43
10.0
 44
1.0
 45
0.0
 46
0.0
 47
0.1
 48
0.1
140
3.2
141
0.0
142
0.0
143
0.0393701
144
2.0
145
0.0
146
0.71
147
1.5
 71
     0
 72
     0
 73
     0
 74
     0
 75
     1
 76
     1
 77
     3
 78
     8
170
     0
171
     2
172
     1
173
     1
174
     0
175
     0
176
   256
177
   256
178
     2
270
     2
271
     2
272
     2
273
     2
274
     2
340
6B
275
     0
280
     0
281
     0
282
     0
283
     0
284
     0
285
     0
286
     0
287
     3
288
     0
  0
DIMSTYLE
105
B34
102
{ACAD_REACTORS
330
42FB
102
}
330
A
100
AcDbSymbolTableRecord
100
AcDbDimStyleTableRecord
  2
AM_JIS$2
 70
     0
  3

  4
"
  5
OPEN30
  6

  7

 40
1.0
 41
2.5
 42
1.0
 43
12.0
 44
1.0
 45
0.0
 46
0.0
 47
0.1
 48
0.1
140
3.2
141
0.0
142
0.0
143
0.0393701
144
1.0
145
0.0
146
0.71
147
1.5
 71
     0
 72
     0
 73
     0
 74
     0
 75
     0
 76
     0
 77
     3
 78
     8
170
     0
171
     2
172
     1
173
     0
174
     0
175
     0
176
   256
177
   256
178
     2
270
     2
271
     3
272
     3
273
     2
274
     2
340
6B
275
     0
280
     0
281
     0
282
     0
283
     0
284
     0
285
     0
286
     0
287
     3
288
     0
  0
DIMSTYLE
105
BA5
102
{ACAD_REACTORS
330
CC6
330
DF5
330
1FB6
330
2216
102
}
330
A
100
AcDbSymbolTableRecord
100
AcDbDimStyleTableRecord
  2
AM_JIS$0
 70
     0
  3

  4
"
  5
OPEN30
  6

  7

 40
1.0
 41
2.5
 42
0.0
 43
10.0
 44
1.0
 45
0.0
 46
0.0
 47
0.1
 48
0.1000000001
140
3.799999999999999
141
0.0
142
0.0
143
0.0393701
144
1.0
145
0.0
146
0.71
147
1.5
 71
     0
 72
     0
 73
     0
 74
     0
 75
     0
 76
     0
 77
     3
 78
     1
170
     0
171
     2
172
     1
173
     0
174
     0
175
     0
176
     3
177
     3
178
     2
270
     2
271
     2
272
     2
273
     2
274
     2
340
11
275
     1
280
     0
281
     0
282
     0
283
     0
284
     8
285
     0
286
     0
287
     0
288
     0
  0
ENDTAB
  0
TABLE
  2
BLOCK_RECORD
  5
1
330
0
100
AcDbSymbolTable
 70
    10
  0
BLOCK_RECORD
  5
1F
102
{ACAD_XDICTIONARY
360
74
102
}
330
1
100
AcDbSymbolTableRecord
100
AcDbBlockTableRecord
  2
*MODEL_SPACE
  0
BLOCK_RECORD
  5
101
102
{ACAD_XDICTIONARY
360
4458
102
}
330
1
100
AcDbSymbolTableRecord
100
AcDbBlockTableRecord
  2
*PAPER_SPACE
  0
BLOCK_RECORD
  5
59
330
1
100
AcDbSymbolTableRecord
100
AcDbBlockTableRecord
  2
_OPEN30
  0
BLOCK_RECORD
  5
64
330
1
100
AcDbSymbolTableRecord
100
AcDbBlockTableRecord
  2
GENAXEH
  0
BLOCK_RECORD
  5
CC8
330
1
100
AcDbSymbolTableRecord
100
AcDbBlockTableRecord
  2
*D5
  0
BLOCK_RECORD
  5
DF6
330
1
100
AcDbSymbolTableRecord
100
AcDbBlockTableRecord
  2
*D6
  0
BLOCK_RECORD
  5
1FB7
330
1
100
AcDbSymbolTableRecord
100
AcDbBlockTableRecord
  2
*D7
  0
BLOCK_RECORD
  5
2217
330
1
100
AcDbSymbolTableRecord
100
AcDbBlockTableRecord
  2
*D8
  0
BLOCK_RECORD
  5
42FC
330
1
100
AcDbSymbolTableRecord
100
AcDbBlockTableRecord
  2
*D9
  0
ENDTAB
  0
ENDSEC
  0
SECTION
  2
BLOCKS
  0
BLOCK
  5
20
330
1F
100
AcDbEntity
  8
0
100
AcDbBlockBegin
  2
*MODEL_SPACE
 70
     0
 10
0.0
 20
0.0
 30
0.0
  3
*MODEL_SPACE
  1

  0
ENDBLK
  5
21
330
1F
100
AcDbEntity
  8
0
100
AcDbBlockEnd
  0
BLOCK
  5
103
330
101
100
AcDbEntity
 67
     1
  8
0
100
AcDbBlockBegin
  2
*PAPER_SPACE
 70
     0
 10
0.0
 20
0.0
 30
0.0
  3
*PAPER_SPACE
  1

  0
ENDBLK
  5
104
330
101
100
AcDbEntity
 67
     1
  8
0
100
AcDbBlockEnd
  0
BLOCK
  5
5D
330
59
100
AcDbEntity
  8
0
100
AcDbBlockBegin
  2
_OPEN30
 70
     0
 10
0.0
 20
0.0
 30
0.0
  3
_OPEN30
  1

  0
LINE
  5
5A
330
59
100
AcDbEntity
  8
0
 62
     0
100
AcDbLine
 10
-1.0
 20
0.26794919
 30
0.0
 11
0.0
 21
0.0
 31
0.0
  0
LINE
  5
5B
330
59
100
AcDbEntity
  8
0
 62
     0
100
AcDbLine
 10
0.0
 20
0.0
 30
0.0
 11
-1.0
 21
-0.26794919
 31
0.0
  0
LINE
  5
5C
330
59
100
AcDbEntity
  8
0
 62
     0
100
AcDbLine
 10
0.0
 20
0.0
 30
0.0
 11
-1.0
 21
0.0
 31
0.0
  0
ENDBLK
  5
5E
330
59
100
AcDbEntity
  8
0
100
AcDbBlockEnd
  0
BLOCK
  5
66
330
64
100
AcDbEntity
  8
0
100
AcDbBlockBegin
  2
GENAXEH
 70
     0
 10
0.0
 20
0.0
 30
0.0
  3
GENAXEH
  1

  0
LINE
  5
65
330
64
100
AcDbEntity
  8
0
100
AcDbLine
 10
-1.0
 20
0.0
 30
0.0
 11
1.0
 21
0.0
 31
0.0
  0
ENDBLK
  5
67
330
64
100
AcDbEntity
  8
0
100
AcDbBlockEnd
  0
BLOCK
  5
CD2
330
CC8
100
AcDbEntity
  8
0
100
AcDbBlockBegin
  2
*D5
 70
     1
 10
0.0
 20
0.0
 30
0.0
  3
*D5
  1

  0
LINE
  5
42C8
330
CC8
100
AcDbEntity
  8
AM_5
 62
     3
100
AcDbLine
 10
-196.9999999999999
 20
-7.500002054481023
 30
0.0
 11
-196.9999999999999
 21
-33.00000305448085
 31
0.0
  0
LINE
  5
42C9
330
CC8
100
AcDbEntity
  8
AM_5
 62
     3
100
AcDbLine
 10
-2.999999999999367
 20
-7.700000671831665
 30
0.0
 11
-2.999999999999369
 21
-33.00000305448085
 31
0.0
  0
LINE
  5
42CA
330
CC8
100
AcDbEntity
  8
AM_5
 62
     3
100
AcDbLine
 10
-194.4999999999999
 20
-32.00000305448085
 30
0.0
 11
-5.499999999999369
 21
-32.00000305448085
 31
0.0
  0
INSERT
  5
42CB
330
CC8
100
AcDbEntity
  8
AM_5
 62
     3
100
AcDbBlockReference
  2
_OPEN30
 10
-196.9999999999999
 20
-32.00000305448085
 30
0.0
 41
2.5
 42
2.5
 43
2.5
 50
180.0
  0
INSERT
  5
42CC
330
CC8
100
AcDbEntity
  8
AM_5
 62
     3
100
AcDbBlockReference
  2
_OPEN30
 10
-2.999999999999369
 20
-32.00000305448085
 30
0.0
 41
2.5
 42
2.5
 43
2.5
  0
MTEXT
  5
42CD
330
CC8
100
AcDbEntity
  8
AM_5
 62
     2
100
AcDbMText
 10
-99.99999999999964
 20
-28.60000305448085
 30
0.0
 40
3.799999999999999
 41
0.0
 71
     5
 72
     1
  1
194
1001
ACAD
1000
MTEXTBEGIN
1070
    73
1070
     1
1070
    44
1040
1.0
1070
    74
1070
     0
1000
MTEXTEND
  0
POINT
  5
42CE
330
CC8
100
AcDbEntity
  8
DEFPOINTS
 62
     0
100
AcDbPoint
 10
-196.9999999999999
 20
-7.500002054481023
 30
0.0
  0
POINT
  5
42CF
330
CC8
100
AcDbEntity
  8
DEFPOINTS
 62
     0
100
AcDbPoint
 10
-2.999999999999367
 20
-7.700000671831665
 30
0.0
  0
POINT
  5
42D0
330
CC8
100
AcDbEntity
  8
DEFPOINTS
 62
     0
100
AcDbPoint
 10
-2.999999999999369
 20
-32.00000305448085
 30
0.0
  0
ENDBLK
  5
CD3
330
CC8
100
AcDbEntity
  8
0
100
AcDbBlockEnd
  0
BLOCK
  5
E00
330
DF6
100
AcDbEntity
  8
0
100
AcDbBlockBegin
  2
*D6
 70
     1
 10
0.0
 20
0.0
 30
0.0
  3
*D6
  1

  0
LINE
  5
42BF
330
DF6
100
AcDbEntity
  8
AM_5
 62
     3
100
AcDbLine
 10
-130.9999807595528
 20
-8.000002054480997
 30
0.0
 11
-130.9999807595528
 21
-23.00000305448071
 31
0.0
  0
LINE
  5
42C0
330
DF6
100
AcDbEntity
  8
AM_5
 62
     3
100
AcDbLine
 10
-2.999999999999356
 20
-7.700000671831649
 30
0.0
 11
-2.999999999999357
 21
-23.00000305448071
 31
0.0
  0
LINE
  5
42C1
330
DF6
100
AcDbEntity
  8
AM_5
 62
     3
100
AcDbLine
 10
-128.4999807595528
 20
-22.00000305448071
 30
0.0
 11
-5.499999999999357
 21
-22.00000305448071
 31
0.0
  0
INSERT
  5
42C2
330
DF6
100
AcDbEntity
  8
AM_5
 62
     3
100
AcDbBlockReference
  2
_OPEN30
 10
-130.9999807595528
 20
-22.00000305448071
 30
0.0
 41
2.5
 42
2.5
 43
2.5
 50
180.0
  0
INSERT
  5
42C3
330
DF6
100
AcDbEntity
  8
AM_5
 62
     3
100
AcDbBlockReference
  2
_OPEN30
 10
-2.999999999999357
 20
-22.00000305448071
 30
0.0
 41
2.5
 42
2.5
 43
2.5
  0
MTEXT
  5
42C4
330
DF6
100
AcDbEntity
  8
AM_5
 62
     2
100
AcDbMText
 10
-66.99999037977609
 20
-18.60000305448071
 30
0.0
 40
3.799999999999999
 41
0.0
 71
     5
 72
     1
  1
128
1001
ACAD
1000
MTEXTBEGIN
1070
    73
1070
     1
1070
    44
1040
1.0
1070
    74
1070
     0
1000
MTEXTEND
  0
POINT
  5
42C5
330
DF6
100
AcDbEntity
  8
DEFPOINTS
 62
     0
100
AcDbPoint
 10
-130.9999807595528
 20
-8.000002054480997
 30
0.0
  0
POINT
  5
42C6
330
DF6
100
AcDbEntity
  8
DEFPOINTS
 62
     0
100
AcDbPoint
 10
-2.999999999999356
 20
-7.700000671831649
 30
0.0
  0
POINT
  5
42C7
330
DF6
100
AcDbEntity
  8
DEFPOINTS
 62
     0
100
AcDbPoint
 10
-2.999999999999357
 20
-22.00000305448071
 30
0.0
  0
ENDBLK
  5
E01
330
DF6
100
AcDbEntity
  8
0
100
AcDbBlockEnd
  0
BLOCK
  5
1FC3
330
1FB7
100
AcDbEntity
  8
0
100
AcDbBlockBegin
  2
*D7
 70
     1
 10
0.0
 20
0.0
 30
0.0
  3
*D7
  1

  0
LINE
  5
42E5
330
1FB7
100
AcDbEntity
  8
AM_5
 62
     3
100
AcDbLine
 10
-2.999999999999356
 20
-7.700000671831649
 30
0.0
 11
15.55592102485808
 21
-7.700000671831654
 31
0.0
  0
LINE
  5
42E6
330
1FB7
100
AcDbEntity
  8
AM_5
 62
     3
100
AcDbLine
 10
-2.999999999999237
 20
7.699999328167983
 30
0.0
 11
15.55592102485809
 21
7.699999328167978
 31
0.0
  0
LINE
  5
42E7
330
1FB7
100
AcDbEntity
  8
AM_5
 62
     3
100
AcDbLine
 10
14.55592102485808
 20
-5.200000671831654
 30
0.0
 11
14.55592102485809
 21
5.199999328167978
 31
0.0
  0
INSERT
  5
42E8
330
1FB7
100
AcDbEntity
  8
AM_5
 62
     3
100
AcDbBlockReference
  2
_OPEN30
 10
14.55592102485808
 20
-7.700000671831654
 30
0.0
 41
2.5
 42
2.5
 43
2.5
 50
270.0
  0
INSERT
  5
42E9
330
1FB7
100
AcDbEntity
  8
AM_5
 62
     3
100
AcDbBlockReference
  2
_OPEN30
 10
14.55592102485809
 20
7.699999328167978
 30
0.0
 41
2.5
 42
2.5
 43
2.5
 50
90.0
  0
MTEXT
  5
42EA
330
1FB7
100
AcDbEntity
  8
AM_5
 62
     2
100
AcDbMText
 10
11.15592102485808
 20
-0.0000006718318351
 30
0.0
 40
3.799999999999999
 41
0.0
 71
     5
 72
     1
  1
%%c15.4
 11
0.0000000000000001
 21
1.0
 31
0.0
1001
ACAD
1000
MTEXTBEGIN
1070
    73
1070
     1
1070
    44
1040
1.0
1070
    74
1070
     0
1000
MTEXTEND
  0
POINT
  5
42EB
330
1FB7
100
AcDbEntity
  8
DEFPOINTS
 62
     0
100
AcDbPoint
 10
-2.999999999999356
 20
-7.700000671831649
 30
0.0
  0
POINT
  5
42EC
330
1FB7
100
AcDbEntity
  8
DEFPOINTS
 62
     0
100
AcDbPoint
 10
-2.999999999999237
 20
7.699999328167983
 30
0.0
  0
POINT
  5
42ED
330
1FB7
100
AcDbEntity
  8
DEFPOINTS
 62
     0
100
AcDbPoint
 10
14.55592102485809
 20
7.699999328167978
 30
0.0
  0
ENDBLK
  5
1FC4
330
1FB7
100
AcDbEntity
  8
0
100
AcDbBlockEnd
  0
BLOCK
  5
2221
330
2217
100
AcDbEntity
  8
0
100
AcDbBlockBegin
  2
*D8
 70
     1
 10
0.0
 20
0.0
 30
0.0
  3
*D8
  1

  0
LINE
  5
42D1
330
2217
100
AcDbEntity
  8
AM_5
 62
     3
100
AcDbLine
 10
-196.5000000000004
 20
7.999999999998714
 30
0.0
 11
-214.0000009999999
 21
7.999999999998665
 31
0.0
  0
LINE
  5
42D2
330
2217
100
AcDbEntity
  8
AM_5
 62
     3
100
AcDbLine
 10
-196.5000000000004
 20
-8.000002054481122
 30
0.0
 11
-214.0000009999998
 21
-8.000002054481171
 31
0.0
  0
LINE
  5
42D3
330
2217
100
AcDbEntity
  8
AM_5
 62
     3
100
AcDbLine
 10
-213.0000009999999
 20
5.499999999998668
 30
0.0
 11
-213.0000009999998
 21
-5.500002054481168
 31
0.0
  0
INSERT
  5
42D4
330
2217
100
AcDbEntity
  8
AM_5
 62
     3
100
AcDbBlockReference
  2
_OPEN30
 10
-213.0000009999999
 20
7.999999999998668
 30
0.0
 41
2.5
 42
2.5
 43
2.5
 50
90.00000000000017
  0
INSERT
  5
42D5
330
2217
100
AcDbEntity
  8
AM_5
 62
     3
100
AcDbBlockReference
  2
_OPEN30
 10
-213.0000009999998
 20
-8.000002054481168
 30
0.0
 41
2.5
 42
2.5
 43
2.5
 50
270.0000000000001
  0
MTEXT
  5
42D6
330
2217
100
AcDbEntity
  8
AM_5
 62
     2
100
AcDbMText
 10
-216.4000009999999
 20
-0.0000010272412514
 30
0.0
 40
3.799999999999999
 41
0.0
 71
     5
 72
     1
  1
%%c16
 11
-0.0000000000000028
 21
1.0
 31
0.0
1001
ACAD
1000
MTEXTBEGIN
1070
    73
1070
     1
1070
    44
1040
1.0
1070
    74
1070
     0
1000
MTEXTEND
  0
POINT
  5
42D7
330
2217
100
AcDbEntity
  8
DEFPOINTS
 62
     0
100
AcDbPoint
 10
-196.5000000000004
 20
7.999999999999325
 30
0.0
  0
POINT
  5
42D8
330
2217
100
AcDbEntity
  8
DEFPOINTS
 62
     0
100
AcDbPoint
 10
-196.5000000000004
 20
-8.000002054480511
 30
0.0
  0
POINT
  5
42D9
330
2217
100
AcDbEntity
  8
DEFPOINTS
 62
     0
100
AcDbPoint
 10
-213.0000009999998
 20
-8.000002054480505
 30
0.0
  0
ENDBLK
  5
2222
330
2217
100
AcDbEntity
  8
0
100
AcDbBlockEnd
  0
BLOCK
  5
430A
330
42FC
100
AcDbEntity
  8
0
100
AcDbBlockBegin
  2
*D9
 70
     1
 10
0.0
 20
0.0
 30
0.0
  3
*D9
  1

  0
LINE
  5
445A
330
42FC
100
AcDbEntity
  8
AM_5
100
AcDbLine
 10
0.3420201408161978
 20
-0.9396926216991563
 30
0.0
 11
8.569110203952034
 21
-23.5434369858075
 31
0.0
  0
LINE
  5
445B
330
42FC
100
AcDbEntity
  8
AM_5
100
AcDbLine
 10
0.3420224212244416
 20
0.9396917916956086
 30
0.0
 11
8.569167338217592
 21
23.54341619055744
 31
0.0
  0
ARC
  5
445C
330
42FC
100
AcDbEntity
  8
AM_5
100
AcDbCircle
 10
0.0000000000000549
 20
0.0000000000001509
 30
0.0
 40
24.05440230363058
100
AcDbArc
 50
295.9574954087234
 51
64.04236554812285
  0
INSERT
  5
445D
330
42FC
100
AcDbEntity
  8
AM_5
100
AcDbBlockReference
  2
_OPEN30
 10
8.227090063135895
 20
-22.6037443641082
 30
0.0
 41
2.5
 42
2.5
 43
2.5
 50
202.9787476278551
  0
INSERT
  5
445E
330
42FC
100
AcDbEntity
  8
AM_5
100
AcDbBlockReference
  2
_OPEN30
 10
8.227144916993207
 20
22.60372439886199
 30
0.0
 41
2.5
 42
2.5
 43
2.5
 50
157.0211133289911
  0
MTEXT
  5
445F
330
42FC
100
AcDbEntity
  8
AM_5
 62
     2
100
AcDbMText
 10
20.95440230361521
 20
-0.0000254256612646
 30
0.0
 40
3.2
 41
0.0
 71
     5
 72
     1
  1
140°
  7
ASAMI
 11
0.0000012133804173
 21
0.999999999999264
 31
0.0
  0
POINT
  5
4460
330
42FC
100
AcDbEntity
  8
DEFPOINTS
 62
     0
100
AcDbPoint
 10
22.08713192112582
 20
-9.52747992302754
 30
0.0
  0
POINT
  5
4461
330
42FC
100
AcDbEntity
  8
DEFPOINTS
 62
     0
100
AcDbPoint
 10
0.0000000000000568
 20
0.0000000000001562
 30
0.0
  0
POINT
  5
4462
330
42FC
100
AcDbEntity
  8
DEFPOINTS
 62
     0
100
AcDbPoint
 10
0.0000000000000568
 20
0.0000000000001457
 30
0.0
  0
POINT
  5
4463
330
42FC
100
AcDbEntity
  8
DEFPOINTS
 62
     0
100
AcDbPoint
 10
-0.6568967178321655
 20
1.804808914154893
 30
0.0
  0
POINT
  5
4464
330
42FC
100
AcDbEntity
  8
DEFPOINTS
 62
     0
100
AcDbPoint
 10
-0.6569101001225143
 20
-1.804832053866967
 30
0.0
  0
ENDBLK
  5
430B
330
42FC
100
AcDbEntity
  8
0
100
AcDbBlockEnd
  0
ENDSEC
  0
SECTION
  2
ENTITIES
  0
LINE
  5
C9F
330
1F
100
AcDbEntity
  8
AM_7
100
AcDbLine
 10
-198.9999999999999
 20
-0.0000000000002194
 30
0.0
 11
0.5559200248581107
 21
0.0000000000001572
 31
0.0
1001
GENIUS_GENODEF_13
1002
{
1000
HIER
1070
     0
1002
}
1002
{
1000
MANEDIT
1070
     0
1002
}
1002
{
1000
NOSEL
1070
     0
1002
}
1002
{
1000
BEHIND
1070
     0
1002
}
1002
{
1000
REACTOR
1002
}
1001
GENIUS_GENOBJ-N-CEN_13
1002
{
1000
OWNER
1000
GEN
1002
}
  0
DIMENSION
  5
CC6
330
1F
100
AcDbEntity
  8
AM_5
100
AcDbDimension
  2
*D5
 10
-2.999999999999369
 20
-32.00000305448085
 30
0.0
 11
-99.99999999999964
 21
-28.60000305448085
 31
0.0
 70
    32
  1
<>
  3
AM_JIS$0
100
AcDbAlignedDimension
 13
-196.9999999999999
 23
-7.500002054481023
 33
0.0
 14
-2.999999999999367
 24
-7.700000671831665
 34
0.0
 50
0.0000000000001132
100
AcDbRotatedDimension
1001
GENIUS_GENDTOL_13
1000

1000
h7
1000

1040
0.0
1001
ACAD
1000
DSTYLE
1002
{
1070
   271
1070
     0
1002
}
  0
DIMENSION
  5
DF5
330
1F
100
AcDbEntity
  8
AM_5
100
AcDbDimension
  2
*D6
 10
-2.999999999999357
 20
-22.00000305448071
 30
0.0
 11
-66.99999037977609
 21
-18.60000305448071
 31
0.0
 70
    32
  1
<>
  3
AM_JIS$0
100
AcDbAlignedDimension
 13
-130.9999807595528
 23
-8.000002054480997
 33
0.0
 14
-2.999999999999356
 24
-7.700000671831649
 34
0.0
 50
0.0000000000001527
100
AcDbRotatedDimension
1001
GENIUS_GENDTOL_13
1000

1000
h7
1000

1040
0.0
1001
ACAD
1000
DSTYLE
1002
{
1070
   271
1070
     0
1002
}
  0
TEXT
  5
19BD
330
1F
100
AcDbEntity
  8
AM_6
100
AcDbText
 10
-121.1904761904757
 20
-54.50000305448091
 30
0.0
 40
5.0
  1
MDW154LHK
 50
0.0000000000001527
 72
     4
 11
-99.99999999999953
 21
-52.00000305448085
 31
0.0
100
AcDbText
  0
LINE
  5
1E25
330
1F
100
AcDbEntity
  8
AM_0
100
AcDbLine
 10
-130.9999807595529
 20
-8.000002054481056
 30
0.0
 11
-130.4799871638273
 21
-7.69978361201195
 31
0.0
  0
LINE
  5
1E26
330
1F
100
AcDbEntity
  8
AM_0
100
AcDbLine
 10
-130.4803643536436
 20
7.699999328172676
 30
0.0
 11
-130.9999999999999
 21
8.000011108477012
 31
0.0
  0
DIMENSION
  5
1FB6
330
1F
100
AcDbEntity
  8
AM_5
100
AcDbDimension
  2
*D7
 10
14.55592102485809
 20
7.699999328167978
 30
0.0
 11
14.55592102485808
 21
-0.0000006718318355
 31
0.0
 70
   160
  1
%%c<>
  3
AM_JIS$0
100
AcDbAlignedDimension
 13
-2.999999999999356
 23
-7.700000671831649
 33
0.0
 14
-2.999999999999237
 24
7.699999328167983
 34
0.0
 50
89.99999999999969
100
AcDbRotatedDimension
1001
ACAD
1000
DSTYLE
1002
{
1070
   271
1070
     1
1002
}
1001
GENIUS_GENDTOL_13
1000

1000
h7
1000

1040
0.0
  0
LINE
  5
1FD9
330
1F
100
AcDbEntity
  8
AM_0
100
AcDbLine
 10
-130.4803588229262
 20
-7.699998189492757
 30
0.0
 11
-130.4803643536436
 21
7.699999328172689
 31
0.0
  0
LINE
  5
21D7
330
1F
100
AcDbEntity
  8
AM_0
 48
0.5
100
AcDbLine
 10
-130.9999807595529
 20
-8.000002054480997
 30
0.0
 11
-130.9999807595529
 21
7.999999999999832
 31
0.0
  0
LINE
  5
21D8
330
1F
100
AcDbEntity
  8
AM_0
 48
0.5
100
AcDbLine
 10
-196.4999999999999
 20
7.99999999999978
 30
0.0
 11
-130.999980759553
 21
7.999999999999833
 31
0.0
1001
GENIUS_GENODEF_13
1002
{
1000
HIER
1070
     0
1002
}
1002
{
1000
MANEDIT
1070
     0
1002
}
1002
{
1000
NOSEL
1070
     0
1002
}
1002
{
1000
BEHIND
1070
     0
1002
}
1002
{
1000
REACTOR
1002
}
1001
GENIUS_GENOBJ-N-CEN_13
1002
{
1000
OWNER
1000
GEN
1002
}
  0
LINE
  5
21D9
330
1F
100
AcDbEntity
  8
AM_0
 48
0.5
100
AcDbLine
 10
-196.4999999999998
 20
-8.000002054481051
 30
0.0
 11
-130.9999807595529
 21
-8.000002054480997
 31
0.0
1001
GENIUS_GENODEF_13
1002
{
1000
HIER
1070
     0
1002
}
1002
{
1000
MANEDIT
1070
     0
1002
}
1002
{
1000
NOSEL
1070
     0
1002
}
1002
{
1000
BEHIND
1070
     0
1002
}
1002
{
1000
REACTOR
1002
}
1001
GENIUS_GENOBJ-N-CEN_13
1002
{
1000
OWNER
1000
GEN
1002
}
  0
LINE
  5
21DC
330
1F
100
AcDbEntity
  8
AM_0
100
AcDbLine
 10
-196.5000000000004
 20
-8.000002054481051
 30
0.0
 11
-196.5000000000003
 21
7.999999999999781
 31
0.0
  0
LINE
  5
21DD
330
1F
100
AcDbEntity
  8
AM_0
 48
0.5
100
AcDbLine
 10
-196.9999999999998
 20
-7.500002054481051
 30
0.0
 11
-196.9999999999999
 21
7.49999999999978
 31
0.0
  0
DIMENSION
  5
2216
330
1F
100
AcDbEntity
  8
AM_5
100
AcDbDimension
  2
*D8
 10
-213.0000009999998
 20
-8.000002054480505
 30
0.0
 11
-216.4000009999999
 21
-0.0000010272406218
 31
0.0
 70
    32
  1
%%c<>
 51
359.9999999999998
  3
AM_JIS$0
100
AcDbAlignedDimension
 13
-196.5000000000004
 23
7.999999999999325
 33
0.0
 14
-196.5000000000004
 24
-8.000002054480511
 34
0.0
 50
269.9999999999999
100
AcDbRotatedDimension
1001
ACAD
1000
DSTYLE
1002
{
1070
   271
1070
     0
1002
}
1001
GENIUS_GENDTOL_13
1000

1000
h7
1000

1040
0.0
  0
ELLIPSE
  5
2694
330
1F
100
AcDbEntity
  8
AM_0
 48
0.5
100
AcDbEllipse
 10
9.217248688528284
 20
7.401657934614945
 30
0.0
 11
11.3780264168592
 21
0.0000000000011224
 31
0.0
210
0.0
220
0.0
230
1.0
 40
0.9899999999999971
 41
3.323896559076802
 42
3.661579236128986
  0
LINE
  5
2695
330
1F
100
AcDbEntity
  8
AM_0
 48
0.5
100
AcDbLine
 10
-1.97222807005761
 20
5.35949765170934
 30
0.0
 11
-2.999999999999237
 21
7.699999328167983
 31
0.0
  0
LINE
  5
2696
330
1F
100
AcDbEntity
  8
AM_0
 48
0.5
100
AcDbLine
 10
0.0000000000000568
 20
0.0000000000001457
 30
0.0
 11
-0.6568967178321654
 21
1.804808914154893
 31
0.0
  0
LINE
  5
2699
330
1F
100
AcDbEntity
  8
AM_0
 48
0.5
100
AcDbLine
 10
0.0000000000000568
 20
0.0000000000001562
 30
0.0
 11
-0.6569101001225142
 21
-1.804832053866967
 31
0.0
  0
ELLIPSE
  5
3366
330
1F
100
AcDbEntity
  8
AM_0
 48
0.5
100
AcDbEllipse
 10
9.217248688528307
 20
-7.401657934614608
 30
0.0
 11
11.3780264168592
 21
-0.0000000000010845
 31
0.0
210
0.0
220
0.0
230
-1.0
 40
0.9899999999999971
 41
3.323896559076802
 42
3.661579236128986
  0
LINE
  5
3367
330
1F
100
AcDbEntity
  8
AM_0
 48
0.5
100
AcDbLine
 10
-1.972228070057594
 20
-5.359497651709048
 30
0.0
 11
-2.999999999999356
 21
-7.700000671831649
 31
0.0
  0
LINE
  5
3F18
330
1F
100
AcDbEntity
  8
AM_0
 48
0.5
100
AcDbLine
 10
-196.4999999999999
 20
7.99999999999978
 30
0.0
 11
-196.9999999999999
 21
7.49999999999978
 31
0.0
1001
GENIUS_GENFIL_13
1070
     0
1040
0.5
1040
0.5
1040
20.0
1040
0.0
1002
{
1002
}
1001
GENIUS_GENODEF_13
1002
{
1000
HIER
1070
     0
1002
}
1002
{
1000
MANEDIT
1070
     0
1002
}
1002
{
1000
NOSEL
1070
     0
1002
}
1002
{
1000
BEHIND
1070
     0
1002
}
1002
{
1000
REACTOR
1002
}
1001
GENIUS_GENOBJ-N-CHA_13
1002
{
1000
OWNER
1000
GEN
1002
}
  0
LINE
  5
3F1B
330
1F
100
AcDbEntity
  8
AM_0
 48
0.5
100
AcDbLine
 10
-196.9999999999998
 20
-7.500002054481051
 30
0.0
 11
-196.4999999999998
 21
-8.000002054481051
 31
0.0
1001
GENIUS_GENFIL_13
1070
     0
1040
0.5
1040
0.5
1040
20.0
1040
0.0
1002
{
1002
}
1001
GENIUS_GENODEF_13
1002
{
1000
HIER
1070
     0
1002
}
1002
{
1000
MANEDIT
1070
     0
1002
}
1002
{
1000
NOSEL
1070
     0
1002
}
1002
{
1000
BEHIND
1070
     0
1002
}
1002
{
1000
REACTOR
1002
}
1001
GENIUS_GENOBJ-N-CHA_13
1002
{
1000
OWNER
1000
GEN
1002
}
  0
LINE
  5
424A
330
1F
100
AcDbEntity
  8
AM_0
 48
0.5
100
AcDbLine
 10
0.000000000000055
 20
0.0000000000001509
 30
0.0
 11
-5.75749208854454
 21
2.956565439414273
 31
0.0
  0
LINE
  5
424B
330
1F
100
AcDbEntity
  8
AM_0
100
AcDbLine
 10
-121.6265596992923
 20
7.699999328172267
 30
0.0
 11
-130.4803643536436
 21
7.699999328172674
 31
0.0
  0
LINE
  5
424C
330
1F
100
AcDbEntity
  8
AM_0
 48
0.5
100
AcDbLine
 10
-106.8824115391739
 20
4.333830026125811
 30
0.0
 11
-127.9999999999992
 21
-0.2487061705618403
 31
0.0
  0
LINE
  5
424D
330
1F
100
AcDbEntity
  8
AM_0
100
AcDbLine
 10
-125.1130662011779
 20
-7.700214854534292
 30
0.0
 11
-130.4799871638273
 21
-7.699783612011952
 31
0.0
  0
SPLINE
  5
424E
330
1F
100
AcDbEntity
  8
AM_0
 48
0.5
100
AcDbSpline
210
0.0
220
0.0
230
1.0
 70
     8
 71
     3
 72
    26
 73
    22
 74
     0
 42
0.0000000001
 43
0.0000000001
 40
0.0
 40
0.0
 40
0.0
 40
0.0
 40
0.4211432018735474
 40
0.8428473235286537
 40
1.265657898956934
 40
1.690088643751428
 40
2.116607084860617
 40
2.545625100287603
 40
2.977483884449724
 40
3.412450195918404
 40
3.850709593302191
 40
4.292362208965671
 40
4.737427885281768
 40
5.185826256336565
 40
5.637431371058531
 40
6.092003378174421
 40
6.549257520372505
 40
7.008843368271169
 40
7.470358728297647
 40
7.933358849736796
 40
8.383035712276667
 40
8.383035712276667
 40
8.383035712276667
 40
8.383035712276667
 10
-99.12762249193569
 20
-7.700391642250397
 30
0.0
 10
-99.61952824686827
 20
-7.695810328993916
 30
0.0
 10
-100.6039949250166
 20
-7.686641600639092
 30
0.0
 10
-102.0803366749819
 20
-7.612731350687103
 30
0.0
 10
-103.55661540977
 20
-7.495233377002494
 30
0.0
 10
-105.0328027612386
 20
-7.330555438985125
 30
0.0
 10
-106.5088840762832
 20
-7.120929497335017
 30
0.0
 10
-107.9848299456377
 20
-6.867286749362907
 30
0.0
 10
-109.460639387421
 20
-6.571340903888087
 30
0.0
 10
-110.9363023366454
 20
-6.234889386925731
 30
0.0
 10
-112.4118153047006
 20
-5.860019823923813
 30
0.0
 10
-113.8871904351135
 20
-5.449065434222902
 30
0.0
 10
-115.3624216144117
 20
-5.004563728714806
 30
0.0
 10
-116.8375255573795
 20
-4.529241391085824
 30
0.0
 10
-118.3125219871736
 20
-4.026076736336264
 30
0.0
 10
-119.7874140907068
 20
-3.498122090929022
 30
0.0
 10
-121.2622128625249
 20
-2.948657516225139
 30
0.0
 10
-122.736945385572
 20
-2.381073090020352
 30
0.0
 10
-124.2115872882561
 20
-1.798787039290441
 30
0.0
 10
-125.59082208942
 20
-1.211783478369969
 30
0.0
 10
-126.5197535819691
 20
-0.9797141836481284
 30
0.0
 10
-127.9999999999992
 20
-0.2487061705618403
 30
0.0
  0
ELLIPSE
  5
424F
330
1F
100
AcDbEntity
  8
AM_0
 48
0.5
100
AcDbEllipse
 10
-125.6976946691884
 20
-5.085141601807199
 30
0.0
 11
2.2706426586207
 21
0.4587860619619145
 31
0.0
210
0.0
220
0.0
230
1.0
 40
0.8396737132244508
 41
1.004231683806881
 42
2.947441619472673
  0
ELLIPSE
  5
4250
330
1F
100
AcDbEntity
  8
AM_0
 48
0.5
100
AcDbEllipse
 10
-125.0795646524146
 20
-5.133724975583106
 30
0.0
 11
-2.920696883020362
 21
0.0030374008823197
 31
0.0
210
0.0
220
0.0
230
0.9999999999999998
 40
0.8787851206956048
 41
0.0143276588302011
 42
1.571709911963103
  0
LINE
  5
4251
330
1F
100
AcDbEntity
  8
AM_0
 48
0.5
100
AcDbLine
 10
-8.720114055763295
 20
7.699999328168199
 30
0.0
 11
-2.999999999999237
 21
7.699999328167983
 31
0.0
  0
LINE
  5
4252
330
1F
100
AcDbEntity
  8
AM_0
 48
0.5
100
AcDbLine
 10
-8.72011405576384
 20
-7.700000671831808
 30
0.0
 11
-2.999999999999319
 21
-7.700000671831649
 31
0.0
  0
LINE
  5
4253
330
1F
100
AcDbEntity
  8
AM_11
 48
0.5
100
AcDbLine
 10
-31.53973782832383
 20
7.699999328169084
 30
0.0
 11
-8.720114055763295
 21
7.699999328168199
 31
0.0
  0
LINE
  5
4254
330
1F
100
AcDbEntity
  8
AM_11
 48
0.5
100
AcDbLine
 10
-31.5397378283244
 20
-7.700000671830904
 30
0.0
 11
-8.72011405576384
 21
-7.700000671831808
 31
0.0
  0
LINE
  5
4255
330
1F
100
AcDbEntity
  8
AM_11
 48
0.5
100
AcDbLine
 10
-71.7073785278646
 20
7.701093252911165
 30
0.0
 11
-57.14476950494047
 21
7.699999328170077
 31
0.0
  0
LINE
  5
4256
330
1F
100
AcDbEntity
  8
AM_11
 48
0.5
100
AcDbLine
 10
-74.66527693119613
 20
-7.700000671829389
 30
0.0
 11
-51.84565315863851
 21
-7.701094596570767
 31
0.0
  0
LINE
  5
4257
330
1F
100
AcDbEntity
  8
AM_0
 48
0.5
100
AcDbLine
 10
-57.14478915934821
 20
7.699999328170077
 30
0.0
 11
-31.53973782832383
 21
7.699999328169084
 31
0.0
  0
LINE
  5
4258
330
1F
100
AcDbEntity
  8
AM_0
 48
0.5
100
AcDbLine
 10
-51.84565315863849
 20
-7.700000671830279
 30
0.0
 11
-31.5397378283244
 21
-7.700000671830904
 31
0.0
  0
SPLINE
  5
4259
330
1F
100
AcDbEntity
  8
AM_0
100
AcDbSpline
210
0.0
220
0.0
230
1.0
 70
     8
 71
     3
 72
    23
 73
    19
 74
     0
 42
0.0000000001
 43
0.0000000001
 40
16.03460024169435
 40
16.03460024169435
 40
16.03460024169435
 40
16.03460024169435
 40
16.35212704903564
 40
17.38177054169784
 40
18.41822485651776
 40
19.46214173629503
 40
20.51396345435107
 40
21.57393551351153
 40
22.64208202342361
 40
23.7182574881101
 40
24.80209208578934
 40
25.89306333925047
 40
26.99048218457928
 40
28.09348763352352
 40
29.20111863782268
 40
30.31232390128032
 40
31.42594612798585
 40
32.5407912310448
 40
32.5407912310486
 40
32.5407912310486
 40
32.5407912310486
 10
-71.7073785278646
 20
7.701093252911161
 30
0.0
 10
-71.58292224432647
 20
7.675099408878195
 30
0.0
 10
-71.05542182663182
 20
7.561903534242219
 30
0.0
 10
-70.12622416007248
 20
7.340113493761374
 30
0.0
 10
-68.92291074938036
 20
7.010314129038625
 30
0.0
 10
-67.72071503278408
 20
6.640004414443612
 30
0.0
 10
-66.51956597158002
 20
6.231327513726775
 30
0.0
 10
-65.31942093485944
 20
5.786561809758671
 30
0.0
 10
-64.12021055711547
 20
5.308249770866726
 30
0.0
 10
-62.92185132989545
 20
4.799175053139527
 30
0.0
 10
-61.72427515812405
 20
4.262220517022624
 30
0.0
 10
-60.52738602777701
 20
3.700510575848461
 30
0.0
 10
-59.3310869443747
 20
3.117310130480999
 30
0.0
 10
-58.13529820192124
 20
2.515972338987804
 30
0.0
 10
-56.93991975022487
 20
1.899993898276549
 30
0.0
 10
-55.74484087192466
 20
1.272971670524037
 30
0.0
 10
-54.54996425386429
 20
0.6385390797484636
 30
0.0
 10
-53.75359380411925
 20
0.2131867180489599
 30
0.0
 10
-53.35519140411253
 20
0.0003909704207627
 30
0.0
  0
SPLINE
  5
425A
330
1F
100
AcDbEntity
  8
AM_0
100
AcDbSpline
210
0.0
220
0.0
230
1.0
 70
     8
 71
     3
 72
    11
 73
     7
 74
     0
 42
0.0000000001
 43
0.0000000001
 40
11.27226913003534
 40
11.27226913003534
 40
11.27226913003534
 40
11.2722691300354
 40
12.28301561507924
 40
13.29510212255852
 40
14.30984805882082
 40
15.18258238371378
 40
15.18258238371378
 40
15.18258238371378
 40
15.18258238371378
 10
-74.66527693119899
 20
-7.700000671829388
 30
0.0
 10
-75.06737074519175
 20
-7.662314634223985
 30
0.0
 10
-75.87079994778328
 20
-7.571078377344638
 30
0.0
 10
-77.07179499304918
 20
-7.387032279984372
 30
0.0
 10
-78.21156046784683
 20
-7.167209396555089
 30
0.0
 10
-78.9486938740548
 20
-6.998225003714306
 30
0.0
 10
-79.28838593748996
 20
-6.91475138116808
 30
0.0
  0
SPLINE
  5
425B
330
1F
100
AcDbEntity
  8
AM_0
100
AcDbSpline
210
0.0
220
0.0
230
1.0
 70
     8
 71
     3
 72
    17
 73
    13
 74
     0
 42
0.0000000001
 43
0.0000000001
 40
1.580019955310467
 40
1.580019955310467
 40
1.580019955310467
 40
1.580019955310467
 40
2.030549285115227
 40
3.082371838836284
 40
4.126290986361125
 40
5.162752068350215
 40
6.192395305374981
 40
7.216039564037012
 40
8.234688489606833
 40
9.249433870634691
 40
10.26152376260694
 40
11.27226744710342
 40
11.27226744710342
 40
11.27226744710342
 40
11.27226744710352
 10
-63.2545748582324
 20
-5.682827410575609
 30
0.0
 10
-63.42596749170252
 20
-5.74135580504515
 30
0.0
 10
-63.99847646893823
 20
-5.933190435503632
 30
0.0
 10
-64.97589126936443
 20
-6.234089917339934
 30
0.0
 10
-66.18656409304747
 20
-6.571057419949857
 30
0.0
 10
-67.39757021382541
 20
-6.866870147511643
 30
0.0
 10
-68.60863182248104
 20
-7.120534694401305
 30
0.0
 10
-69.81982537412846
 20
-7.330205892454569
 30
0.0
 10
-71.03110260366278
 20
-7.494687240596352
 30
0.0
 10
-72.24245525701363
 20
-7.612912844654585
 30
0.0
 10
-73.4538534895886
 20
-7.684121672686153
 30
0.0
 10
-74.26164832252519
 20
-7.700000715889209
 30
0.0
 10
-74.66527693119892
 20
-7.700000671829388
 30
0.0
  0
SPLINE
  5
425C
330
1F
100
AcDbEntity
  8
AM_0
 48
0.5
100
AcDbSpline
210
0.0
220
0.0
230
1.0
 70
     8
 71
     3
 72
    17
 73
    13
 74
     0
 42
0.0000000001
 43
0.0000000001
 40
0.0
 40
0.0
 40
0.0
 40
0.0
 40
1.010743614677189
 40
2.022833924044153
 40
3.037578959561199
 40
4.056212747067873
 40
5.079857613375832
 40
6.109500119648989
 40
7.14596120163808
 40
8.18989512056258
 40
9.241717674284874
 40
9.693948937866434
 40
9.693948937866434
 40
9.693948937866434
 40
9.693948937866434
 10
-8.720114055763296
 20
7.699999328168196
 30
0.0
 10
-9.123742743217679
 20
7.695421316229356
 30
0.0
 10
-9.931537904961992
 20
7.686259192699696
 30
0.0
 10
-11.142935142684
 20
7.612328720917722
 30
0.0
 10
-12.35428250788489
 20
7.494843172028846
 30
0.0
 10
-13.56555453758859
 20
7.330164953881636
 30
0.0
 10
-14.77673680589616
 20
7.12052748110984
 30
0.0
 10
-15.98781451941347
 20
6.866902708063407
 30
0.0
 10
-17.19877142344217
 20
6.5709233012831
 30
0.0
 10
-18.40965450797109
 20
6.234581870361928
 30
0.0
 10
-19.3871109091261
 20
5.931589082991812
 30
0.0
 10
-19.96113061720851
 20
5.742175018616141
 30
0.0
 10
-20.13342053703679
 20
5.684196641504152
 30
0.0
  0
SPLINE
  5
425E
330
1F
100
AcDbEntity
  8
AM_0
 48
0.5
100
AcDbSpline
210
0.0
220
0.0
230
1.0
 70
     8
 71
     3
 72
    25
 73
    21
 74
     0
 42
0.0000000001
 43
0.0000000001
 40
6.846175049578289
 40
6.846175049578289
 40
6.846175049578289
 40
6.846175049578289
 40
7.604337694224321
 40
8.711974558287883
 40
9.814980593243754
 40
10.91239053451967
 40
12.0033633515982
 40
13.08720139956839
 40
14.16337181880432
 40
15.23152222380919
 40
16.29148850140128
 40
17.34331105512262
 40
18.38723020264746
 40
19.42369128463655
 40
20.45333379090873
 40
21.47697865721768
 40
22.49561244472435
 40
23.5103574802404
 40
24.52244778960836
 40
25.53320666051913
 40
25.53320666051913
 40
25.53320666051913
 40
25.53320666051913
 10
-10.13290932694567
 20
1.393749738919708
 30
0.0
 10
-10.40809754371555
 20
1.528948044520135
 30
0.0
 10
-11.08590082288113
 20
1.860311267679767
 30
0.0
 10
-12.16732645219499
 20
2.380670813083242
 30
0.0
 10
-13.37739886395118
 20
2.948267641907533
 30
0.0
 10
-14.58753213103487
 20
3.497729908200519
 30
0.0
 10
-15.7977366507461
 20
4.025679208950955
 30
0.0
 10
-17.00802590774979
 20
4.528858361892285
 30
0.0
 10
-18.21841109341996
 20
5.004164311449223
 30
0.0
 10
-19.42889781120256
 20
5.448675958530534
 30
0.0
 10
-20.6395009711886
 20
5.859626965195659
 30
0.0
 10
-21.85021893407689
 20
6.234497364431711
 30
0.0
 10
-23.06106039620054
 20
6.570947968872437
 30
0.0
 10
-24.27202108444431
 20
6.866896538183582
 30
0.0
 10
-25.48309626818371
 20
7.12052911937655
 30
0.0
 10
-26.69427920835464
 20
7.330164518058966
 30
0.0
 10
-27.9055510594368
 20
7.494843289055971
 30
0.0
 10
-29.11689847198513
 20
7.612328686081269
 30
0.0
 10
-30.32830178218091
 20
7.686259586793827
 30
0.0
 10
-31.13610304442357
 20
7.695421424483216
 30
0.0
 10
-31.53973782832382
 20
7.699999328169086
 30
0.0
  0
SPLINE
  5
425F
330
1F
100
AcDbEntity
  8
AM_0
 48
0.5
100
AcDbSpline
210
0.0
220
0.0
230
1.0
 70
     8
 71
     3
 72
    10
 73
     6
 74
     0
 42
0.0000000001
 43
0.0000000001
 40
0.0
 40
0.0
 40
0.0
 40
0.0
 40
2.69986029516136
 40
4.147722969032201
 40
6.285750005020438
 40
6.285750005020438
 40
6.285750005020438
 40
6.285750005020438
 10
-10.13271565103409
 20
1.393658284060034
 30
0.0
 10
-9.270539053113154
 20
0.6782750746618668
 30
0.0
 10
-7.946000266803526
 20
-0.4207489654333032
 30
0.0
 10
-4.813643965678754
 20
0.1113078256535456
 30
0.0
 10
-5.403557767380819
 20
1.903345499626831
 30
0.0
 10
-5.793335116408189
 20
2.995647655188349
 30
0.0
  0
SPLINE
  5
4260
330
1F
100
AcDbEntity
  8
AM_0
100
AcDbSpline
210
0.0
220
0.0
230
1.0
 70
     8
 71
     3
 72
    55
 73
    51
 74
     0
 42
0.0000000001
 43
0.0000000001
 40
0.0
 40
0.0
 40
0.0
 40
0.0
 40
1.010743684496582
 40
2.022833576467832
 40
3.037578957496688
 40
4.056212745003489
 40
5.079857003664532
 40
6.109500240690281
 40
7.145961322679372
 40
8.189895241603872
 40
9.241717795325891
 40
10.30168407291828
 40
11.36983447792315
 40
12.44600489715814
 40
13.52984294512926
 40
14.62081576220742
 40
15.7182257034828
 40
16.82123173843959
 40
17.92886860250316
 40
19.0400688939571
 40
20.15368796660465
 40
21.26852814259644
 40
22.38336992938901
 40
23.49698739941135
 40
24.6081876908653
 40
25.71582455492886
 40
26.81883757994213
 40
27.91624752121713
 40
29.00722033829659
 40
30.09105838626677
 40
31.16722880550176
 40
32.23537921050758
 40
33.29534548809967
 40
34.347168041821
 40
35.39108718934584
 40
36.42754827133493
 40
37.45720575381954
 40
38.48085062012849
 40
39.49948440763516
 40
40.51422944315121
 40
41.52631975251916
 40
42.53706336719636
 40
43.54780698187354
 40
44.55989729124051
 40
45.57464232675757
 40
46.59327611426424
 40
47.6169209805722
 40
48.64656348684535
 40
49.68302456883444
 40
50.58557219878025
 40
50.58557219878025
 40
50.58557219878025
 40
50.58557219878025
 10
-8.720114055763842
 20
-7.700000671831801
 30
0.0
 10
-9.123742669762638
 20
-7.695419358375692
 30
0.0
 10
-9.931537489897094
 20
-7.686250629621337
 30
0.0
 10
-11.14293574816647
 20
-7.612340382671425
 30
0.0
 10
-12.35428229641174
 20
-7.494842397531654
 30
0.0
 10
-13.5655538741983
 20
-7.330164502573422
 30
0.0
 10
-14.77673839494257
 20
-7.120538399003581
 30
0.0
 10
-15.98781196468199
 20
-6.866896260698512
 30
0.0
 10
-17.19877863440394
 20
-6.570946711507552
 30
0.0
 10
-18.40962766528137
 20
-6.234502004868963
 30
0.0
 10
-19.6203508092256
 20
-5.859627890871421
 30
0.0
 10
-20.83095410102218
 20
-5.448677415577264
 30
0.0
 10
-22.04144078290817
 20
-5.004165624068209
 30
0.0
 10
-23.25182597894503
 20
-4.528859715160084
 30
0.0
 10
-24.46211523072705
 20
-4.025680545500438
 30
0.0
 10
-25.67231976094925
 20
-3.497731270793944
 30
0.0
 10
-26.88245299094362
 20
-2.948268916453054
 30
0.0
 10
-28.0925255414855
 20
-2.38067241598723
 30
0.0
 10
-29.30254915646683
 20
-1.798432708674818
 30
0.0
 10
-30.51253678365453
 20
-1.205133410740793
 30
0.0
 10
-31.72249903579186
 20
-0.6044218824442094
 30
0.0
 10
-32.93245299942004
 20
-0.0000022429105633
 30
0.0
 10
-34.14240153136734
 20
0.604428276553274
 30
0.0
 10
-35.35236783903441
 20
1.205130450182442
 30
0.0
 10
-36.56235397247612
 20
1.798431543999663
 30
0.0
 10
-37.77237974491619
 20
2.380673469385846
 30
0.0
 10
-38.98245731541946
 20
2.948265125883469
 30
0.0
 10
-40.19259245532381
 20
3.497730266763006
 30
0.0
 10
-41.40279716025928
 20
4.025679113357072
 30
0.0
 10
-42.61308636800276
 20
4.528858388833404
 30
0.0
 10
-43.8234715671389
 20
5.0041642984368
 30
0.0
 10
-45.03395827985693
 20
5.448675983656384
 30
0.0
 10
-46.24456144670605
 20
5.859626878568779
 30
0.0
 10
-47.45527938740698
 20
6.234497682432698
 30
0.0
 10
-48.66612093058172
 20
6.570946795657537
 30
0.0
 10
-49.87708715109784
 20
6.866902296021615
 30
0.0
 10
-51.08816936830845
 20
7.120515464873569
 30
0.0
 10
-52.29935789046414
 20
7.330206452153886
 30
0.0
 10
-53.51062982732578
 20
7.494689142723049
 30
0.0
 10
-54.72197721725145
 20
7.612900650324034
 30
0.0
 10
-55.93337444839946
 20
7.684131821951278
 30
0.0
 10
-57.144798299267
 20
7.707927799420084
 30
0.0
 10
-58.35622214835207
 20
7.684131821914059
 30
0.0
 10
-59.56761938485779
 20
7.612900650473871
 30
0.0
 10
-60.77896675505791
 20
7.494689142159216
 30
0.0
 10
-61.99023876587538
 20
7.330206454273867
 30
0.0
 10
-63.20142110522822
 20
7.12051647918085
 30
0.0
 10
-64.41249855123586
 20
6.866904889079696
 30
0.0
 10
-65.5684047657105
 20
6.584381301668932
 30
0.0
 10
-66.31836988149577
 20
6.377769131309679
 30
0.0
 10
-66.66630998409174
 20
6.277076941544958
 30
0.0
  0
SPLINE
  5
4261
330
1F
100
AcDbEntity
  8
AM_0
100
AcDbSpline
210
0.0
220
0.0
230
1.0
 70
     8
 71
     3
 72
    11
 73
     7
 74
     0
 42
0.0000000001
 43
0.0000000001
 40
11.27226913003534
 40
11.27226913003534
 40
11.27226913003534
 40
11.2722691300354
 40
12.28301561507924
 40
13.29510212255852
 40
14.30984805882082
 40
15.18258238371378
 40
15.18258238371378
 40
15.18258238371378
 40
15.18258238371378
 10
-31.53973782832436
 20
-7.700000671830911
 30
0.0
 10
-31.94183164231715
 20
-7.662314634225509
 30
0.0
 10
-32.74526084490868
 20
-7.57107837734616
 30
0.0
 10
-33.94625589017458
 20
-7.387032279985891
 30
0.0
 10
-35.08602136497221
 20
-7.167209396556605
 30
0.0
 10
-35.82315477118016
 20
-6.998225003715831
 30
0.0
 10
-36.16284683461532
 20
-6.914751381169605
 30
0.0
  0
SPLINE
  5
4262
330
1F
100
AcDbEntity
  8
AM_0
100
AcDbSpline
210
0.0
220
0.0
230
1.0
 70
     8
 71
     3
 72
    22
 73
    18
 74
     0
 42
0.0000000001
 43
0.0000000001
 40
17.17441611292
 40
17.17441611292
 40
17.17441611292
 40
17.17441611292
 40
17.38177636558528
 40
18.41823744757437
 40
19.46215659509824
 40
20.51397914882054
 40
21.57394542641293
 40
22.64209583141747
 40
23.71826625065247
 40
24.80210429862395
 40
25.8930771157021
 40
26.99048705697709
 40
28.09349309193389
 40
29.20112995599786
 40
30.31233024745139
 40
31.42594771747373
 40
32.5407895042663
 40
32.54078950426994
 40
32.54078950426994
 40
32.54078950426994
 10
-36.16337662082763
 20
-6.914656401728485
 30
0.0
 10
-36.2444935734433
 20
-6.896831656958107
 30
0.0
 10
-36.73074540382618
 20
-6.788259188269128
 30
0.0
 10
-37.62153135690609
 20
-6.570557257526298
 30
0.0
 10
-38.83237272693747
 20
-6.234107177680499
 30
0.0
 10
-40.04309071477496
 20
-5.859236636281476
 30
0.0
 10
-41.25369386801966
 20
-5.448285668198958
 30
0.0
 10
-42.46418058754897
 20
-5.003774010465912
 30
0.0
 10
-43.67456577305076
 20
-4.528468064534866
 30
0.0
 10
-44.8848550289487
 20
-4.025288907819486
 30
0.0
 10
-46.09505955329641
 20
-3.497339618608199
 30
0.0
 10
-47.30519280280094
 20
-2.947877309606792
 30
0.0
 10
-48.5152652806887
 20
-2.380280641169458
 30
0.0
 10
-49.72528916829562
 20
-1.798041563912739
 30
0.0
 10
-50.93527519143016
 20
-1.204740189105025
 30
0.0
 10
-52.14524127498319
 20
-0.6040375069130187
 30
0.0
 10
-52.95172699611703
 20
-0.201158960148258
 30
0.0
 10
-53.3551914041179
 20
0.0003909704235292
 30
0.0
  0
SPLINE
  5
4263
330
1F
100
AcDbEntity
  8
AM_0
100
AcDbSpline
210
0.0
220
0.0
230
1.0
 70
     8
 71
     3
 72
    17
 73
    13
 74
     0
 42
0.0000000001
 43
0.0000000001
 40
1.580019955310467
 40
1.580019955310467
 40
1.580019955310467
 40
1.580019955310467
 40
2.030549285115227
 40
3.082371838836284
 40
4.126290986361125
 40
5.162752068350215
 40
6.192395305374981
 40
7.216039564037012
 40
8.234688489606833
 40
9.249433870634691
 40
10.26152376260694
 40
11.27226744710342
 40
11.27226744710342
 40
11.27226744710342
 40
11.27226744710352
 10
-20.12903575535771
 20
-5.68282741057713
 30
0.0
 10
-20.30042838882784
 20
-5.741355805046674
 30
0.0
 10
-20.87293736606356
 20
-5.933190435505156
 30
0.0
 10
-21.85035216648976
 20
-6.234089917341459
 30
0.0
 10
-23.06102499017284
 20
-6.571057419951374
 30
0.0
 10
-24.27203111095077
 20
-6.866870147513164
 30
0.0
 10
-25.48309271960642
 20
-7.120534694402825
 30
0.0
 10
-26.69428627125382
 20
-7.330205892456089
 30
0.0
 10
-27.90556350078818
 20
-7.494687240597879
 30
0.0
 10
-29.11691615413904
 20
-7.612912844656108
 30
0.0
 10
-30.32831438671399
 20
-7.684121672687677
 30
0.0
 10
-31.13610921965056
 20
-7.700000715890737
 30
0.0
 10
-31.5397378283243
 20
-7.700000671830911
 30
0.0
  0
SPLINE
  5
4264
330
1F
100
AcDbEntity
  8
AM_0
100
AcDbSpline
210
0.0
220
0.0
230
1.0
 70
     8
 71
     3
 72
    46
 73
    42
 74
     0
 42
0.0000000001
 43
0.0000000001
 40
0.0
 40
0.0
 40
0.0
 40
0.0
 40
1.348332046947657
 40
2.024828967632895
 40
2.703918159304097
 40
3.386347665078124
 40
4.072776489761952
 40
4.763750544421347
 40
5.459696642770596
 40
6.160921452191754
 40
6.867565637253344
 40
7.579665907256596
 40
8.297112853413899
 40
9.019671552060676
 40
9.746986763446127
 40
10.47859339096366
 40
11.21393074760089
 40
11.95235532364328
 40
12.69315551794651
 40
13.43556823304427
 40
14.1787950170388
 40
14.92202180103393
 40
15.66443451613169
 40
16.40523471043432
 40
17.14365928647669
 40
17.87899664311455
 40
18.61060327063121
 40
19.3379184820169
 40
20.06048192311554
 40
20.77792886927283
 40
21.49002913927608
 40
22.19667332433747
 40
22.89788836015233
 40
23.59383445850158
 40
24.28480851316097
 40
24.97123685067576
 40
25.65366676154838
 40
26.33276604526152
 40
27.00926273560555
 40
27.68398960851751
 40
28.357818684969
 40
28.357818684969
 40
28.357818684969
 40
28.357818684969
 10
-5.329022070253859
 20
-7.700000671831935
 30
0.0
 10
-6.136856357955876
 20
-7.68245947661486
 30
0.0
 10
-7.350004313972398
 20
-7.656117359861919
 30
0.0
 10
-8.963180054331093
 20
-7.493933786318559
 30
0.0
 10
-10.174464645974
 20
-7.330409601443841
 30
0.0
 10
-11.3856457016195
 20
-7.120472325244827
 30
0.0
 10
-12.59672003060194
 20
-6.866913569724295
 30
0.0
 10
-13.80768141139499
 20
-6.570945561745567
 30
0.0
 10
-15.0185278158203
 20
-6.23449634500125
 30
0.0
 10
-16.22925385518368
 20
-5.85963176748733
 30
0.0
 10
-17.43986194943609
 20
-5.448676878329623
 30
0.0
 10
-18.6503488424099
 20
-5.00416576967295
 30
0.0
 10
-19.86073398122464
 20
-4.528859675677789
 30
0.0
 10
-21.07102324859406
 20
-4.025680556351749
 30
0.0
 10
-22.28122777425676
 20
-3.497731267238504
 30
0.0
 10
-23.49136100676895
 20
-2.948268919751279
 30
0.0
 10
-24.7014335517996
 20
-2.38067240631193
 30
0.0
 10
-25.91145718640762
 20
-1.798432744261136
 30
0.0
 10
-27.12144474029306
 20
-1.205133277549956
 30
0.0
 10
-28.33140726677116
 20
-0.60442238084572
 30
0.0
 10
-29.54135962209067
 20
-0.0000006719532855
 30
0.0
 10
-30.75131197714437
 20
0.6044210376736437
 30
0.0
 10
-31.96127450441979
 20
1.205131932175474
 30
0.0
 10
-33.17126205539094
 20
1.798431406935471
 30
0.0
 10
-34.3812857008052
 20
2.380671039136115
 30
0.0
 10
-35.59135820576742
 20
2.948267663256831
 30
0.0
 10
-36.80149158666659
 20
3.497729600851979
 30
0.0
 10
-38.01169819438122
 20
4.02568155389908
 30
0.0
 10
-39.22199216435085
 20
4.528856101587749
 30
0.0
 10
-40.43237946230716
 20
5.004164632789792
 30
0.0
 10
-41.64286632709735
 20
5.448675873712159
 30
0.0
 10
-42.85346944830929
 20
5.85962698654563
 30
0.0
 10
-44.06418742085403
 20
6.234497362897031
 30
0.0
 10
-45.27502888268553
 20
6.570947954073213
 30
0.0
 10
-46.48598956263772
 20
6.866896598271049
 30
0.0
 10
-47.69706477950577
 20
7.120528895822449
 30
0.0
 10
-48.9082535650022
 20
7.33016637889909
 30
0.0
 10
-50.11953191520271
 20
7.494841743572148
 30
0.0
 10
-51.33088520660531
 20
7.612328945100629
 30
0.0
 10
-52.54228246923126
 20
7.686259136804072
 30
0.0
 10
-53.35007762766173
 20
7.69542129760695
 30
0.0
 10
-53.75370631346014
 20
7.699999328169953
 30
0.0
  0
ELLIPSE
  5
4265
330
1F
100
AcDbEntity
  8
AM_0
 48
0.5
100
AcDbEllipse
 10
-22.26133222196685
 20
52.85461200510834
 30
0.0
 11
0.0041110476206946
 21
57.7301236070096
 31
0.0
210
0.0
220
0.0
230
1.0
 40
0.9587367837069217
 41
3.480526496602087
 42
3.555592722832847
  0
ELLIPSE
  5
4266
330
1F
100
AcDbEntity
  8
AM_0
 48
0.5
100
AcDbEllipse
 10
-14.66730222103957
 20
12.9233907974875
 30
0.0
 11
-0.0000000000081336
 21
18.56551582018443
 31
0.0
210
0.0
220
0.0
230
1.0
 40
0.9334663234662791
 41
3.652175978817719
 42
3.740670756497221
  0
ELLIPSE
  5
4267
330
1F
100
AcDbEntity
  8
AM_0
 48
0.5
100
AcDbEllipse
 10
2.363340231662567
 20
9.244323058636478
 30
0.0
 11
0.0000000000004396
 21
15.51892461776705
 31
0.0
210
0.0
220
0.0
230
1.0
 40
0.9334663234663237
 41
2.101163880028978
 42
2.509284810223874
  0
ELLIPSE
  5
4268
330
1F
100
AcDbEntity
  8
AM_0
 48
0.5
100
AcDbEllipse
 10
-4.366565105285214
 20
-2.006731514422812
 30
0.0
 11
-1.02396686575204
 21
0.6644337415060266
 31
0.0
210
0.0
220
0.0
230
1.0
 40
0.5159040468291841
 41
4.525837193461303
 42
7.669277534790813
  0
ELLIPSE
  5
4269
330
1F
100
AcDbEntity
  8
AM_0
 48
0.5
100
AcDbEllipse
 10
-4.366565105285214
 20
-2.006731514422812
 30
0.0
 11
-0.199652583673944
 21
1.265284182333099
 31
0.0
210
0.0
220
0.0
230
1.0
 40
0.4684756625685293
 41
1.820008842659775
 42
4.955350732371753
  0
ELLIPSE
  5
426A
330
1F
100
AcDbEntity
  8
AM_0
 48
0.5
100
AcDbEllipse
 10
5.209180687191321
 20
-1.711604599444173
 30
0.0
 11
11.33502720496538
 21
2.156879679067733
 31
0.0
210
0.0
220
0.0
230
1.0
 40
0.6225133060359141
 41
3.058343856670987
 42
3.79182914917663
  0
LINE
  5
426B
330
1F
100
AcDbEntity
  8
AM_11
 48
0.5
100
AcDbLine
 10
-121.6265596992923
 20
7.699999328172267
 30
0.0
 11
-100.2704946016686
 21
7.699999328171607
 31
0.0
  0
LINE
  5
426C
330
1F
100
AcDbEntity
  8
AM_11
 48
0.5
100
AcDbLine
 10
-125.1130662011779
 20
-7.700214854534292
 30
0.0
 11
-100.270494601669
 21
-7.700000671828398
 31
0.0
  0
SPLINE
  5
426D
330
1F
100
AcDbEntity
  8
AM_0
 48
0.5
100
AcDbSpline
210
0.0
220
0.0
230
1.0
 70
     8
 71
     3
 72
    19
 73
    15
 74
     0
 42
0.0000000001
 43
0.0000000001
 40
3.111699631838226
 40
3.111699631838226
 40
3.111699631838226
 40
3.111699631838226
 40
4.056212471389632
 40
5.079857945358201
 40
6.109499720892564
 40
7.145961650132166
 40
8.189873411961459
 40
9.241710626092514
 40
10.30166235592959
 40
11.36982472628033
 40
12.44598212828784
 40
13.52983440361964
 40
14.62080578343036
 40
14.90544694398022
 40
14.90544694398022
 40
14.90544694398022
 40
14.90544694398022
 10
-107.428759540361
 20
-7.700067548985178
 30
0.0
 10
-108.3389903748106
 20
-7.583173118124562
 30
0.0
 10
-109.2058390794228
 20
-7.436688652052306
 30
0.0
 10
-110.7745922547149
 20
-7.198170501695788
 30
0.0
 10
-112.1222516929666
 20
-6.867292141508166
 30
0.0
 10
-113.5980547090186
 20
-6.571335541665563
 30
0.0
 10
-115.073719943927
 20
-6.234879153574997
 30
0.0
 10
-116.5492341071545
 20
-5.86002375467585
 30
0.0
 10
-118.024604909593
 20
-5.449050757150824
 30
0.0
 10
-119.4998418619636
 20
-5.004575370082295
 30
0.0
 10
-120.9749438561901
 20
-4.529239980830353
 30
0.0
 10
-122.4499385265706
 20
-4.026072691034225
 30
0.0
 10
-123.5585001005192
 20
-3.629270842342739
 30
0.0
 10
-124.1762292942992
 20
-3.402471660482965
 30
0.0
 10
-124.8039958095584
 20
-3.230201765983885
 30
0.0
  0
SPLINE
  5
426E
330
1F
100
AcDbEntity
  8
AM_0
100
AcDbSpline
210
0.0
220
0.0
230
1.0
 70
     8
 71
     3
 72
    23
 73
    19
 74
     0
 42
0.0000000001
 43
0.0000000001
 40
16.03460024169435
 40
16.03460024169435
 40
16.03460024169435
 40
16.03460024169435
 40
16.35212704903564
 40
17.38177054169784
 40
18.41822485651776
 40
19.46214173629503
 40
20.51396345435107
 40
21.57393551351153
 40
22.64208202342361
 40
23.7182574881101
 40
24.80209208578934
 40
25.89306333925047
 40
26.99048218457928
 40
28.09348763352352
 40
29.20111863782268
 40
30.31232390128032
 40
31.42594612798585
 40
32.5407912310448
 40
32.5407912310486
 40
32.5407912310486
 40
32.5407912310486
 10
-121.6454727331139
 20
7.700702282490685
 30
0.0
 10
-120.9429478997759
 20
7.674708438457704
 30
0.0
 10
-118.1302955199677
 20
7.515042473850675
 30
0.0
 10
-116.9451861556273
 20
7.324276203712842
 30
0.0
 10
-115.4524648476213
 20
7.009923158618134
 30
0.0
 10
-113.9873383155376
 20
6.63961344402313
 30
0.0
 10
-112.5234873516195
 20
6.230936543306307
 30
0.0
 10
-111.0608600012025
 20
5.786170839338216
 30
0.0
 10
-109.599371727931
 20
5.30785880044628
 30
0.0
 10
-108.1389207593163
 20
4.798784082719122
 30
0.0
 10
-106.6794241072891
 20
4.261829546602194
 30
0.0
 10
-105.2207647587108
 20
3.700119605428035
 30
0.0
 10
-103.7628245055525
 20
3.116919160060593
 30
0.0
 10
-102.3055062094136
 20
2.515581368567409
 30
0.0
 10
-100.8486879382421
 20
1.89960292785614
 30
0.0
 10
-99.39223475981297
 20
1.272580700103673
 30
0.0
 10
-97.93602807772357
 20
0.6381481093280846
 30
0.0
 10
-96.96548438073524
 20
0.2127957476285833
 30
0.0
 10
-96.47994785898788
 20
0.0000000000004045
 30
0.0
  0
SPLINE
  5
426F
330
1F
100
AcDbEntity
  8
AM_0
100
AcDbSpline
210
0.0
220
0.0
230
1.0
 70
     8
 71
     3
 72
    13
 73
     9
 74
     0
 42
0.0000000001
 43
0.0000000001
 40
16.03460056234195
 40
16.03460056234195
 40
16.03460056234195
 40
16.03460056234195
 40
16.35212717791071
 40
17.38177067057215
 40
18.41822498539278
 40
19.46214186516937
 40
20.5139635832251
 40
21.34083983469381
 40
21.34083983469381
 40
21.34083983469381
 40
21.34083983469381
 10
-125.0795655690196
 20
-7.700391642249642
 30
0.0
 10
-124.6623251056738
 20
-7.675098844823485
 30
0.0
 10
-124.0194551582086
 20
-7.56190607591735
 30
0.0
 10
-122.8870343768694
 20
-7.340113445985792
 30
0.0
 10
-121.4205455165738
 20
-7.01031499571772
 30
0.0
 10
-119.9554190344701
 20
-6.640005033472984
 30
0.0
 10
-118.5996950569211
 20
-6.261515015757499
 30
0.0
 10
-117.7347670334147
 20
-6.000897702823813
 30
0.0
 10
-116.9510032752574
 20
-5.745674119378273
 30
0.0
  0
LINE
  5
4270
330
1F
100
AcDbEntity
  8
AM_0
100
AcDbLine
 10
-100.2704946016686
 20
7.699999328171607
 30
0.0
 11
-71.7073785278646
 21
7.701093252911165
 31
0.0
  0
LINE
  5
4271
330
1F
100
AcDbEntity
  8
AM_0
 48
0.5
100
AcDbLine
 10
-100.2705037413329
 20
-7.700000671828281
 30
0.0
 11
-74.6652735691177
 21
-7.700000671829206
 31
0.0
  0
SPLINE
  5
4272
330
1F
100
AcDbEntity
  8
AM_0
100
AcDbSpline
210
0.0
220
0.0
230
1.0
 70
     8
 71
     3
 72
    55
 73
    51
 74
     0
 42
0.0000000001
 43
0.0000000001
 40
0.0
 40
0.0
 40
0.0
 40
0.0
 40
1.010743684496582
 40
2.022833576467832
 40
3.037578957496688
 40
4.056212745003489
 40
5.079857003664532
 40
6.109500240690281
 40
7.145961322679372
 40
8.189895241603872
 40
9.241717795325891
 40
10.30168407291828
 40
11.36983447792315
 40
12.44600489715814
 40
13.52984294512926
 40
14.62081576220742
 40
15.7182257034828
 40
16.82123173843959
 40
17.92886860250316
 40
19.0400688939571
 40
20.15368796660465
 40
21.26852814259644
 40
22.38336992938901
 40
23.49698739941135
 40
24.6081876908653
 40
25.71582455492886
 40
26.81883757994213
 40
27.91624752121713
 40
29.00722033829659
 40
30.09105838626677
 40
31.16722880550176
 40
32.23537921050758
 40
33.29534548809967
 40
34.347168041821
 40
35.39108718934584
 40
36.42754827133493
 40
37.45720575381954
 40
38.48085062012849
 40
39.49948440763516
 40
40.51422944315121
 40
41.52631975251916
 40
42.53706336719636
 40
43.54780698187354
 40
44.55989729124051
 40
45.57464232675757
 40
46.59327611426424
 40
47.6169209805722
 40
48.64656348684535
 40
49.68302456883444
 40
50.58557219878025
 40
50.58557219878025
 40
50.58557219878025
 40
50.58557219878025
 10
-51.8456531586385
 20
-7.700000671830283
 30
0.0
 10
-52.2492817726373
 20
-7.695419358374166
 30
0.0
 10
-53.05707659277175
 20
-7.686250629619808
 30
0.0
 10
-54.26847485104112
 20
-7.612340382669902
 30
0.0
 10
-55.47982139928638
 20
-7.494842397530131
 30
0.0
 10
-56.69109297707296
 20
-7.330164502571896
 30
0.0
 10
-57.90227749781724
 20
-7.12053839900206
 30
0.0
 10
-59.11335106755667
 20
-6.866896260696991
 30
0.0
 10
-60.32431773727857
 20
-6.570946711506033
 30
0.0
 10
-61.53516676815601
 20
-6.234502004867438
 30
0.0
 10
-62.74588991210028
 20
-5.859627890869896
 30
0.0
 10
-63.95649320389688
 20
-5.448677415575743
 30
0.0
 10
-65.16697988578286
 20
-5.004165624066687
 30
0.0
 10
-66.37736508181967
 20
-4.528859715158561
 30
0.0
 10
-67.58765433360173
 20
-4.025680545498914
 30
0.0
 10
-68.79785886382396
 20
-3.497731270792422
 30
0.0
 10
-70.00799209381833
 20
-2.948268916451533
 30
0.0
 10
-71.21806464436014
 20
-2.380672415985707
 30
0.0
 10
-72.42808825934147
 20
-1.798432708673294
 30
0.0
 10
-73.63807588652917
 20
-1.205133410739269
 30
0.0
 10
-74.84803813866652
 20
-0.6044218824426868
 30
0.0
 10
-76.05799210229474
 20
-0.0000022429090404
 30
0.0
 10
-77.267940634242
 20
0.6044282765547966
 30
0.0
 10
-78.47790694190912
 20
1.205130450183965
 30
0.0
 10
-79.68789307535089
 20
1.798431544001187
 30
0.0
 10
-80.89791884779096
 20
2.380673469387368
 30
0.0
 10
-82.10799641829416
 20
2.948265125884994
 30
0.0
 10
-83.31813155819839
 20
3.497730266764528
 30
0.0
 10
-84.52833626313385
 20
4.025679113358594
 30
0.0
 10
-85.73862547087738
 20
4.528858388834924
 30
0.0
 10
-86.94901067001357
 20
5.004164298438328
 30
0.0
 10
-88.15949738273163
 20
5.448675983657906
 30
0.0
 10
-89.3701005495807
 20
5.859626878570305
 30
0.0
 10
-90.58081849028164
 20
6.234497682434226
 30
0.0
 10
-91.7916600334564
 20
6.570946795659064
 30
0.0
 10
-93.00262625397255
 20
6.866902296023144
 30
0.0
 10
-94.21370847118318
 20
7.120515464875086
 30
0.0
 10
-95.42489699333886
 20
7.330206452155406
 30
0.0
 10
-96.63616893020053
 20
7.494689142724572
 30
0.0
 10
-97.84751632012618
 20
7.612900650325554
 30
0.0
 10
-99.05891355127417
 20
7.684131821952798
 30
0.0
 10
-100.2703374021416
 20
7.707927799421602
 30
0.0
 10
-101.4817612512268
 20
7.68413182191558
 30
0.0
 10
-102.6931584877325
 20
7.612900650475401
 30
0.0
 10
-103.9045058579326
 20
7.494689142160738
 30
0.0
 10
-105.1157778687501
 20
7.330206454275394
 30
0.0
 10
-106.3269602081029
 20
7.120516479182372
 30
0.0
 10
-107.5380376541105
 20
6.866904889081218
 30
0.0
 10
-108.6939438685851
 20
6.584381301670454
 30
0.0
 10
-109.4439089843704
 20
6.377769131311198
 30
0.0
 10
-111.069540384296
 20
5.783259294581529
 30
0.0
  0
SPLINE
  5
4273
330
1F
100
AcDbEntity
  8
AM_0
100
AcDbSpline
210
0.0
220
0.0
230
1.0
 70
     8
 71
     3
 72
    22
 73
    18
 74
     0
 42
0.0000000001
 43
0.0000000001
 40
17.17441611292
 40
17.17441611292
 40
17.17441611292
 40
17.17441611292
 40
17.38177636558528
 40
18.41823744757437
 40
19.46215659509824
 40
20.51397914882054
 40
21.57394542641293
 40
22.64209583141747
 40
23.71826625065247
 40
24.80210429862395
 40
25.8930771157021
 40
26.99048705697709
 40
28.09349309193389
 40
29.20112995599786
 40
30.31233024745139
 40
31.42594771747373
 40
32.5407895042663
 40
32.54078950426994
 40
32.54078950426994
 40
32.54078950426994
 10
-79.28891572370227
 20
-6.914656401726956
 30
0.0
 10
-79.37003267631792
 20
-6.896831656956583
 30
0.0
 10
-79.85628450670084
 20
-6.788259188267603
 30
0.0
 10
-80.74707045978078
 20
-6.570557257524781
 30
0.0
 10
-81.95791182981217
 20
-6.234107177678975
 30
0.0
 10
-83.16862981764964
 20
-5.859236636279952
 30
0.0
 10
-84.37923297089431
 20
-5.44828566819743
 30
0.0
 10
-85.58971969042366
 20
-5.00377401046439
 30
0.0
 10
-86.8001048759255
 20
-4.528468064533345
 30
0.0
 10
-88.01039413182346
 20
-4.025288907817963
 30
0.0
 10
-89.2205986561712
 20
-3.497339618606678
 30
0.0
 10
-90.43073190567557
 20
-2.94787730960527
 30
0.0
 10
-91.64080438356327
 20
-2.380280641167936
 30
0.0
 10
-92.85082827117015
 20
-1.798041563911215
 30
0.0
 10
-94.06081429430484
 20
-1.204740189103502
 30
0.0
 10
-95.27078037785788
 20
-0.6040375069114954
 30
0.0
 10
-96.07726609899172
 20
-0.2011589601467351
 30
0.0
 10
-96.4807305069926
 20
0.0003909704250521
 30
0.0
  0
SPLINE
  5
4274
330
1F
100
AcDbEntity
  8
AM_0
100
AcDbSpline
210
0.0
220
0.0
230
1.0
 70
     8
 71
     3
 72
    46
 73
    42
 74
     0
 42
0.0000000001
 43
0.0000000001
 40
0.0
 40
0.0
 40
0.0
 40
0.0
 40
1.348332046947654
 40
2.024828967632893
 40
2.703918159304094
 40
3.386347665078122
 40
4.072776489761951
 40
4.763750544421345
 40
5.459696642770595
 40
6.160921452191748
 40
6.867565637253344
 40
7.579665907256597
 40
8.297112853413899
 40
9.019671552060666
 40
9.746986763446125
 40
10.47859339096365
 40
11.21393074760088
 40
11.95235532364327
 40
12.69315551794651
 40
13.43556823304427
 40
14.1787950170388
 40
14.92202180103393
 40
15.66443451613169
 40
16.40523471043432
 40
17.14365928647669
 40
17.87899664311455
 40
18.61060327063121
 40
19.33791848201689
 40
20.06048192311554
 40
20.77792886927282
 40
21.49002913927608
 40
22.19667332433747
 40
22.89788836015233
 40
23.59383445850157
 40
24.28480851316097
 40
24.97123685067575
 40
25.65366676154837
 40
26.33276604526151
 40
27.00926273560554
 40
27.68398960851752
 40
28.35781868496899
 40
28.35781868496899
 40
28.35781868496899
 40
28.35781868496899
 10
-48.45456117312852
 20
-7.700000671830411
 30
0.0
 10
-49.26239546083053
 20
-7.682459476613341
 30
0.0
 10
-50.47554341684705
 20
-7.656117359860396
 30
0.0
 10
-52.08871915720574
 20
-7.493933786317039
 30
0.0
 10
-53.30000374884867
 20
-7.330409601442321
 30
0.0
 10
-54.51118480449416
 20
-7.1204723252433
 30
0.0
 10
-55.72225913347662
 20
-6.866913569722772
 30
0.0
 10
-56.93322051426966
 20
-6.570945561744044
 30
0.0
 10
-58.14406691869493
 20
-6.234496344999727
 30
0.0
 10
-59.35479295805835
 20
-5.859631767485796
 30
0.0
 10
-60.56540105231079
 20
-5.448676878328101
 30
0.0
 10
-61.77588794528457
 20
-5.00416576967143
 30
0.0
 10
-62.98627308409932
 20
-4.52885967567627
 30
0.0
 10
-64.1965623514687
 20
-4.025680556350214
 30
0.0
 10
-65.40676687713146
 20
-3.497731267236996
 30
0.0
 10
-66.61690010964368
 20
-2.948268919749742
 30
0.0
 10
-67.82697265467423
 20
-2.380672406310418
 30
0.0
 10
-69.03699628928229
 20
-1.798432744259605
 30
0.0
 10
-70.24698384316767
 20
-1.205133277548438
 30
0.0
 10
-71.45694636964583
 20
-0.6044223808441962
 30
0.0
 10
-72.66689872496536
 20
-0.0000006719517609
 30
0.0
 10
-73.87685108001905
 20
0.6044210376751655
 30
0.0
 10
-75.08681360729451
 20
1.205131932176996
 30
0.0
 10
-76.2968011582657
 20
1.798431406936993
 30
0.0
 10
-77.50682480367996
 20
2.380671039137635
 30
0.0
 10
-78.71689730864215
 20
2.948267663258357
 30
0.0
 10
-79.92703068954117
 20
3.497729600853503
 30
0.0
 10
-81.13723729725581
 20
4.025681553900606
 30
0.0
 10
-82.34753126722546
 20
4.528856101589275
 30
0.0
 10
-83.5579185651818
 20
5.004164632791311
 30
0.0
 10
-84.76840542997203
 20
5.448675873713687
 30
0.0
 10
-85.97900855118394
 20
5.859626986547156
 30
0.0
 10
-87.18972652372874
 20
6.234497362898553
 30
0.0
 10
-88.40056798556025
 20
6.570947954074737
 30
0.0
 10
-89.61152866551243
 20
6.866896598272569
 30
0.0
 10
-90.82260388238049
 20
7.120528895823969
 30
0.0
 10
-92.0337926678769
 20
7.330166378900613
 30
0.0
 10
-93.24507101807741
 20
7.494841743573673
 30
0.0
 10
-94.45642430948003
 20
7.612328945102158
 30
0.0
 10
-95.66782157210601
 20
7.686259136805595
 30
0.0
 10
-96.47561673053646
 20
7.695421297608474
 30
0.0
 10
-96.87924541633485
 20
7.699999328171476
 30
0.0
  0
DIMENSION
  5
42FB
330
1F
100
AcDbEntity
  8
AM_5
100
AcDbDimension
  2
*D9
 10
-0.6569101001225142
 20
-1.804832053866967
 30
0.0
 11
20.95440230361521
 21
-0.0000254256613266
 31
0.0
 70
    34
  1
<>
 51
359.9999999999998
  3
AM_JIS$2
100
AcDb2LineAngularDimension
 13
0.0000000000000568
 23
0.0000000000001457
 33
0.0
 14
-0.6568967178321654
 24
1.804808914154893
 34
0.0
 15
0.0000000000000568
 25
0.0000000000001562
 35
0.0
 16
22.08713192112582
 26
-9.52747992302754
 36
0.0
1001
GENIUS_GENDTOL_13
1000

1000
h7
1000

1040
0.0
1001
ACAD
1000
DSTYLE
1002
{
1070
   271
1070
     0
1002
}
  0
ELLIPSE
  5
43FB
330
1F
100
AcDbEntity
  8
AM_11
 48
0.5
100
AcDbEllipse
 10
-208.3160321091931
 20
31.8022296972432
 30
0.0
 11
-35.51732381184845
 21
0.000000000000775
 31
0.0
210
0.0
220
0.0
230
1.0
 40
0.9899999999999995
 41
1.895054800108161
 42
2.011520147323624
  0
ELLIPSE
  5
43FC
330
1F
100
AcDbEntity
  8
AM_11
 48
0.5
100
AcDbEllipse
 10
-208.3160321091926
 20
-31.80208243654557
 30
0.0
 11
-35.51732381184842
 21
0.000000000001611
 31
0.0
210
0.0
220
0.0
230
1.0
 40
0.9900000000000011
 41
4.271664206181739
 42
4.388130507071504
  0
ELLIPSE
  5
43FD
330
1F
100
AcDbEntity
  8
AM_11
 48
0.5
100
AcDbEllipse
 10
-178.0129363193919
 20
-31.80211301555288
 30
0.0
 11
-35.51732381184836
 21
0.0000000000012798
 31
0.0
210
0.0
220
0.0
230
1.0
 40
0.9900000000000032
 41
4.271664206181728
 42
5.153113667165039
  0
ELLIPSE
  5
43FE
330
1F
100
AcDbEntity
  8
AM_11
 48
0.5
100
AcDbEllipse
 10
-178.0129363193924
 20
31.8021991182359
 30
0.0
 11
-35.51732381184845
 21
-0.0000000000002265
 31
0.0
210
0.0
220
0.0
230
1.0
 40
0.99
 41
1.130070686340306
 42
2.011520147323597
  0
ELLIPSE
  5
43FF
330
1F
100
AcDbEntity
  8
AM_11
 48
0.5
100
AcDbEllipse
 10
-147.709906016362
 20
31.80219911823616
 30
0.0
 11
-35.51732381184845
 21
0.000000000000775
 31
0.0
210
0.0
220
0.0
230
1.0
 40
0.9899999999999995
 41
1.130070686340335
 42
2.011520147323624
  0
ELLIPSE
  5
4400
330
1F
100
AcDbEntity
  8
AM_11
 48
0.5
100
AcDbEllipse
 10
-147.7099060163616
 20
-31.80211301555261
 30
0.0
 11
-35.51732381184842
 21
0.000000000001611
 31
0.0
210
0.0
220
0.0
230
1.0
 40
0.9900000000000011
 41
4.271664206181739
 42
5.153113667165048
  0
ELLIPSE
  5
4401
330
1F
100
AcDbEntity
  8
AM_11
 48
0.5
100
AcDbEllipse
 10
-87.10377992353105
 20
31.80216853922912
 30
0.0
 11
-35.51732381184845
 21
0.000000000000775
 31
0.0
210
0.0
220
0.0
230
1.0
 40
0.9899999999999995
 41
1.130070686340335
 42
2.011520147323624
  0
ELLIPSE
  5
4402
330
1F
100
AcDbEntity
  8
AM_11
 48
0.5
100
AcDbEllipse
 10
-87.10377992353059
 20
-31.80214359455964
 30
0.0
 11
-35.51732381184842
 21
0.000000000001611
 31
0.0
210
0.0
220
0.0
230
1.0
 40
0.9900000000000011
 41
4.271664206181739
 42
5.153113667165048
  0
ELLIPSE
  5
4403
330
1F
100
AcDbEntity
  8
AM_11
 48
0.5
100
AcDbEllipse
 10
-117.4068102265608
 20
-31.80214359455991
 30
0.0
 11
-35.51732381184836
 21
0.0000000000012798
 31
0.0
210
0.0
220
0.0
230
1.0
 40
0.9900000000000032
 41
4.271664206181728
 42
5.153113667165039
  0
ELLIPSE
  5
4404
330
1F
100
AcDbEntity
  8
AM_11
 48
0.5
100
AcDbEllipse
 10
-117.4068102265614
 20
31.80216853922887
 30
0.0
 11
-35.51732381184845
 21
-0.0000000000002265
 31
0.0
210
0.0
220
0.0
230
1.0
 40
0.99
 41
1.130070686340306
 42
2.011520147323597
  0
ELLIPSE
  5
4405
330
1F
100
AcDbEntity
  8
AM_11
 48
0.5
100
AcDbEllipse
 10
-26.4977193174694
 20
-31.80214359455937
 30
0.0
 11
-35.51732381184842
 21
0.000000000001611
 31
0.0
210
0.0
220
0.0
230
1.0
 40
0.9900000000000011
 41
4.271664206181739
 42
5.153113667165048
  0
ELLIPSE
  5
4406
330
1F
100
AcDbEntity
  8
AM_11
 48
0.5
100
AcDbEllipse
 10
-26.49771931746986
 20
31.8021685392294
 30
0.0
 11
-35.51732381184845
 21
0.000000000000775
 31
0.0
210
0.0
220
0.0
230
1.0
 40
0.9899999999999995
 41
1.130070686340335
 42
2.011520147323624
  0
ELLIPSE
  5
4407
330
1F
100
AcDbEntity
  8
AM_11
 48
0.5
100
AcDbEllipse
 10
-56.80074962050023
 20
31.80216853922914
 30
0.0
 11
-35.51732381184845
 21
-0.0000000000002265
 31
0.0
210
0.0
220
0.0
230
1.0
 40
0.99
 41
1.130070686340306
 42
2.011520147323597
  0
ELLIPSE
  5
4408
330
1F
100
AcDbEntity
  8
AM_11
 48
0.5
100
AcDbEllipse
 10
-56.80074962049968
 20
-31.80214359455964
 30
0.0
 11
-35.51732381184836
 21
0.0000000000012798
 31
0.0
210
0.0
220
0.0
230
1.0
 40
0.9900000000000032
 41
4.271664206181728
 42
5.153113667165039
  0
ELLIPSE
  5
4409
330
1F
100
AcDbEntity
  8
AM_11
 48
0.5
100
AcDbEllipse
 10
3.805310985560396
 20
31.80216853922962
 30
0.0
 11
-35.51732381184908
 21
0.0000000000326126
 31
0.0
210
0.0
220
0.0
230
1.0
 40
0.989999999999986
 41
1.130070686341231
 42
1.291800737381917
  0
VIEWPORT
  5
110
330
101
100
AcDbEntity
 67
     1
  8
0
100
AcDbViewport
 10
420.5
 20
297.0
 30
0.0
 40
948.9782706766916
 41
628.452
 68
     1
 69
     1
1001
ACAD
1000
MVIEW
1002
{
1070
    16
1010
0.0
1020
0.0
1030
0.0
1010
0.0
1020
0.0
1030
1.0
1040
0.0
1040
628.452
1040
420.5
1040
297.0
1040
50.0
1040
0.0
1040
0.0
1070
     0
1070
   100
1070
     1
1070
     1
1070
     0
1070
     0
1070
     0
1070
     0
1040
0.0
1040
0.0
1040
0.0
1040
10.0
1040
10.0
1040
10.0
1040
10.0
1070
     0
1002
{
1002
}
1002
}
  0
ENDSEC
  0
SECTION
  2
OBJECTS
  0
DICTIONARY
  5
C
330
0
100
AcDbDictionary
  3
ACAD_GROUP
350
D
  3
ACAD_LAYOUT
350
1A
  3
ACAD_MLINESTYLE
350
17
  3
ACAD_PLOTSETTINGS
350
19
  3
ACAD_PLOTSTYLENAME
350
E
  3
ACDBVARIABLEDICTIONARY
350
34
  3
ACMDICTIONARY
350
43
  3
AMG
350
2B
  3
AMGSNAPSETTINGS
350
6E
  3
DWGPROPS
350
4423
  3
ACDBHEADERROUNDTRIPXREC
350
4430
  0
DICTIONARY
  5
74
330
1F
100
AcDbDictionary
280
     1
  3
ACAD_INDEX
360
4425
  3
ACAD_LAYOUTSELFREF
360
4453
  0
DICTIONARY
  5
4458
330
101
100
AcDbDictionary
280
     1
  3
ACAD_LAYOUTSELFREF
360
4459
  0
DICTIONARY
  5
D
102
{ACAD_REACTORS
330
C
102
}
330
C
100
AcDbDictionary
  0
DICTIONARY
  5
1A
102
{ACAD_REACTORS
330
C
102
}
330
C
100
AcDbDictionary
  0
DICTIONARY
  5
17
102
{ACAD_REACTORS
330
C
102
}
330
C
100
AcDbDictionary
  3
STANDARD
350
18
  0
DICTIONARY
  5
19
102
{ACAD_REACTORS
330
C
102
}
330
C
100
AcDbDictionary
  0
ACDBDICTIONARYWDFLT
  5
E
102
{ACAD_REACTORS
330
C
102
}
330
C
100
AcDbDictionary
281
     1
  3
Normal
350
F
100
AcDbDictionaryWithDefault
340
F
  0
DICTIONARY
  5
34
102
{ACAD_REACTORS
330
C
102
}
330
C
100
AcDbDictionary
  3
INDEXCTL
350
35
  3
SORTENTS
350
B5E
  0
DICTIONARY
  5
43
102
{ACAD_REACTORS
330
C
102
}
330
C
100
AcDbDictionary
  3
ACMSTDDICTIONARY
350
260
  0
DICTIONARY
  5
2B
102
{ACAD_REACTORS
330
C
102
}
330
C
100
AcDbDictionary
  3
ACMGSETTINGS
350
2C
  0
DICTIONARY
  5
6E
102
{ACAD_REACTORS
330
C
102
}
330
C
100
AcDbDictionary
  0
XRECORD
  5
4423
102
{ACAD_REACTORS
330
C
102
}
330
C
100
AcDbXrecord
  1
DWGPROPS COOKIE
  2

  3

  4

  6

  7

  8

  9

300
AmdtFileType=82
301
=
302
=
303
=
304
=
305
=
306
=
307
=
308
=
309
=
 40
0.0971529745370371
 41
2452800.443498622
 42
2452948.669248761
  1

 90
        1
  0
DICTIONARY
  5
4430
102
{ACAD_REACTORS
330
C
102
}
330
C
100
AcDbDictionary
  3
TSTACKALIGN
350
4431
  3
TSTACKSIZE
350
4432
  3
HYPERLINKBASE
350
4433
  3
STYLESHEET
350
4434
  3
LAYOUTDICT
350
4435
  3
PLOTSETDICT
350
4436
  3
PLOTSTYLNAMDICT
350
4437
  3
LWETCUNION
350
4438
  3
INSUNITS
350
4439
  3
CEPSNTYPE
350
443A
  3
FINGERPRINTGUID
350
443B
  3
VERSIONGUID
350
443C
  3
PSVPSCALE
350
443D
  3
DIMSTYLEDATA
350
443E
  3
PUCSORTHOREF
350
443F
  3
PUCSORTHOVIEW
350
4440
  3
PUCSBASE
350
4441
  3
PUCSORGTOP
350
4442
  3
PUCSORGBOTTOM
350
4443
  3
PUCSORGLEFT
350
4444
  3
PUCSORGRIGHT
350
4445
  3
PUCSORGFRONT
350
4446
  3
PUCSORGBACK
350
4447
  3
UCSORTHOREF
350
4448
  3
UCSORTHOVIEW
350
4449
  3
UCSBASE
350
444A
  3
UCSORGTOP
350
444B
  3
UCSORGBOTTOM
350
444C
  3
UCSORGLEFT
350
444D
  3
UCSORGRIGHT
350
444E
  3
UCSORGFRONT
350
444F
  3
UCSORGBACK
350
4450
  0
DICTIONARY
  5
4425
102
{ACAD_REACTORS
330
74
102
}
330
74
100
AcDbDictionary
  3
*A1
350
4426
  0
XRECORD
  5
4453
102
{ACAD_REACTORS
330
74
102
}
330
74
100
AcDbXrecord
340
1F
  0
XRECORD
  5
4459
102
{ACAD_REACTORS
330
4458
102
}
330
4458
100
AcDbXrecord
340
101
  0
MLINESTYLE
  5
18
102
{ACAD_REACTORS
330
17
102
}
330
17
100
AcDbMlineStyle
  2
STANDARD
 70
     0
  3

 62
   256
 51
90.0
 52
90.0
 71
     2
 49
0.5
 62
   256
  6
BYLAYER
 49
-0.5
 62
   256
  6
BYLAYER
  0
ACDBPLACEHOLDER
  5
F
102
{ACAD_REACTORS
330
E
102
}
330
E
100
AcDbPlaceHolder
280
     0
  0
DICTIONARYVAR
  5
35
102
{ACAD_REACTORS
330
34
102
}
330
34
100
DictionaryVariables
280
     0
  1
1
  0
DICTIONARYVAR
  5
B5E
102
{ACAD_REACTORS
330
34
102
}
330
34
100
DictionaryVariables
280
     0
  1
96
  0
DICTIONARY
  5
260
102
{ACAD_REACTORS
330
43
102
}
330
43
100
AcDbDictionary
  0
DICTIONARY
  5
2C
102
{ACAD_REACTORS
330
2B
102
}
330
2B
100
AcDbDictionary
  3
DWGSETTINGS
350
2D
  0
XRECORD
  5
4431
102
{ACAD_REACTORS
330
4430
102
}
330
4430
100
AcDbXrecord
 90
        1
  0
XRECORD
  5
4432
102
{ACAD_REACTORS
330
4430
102
}
330
4430
100
AcDbXrecord
 90
       70
  0
XRECORD
  5
4433
102
{ACAD_REACTORS
330
4430
102
}
330
4430
100
AcDbXrecord
  1

  0
XRECORD
  5
4434
102
{ACAD_REACTORS
330
4430
102
}
330
4430
100
AcDbXrecord
  1
ASAMI.ctb
  0
XRECORD
  5
4435
102
{ACAD_REACTORS
330
4430
102
}
330
4430
100
AcDbXrecord
340
1A
  0
XRECORD
  5
4436
102
{ACAD_REACTORS
330
4430
102
}
330
4430
100
AcDbXrecord
340
19
  0
XRECORD
  5
4437
102
{ACAD_REACTORS
330
4430
102
}
330
4430
100
AcDbXrecord
340
E
  0
XRECORD
  5
4438
102
{ACAD_REACTORS
330
4430
102
}
330
4430
100
AcDbXrecord
 90
    10781
  0
XRECORD
  5
4439
102
{ACAD_REACTORS
330
4430
102
}
330
4430
100
AcDbXrecord
 90
        4
  0
XRECORD
  5
443A
102
{ACAD_REACTORS
330
4430
102
}
330
4430
100
AcDbXrecord
 90
        0
  0
XRECORD
  5
443B
102
{ACAD_REACTORS
330
4430
102
}
330
4430
100
AcDbXrecord
  1
{AFB28963-8C59-40AE-9337-C84526B81ACE}
  0
XRECORD
  5
443C
102
{ACAD_REACTORS
330
4430
102
}
330
4430
100
AcDbXrecord
  1
{1BCF6D37-13A4-44B6-AD78-113240FFB2C6}
  0
XRECORD
  5
443D
102
{ACAD_REACTORS
330
4430
102
}
330
4430
100
AcDbXrecord
 40
0.0
  0
XRECORD
  5
443E
102
{ACAD_REACTORS
330
4430
102
}
330
4430
100
AcDbXrecord
1000
DSTYLE
1002
{
1070
    79
 70
     2
1070
   341
340
59
1070
   342
340
59
1070
   371
 70
    -1
1070
   372
 70
    -1
1002
}
  0
XRECORD
  5
443F
102
{ACAD_REACTORS
330
4430
102
}
330
4430
100
AcDbXrecord
340
0
  0
XRECORD
  5
4440
102
{ACAD_REACTORS
330
4430
102
}
330
4430
100
AcDbXrecord
 70
     0
  0
XRECORD
  5
4441
102
{ACAD_REACTORS
330
4430
102
}
330
4430
100
AcDbXrecord
340
0
  0
XRECORD
  5
4442
102
{ACAD_REACTORS
330
4430
102
}
330
4430
100
AcDbXrecord
 10
0.0
 20
0.0
 30
0.0
  0
XRECORD
  5
4443
102
{ACAD_REACTORS
330
4430
102
}
330
4430
100
AcDbXrecord
 10
0.0
 20
0.0
 30
0.0
  0
XRECORD
  5
4444
102
{ACAD_REACTORS
330
4430
102
}
330
4430
100
AcDbXrecord
 10
0.0
 20
0.0
 30
0.0
  0
XRECORD
  5
4445
102
{ACAD_REACTORS
330
4430
102
}
330
4430
100
AcDbXrecord
 10
0.0
 20
0.0
 30
0.0
  0
XRECORD
  5
4446
102
{ACAD_REACTORS
330
4430
102
}
330
4430
100
AcDbXrecord
 10
0.0
 20
0.0
 30
0.0
  0
XRECORD
  5
4447
102
{ACAD_REACTORS
330
4430
102
}
330
4430
100
AcDbXrecord
 10
0.0
 20
0.0
 30
0.0
  0
XRECORD
  5
4448
102
{ACAD_REACTORS
330
4430
102
}
330
4430
100
AcDbXrecord
340
0
  0
XRECORD
  5
4449
102
{ACAD_REACTORS
330
4430
102
}
330
4430
100
AcDbXrecord
 70
     0
  0
XRECORD
  5
444A
102
{ACAD_REACTORS
330
4430
102
}
330
4430
100
AcDbXrecord
340
0
  0
XRECORD
  5
444B
102
{ACAD_REACTORS
330
4430
102
}
330
4430
100
AcDbXrecord
 10
0.0
 20
0.0
 30
0.0
  0
XRECORD
  5
444C
102
{ACAD_REACTORS
330
4430
102
}
330
4430
100
AcDbXrecord
 10
0.0
 20
0.0
 30
0.0
  0
XRECORD
  5
444D
102
{ACAD_REACTORS
330
4430
102
}
330
4430
100
AcDbXrecord
 10
0.0
 20
0.0
 30
0.0
  0
XRECORD
  5
444E
102
{ACAD_REACTORS
330
4430
102
}
330
4430
100
AcDbXrecord
 10
0.0
 20
0.0
 30
0.0
  0
XRECORD
  5
444F
102
{ACAD_REACTORS
330
4430
102
}
330
4430
100
AcDbXrecord
 10
0.0
 20
0.0
 30
0.0
  0
XRECORD
  5
4450
102
{ACAD_REACTORS
330
4430
102
}
330
4430
100
AcDbXrecord
 10
0.0
 20
0.0
 30
0.0
  0
LAYER_INDEX
  5
4426
102
{ACAD_REACTORS
330
4425
102
}
330
4425
100
AcDbIndex
 40
2453151.671424861
100
AcDbLayerIndex
  8
0
360
4427
 90
        0
  8
AM_0
360
4428
 90
       52
  8
AM_7
360
4429
 90
        1
  8
AM_11
360
442A
 90
       21
  8
AM_5
360
442B
 90
        5
  8
Defpoints
360
442C
 90
        0
  8
AM_6
360
442D
 90
        1
  8
AM_CL
360
442E
 90
        0
  0
XRECORD
  5
2D
102
{ACAD_REACTORS
330
2C
102
}
330
2C
100
AcDbXrecord
  1
VERSION
140
15.0
  1
PRODUCT
  2
AutoCAD Mechanical 2000
  0
IDBUFFER
  5
4427
330
0
100
AcDbIdBuffer
  0
IDBUFFER
  5
4428
330
0
100
AcDbIdBuffer
330
4271
330
4272
330
4273
330
4274
330
1E25
330
1E26
330
1FD9
330
21D7
330
21D8
330
21D9
330
21DC
330
21DD
330
2694
330
2695
330
2696
330
2699
330
3366
330
3367
330
3F18
330
3F1B
330
424A
330
424B
330
424C
330
424D
330
424E
330
424F
330
4250
330
4251
330
4252
330
4257
330
4258
330
4259
330
425A
330
425B
330
425C
330
425E
330
425F
330
4260
330
4261
330
4262
330
4263
330
4264
330
4265
330
4266
330
4267
330
4268
330
4269
330
426A
330
426D
330
426E
330
426F
330
4270
  0
IDBUFFER
  5
4429
330
0
100
AcDbIdBuffer
330
C9F
  0
IDBUFFER
  5
442A
330
0
100
AcDbIdBuffer
330
4405
330
4406
330
4407
330
4408
330
4409
330
4253
330
4254
330
4255
330
4256
330
426B
330
426C
330
43FB
330
43FC
330
43FD
330
43FE
330
43FF
330
4400
330
4401
330
4402
330
4403
330
4404
  0
IDBUFFER
  5
442B
330
0
100
AcDbIdBuffer
330
CC6
330
DF5
330
1FB6
330
2216
330
42FB
  0
IDBUFFER
  5
442C
330
0
100
AcDbIdBuffer
  0
IDBUFFER
  5
442D
330
0
100
AcDbIdBuffer
330
19BD
  0
IDBUFFER
  5
442E
330
0
100
AcDbIdBuffer
  0
ENDSEC
  0
EOF
