  0
SECTION
  2
HEADER
  9
$ACADVER
  1
AC1015
  9
$ACADMAINTVER
 70
     6
  9
$DWGCODEPAGE
  3
ANSI_932
  9
$INSBASE
 10
0.0
 20
0.0
 30
0.0
  9
$EXTMIN
 10
-26.89934436526914
 20
-72.26276590035741
 30
-0.000000000000013
  9
$EXTMAX
 10
185.9196087955646
 20
20.95723554895847
 30
0.0000000000000023
  9
$LIMMIN
 10
0.0
 20
0.0
  9
$LIMMAX
 10
420.0
 20
297.0
  9
$ORTHOMODE
 70
     1
  9
$REGENMODE
 70
     1
  9
$FILLMODE
 70
     1
  9
$QTEXTMODE
 70
     0
  9
$MIRRTEXT
 70
     1
  9
$LTSCALE
 40
1.0
  9
$ATTMODE
 70
     1
  9
$TEXTSIZE
 40
3.8
  9
$TRACEWID
 40
1.0
  9
$TEXTSTYLE
  7
ACISOTS
  9
$CLAYER
  8
AM_0
  9
$CELTYPE
  6
ByLayer
  9
$CECOLOR
 62
   256
  9
$CELTSCALE
 40
1.0
  9
$DISPSILH
 70
     0
  9
$DIMSCALE
 40
1.0
  9
$DIMASZ
 40
2.5
  9
$DIMEXO
 40
1.0
  9
$DIMDLI
 40
10.0
  9
$DIMRND
 40
0.0
  9
$DIMDLE
 40
0.0
  9
$DIMEXE
 40
1.0
  9
$DIMTP
 40
0.1
  9
$DIMTM
 40
0.1000000001
  9
$DIMTXT
 40
3.8
  9
$DIMCEN
 40
0.0
  9
$DIMTSZ
 40
0.0
  9
$DIMTOL
 70
     0
  9
$DIMLIM
 70
     0
  9
$DIMTIH
 70
     0
  9
$DIMTOH
 70
     0
  9
$DIMSE1
 70
     0
  9
$DIMSE2
 70
     0
  9
$DIMTAD
 70
     3
  9
$DIMZIN
 70
     8
  9
$DIMBLK
  1
Open30
  9
$DIMASO
 70
     1
  9
$DIMSHO
 70
     1
  9
$DIMPOST
  1

  9
$DIMAPOST
  1
"
  9
$DIMALT
 70
     0
  9
$DIMALTD
 70
     2
  9
$DIMALTF
 40
0.0393701
  9
$DIMLFAC
 40
1.0
  9
$DIMTOFL
 70
     1
  9
$DIMTVP
 40
0.0
  9
$DIMTIX
 70
     0
  9
$DIMSOXD
 70
     0
  9
$DIMSAH
 70
     0
  9
$DIMBLK1
  1

  9
$DIMBLK2
  1

  9
$DIMSTYLE
  2
AM_JIS
  9
$DIMCLRD
 70
   256
  9
$DIMCLRE
 70
   256
  9
$DIMCLRT
 70
     2
  9
$DIMTFAC
 40
0.71
  9
$DIMGAP
 40
1.5
  9
$DIMJUST
 70
     0
  9
$DIMSD1
 70
     0
  9
$DIMSD2
 70
     0
  9
$DIMTOLJ
 70
     0
  9
$DIMTZIN
 70
     8
  9
$DIMALTZ
 70
     0
  9
$DIMALTTZ
 70
     0
  9
$DIMUPT
 70
     0
  9
$DIMDEC
 70
     2
  9
$DIMTDEC
 70
     2
  9
$DIMALTU
 70
     2
  9
$DIMALTTD
 70
     2
  9
$DIMTXSTY
  7
STANDARD
  9
$DIMAUNIT
 70
     1
  9
$DIMADEC
 70
     0
  9
$DIMALTRND
 40
0.0
  9
$DIMAZIN
 70
     2
  9
$DIMDSEP
 70
    46
  9
$DIMATFIT
 70
     3
  9
$DIMFRAC
 70
     0
  9
$DIMLDRBLK
  1
Open30
  9
$DIMLUNIT
 70
     2
  9
$DIMLWD
 70
    -1
  9
$DIMLWE
 70
    -1
  9
$DIMTMOVE
 70
     0
  9
$LUNITS
 70
     2
  9
$LUPREC
 70
     2
  9
$SKETCHINC
 40
1.0
  9
$FILLETRAD
 40
0.1
  9
$AUNITS
 70
     0
  9
$AUPREC
 70
     0
  9
$MENU
  1
.
  9
$ELEVATION
 40
0.0
  9
$PELEVATION
 40
0.0
  9
$THICKNESS
 40
0.0
  9
$LIMCHECK
 70
     0
  9
$CHAMFERA
 40
2.5
  9
$CHAMFERB
 40
2.5
  9
$CHAMFERC
 40
20.0
  9
$CHAMFERD
 40
0.0
  9
$SKPOLY
 70
     0
  9
$TDCREATE
 40
2455432.578929398
  9
$TDUCREATE
 40
2455432.203929398
  9
$TDUPDATE
 40
2455503.407166331
  9
$TDUUPDATE
 40
2455503.032166331
  9
$TDINDWG
 40
1.626703912
  9
$TDUSRTIMER
 40
1.626703912
  9
$USRTIMER
 70
     1
  9
$ANGBASE
 50
0.0
  9
$ANGDIR
 70
     0
  9
$PDMODE
 70
     0
  9
$PDSIZE
 40
0.0
  9
$PLINEWID
 40
0.0
  9
$SPLFRAME
 70
     0
  9
$SPLINETYPE
 70
     6
  9
$SPLINESEGS
 70
   232
  9
$HANDSEED
  5
F37D
  9
$SURFTAB1
 70
     6
  9
$SURFTAB2
 70
     6
  9
$SURFTYPE
 70
     6
  9
$SURFU
 70
     6
  9
$SURFV
 70
     6
  9
$UCSBASE
  2

  9
$UCSNAME
  2

  9
$UCSORG
 10
0.0
 20
0.0
 30
0.0
  9
$UCSXDIR
 10
1.0
 20
0.0
 30
0.0
  9
$UCSYDIR
 10
0.0
 20
1.0
 30
0.0
  9
$UCSORTHOREF
  2

  9
$UCSORTHOVIEW
 70
     0
  9
$UCSORGTOP
 10
0.0
 20
0.0
 30
0.0
  9
$UCSORGBOTTOM
 10
0.0
 20
0.0
 30
0.0
  9
$UCSORGLEFT
 10
0.0
 20
0.0
 30
0.0
  9
$UCSORGRIGHT
 10
0.0
 20
0.0
 30
0.0
  9
$UCSORGFRONT
 10
0.0
 20
0.0
 30
0.0
  9
$UCSORGBACK
 10
0.0
 20
0.0
 30
0.0
  9
$PUCSBASE
  2

  9
$PUCSNAME
  2

  9
$PUCSORG
 10
0.0
 20
0.0
 30
0.0
  9
$PUCSXDIR
 10
1.0
 20
0.0
 30
0.0
  9
$PUCSYDIR
 10
0.0
 20
1.0
 30
0.0
  9
$PUCSORTHOREF
  2

  9
$PUCSORTHOVIEW
 70
     0
  9
$PUCSORGTOP
 10
0.0
 20
0.0
 30
0.0
  9
$PUCSORGBOTTOM
 10
0.0
 20
0.0
 30
0.0
  9
$PUCSORGLEFT
 10
0.0
 20
0.0
 30
0.0
  9
$PUCSORGRIGHT
 10
0.0
 20
0.0
 30
0.0
  9
$PUCSORGFRONT
 10
0.0
 20
0.0
 30
0.0
  9
$PUCSORGBACK
 10
0.0
 20
0.0
 30
0.0
  9
$USERI1
 70
     0
  9
$USERI2
 70
     0
  9
$USERI3
 70
     0
  9
$USERI4
 70
     0
  9
$USERI5
 70
     0
  9
$USERR1
 40
0.0
  9
$USERR2
 40
0.0
  9
$USERR3
 40
0.0
  9
$USERR4
 40
0.0
  9
$USERR5
 40
0.0
  9
$WORLDVIEW
 70
     1
  9
$SHADEDGE
 70
     3
  9
$SHADEDIF
 70
    70
  9
$TILEMODE
 70
     1
  9
$MAXACTVP
 70
    64
  9
$PINSBASE
 10
0.0
 20
0.0
 30
0.0
  9
$PLIMCHECK
 70
     0
  9
$PEXTMIN
 10
1.000000000000000E+20
 20
1.000000000000000E+20
 30
1.000000000000000E+20
  9
$PEXTMAX
 10
-1.000000000000000E+20
 20
-1.000000000000000E+20
 30
-1.000000000000000E+20
  9
$PLIMMIN
 10
0.0
 20
0.0
  9
$PLIMMAX
 10
420.0
 20
297.0
  9
$UNITMODE
 70
     0
  9
$VISRETAIN
 70
     1
  9
$PLINEGEN
 70
     0
  9
$PSLTSCALE
 70
     1
  9
$TREEDEPTH
 70
  3020
  9
$CMLSTYLE
  2
Standard
  9
$CMLJUST
 70
     0
  9
$CMLSCALE
 40
20.0
  9
$PROXYGRAPHICS
 70
     1
  9
$MEASUREMENT
 70
     1
  9
$CELWEIGHT
370
    -1
  9
$ENDCAPS
280
     0
  9
$JOINSTYLE
280
     0
  9
$LWDISPLAY
290
     0
  9
$INSUNITS
 70
     4
  9
$HYPERLINKBASE
  1

  9
$STYLESHEET
  1

  9
$XEDIT
290
     1
  9
$CEPSNTYPE
380
     0
  9
$PSTYLEMODE
290
     1
  9
$FINGERPRINTGUID
  2
{C113194A-3DC5-4D2C-979F-59FDD83E45B6}
  9
$VERSIONGUID
  2
{E46040CB-242D-4470-BF68-57B7F5B80A06}
  9
$EXTNAMES
290
     1
  9
$PSVPSCALE
 40
0.0
  9
$OLESTARTUP
290
     0
  0
ENDSEC
  0
SECTION
  2
CLASSES
  0
CLASS
  1
ACDBDICTIONARYWDFLT
  2
AcDbDictionaryWithDefault
  3
ObjectDBX Classes
 90
        0
280
     0
281
     0
  0
CLASS
  1
ACDBPLACEHOLDER
  2
AcDbPlaceHolder
  3
ObjectDBX Classes
 90
        0
280
     0
281
     0
  0
CLASS
  1
LAYOUT
  2
AcDbLayout
  3
ObjectDBX Classes
 90
        0
280
     0
281
     0
  0
CLASS
  1
ACME_DOCUMENT
  2
AcMeDbDoc
  3
AcMeServices
 90
        0
280
     1
281
     0
  0
CLASS
  1
AMGSETTINGSOBJ
  2
AmgSettingsObj
  3
"AcadM|Product Description: AutoCAD Mechanical 2000|Company: Autodesk"
 90
        0
280
     1
281
     0
  0
CLASS
  1
ACMESCOPE
  2
AcMeScope
  3
AcMeServices
 90
        0
280
     1
281
     0
  0
CLASS
  1
ACMECOMMANDHISTORY
  2
AcMeCommandHistory
  3
AcMeServices
 90
        0
280
     1
281
     0
  0
CLASS
  1
ACIMSYSVARMAN
  2
AcImSysVarManager
  3
AcMeServices
 90
        0
280
     1
281
     0
  0
CLASS
  1
ACIMREALSYSVAR
  2
AcImRealSysVar
  3
AcMeServices
 90
        0
280
     1
281
     0
  0
CLASS
  1
ACIMINTSYSVAR
  2
AcImIntSysVar
  3
AcMeServices
 90
        0
280
     1
281
     0
  0
CLASS
  1
ACMEDRAWINGMAN
  2
AcMeDrawingMan
  3
AcMeServices
 90
        0
280
     1
281
     0
  0
CLASS
  1
ACMEVIEW
  2
AcMeView
  3
AcMeServices
 90
        0
280
     1
281
     0
  0
CLASS
  1
ACDBENTITYCACHE
  2
AcMeEntityCache
  3
AcMeServices
 90
        0
280
     1
281
     0
  0
CLASS
  1
GSMANAGER
  2
AcMeGSManager
  3
AcMeServices
 90
        0
280
     1
281
     0
  0
CLASS
  1
AMDTINTERNALREACTOR
  2
AmdtInternalReactor
  3
AcMeServices
 90
        0
280
     1
281
     0
  0
CLASS
  1
ACMESTATEMGR
  2
AcMeStateMgr
  3
AcMeServices
 90
        0
280
     1
281
     0
  0
CLASS
  1
ACGREFMASTER
  2
AcGrefMaster
  3
AcAttribServices
 90
        0
280
     1
281
     0
  0
CLASS
  1
ACME_DATABASE
  2
AcMeDbDatabase
  3
AcMeServices
 90
        0
280
     1
281
     0
  0
CLASS
  1
ACRFINSADJUSTERMGR
  2
AcRfInsAdjusterMgr
  3
AcMeServices
 90
        0
280
     1
281
     0
  0
CLASS
  1
ACGREFACADMASTER
  2
AcGrefacadMaster
  3
AcGrefServices
 90
        0
280
     1
281
     0
  0
CLASS
  1
AMIMASTER
  2
AmiMaster
  3
AmiServices
 90
        0
280
     1
281
     0
  0
CLASS
  1
ACMDATADICTIONARY
  2
AcmDataDictionary
  3
"AcmSymBB|Product Description: AutoCAD Mechanical 2004 DX|Company: Autodesk"
 90
        0
280
     1
281
     0
  0
CLASS
  1
ACMDATAENTRYBLOCK
  2
AcmDataEntryBlock
  3
"AcmSymBB|Product Description: AutoCAD Mechanical 2004 DX|Company: Autodesk"
 90
        0
280
     1
281
     0
  0
CLASS
  1
ACIMSTRSYSVAR
  2
AcImStrSysVar
  3
AcMeServices
 90
        0
280
     1
281
     0
  0
CLASS
  1
ACMSTANDARDISO
  2
AcmStandardISO
  3
"Amdt_StdImp|Product Description: AutoCAD Mechanical 2004 DX|Company: Autodesk"
 90
        0
280
     1
281
     0
  0
CLASS
  1
AMGOBJPROPCFG
  2
AmgObjPropCfg
  3
"AmgLay|Product Description: AutoCAD Mechanical 2000|Company: Autodesk"
 90
        1
280
     1
281
     0
  0
CLASS
  1
AMDTEDGESTANDARDISO
  2
AmdtEdgeStdISO
  3
"Amdt_StdImp|Product Description: AutoCAD Mechanical 2004 DX|Company: Autodesk"
 90
        0
280
     1
281
     0
  0
CLASS
  1
ACMSURFSTANDARDISO
  2
AcmSurfTextStdISO
  3
"Amdt_StdImp|Product Description: AutoCAD Mechanical 2004 DX|Company: Autodesk"
 90
        0
280
     1
281
     0
  0
CLASS
  1
ACMFCFSTANDARDISO
  2
AcmFCFStdISO
  3
"Amdt_StdImp|Product Description: AutoCAD Mechanical 2004 DX|Company: Autodesk"
 90
        0
280
     1
281
     0
  0
CLASS
  1
ACMWELDSTANDARDISO
  2
AcmWeldingStdISO
  3
"Amdt_StdImp|Product Description: AutoCAD Mechanical 2004 DX|Company: Autodesk"
 90
        0
280
     1
281
     0
  0
CLASS
  1
ACMIDSTANDARDISO
  2
AcmIdStdISO
  3
"Amdt_StdImp|Product Description: AutoCAD Mechanical 2004 DX|Company: Autodesk"
 90
        0
280
     1
281
     0
  0
CLASS
  1
ACMDATUMSTANDARDISO
  2
AcmDatumStdISO
  3
"Amdt_StdImp|Product Description: AutoCAD Mechanical 2004 DX|Company: Autodesk"
 90
        0
280
     1
281
     0
  0
CLASS
  1
ACMBOMSTANDARDISO
  2
AcmBOMStdISO
  3
"Amdt_StdImp|Product Description: AutoCAD Mechanical 2004 DX|Company: Autodesk"
 90
        0
280
     1
281
     0
  0
CLASS
  1
ACMDETAILSTANDARDISO
  2
AmdtDetailSymStdISO
  3
"Amdt_StdImp|Product Description: AutoCAD Mechanical 2004 DX|Company: Autodesk"
 90
        0
280
     1
281
     0
  0
CLASS
  1
ACMSECTIONSTANDARDISO
  2
AmdtSectionSymStdISO
  3
"Amdt_StdImp|Product Description: AutoCAD Mechanical 2004 DX|Company: Autodesk"
 90
        0
280
     1
281
     0
  0
CLASS
  1
ACMCENTERLINESTANDARDISO
  2
AmdtCenterLineStdISO
  3
"Amdt_StdImp|Product Description: AutoCAD Mechanical 2004 DX|Company: Autodesk"
 90
        0
280
     1
281
     0
  0
CLASS
  1
ACMNOTESTANDARDISO
  2
AmdtNoteStdISO
  3
"Amdt_StdImp|Product Description: AutoCAD Mechanical 2004 DX|Company: Autodesk"
 90
        0
280
     1
281
     0
  0
CLASS
  1
ACAMGLAYSTD
  2
AcAmgLayStd
  3
"AcAmgLayStd|Product Description: AutoCAD Mechanical 2000|Company: Autodesk"
 90
        0
280
     1
281
     0
  0
CLASS
  1
ACAMGDIMSTD
  2
AcAmgDimStd
  3
"AcAmgDimStd|Product Description: AutoCAD Mechanical 2000|Company: Autodesk"
 90
        0
280
     1
281
     0
  0
CLASS
  1
ACAMGHOLECHARTSTDISO
  2
AcAmgHoleChartStdISO
  3
ACMSYMBB_MODULE_NAME
 90
        0
280
     1
281
     0
  0
CLASS
  1
ACAMGTITLESTD
  2
AcAmgTitleStd
  3
"TITLEAPP"
 90
        0
280
     1
281
     0
  0
CLASS
  1
LAYER_INDEX
  2
AcDbLayerIndex
  3
ObjectDBX Classes
 90
        0
280
     0
281
     0
  0
CLASS
  1
IDBUFFER
  2
AcDbIdBuffer
  3
ObjectDBX Classes
 90
        0
280
     0
281
     0
  0
CLASS
  1
DICTIONARYVAR
  2
AcDbDictionaryVar
  3
ObjectDBX Classes
 90
        0
280
     0
281
     0
  0
CLASS
  1
AM_DRAWING_MGR
  2
AcDmDwgMgr
  3
AcMechDwgViewMgmt
 90
        0
280
     1
281
     0
  0
CLASS
  1
AM_DWG_DOCUMENT
  2
AcDmDwgDocument
  3
AcMechDwgViewMgmt
 90
        0
280
     1
281
     0
  0
CLASS
  1
AM_DWG_SHEET
  2
AcDmSheet
  3
AcMechDwgViewMgmt
 90
        0
280
     1
281
     0
  0
CLASS
  1
AM_VIEWDIMPARMAP
  2
AcDmViewDimParMap
  3
AcMechDwgViewMgmt
 90
        0
280
     1
281
     0
  0
CLASS
  1
AM_DWGMGR_NAME
  2
AcDmDwgMgrName
  3
AcMechDwgViewMgmt
 90
        0
280
     1
281
     0
  0
CLASS
  1
AMDTMENUSTATEMGR
  2
AmdtMenuStateMgr
  3
McadcomServices
 90
        0
280
     1
281
     0
  0
CLASS
  1
AMDTMCOMMENUSTATE
  2
AmdtMcomMenuState
  3
McadcomServices
 90
        0
280
     1
281
     0
  0
CLASS
  1
MAPIAMMOUDLE
  2
MApiAmModule
  3
MApiAmServices
 90
        0
280
     1
281
     0
  0
CLASS
  1
AMDTADMENUSTATE
  2
AmdtAdMenuState
  3
DesignerServices
 90
        0
280
     1
281
     0
  0
CLASS
  1
ADAPPL
  2
AcAdAppl
  3
DesignerServices
 90
        0
280
     1
281
     0
  0
CLASS
  1
DEPMGR
  2
AcAdDepMgr
  3
DesignerServices
 90
        0
280
     1
281
     0
  0
CLASS
  1
PARAMMGR
  2
AcAdParamMgr
  3
DesignerServices
 90
        0
280
     1
281
     0
  0
CLASS
  1
PARAMSCOPE
  2
AcAdParamScope
  3
DesignerServices
 90
        0
280
     1
281
     0
  0
CLASS
  1
NAMEDAPPL
  2
AcAdNamedAppl
  3
DesignerServices
 90
        0
280
     1
281
     0
  0
CLASS
  1
AMDTDMMENUSTATE
  2
AmdtDmMenuState
  3
AcMechDwgViewMgmt
 90
        0
280
     1
281
     0
  0
CLASS
  1
AMDTAMMENUSTATE
  2
AmdtAmMenuState
  3
DesignerAssemblies
 90
        0
280
     1
281
     0
  0
CLASS
  1
ACAMPROJECT
  2
AcAmProject
  3
DesignerAssemblies
 90
        0
280
     1
281
     0
  0
CLASS
  1
ACAMGRCOMPDEF
  2
AcAmGrCompDef
  3
DesignerAssemblies
 90
        0
280
     1
281
     0
  0
CLASS
  1
ACCMCONTEXT
  2
AcCmContext
  3
DesignerAssemblies
 90
        0
280
     1
281
     0
  0
CLASS
  1
ACAMCOMPDEF
  2
AcAmCompDef
  3
DesignerAssemblies
 90
        0
280
     1
281
     0
  0
CLASS
  1
ACAMCOMPDEFMGR
  2
AcAmCompDefMgr
  3
DesignerAssemblies
 90
        0
280
     1
281
     0
  0
CLASS
  1
AMCONTEXTMGR
  2
AcAmContextMgr
  3
DesignerAssemblies
 90
        0
280
     1
281
     0
  0
CLASS
  1
ACAMCONTEXTMODELER
  2
AcAmContextModeler
  3
DesignerAssemblies
 90
        0
280
     1
281
     0
  0
CLASS
  1
ACMTHREADLINESTANDARDISO
  2
AmdtThreadLineStdISO
  3
"Amdt_StdImp|Product Description: AutoCAD Mechanical 2004 DX|Company: Autodesk"
 90
        0
280
     1
281
     0
  0
CLASS
  1
CATALOGSTATE
  2
AcAmCatalogState
  3
DesignerAssemblies
 90
        0
280
     1
281
     0
  0
CLASS
  1
ACAMGRCOMPDEFSET
  2
AcAmGrCompDefSet
  3
DesignerAssemblies
 90
        0
280
     1
281
     0
  0
CLASS
  1
AMDTBROWSERDBTAB
  2
AmdtBrowserDbTab
  3
McadcomServices
 90
        0
280
     1
281
     0
  0
CLASS
  1
CBROWSERAPPOBJECT
  2
CBrowserAppObject
  3
McadcomServices
 90
        0
280
     1
281
     0
  0
CLASS
  1
DM_PLACEHOLDER
  2
AcDmSelsetPlaceholder
  3
AcMechDwgViewMgmt
 90
        0
280
     1
281
     0
  0
CLASS
  1
TABLESTYLE
  2
AcDbTableStyle
  3
ObjectDBX Classes
 90
     2047
280
     0
281
     0
  0
CLASS
  1
VAACXREFPANELOBJECT
  2
VaAcXREFPanelObject
  3
VAAC_ADDIN
 90
        0
280
     1
281
     0
  0
CLASS
  1
VAACIMAGEINVENTORY
  2
VaAcImageInventory
  3
VAAC_ADDIN
 90
        0
280
     1
281
     0
  0
CLASS
  1
AMDTNOTETEMPLATEDB
  2
AmdtNoteTemplateDB
  3
AMDT_STDIMP_MODULE_NAME
 90
        0
280
     1
281
     0
  0
CLASS
  1
ACMBOM
  2
AcmBom
  3
"AcmSymBB|Product Description: AutoCAD Mechanical 2004 DX|Company: Autodesk"
 90
        0
280
     1
281
     0
  0
CLASS
  1
AMDTFORMULAUPDATEDISPATCHER
  2
AmdtFormulaUpdateDispatcher
  3
AcMeServices
 90
        0
280
     1
281
     0
  0
CLASS
  1
ACMPARTLIST
  2
AcmPartList
  3
"AcmSymBB|Product Description: AutoCAD Mechanical 2004 DX|Company: Autodesk"
 90
     1023
280
     1
281
     1
  0
CLASS
  1
ACAMGFILTERDAT
  2
AcAmgFilterDat
  3
"AcadM|Product Description: AutoCAD Mechanical 2000|Company: Autodesk"
 90
        0
280
     1
281
     0
  0
CLASS
  1
ACMSTANDARDJIS
  2
AcmStandardJIS
  3
"Amdt_StdImp|Product Description: AutoCAD Mechanical 2004 DX|Company: Autodesk"
 90
        0
280
     1
281
     0
  0
CLASS
  1
ACMSURFSTANDARDJIS
  2
AcmSurfTextStdJIS
  3
"Amdt_StdImp|Product Description: AutoCAD Mechanical 2004 DX|Company: Autodesk"
 90
        0
280
     1
281
     0
  0
CLASS
  1
ACMFCFSTANDARDJIS98
  2
AcmFCFStdJIS98
  3
"Amdt_StdImp|Product Description: AutoCAD Mechanical 2004 DX|Company: Autodesk"
 90
        0
280
     1
281
     0
  0
CLASS
  1
ACMWELDSTANDARDJIS
  2
AcmWeldingStdJIS
  3
"Amdt_StdImp|Product Description: AutoCAD Mechanical 2004 DX|Company: Autodesk"
 90
        0
280
     1
281
     0
  0
CLASS
  1
ACMIDSTANDARDJIS
  2
AcmIdStdJIS
  3
"Amdt_StdImp|Product Description: AutoCAD Mechanical 2004 DX|Company: Autodesk"
 90
        0
280
     1
281
     0
  0
CLASS
  1
ACMDATUMSTANDARDJIS
  2
AcmDatumStdJIS
  3
"Amdt_StdImp|Product Description: AutoCAD Mechanical 2004 DX|Company: Autodesk"
 90
        0
280
     1
281
     0
  0
CLASS
  1
ACMBOMSTANDARDJIS
  2
AcmBOMStdJIS
  3
"Amdt_StdImp|Product Description: AutoCAD Mechanical 2004 DX|Company: Autodesk"
 90
        0
280
     1
281
     0
  0
CLASS
  1
ACMDETAILSTANDARDJIS
  2
AmdtDetailSymStdJIS
  3
"Amdt_StdImp|Product Description: AutoCAD Mechanical 2004 DX|Company: Autodesk"
 90
        0
280
     1
281
     0
  0
CLASS
  1
ACMSECTIONSTANDARDJIS
  2
AmdtSectionSymStdJIS
  3
"Amdt_StdImp|Product Description: AutoCAD Mechanical 2004 DX|Company: Autodesk"
 90
        0
280
     1
281
     0
  0
CLASS
  1
ACMCENTERLINESTANDARDJIS
  2
AmdtCenterLineStdJIS
  3
"Amdt_StdImp|Product Description: AutoCAD Mechanical 2004 DX|Company: Autodesk"
 90
        0
280
     1
281
     0
  0
CLASS
  1
ACMTHREADLINESTANDARDJIS
  2
AmdtThreadLineStdJIS
  3
"Amdt_StdImp|Product Description: AutoCAD Mechanical 2004 DX|Company: Autodesk"
 90
        0
280
     1
281
     0
  0
CLASS
  1
ACMNOTESTANDARDJIS
  2
AmdtNoteStdJIS
  3
"Amdt_StdImp|Product Description: AutoCAD Mechanical 2004 DX|Company: Autodesk"
 90
        0
280
     1
281
     0
  0
CLASS
  1
ACAMGHOLECHARTSTDJIS
  2
AcAmgHoleChartStdJIS
  3
ACMSYMBB_MODULE_NAME
 90
        0
280
     1
281
     0
  0
CLASS
  1
SORTENTSTABLE
  2
AcDbSortentsTable
  3
ObjectDBX Classes
 90
        0
280
     0
281
     0
  0
CLASS
  1
DIMASSOC
  2
AcDbDimAssoc
  3
"AcDbDimAssoc|Product Desc:     AcDim ARX App For Dimension|Company:          Autodesk, Inc.|WEB Address:      www.autodesk.com"
 90
        0
280
     0
281
     0
  0
ENDSEC
  0
SECTION
  2
TABLES
  0
TABLE
  2
VPORT
  5
8
330
0
100
AcDbSymbolTable
 70
     3
  0
VPORT
  5
F377
330
8
100
AcDbSymbolTableRecord
100
AcDbViewportTableRecord
  2
*Active
 70
     0
 10
0.0
 20
0.0
 11
1.0
 21
1.0
 12
79.51013221514772
 22
-25.65276517569947
 13
0.0
 23
0.0
 14
2.5
 24
2.5
 15
10.0
 25
10.0
 16
0.0
 26
0.0
 36
1.0
 17
0.0
 27
0.0
 37
0.0
 40
113.3343952581707
 41
1.890557939914163
 42
50.0
 43
0.0
 44
0.0
 50
0.0
 51
0.0
 71
     0
 72
 20000
 73
     1
 74
     3
 75
     0
 76
     0
 77
     0
 78
     0
281
     0
 65
     1
110
0.0
120
0.0
130
0.0
111
1.0
121
0.0
131
0.0
112
0.0
122
1.0
132
0.0
 79
     0
146
0.0
  0
ENDTAB
  0
TABLE
  2
LTYPE
  5
5
330
0
100
AcDbSymbolTable
 70
    17
  0
LTYPE
  5
14
330
5
100
AcDbSymbolTableRecord
100
AcDbLinetypeTableRecord
  2
ByBlock
 70
     0
  3

 72
    65
 73
     0
 40
0.0
  0
LTYPE
  5
15
330
5
100
AcDbSymbolTableRecord
100
AcDbLinetypeTableRecord
  2
ByLayer
 70
     0
  3

 72
    65
 73
     0
 40
0.0
  0
LTYPE
  5
16
330
5
100
AcDbSymbolTableRecord
100
AcDbLinetypeTableRecord
  2
Continuous
 70
     0
  3
Solid line
 72
    65
 73
     0
 40
0.0
  0
LTYPE
  5
64
330
5
100
AcDbSymbolTableRecord
100
AcDbLinetypeTableRecord
  2
AM_ISO02W050
 70
     0
  3
__ __ __ __ __ __ __ __ __ __ __ __ __ __ __
 72
    65
 73
     2
 40
7.5
 49
6.0
 74
     0
 49
-1.5
 74
     0
  0
LTYPE
  5
65
330
5
100
AcDbSymbolTableRecord
100
AcDbLinetypeTableRecord
  2
AM_ISO08W050
 70
     0
  3
____ . ____ . ____ . ____ . ____ . ____ . ____
 72
    65
 73
     4
 40
18.0
 49
12.0
 74
     0
 49
-1.5
 74
     0
 49
3.0
 74
     0
 49
-1.5
 74
     0
  0
LTYPE
  5
66
330
5
100
AcDbSymbolTableRecord
100
AcDbLinetypeTableRecord
  2
AM_ISO09W050
 70
     0
  3
_____ . . _____ . . _____ . . ____ .. ____
 72
    65
 73
     6
 40
22.5
 49
12.0
 74
     0
 49
-1.5
 74
     0
 49
3.0
 74
     0
 49
-1.5
 74
     0
 49
3.0
 74
     0
 49
-1.5
 74
     0
  0
LTYPE
  5
67
330
5
100
AcDbSymbolTableRecord
100
AcDbLinetypeTableRecord
  2
Amconstr
 70
     0
  3
_______________________
 72
    65
 73
     2
 40
9999.0
 49
9999.0
 74
     0
 49
0.0
 74
     0
  0
LTYPE
  5
68
330
5
100
AcDbSymbolTableRecord
100
AcDbLinetypeTableRecord
  2
AM_ISO08W050x2
 70
     0
  3
__ . __ . __ . __ . __ . __
 72
    65
 73
     4
 40
9.0
 49
6.0
 74
     0
 49
-0.75
 74
     0
 49
1.5
 74
     0
 49
-0.75
 74
     0
  0
LTYPE
  5
69
330
5
100
AcDbSymbolTableRecord
100
AcDbLinetypeTableRecord
  2
AM_ISO02W050x2
 70
     0
  3
 _ _ _ _ _ _ _ _ _ _ _ _
 72
    65
 73
     2
 40
3.75
 49
3.0
 74
     0
 49
-0.75
 74
     0
  0
LTYPE
  5
6C
330
5
100
AcDbSymbolTableRecord
100
AcDbLinetypeTableRecord
  2
Amzigzag
 70
     0
  3
/\/-/\/-/\/-/\/-/\/-/\/
 72
    65
 73
     2
 40
11.0001
 49
0.0001
 74
     4
 75
   135
340
6B
 46
0.04
 50
0.0
 44
0.0
 45
0.0
 49
-11.0
 74
     0
  0
LTYPE
  5
7A
330
5
100
AcDbSymbolTableRecord
100
AcDbLinetypeTableRecord
  2
ACISOWELD
 70
     0
  3
_ _ _ _ _
 72
    65
 73
     2
 40
2.0
 49
2.0
 74
     0
 49
-1.0
 74
     0
  0
LTYPE
  5
7B
330
5
100
AcDbSymbolTableRecord
100
AcDbLinetypeTableRecord
  2
ACISOTGB
 70
     0
  3
__ . . __ . .
 72
    65
 73
     6
 40
9.0
 49
4.0
 74
     0
 49
-1.0
 74
     0
 49
1.0
 74
     0
 49
-1.0
 74
     0
 49
1.0
 74
     0
 49
-1.0
 74
     0
  0
LTYPE
  5
7C
330
5
100
AcDbSymbolTableRecord
100
AcDbLinetypeTableRecord
  2
ACISOTGL
 70
     0
  3
_ _ _ _ _
 72
    65
 73
     2
 40
3.0
 49
2.0
 74
     0
 49
-1.0
 74
     0
  0
LTYPE
  5
7E
330
5
100
AcDbSymbolTableRecord
100
AcDbLinetypeTableRecord
  2
CENTER
 70
     0
  3
__ . __
 72
    65
 73
     4
 40
7.0
 49
4.0
 74
     0
 49
-1.0
 74
     0
 49
1.0
 74
     0
 49
-1.0
 74
     0
  0
LTYPE
  5
D8
330
5
100
AcDbSymbolTableRecord
100
AcDbLinetypeTableRecord
  2
HIDDEN
 70
     0
  3
Hidden __ __ __ __ __ __ __ __ __ __ __ __ __ _
 72
    65
 73
     2
 40
9.524999999999999
 49
6.35
 74
     0
 49
-3.175
 74
     0
  0
LTYPE
  5
D9
330
5
100
AcDbSymbolTableRecord
100
AcDbLinetypeTableRecord
  2
PHANTOM2
 70
     0
  3
Phantom (.5x) ___ _ _ ___ _ _ ___ _ _ ___ _ _
 72
    65
 73
     6
 40
31.75
 49
15.875
 74
     0
 49
-3.175
 74
     0
 49
3.175
 74
     0
 49
-3.175
 74
     0
 49
3.175
 74
     0
 49
-3.175
 74
     0
  0
LTYPE
  5
20C
330
5
100
AcDbSymbolTableRecord
100
AcDbLinetypeTableRecord
  2
ACJISWELD
 70
     0
  3
_ _ _ _ _
 72
    65
 73
     2
 40
2.0
 49
2.0
 74
     0
 49
-1.0
 74
     0
  0
LTYPE
  5
20D
330
5
100
AcDbSymbolTableRecord
100
AcDbLinetypeTableRecord
  2
ACJISTGB
 70
     0
  3
__ . . __ . .
 72
    65
 73
     6
 40
9.0
 49
4.0
 74
     0
 49
-1.0
 74
     0
 49
1.0
 74
     0
 49
-1.0
 74
     0
 49
1.0
 74
     0
 49
-1.0
 74
     0
  0
LTYPE
  5
20E
330
5
100
AcDbSymbolTableRecord
100
AcDbLinetypeTableRecord
  2
ACJISTGL
 70
     0
  3
_ _ _ _ _
 72
    65
 73
     2
 40
3.0
 49
2.0
 74
     0
 49
-1.0
 74
     0
  0
ENDTAB
  0
TABLE
  2
LAYER
  5
2
102
{ACAD_XDICTIONARY
360
34B
102
}
330
0
100
AcDbSymbolTable
 70
     6
  0
LAYER
  5
10
330
2
100
AcDbSymbolTableRecord
100
AcDbLayerTableRecord
  2
0
 70
     0
 62
     7
  6
Continuous
370
    -3
390
F
  0
LAYER
  5
34A
330
2
100
AcDbSymbolTableRecord
100
AcDbLayerTableRecord
  2
AM_0
 70
     0
 62
     7
  6
Continuous
370
    30
390
F
  0
LAYER
  5
3AD
330
2
100
AcDbSymbolTableRecord
100
AcDbLayerTableRecord
  2
AM_5
 70
     0
 62
     3
  6
Continuous
370
    13
390
F
  0
LAYER
  5
507
330
2
100
AcDbSymbolTableRecord
100
AcDbLayerTableRecord
  2
AM_7
 70
     0
 62
     4
  6
AM_ISO08W050
370
    13
390
F
  0
LAYER
  5
65E
330
2
100
AcDbSymbolTableRecord
100
AcDbLayerTableRecord
  2
Defpoints
 70
     0
 62
     7
  6
Continuous
290
     0
370
    -3
390
F
  0
LAYER
  5
12A4
330
2
100
AcDbSymbolTableRecord
100
AcDbLayerTableRecord
  2
AM_11
 70
     0
 62
     3
  6
AM_ISO09W050
370
    13
390
F
  0
ENDTAB
  0
TABLE
  2
STYLE
  5
3
330
0
100
AcDbSymbolTable
 70
     6
  0
STYLE
  5
11
330
3
100
AcDbSymbolTableRecord
100
AcDbTextStyleTableRecord
  2
STANDARD
 70
     0
 40
0.0
 41
1.0
 50
0.0
 71
     0
 42
3.8
  3
ISOCP.SHX
  4
EXTFONT.SHX
  0
STYLE
  5
6B
330
3
100
AcDbSymbolTableRecord
100
AcDbTextStyleTableRecord
  2

 70
     1
 40
0.0
 41
1.0
 50
0.0
 71
     0
 42
2.5
  3
ltypeshp.shx
  4

  0
STYLE
  5
6D
330
3
100
AcDbSymbolTableRecord
100
AcDbTextStyleTableRecord
  2
ACISOTS
 70
     0
 40
3.8
 41
1.0
 50
0.0
 71
     0
 42
3.8
  3
isocp.shx
  4
extfont.shx
  0
STYLE
  5
79
330
3
100
AcDbSymbolTableRecord
100
AcDbTextStyleTableRecord
  2
ACISOGDT
 70
     0
 40
0.0
 41
1.0
 50
0.0
 71
     0
 42
2.5
  3
amgdt.shx
  4
extfont.shx
  0
STYLE
  5
1FF
330
3
100
AcDbSymbolTableRecord
100
AcDbTextStyleTableRecord
  2
ACJISTS
 70
     0
 40
1.0
 41
1.0
 50
0.0
 71
     0
 42
1.0
  3
isocp.shx
  4
extfont.shx
  0
STYLE
  5
20B
330
3
100
AcDbSymbolTableRecord
100
AcDbTextStyleTableRecord
  2
ACJISGDT
 70
     0
 40
0.0
 41
1.0
 50
0.0
 71
     0
 42
1.0
  3
amgdt.shx
  4

  0
ENDTAB
  0
TABLE
  2
VIEW
  5
6
330
0
100
AcDbSymbolTable
 70
     0
  0
ENDTAB
  0
TABLE
  2
UCS
  5
7
330
0
100
AcDbSymbolTable
 70
     0
  0
ENDTAB
  0
TABLE
  2
APPID
  5
9
330
0
100
AcDbSymbolTable
 70
    18
  0
APPID
  5
12
330
9
100
AcDbSymbolTableRecord
100
AcDbRegAppTableRecord
  2
ACAD
 70
     0
  0
APPID
  5
46
330
9
100
AcDbSymbolTableRecord
100
AcDbRegAppTableRecord
  2
MCAD_NO_VIS
 70
     0
  0
APPID
  5
47
330
9
100
AcDbSymbolTableRecord
100
AcDbRegAppTableRecord
  2
ACAD_TEMP_GRAPHIC
 70
     0
  0
APPID
  5
58
330
9
100
AcDbSymbolTableRecord
100
AcDbRegAppTableRecord
  2
ACATTRIBSERVICES
 70
     0
  0
APPID
  5
EE
330
9
100
AcDbSymbolTableRecord
100
AcDbRegAppTableRecord
  2
AD_DRAW
 70
     0
  0
APPID
  5
10C
330
9
100
AcDbSymbolTableRecord
100
AcDbRegAppTableRecord
  2
DESIGNERASSEMBLIES
 70
     0
  0
APPID
  5
111
330
9
100
AcDbSymbolTableRecord
100
AcDbRegAppTableRecord
  2
ACADM_DIM_EDIT
 70
     0
  0
APPID
  5
112
330
9
100
AcDbSymbolTableRecord
100
AcDbRegAppTableRecord
  2
AMDT_DM_ADJ
 70
     0
  0
APPID
  5
243
330
9
100
AcDbSymbolTableRecord
100
AcDbRegAppTableRecord
  2
ACAD_DSTYLE_DIMTEXT_FILL
 70
     0
  0
APPID
  5
448
330
9
100
AcDbSymbolTableRecord
100
AcDbRegAppTableRecord
  2
GENIUS_GENODEF_13
 70
     0
  0
APPID
  5
449
330
9
100
AcDbSymbolTableRecord
100
AcDbRegAppTableRecord
  2
GENIUS_GENOBJ-N-FIL_13
 70
     0
  0
APPID
  5
509
330
9
100
AcDbSymbolTableRecord
100
AcDbRegAppTableRecord
  2
GENIUS_GENOBJ-N-CEN_13
 70
     0
  0
APPID
  5
50A
330
9
100
AcDbSymbolTableRecord
100
AcDbRegAppTableRecord
  2
GENIUS_GENCEN_19
 70
     0
  0
APPID
  5
FF0
330
9
100
AcDbSymbolTableRecord
100
AcDbRegAppTableRecord
  2
ACAD_DIMASSOC_DIMLFAC
 70
     0
  0
APPID
  5
FF1
330
9
100
AcDbSymbolTableRecord
100
AcDbRegAppTableRecord
  2
ACAD_DIMASSOC_CALC_DIMLFAC
 70
     0
  0
APPID
  5
FF2
330
9
100
AcDbSymbolTableRecord
100
AcDbRegAppTableRecord
  2
ACAD_DIMASSOC_OVERRIDDEN_DIMLFAC
 70
     0
  0
APPID
  5
1E5B
330
9
100
AcDbSymbolTableRecord
100
AcDbRegAppTableRecord
  2
GENIUS_GENBLLY_14
 70
     0
  0
APPID
  5
1E68
330
9
100
AcDbSymbolTableRecord
100
AcDbRegAppTableRecord
  2
GENIUS_GENTRA_14
 70
     0
  0
ENDTAB
  0
TABLE
  2
DIMSTYLE
  5
A
330
0
100
AcDbSymbolTable
 70
    17
100
AcDbDimStyleTable
  0
DIMSTYLE
105
81
330
A
100
AcDbSymbolTableRecord
100
AcDbDimStyleTableRecord
  2
AM_ISO
 70
     0
  4
"
 41
2.5
 42
1.0
 43
10.0
 44
1.0
 47
0.1
 48
0.1
 73
     0
 74
     0
 77
     1
 78
     8
 79
     2
140
3.5
141
0.0
143
0.0393701
146
0.71
147
1.5
172
     1
176
   256
177
   256
178
     2
271
     2
272
     3
274
     4
283
     0
284
     8
340
11
371
    -1
372
    -1
  0
DIMSTYLE
105
82
330
A
100
AcDbSymbolTableRecord
100
AcDbDimStyleTableRecord
  2
AM_ISO$3
 70
     0
  4
"
 41
2.5
 42
1.0
 43
10.0
 44
1.0
 47
0.1
 48
0.1
 73
     0
 77
     1
 78
     8
 79
     2
140
3.5
141
0.0
143
0.0393701
146
0.71
147
1.5
176
   256
177
   256
178
     2
271
     2
272
     3
274
     4
283
     0
284
     8
288
     1
289
     0
340
11
371
    -1
372
    -1
  0
DIMSTYLE
105
83
330
A
100
AcDbSymbolTableRecord
100
AcDbDimStyleTableRecord
  2
AM_ISO$4
 70
     0
  4
"
 41
2.5
 42
1.0
 43
10.0
 44
1.0
 47
0.1
 48
0.1
 73
     0
 77
     1
 78
     8
 79
     2
140
3.5
141
0.0
143
0.0393701
146
0.71
147
1.5
176
   256
177
   256
178
     2
271
     2
272
     3
274
     4
283
     0
284
     8
288
     1
289
     0
340
11
371
    -1
372
    -1
  0
DIMSTYLE
105
84
330
A
100
AcDbSymbolTableRecord
100
AcDbDimStyleTableRecord
  2
AM_ISO$6
 70
     0
  4
"
 41
2.5
 42
1.0
 43
10.0
 44
1.0
 47
0.1
 48
0.1
 73
     0
 74
     0
 78
     8
 79
     2
140
3.5
141
0.0
143
0.0393701
146
0.71
147
1.5
172
     1
176
   256
177
   256
178
     2
271
     2
272
     3
274
     4
283
     0
284
     8
340
11
371
    -1
372
    -1
  0
DIMSTYLE
105
85
330
A
100
AcDbSymbolTableRecord
100
AcDbDimStyleTableRecord
  2
AM_ISO$7
 70
     0
  4
"
 41
2.5
 42
1.0
 43
10.0
 44
1.0
 47
0.1
 48
0.1
 73
     0
 74
     0
 77
     1
 78
     8
 79
     2
140
5.0
141
0.0
143
0.0393701
146
0.71
147
1.5
172
     1
176
   256
177
   256
178
     2
271
     2
272
     3
274
     4
283
     0
284
     8
340
11
371
    -1
372
    -1
  0
DIMSTYLE
105
86
330
A
100
AcDbSymbolTableRecord
100
AcDbDimStyleTableRecord
  2
AM_ISO$SF
 70
     0
  4
"
 41
2.5
 42
1.0
 43
10.0
 44
1.0
 47
0.1
 48
0.1
 73
     0
 74
     0
 75
     1
 76
     1
 77
     1
 78
     8
 79
     2
140
3.5
141
0.0
143
0.0393701
146
0.71
147
1.5
172
     1
176
   256
177
   256
178
     2
271
     2
272
     3
274
     4
283
     0
284
     8
340
11
371
    -1
372
    -1
  0
DIMSTYLE
105
8B
330
A
100
AcDbSymbolTableRecord
100
AcDbDimStyleTableRecord
  2
AM_ISO$SH
 70
     0
  4
"
 41
2.5
 42
1.0
 43
10.0
 44
1.0
 47
0.1
 48
0.1
 73
     0
 74
     0
 75
     1
 76
     1
 77
     1
 78
     8
 79
     2
140
3.5
141
0.0
143
0.0393701
144
2.0
146
0.71
147
1.5
172
     1
173
     1
176
   256
177
   256
178
     2
271
     2
272
     3
274
     4
283
     0
284
     8
340
11
343
87
371
    -1
372
    -1
  0
DIMSTYLE
105
216
330
A
100
AcDbSymbolTableRecord
100
AcDbDimStyleTableRecord
  2
AM_JIS
 70
     0
  4
"
 41
2.5
 42
1.0
 43
10.0
 44
1.0
 47
0.1
 48
0.1000000001
 73
     0
 74
     0
 77
     3
 78
     8
 79
     2
140
3.8
141
0.0
143
0.0393701
146
0.71
147
1.5
172
     1
176
   256
177
   256
178
     2
271
     2
272
     2
275
     1
283
     0
284
     8
340
11
341
217
342
217
371
    -1
372
    -1
  0
DIMSTYLE
105
21D
330
A
100
AcDbSymbolTableRecord
100
AcDbDimStyleTableRecord
  2
AM_JIS$3
 70
     0
  4
"
 41
2.5
 42
1.0
 43
10.0
 44
1.0
 47
0.1
 48
0.1000000001
 73
     0
 77
     3
 78
     8
 79
     2
140
3.8
141
0.0
143
0.0393701
146
0.71
147
1.5
176
   256
177
   256
178
     2
271
     2
272
     2
275
     1
283
     0
284
     8
288
     1
289
     0
340
11
341
217
342
217
371
    -1
372
    -1
  0
DIMSTYLE
105
21E
330
A
100
AcDbSymbolTableRecord
100
AcDbDimStyleTableRecord
  2
AM_JIS$4
 70
     0
  4
"
 41
2.5
 42
1.0
 43
10.0
 44
1.0
 47
0.1
 48
0.1000000001
 73
     0
 77
     3
 78
     8
 79
     2
140
3.8
141
0.0
143
0.0393701
146
0.71
147
1.5
176
   256
177
   256
178
     2
271
     2
272
     2
275
     1
283
     0
284
     8
288
     1
289
     0
340
11
341
217
342
217
371
    -1
372
    -1
  0
DIMSTYLE
105
21F
330
A
100
AcDbSymbolTableRecord
100
AcDbDimStyleTableRecord
  2
AM_JIS$6
 70
     0
  4
"
 41
2.5
 42
1.0
 43
10.0
 44
1.0
 47
0.1
 48
0.1000000001
 73
     0
 74
     0
 78
     8
 79
     2
140
3.8
141
0.0
143
0.0393701
146
0.71
147
1.5
172
     1
176
   256
177
   256
178
     2
271
     2
272
     2
275
     1
283
     0
284
     8
340
11
341
217
342
217
371
    -1
372
    -1
  0
DIMSTYLE
105
220
330
A
100
AcDbSymbolTableRecord
100
AcDbDimStyleTableRecord
  2
AM_JIS$7
 70
     0
  4
"
 41
2.5
 42
1.0
 43
10.0
 44
1.0
 47
0.1
 48
0.1000000001
 73
     0
 74
     0
 77
     3
 78
     8
 79
     2
140
5.0
141
0.0
143
0.0393701
146
0.71
147
1.5
172
     1
176
   256
177
   256
178
     2
271
     2
272
     2
275
     1
283
     0
284
     8
340
11
341
217
342
217
371
    -1
372
    -1
  0
DIMSTYLE
105
221
330
A
100
AcDbSymbolTableRecord
100
AcDbDimStyleTableRecord
  2
AM_JIS$SF
 70
     0
  4
"
 41
2.5
 42
1.0
 43
10.0
 44
1.0
 47
0.1
 48
0.1
 73
     0
 74
     0
 75
     1
 76
     1
 77
     3
 78
     8
 79
     2
140
3.5
141
0.0
143
0.0393701
146
0.71
147
1.5
172
     1
176
   256
177
   256
178
     2
271
     2
272
     3
274
     4
283
     0
284
     8
340
11
341
217
342
217
343
217
344
217
371
    -1
372
    -1
  0
DIMSTYLE
105
222
330
A
100
AcDbSymbolTableRecord
100
AcDbDimStyleTableRecord
  2
AM_JIS$SH
 70
     0
  4
"
 41
2.5
 42
1.0
 43
10.0
 44
1.0
 47
0.1
 48
0.1
 73
     0
 74
     0
 75
     1
 76
     1
 77
     3
 78
     8
 79
     2
140
3.5
141
0.0
143
0.0393701
144
2.0
146
0.71
147
1.5
172
     1
173
     1
176
   256
177
   256
178
     2
271
     2
272
     3
274
     4
283
     0
284
     8
340
11
341
217
342
217
343
87
344
217
371
    -1
372
    -1
  0
DIMSTYLE
105
659
102
{ACAD_REACTORS
330
EF2
330
F66
330
F272
330
F27D
330
F288
330
F293
102
}
330
A
100
AcDbSymbolTableRecord
100
AcDbDimStyleTableRecord
  2
AM_JIS$0
 70
     0
  4
"
 41
2.5
 42
1.0
 43
10.0
 44
1.0
 47
0.1
 48
0.1000000001
 73
     0
 74
     0
 77
     3
 78
     8
 79
     2
140
3.8
141
0.0
143
0.0393701
146
0.71
147
1.5
172
     1
176
   256
177
   256
178
     2
271
     2
272
     2
275
     1
283
     0
284
     8
340
11
341
217
342
217
371
    -1
372
    -1
  0
DIMSTYLE
105
FBD
102
{ACAD_REACTORS
330
EBEE
102
}
330
A
100
AcDbSymbolTableRecord
100
AcDbDimStyleTableRecord
  2
AM_JIS$2
 70
     0
  4
"
 41
2.5
 42
1.0
 43
10.0
 44
1.0
 47
0.1
 48
0.1000000001
 73
     0
 74
     0
 77
     3
 78
     8
 79
     2
140
3.8
141
0.0
143
0.0393701
146
0.71
147
1.5
172
     1
176
   256
177
   256
178
     2
271
     2
272
     2
275
     1
283
     0
284
     8
340
11
341
217
342
217
371
    -1
372
    -1
  0
DIMSTYLE
105
1E5A
330
A
100
AcDbSymbolTableRecord
100
AcDbDimStyleTableRecord
  2
Standard
 70
     0
340
11
  0
ENDTAB
  0
TABLE
  2
BLOCK_RECORD
  5
1
330
0
100
AcDbSymbolTable
 70
    20
  0
BLOCK_RECORD
  5
1F
102
{ACAD_XDICTIONARY
360
8F
102
}
330
1
100
AcDbSymbolTableRecord
100
AcDbBlockTableRecord
  2
*Model_Space
340
22
  0
BLOCK_RECORD
  5
1B
330
1
100
AcDbSymbolTableRecord
100
AcDbBlockTableRecord
  2
*Paper_Space
340
1E
  0
BLOCK_RECORD
  5
23
330
1
100
AcDbSymbolTableRecord
100
AcDbBlockTableRecord
  2
*Paper_Space0
340
26
  0
BLOCK_RECORD
  5
87
330
1
100
AcDbSymbolTableRecord
100
AcDbBlockTableRecord
  2
GENAXEH
340
0
  0
BLOCK_RECORD
  5
103
330
1
100
AcDbSymbolTableRecord
100
AcDbBlockTableRecord
  2
*U2
340
0
  0
BLOCK_RECORD
  5
217
330
1
100
AcDbSymbolTableRecord
100
AcDbBlockTableRecord
  2
_Open30
340
0
102
{BLKREFS
331
F2FE
331
F2FF
331
F34B
331
F34C
331
F33F
331
F340
331
F31B
331
F31C
331
F324
331
F325
331
F32D
331
F32E
331
F336
331
F337
102
}
  0
BLOCK_RECORD
  5
EF3
330
1
100
AcDbSymbolTableRecord
100
AcDbBlockTableRecord
  2
*D4
340
0
  0
BLOCK_RECORD
  5
F67
330
1
100
AcDbSymbolTableRecord
100
AcDbBlockTableRecord
  2
*D5
340
0
  0
BLOCK_RECORD
  5
EBEF
330
1
100
AcDbSymbolTableRecord
100
AcDbBlockTableRecord
  2
*D6
340
0
  0
BLOCK_RECORD
  5
F273
330
1
100
AcDbSymbolTableRecord
100
AcDbBlockTableRecord
  2
*D16
340
0
  0
BLOCK_RECORD
  5
F27E
330
1
100
AcDbSymbolTableRecord
100
AcDbBlockTableRecord
  2
*D17
340
0
  0
BLOCK_RECORD
  5
F289
330
1
100
AcDbSymbolTableRecord
100
AcDbBlockTableRecord
  2
*D18
340
0
  0
BLOCK_RECORD
  5
F294
330
1
100
AcDbSymbolTableRecord
100
AcDbBlockTableRecord
  2
*D19
340
0
  0
ENDTAB
  0
ENDSEC
  0
SECTION
  2
BLOCKS
  0
BLOCK
  5
20
330
1F
100
AcDbEntity
  8
0
100
AcDbBlockBegin
  2
*Model_Space
 70
     0
 71
     0
 10
0.0
 20
0.0
 30
0.0
  3
*Model_Space
  1

  0
ENDBLK
  5
21
330
1F
100
AcDbEntity
  8
0
100
AcDbBlockEnd
  0
BLOCK
  5
1C
330
1B
100
AcDbEntity
 67
     1
  8
0
100
AcDbBlockBegin
  2
*Paper_Space
 70
     0
 71
     0
 10
0.0
 20
0.0
 30
0.0
  3
*Paper_Space
  1

  0
ENDBLK
  5
1D
330
1B
100
AcDbEntity
 67
     1
  8
0
100
AcDbBlockEnd
  0
BLOCK
  5
24
330
23
100
AcDbEntity
  8
0
100
AcDbBlockBegin
  2
*Paper_Space0
 70
     0
 71
     0
 10
0.0
 20
0.0
 30
0.0
  3
*Paper_Space0
  1

  0
ENDBLK
  5
25
330
23
100
AcDbEntity
  8
0
100
AcDbBlockEnd
  0
BLOCK
  5
89
330
87
100
AcDbEntity
  8
0
100
AcDbBlockBegin
  2
GENAXEH
 70
     0
 71
     0
 10
0.0
 20
0.0
 30
0.0
  3
GENAXEH
  1

  0
LINE
  5
88
330
87
100
AcDbEntity
  8
0
100
AcDbLine
 10
-1.0
 20
0.0
 30
0.0
 11
1.0
 21
0.0
 31
0.0
  0
ENDBLK
  5
8A
330
87
100
AcDbEntity
  8
0
100
AcDbBlockEnd
  0
BLOCK
  5
104
330
103
100
AcDbEntity
  8
0
100
AcDbBlockBegin
  2
*U2
 70
     1
 71
     0
 10
0.0
 20
0.0
 30
0.0
  3
*U2
  1

  0
ENDBLK
  5
105
330
103
100
AcDbEntity
  8
0
100
AcDbBlockEnd
  0
BLOCK
  5
21B
330
217
100
AcDbEntity
  8
0
100
AcDbBlockBegin
  2
_Open30
 70
     0
 71
     0
 10
0.0
 20
0.0
 30
0.0
  3
_Open30
  1

  0
LINE
  5
218
330
217
100
AcDbEntity
  8
0
  6
ByBlock
 62
     0
370
    -2
100
AcDbLine
 10
-1.0
 20
0.26794919
 30
0.0
 11
0.0
 21
0.0
 31
0.0
  0
LINE
  5
219
330
217
100
AcDbEntity
  8
0
  6
ByBlock
 62
     0
370
    -2
100
AcDbLine
 10
0.0
 20
0.0
 30
0.0
 11
-1.0
 21
-0.26794919
 31
0.0
  0
LINE
  5
21A
330
217
100
AcDbEntity
  8
0
  6
ByBlock
 62
     0
370
    -2
100
AcDbLine
 10
0.0
 20
0.0
 30
0.0
 11
-1.0
 21
0.0
 31
0.0
  0
ENDBLK
  5
21C
330
217
100
AcDbEntity
  8
0
100
AcDbBlockEnd
  0
BLOCK
  5
F1A
330
EF3
100
AcDbEntity
  8
0
100
AcDbBlockBegin
  2
*D4
 70
     1
 71
     0
 10
0.0
 20
0.0
 30
0.0
  3
*D4
  1

  0
LINE
  5
F2FB
330
EF3
100
AcDbEntity
  8
AM_5
100
AcDbLine
 10
167.4127370406828
 20
-8.499999999256252
 30
0.0
 11
185.8933861643862
 21
-8.499999999256257
 31
0.0
  0
LINE
  5
F2FC
330
EF3
100
AcDbEntity
  8
AM_5
100
AcDbLine
 10
166.9487367664889
 20
8.499999999256239
 30
0.0
 11
185.8933861643862
 21
8.499999999256234
 31
0.0
  0
LINE
  5
F2FD
330
EF3
100
AcDbEntity
  8
AM_5
100
AcDbLine
 10
184.8933861643862
 20
-5.999999999256257
 30
0.0
 11
184.8933861643862
 21
5.999999999256234
 31
0.0
  0
INSERT
  5
F2FE
330
EF3
100
AcDbEntity
  8
AM_5
100
AcDbBlockReference
  2
_Open30
 10
184.8933861643862
 20
-8.499999999256257
 30
0.0
 41
2.5
 42
2.5
 43
2.5
 50
270.0
  0
INSERT
  5
F2FF
330
EF3
100
AcDbEntity
  8
AM_5
100
AcDbBlockReference
  2
_Open30
 10
184.8933861643862
 20
8.499999999256234
 30
0.0
 41
2.5
 42
2.5
 43
2.5
 50
90.0
  0
MTEXT
  5
F300
330
EF3
100
AcDbEntity
  8
AM_5
 62
     2
100
AcDbMText
 10
181.4933861643862
 20
-0.2499999999999722
 30
0.0
 40
3.8
 41
0.0
 71
     5
 72
     1
  1
%%c17
 11
6.123031769111886E-17
 21
1.0
 31
0.0
 73
     1
 44
1.0
  0
POINT
  5
F301
330
EF3
100
AcDbEntity
  8
Defpoints
 62
     0
100
AcDbPoint
 10
166.4127370406828
 20
-8.499999999256252
 30
0.0
  0
POINT
  5
F302
330
EF3
100
AcDbEntity
  8
Defpoints
 62
     0
100
AcDbPoint
 10
165.9487367664889
 20
8.499999999256239
 30
0.0
  0
POINT
  5
F303
330
EF3
100
AcDbEntity
  8
Defpoints
 62
     0
100
AcDbPoint
 10
184.8933861643862
 20
8.499999999256234
 30
0.0
  0
ENDBLK
  5
F1B
330
EF3
100
AcDbEntity
  8
0
100
AcDbBlockEnd
  0
BLOCK
  5
F7F
330
F67
100
AcDbEntity
  8
0
100
AcDbBlockBegin
  2
*D5
 70
     1
 71
     0
 10
0.0
 20
0.0
 30
0.0
  3
*D5
  1

  0
LINE
  5
F348
330
F67
100
AcDbEntity
  8
AM_5
100
AcDbLine
 10
105.500104582
 20
-9.49999999925625
 30
0.0
 11
105.500104582
 21
-40.91677291573217
 31
0.0
  0
LINE
  5
F349
330
F67
100
AcDbEntity
  8
AM_5
100
AcDbLine
 10
170.500104582
 20
-6.476700562327778
 30
0.0
 11
170.500104582
 21
-40.91677291573217
 31
0.0
  0
LINE
  5
F34A
330
F67
100
AcDbEntity
  8
AM_5
100
AcDbLine
 10
108.000104582
 20
-39.91677291573217
 30
0.0
 11
168.000104582
 21
-39.91677291573217
 31
0.0
  0
INSERT
  5
F34B
330
F67
100
AcDbEntity
  8
AM_5
100
AcDbBlockReference
  2
_Open30
 10
105.500104582
 20
-39.91677291573217
 30
0.0
 41
2.5
 42
2.5
 43
2.5
 50
180.0
  0
INSERT
  5
F34C
330
F67
100
AcDbEntity
  8
AM_5
100
AcDbBlockReference
  2
_Open30
 10
170.500104582
 20
-39.91677291573217
 30
0.0
 41
2.5
 42
2.5
 43
2.5
  0
MTEXT
  5
F34D
330
F67
100
AcDbEntity
  8
AM_5
 62
     2
100
AcDbMText
 10
138.000104582
 20
-36.51677291573218
 30
0.0
 40
3.8
 41
0.0
 71
     5
 72
     1
  1
65
 73
     1
 44
1.0
  0
POINT
  5
F34E
330
F67
100
AcDbEntity
  8
Defpoints
 62
     0
100
AcDbPoint
 10
105.500104582
 20
-8.49999999925625
 30
0.0
  0
POINT
  5
F34F
330
F67
100
AcDbEntity
  8
Defpoints
 62
     0
100
AcDbPoint
 10
170.500104582
 20
-5.476700562327778
 30
0.0
  0
POINT
  5
F350
330
F67
100
AcDbEntity
  8
Defpoints
 62
     0
100
AcDbPoint
 10
170.500104582
 20
-39.91677291573217
 30
0.0
  0
ENDBLK
  5
F80
330
F67
100
AcDbEntity
  8
0
100
AcDbBlockEnd
  0
BLOCK
  5
EC1A
330
EBEF
100
AcDbEntity
  8
0
100
AcDbBlockBegin
  2
*D6
 70
     1
 71
     0
 10
0.0
 20
0.0
 30
0.0
  3
*D6
  1

  0
LINE
  5
F33C
330
EBEF
100
AcDbEntity
  8
AM_5
100
AcDbLine
 10
-0.3826834292869681
 20
0.9238795337862864
 30
0.0
 11
-8.679593714204106
 21
20.954393058185
 31
0.0
  0
LINE
  5
F33D
330
EBEF
100
AcDbEntity
  8
AM_5
100
AcDbLine
 10
-0.3826834292869639
 20
-0.9238795337862884
 30
0.0
 11
-8.679593714204009
 21
-20.95439305818503
 31
0.0
  0
ARC
  5
F33E
330
EBEF
100
AcDbEntity
  8
AM_5
100
AcDbCircle
 10
-0.0000000000000001
 20
-0.0000000000000001
 30
0.0
 40
21.68087157673979
100
AcDbArc
 50
119.1103855068804
 51
240.8896144931199
  0
INSERT
  5
F33F
330
EBEF
100
AcDbEntity
  8
AM_5
100
AcDbBlockReference
  2
_Open30
 10
-8.296910284917137
 20
20.03051352439871
 30
0.0
 41
2.5
 42
2.5
 43
2.5
 50
25.80519265799302
  0
INSERT
  5
F340
330
EBEF
100
AcDbEntity
  8
AM_5
100
AcDbBlockReference
  2
_Open30
 10
-8.296910284917045
 20
-20.03051352439874
 30
0.0
 41
2.5
 42
2.5
 43
2.5
 50
334.1948073420073
  0
MTEXT
  5
F341
330
EBEF
100
AcDbEntity
  8
AM_5
 62
     2
100
AcDbMText
 10
-25.08087157673979
 20
-0.0000000000000548
 30
0.0
 40
3.8
 41
0.0
 71
     5
 72
     1
  1
135°
 11
6.123031769111886E-17
 21
1.0
 31
0.0
 73
     1
 44
1.0
  0
POINT
  5
F342
330
EBEF
100
AcDbEntity
  8
Defpoints
 62
     0
100
AcDbPoint
 10
-20.03051348754125
 20
8.296910373898925
 30
0.0
  0
POINT
  5
F343
330
EBEF
100
AcDbEntity
  8
Defpoints
 62
     0
100
AcDbPoint
 10
-0.0000000000000001
 20
-0.0000000000000001
 30
0.0
  0
POINT
  5
F344
330
EBEF
100
AcDbEntity
  8
Defpoints
 62
     0
100
AcDbPoint
 10
-0.0000000000000001
 20
-0.0000000000000001
 30
0.0
  0
POINT
  5
F345
330
EBEF
100
AcDbEntity
  8
Defpoints
 62
     0
100
AcDbPoint
 10
3.500104582
 20
-8.450000031217773
 30
0.0
  0
POINT
  5
F346
330
EBEF
100
AcDbEntity
  8
Defpoints
 62
     0
100
AcDbPoint
 10
3.500104582
 20
8.450000031217892
 30
0.0
  0
ENDBLK
  5
EC1B
330
EBEF
100
AcDbEntity
  8
0
100
AcDbBlockEnd
  0
BLOCK
  5
F2C5
330
F273
100
AcDbEntity
  8
0
100
AcDbBlockBegin
  2
*D16
 70
     1
 71
     0
 10
0.0
 20
0.0
 30
0.0
  3
*D16
  1

  0
LINE
  5
F318
330
F273
100
AcDbEntity
  8
AM_5
100
AcDbLine
 10
3.173437549964151
 20
-8.45000003121778
 30
0.0
 11
-10.47162965320654
 21
-8.450000031217776
 31
0.0
  0
LINE
  5
F319
330
F273
100
AcDbEntity
  8
AM_5
100
AcDbLine
 10
3.17343754996415
 20
8.450000031217892
 30
0.0
 11
-10.47162965320654
 21
8.450000031217895
 31
0.0
  0
LINE
  5
F31A
330
F273
100
AcDbEntity
  8
AM_5
100
AcDbLine
 10
-9.471629653206541
 20
-5.950000031217778
 30
0.0
 11
-9.471629653206538
 21
5.950000031217893
 31
0.0
  0
INSERT
  5
F31B
330
F273
100
AcDbEntity
  8
AM_5
100
AcDbBlockReference
  2
_Open30
 10
-9.471629653206541
 20
-8.450000031217778
 30
0.0
 41
2.5
 42
2.5
 43
2.5
 50
270.0
  0
INSERT
  5
F31C
330
F273
100
AcDbEntity
  8
AM_5
100
AcDbBlockReference
  2
_Open30
 10
-9.471629653206538
 20
8.450000031217893
 30
0.0
 41
2.5
 42
2.5
 43
2.5
 50
90.0
  0
MTEXT
  5
F31D
330
F273
100
AcDbEntity
  8
AM_5
 62
     2
100
AcDbMText
 10
-12.87162965320654
 20
0.0000000000000593
 30
0.0
 40
3.8
 41
0.0
 71
     5
 72
     1
  1
%%c16.9
 11
6.123031769111886E-17
 21
1.0
 31
0.0
 73
     1
 44
1.0
  0
POINT
  5
F31E
330
F273
100
AcDbEntity
  8
Defpoints
 62
     0
100
AcDbPoint
 10
4.173437549964151
 20
-8.450000031217781
 30
0.0
  0
POINT
  5
F31F
330
F273
100
AcDbEntity
  8
Defpoints
 62
     0
100
AcDbPoint
 10
4.173437549964151
 20
8.45000003121789
 30
0.0
  0
POINT
  5
F320
330
F273
100
AcDbEntity
  8
Defpoints
 62
     0
100
AcDbPoint
 10
-9.471629653206538
 20
8.450000031217893
 30
0.0
  0
ENDBLK
  5
F2C6
330
F273
100
AcDbEntity
  8
0
100
AcDbBlockEnd
  0
BLOCK
  5
F2C7
330
F27E
100
AcDbEntity
  8
0
100
AcDbBlockBegin
  2
*D17
 70
     1
 71
     0
 10
0.0
 20
0.0
 30
0.0
  3
*D17
  1

  0
LINE
  5
F321
330
F27E
100
AcDbEntity
  8
AM_5
100
AcDbLine
 10
3.500104582
 20
-9.450000031217892
 30
0.0
 11
3.500104581999997
 21
-58.98563643174151
 31
0.0
  0
LINE
  5
F322
330
F27E
100
AcDbEntity
  8
AM_5
100
AcDbLine
 10
170.500104582
 20
-7.61115996477633
 30
0.0
 11
170.500104582
 21
-58.98563643174151
 31
0.0
  0
LINE
  5
F323
330
F27E
100
AcDbEntity
  8
AM_5
100
AcDbLine
 10
6.000104581999997
 20
-57.98563643174151
 30
0.0
 11
168.000104582
 21
-57.98563643174151
 31
0.0
  0
INSERT
  5
F324
330
F27E
100
AcDbEntity
  8
AM_5
100
AcDbBlockReference
  2
_Open30
 10
3.500104581999997
 20
-57.98563643174151
 30
0.0
 41
2.5
 42
2.5
 43
2.5
 50
180.0
  0
INSERT
  5
F325
330
F27E
100
AcDbEntity
  8
AM_5
100
AcDbBlockReference
  2
_Open30
 10
170.500104582
 20
-57.98563643174151
 30
0.0
 41
2.5
 42
2.5
 43
2.5
  0
MTEXT
  5
F326
330
F27E
100
AcDbEntity
  8
AM_5
 62
     2
100
AcDbMText
 10
80.7097587846867
 20
-54.58563643174151
 30
0.0
 40
3.8
 41
0.0
 71
     5
 72
     1
  1
167
 73
     1
 44
1.0
  0
POINT
  5
F327
330
F27E
100
AcDbEntity
  8
Defpoints
 62
     0
100
AcDbPoint
 10
3.500104582
 20
-8.450000031217892
 30
0.0
  0
POINT
  5
F328
330
F27E
100
AcDbEntity
  8
Defpoints
 62
     0
100
AcDbPoint
 10
170.500104582
 20
-6.61115996477633
 30
0.0
  0
POINT
  5
F329
330
F27E
100
AcDbEntity
  8
Defpoints
 62
     0
100
AcDbPoint
 10
170.500104582
 20
-57.98563643174151
 30
0.0
  0
ENDBLK
  5
F2C8
330
F27E
100
AcDbEntity
  8
0
100
AcDbBlockEnd
  0
BLOCK
  5
F2C9
330
F289
100
AcDbEntity
  8
0
100
AcDbBlockBegin
  2
*D18
 70
     1
 71
     0
 10
0.0
 20
0.0
 30
0.0
  3
*D18
  1

  0
LINE
  5
F32A
330
F289
100
AcDbEntity
  8
AM_5
100
AcDbLine
 10
3.500104582
 20
-9.450000031217773
 30
0.0
 11
3.500104581999998
 21
-40.91677291573217
 31
0.0
  0
LINE
  5
F32B
330
F289
100
AcDbEntity
  8
AM_5
100
AcDbLine
 10
105.500104582
 20
-9.978124996699593
 30
0.0
 11
105.500104582
 21
-40.91677291573217
 31
0.0
  0
LINE
  5
F32C
330
F289
100
AcDbEntity
  8
AM_5
100
AcDbLine
 10
6.000104581999999
 20
-39.91677291573217
 30
0.0
 11
103.000104582
 21
-39.91677291573217
 31
0.0
  0
INSERT
  5
F32D
330
F289
100
AcDbEntity
  8
AM_5
100
AcDbBlockReference
  2
_Open30
 10
3.500104581999998
 20
-39.91677291573217
 30
0.0
 41
2.5
 42
2.5
 43
2.5
 50
180.0
  0
INSERT
  5
F32E
330
F289
100
AcDbEntity
  8
AM_5
100
AcDbBlockReference
  2
_Open30
 10
105.500104582
 20
-39.91677291573217
 30
0.0
 41
2.5
 42
2.5
 43
2.5
  0
MTEXT
  5
F32F
330
F289
100
AcDbEntity
  8
AM_5
 62
     2
100
AcDbMText
 10
54.500104582
 20
-36.51639889998415
 30
0.0
 40
3.8
 41
0.0
 71
     5
 72
     1
  1
102
 73
     1
 44
1.0
  0
POINT
  5
F330
330
F289
100
AcDbEntity
  8
Defpoints
 62
     0
100
AcDbPoint
 10
3.500104582
 20
-8.450000031217773
 30
0.0
  0
POINT
  5
F331
330
F289
100
AcDbEntity
  8
Defpoints
 62
     0
100
AcDbPoint
 10
105.500104582
 20
-8.978124996699593
 30
0.0
  0
POINT
  5
F332
330
F289
100
AcDbEntity
  8
Defpoints
 62
     0
100
AcDbPoint
 10
105.500104582
 20
-39.91677291573217
 30
0.0
  0
ENDBLK
  5
F2CA
330
F289
100
AcDbEntity
  8
0
100
AcDbBlockEnd
  0
BLOCK
  5
F2CB
330
F294
100
AcDbEntity
  8
0
100
AcDbBlockBegin
  2
*D19
 70
     1
 71
     0
 10
0.0
 20
0.0
 30
0.0
  3
*D19
  1

  0
LINE
  5
F333
330
F294
100
AcDbEntity
  8
AM_5
100
AcDbLine
 10
3.500104582
 20
-9.450000031217773
 30
0.0
 11
3.500104581999999
 21
-26.26651135795727
 31
0.0
  0
LINE
  5
F334
330
F294
100
AcDbEntity
  8
AM_5
100
AcDbLine
 10
101.500104582
 20
-6.219505140361506
 30
0.0
 11
101.500104582
 21
-26.26651135795727
 31
0.0
  0
LINE
  5
F335
330
F294
100
AcDbEntity
  8
AM_5
100
AcDbLine
 10
6.000104581999999
 20
-25.26651135795727
 30
0.0
 11
99.00010458200002
 21
-25.26651135795727
 31
0.0
  0
INSERT
  5
F336
330
F294
100
AcDbEntity
  8
AM_5
100
AcDbBlockReference
  2
_Open30
 10
3.500104581999999
 20
-25.26651135795727
 30
0.0
 41
2.5
 42
2.5
 43
2.5
 50
180.0
  0
INSERT
  5
F337
330
F294
100
AcDbEntity
  8
AM_5
100
AcDbBlockReference
  2
_Open30
 10
101.500104582
 20
-25.26651135795727
 30
0.0
 41
2.5
 42
2.5
 43
2.5
  0
MTEXT
  5
F338
330
F294
100
AcDbEntity
  8
AM_5
 62
     2
100
AcDbMText
 10
52.50010458200001
 20
-21.86651135795727
 30
0.0
 40
3.8
 41
0.0
 71
     5
 72
     1
  1
98
 73
     1
 44
1.0
  0
POINT
  5
F339
330
F294
100
AcDbEntity
  8
Defpoints
 62
     0
100
AcDbPoint
 10
3.500104582
 20
-8.450000031217773
 30
0.0
  0
POINT
  5
F33A
330
F294
100
AcDbEntity
  8
Defpoints
 62
     0
100
AcDbPoint
 10
101.500104582
 20
-5.219505140361506
 30
0.0
  0
POINT
  5
F33B
330
F294
100
AcDbEntity
  8
Defpoints
 62
     0
100
AcDbPoint
 10
101.500104582
 20
-25.26651135795727
 30
0.0
  0
ENDBLK
  5
F2CC
330
F294
100
AcDbEntity
  8
0
100
AcDbBlockEnd
  0
ENDSEC
  0
SECTION
  2
ENTITIES
  0
TEXT
  5
A1A
330
1F
100
AcDbEntity
  8
AM_0
100
AcDbText
 10
5.916239644108757
 20
-72.21202055579626
 30
0.0
 40
3.8
  1
MDW1690GS4
  7
ACISOTS
100
AcDbText
  0
LINE
  5
CA9
330
1F
100
AcDbEntity
  8
AM_7
100
AcDbLine
 10
-4.663409459886473
 20
0.0
 30
0.0
 11
176.1220281642449
 21
0.0
 31
0.0
1001
GENIUS_GENOBJ-N-CEN_13
1002
{
1000
OWNER
1000
GEN
1002
}
1001
GENIUS_GENODEF_13
1002
{
1000
HIER
1070
     0
1002
}
1002
{
1000
MANEDIT
1070
     0
1002
}
1002
{
1000
NOSEL
1070
     0
1002
}
1002
{
1000
BEHIND
1070
     0
1002
}
1002
{
1000
OTHER
1070
     0
1002
}
1002
{
1000
REACTOR
1002
}
1001
GENIUS_GENCEN_19
1002
{
1040
2.794
1002
}
  0
LINE
  5
E55
102
{ACAD_REACTORS
330
EBFE
102
}
330
1F
100
AcDbEntity
  8
AM_0
100
AcDbLine
 10
-0.0000000000000001
 20
-0.0000000000000001
 30
0.0
 11
3.500104582
 21
8.450000031217892
 31
0.0
  0
LINE
  5
E56
102
{ACAD_REACTORS
330
EBFE
102
}
330
1F
100
AcDbEntity
  8
AM_0
100
AcDbLine
 10
-0.0000000000000001
 20
-0.0000000000000001
 30
0.0
 11
3.500104581999999
 21
-8.450000031217773
 31
0.0
  0
DIMENSION
  5
EF2
330
1F
100
AcDbEntity
  8
AM_5
100
AcDbDimension
  2
*D4
 10
184.8933861643862
 20
8.499999999256234
 30
0.0
 11
184.8933861643862
 21
-0.2499999999999727
 31
0.0
 70
   160
  1
%%c<>
 71
     5
 42
16.99999999851249
  3
AM_JIS$0
100
AcDbAlignedDimension
 13
166.4127370406828
 23
-8.499999999256245
 33
0.0
 14
165.9487367664889
 24
8.499999999256247
 34
0.0
 50
90.0
100
AcDbRotatedDimension
1001
ACAD
1000
DSTYLE
1002
{
1070
   140
1040
3.8
1070
    41
1040
2.5
1002
}
  0
DIMENSION
  5
F66
330
1F
100
AcDbEntity
  8
AM_5
100
AcDbDimension
  2
*D5
 10
170.500104582
 20
-39.91677291573217
 30
0.0
 11
138.000104582
 21
-36.51677291573218
 31
0.0
 70
    32
 71
     5
 42
65.0
  3
AM_JIS$0
100
AcDbAlignedDimension
 13
105.500104582
 23
-8.49999999925625
 33
0.0
 14
170.500104582
 24
-5.476700562327778
 34
0.0
100
AcDbRotatedDimension
1001
ACAD
1000
DSTYLE
1002
{
1070
   140
1040
3.8
1070
    41
1040
2.5
1002
}
  0
LINE
  5
105F
330
1F
100
AcDbEntity
  8
AM_11
100
AcDbLine
 10
3.500104582
 20
8.450000031217892
 30
0.0
 11
32.77176333805669
 21
-8.450000031218178
 31
0.0
  0
LINE
  5
48D8
330
1F
100
AcDbEntity
  8
AM_11
100
AcDbLine
 10
61.17739668026353
 20
8.450000031217895
 30
0.0
 11
90.44905543632142
 21
-8.450000031218975
 31
0.0
  0
LINE
  5
48D9
330
1F
100
AcDbEntity
  8
AM_11
100
AcDbLine
 10
90.10264527078115
 20
8.450000031217899
 30
0.0
 11
101.500104582
 21
1.869673829807846
 31
0.0
  0
LINE
  5
807D
330
1F
100
AcDbEntity
  8
AM_11
100
AcDbLine
 10
32.25214808974638
 20
8.450000031217893
 30
0.0
 11
61.52380684580375
 21
-8.450000031218576
 31
0.0
  0
LINE
  5
E717
330
1F
100
AcDbEntity
  8
AM_0
100
AcDbLine
 10
169.500104582
 20
8.49999999925625
 30
0.0
 11
170.500104582
 21
7.499999999256252
 31
0.0
  0
LINE
  5
E718
330
1F
100
AcDbEntity
  8
AM_0
100
AcDbLine
 10
169.500104582
 20
-8.49999999925625
 30
0.0
 11
170.500104582
 21
-7.499999999256248
 31
0.0
  0
LINE
  5
E719
330
1F
100
AcDbEntity
  8
AM_0
100
AcDbLine
 10
170.500104582
 20
4.125333339026814
 30
0.0
 11
170.500104582
 21
-1.858666650340909
 31
0.0
  0
LINE
  5
E71A
330
1F
100
AcDbEntity
  8
AM_0
100
AcDbLine
 10
169.500104582
 20
8.499999999256282
 30
0.0
 11
169.500104582
 21
-8.499999999256252
 31
0.0
  0
LINE
  5
E71B
330
1F
100
AcDbEntity
  8
AM_0
100
AcDbLine
 10
170.500104582
 20
-7.499999999256248
 30
0.0
 11
170.500104582
 21
7.499999999256252
 31
0.0
  0
LINE
  5
E71C
330
1F
100
AcDbEntity
  8
AM_0
100
AcDbLine
 10
105.500104582
 20
8.49999999925625
 30
0.0
 11
169.500104582
 21
8.499999999256248
 31
0.0
  0
LINE
  5
E71E
330
1F
100
AcDbEntity
  8
AM_0
100
AcDbLine
 10
169.500104582
 20
-8.499999999256245
 30
0.0
 11
105.500104582
 21
-8.49999999925625
 31
0.0
  0
LINE
  5
E780
330
1F
100
AcDbEntity
  8
AM_0
100
AcDbLine
 10
105.500104582
 20
-8.49999999925625
 30
0.0
 11
105.500104582
 21
8.49999999925625
 31
0.0
  0
DIMENSION
  5
EBEE
102
{ACAD_REACTORS
330
EBFE
102
}
102
{ACAD_XDICTIONARY
360
EBFD
102
}
330
1F
100
AcDbEntity
  8
AM_5
100
AcDbDimension
  2
*D6
 10
3.500104582
 20
8.450000031217892
 30
0.0
 11
-25.08087157673979
 21
-0.0000000000000508
 31
0.0
 70
    34
 71
     5
 42
2.35619449685582
  3
AM_JIS$2
100
AcDb2LineAngularDimension
 13
-0.0000000000000001
 23
-0.0000000000000001
 33
0.0
 14
3.500104581999999
 24
-8.450000031217773
 34
0.0
 15
-0.0000000000000001
 25
-0.0000000000000001
 35
0.0
 16
-20.03051348754125
 26
8.296910373898925
 36
0.0
1001
ACAD_DIMASSOC_DIMLFAC
1040
1.0
1001
ACAD_DIMASSOC_CALC_DIMLFAC
1040
1.0
1001
ACAD_DIMASSOC_OVERRIDDEN_DIMLFAC
1040
1.0
1001
ACAD
1000
DSTYLE
1002
{
1070
   144
1040
1.0
1002
}
  0
DIMENSION
  5
F272
330
1F
100
AcDbEntity
  8
AM_5
100
AcDbDimension
  2
*D16
 10
-9.471629653206538
 20
8.450000031217893
 30
0.0
 11
-9.47162965320654
 21
0.0000000000000589
 31
0.0
 70
   160
  1
%%c<>
 71
     5
 42
16.90000006243567
  3
AM_JIS$0
100
AcDbAlignedDimension
 13
4.173437549964151
 23
-8.45000003121778
 33
0.0
 14
4.173437549964151
 24
8.450000031217892
 34
0.0
 50
89.99999999999993
100
AcDbRotatedDimension
1001
ACAD
1000
DSTYLE
1002
{
1070
   140
1040
3.8
1070
    41
1040
2.5
1002
}
  0
DIMENSION
  5
F27D
330
1F
100
AcDbEntity
  8
AM_5
100
AcDbDimension
  2
*D17
 10
170.500104582
 20
-57.98563643174151
 30
0.0
 11
80.7097587846867
 21
-57.98563643174151
 31
0.0
 70
   160
 71
     5
 42
167.0
  3
AM_JIS$0
100
AcDbAlignedDimension
 13
3.500104582
 23
-8.450000031217892
 33
0.0
 14
170.500104582
 24
-6.61115996477633
 34
0.0
100
AcDbRotatedDimension
1001
ACAD
1000
DSTYLE
1002
{
1070
   140
1040
3.8
1070
    41
1040
2.5
1002
}
  0
DIMENSION
  5
F288
330
1F
100
AcDbEntity
  8
AM_5
100
AcDbDimension
  2
*D18
 10
105.500104582
 20
-39.91677291573217
 30
0.0
 11
54.500104582
 21
-36.51639889998415
 31
0.0
 70
    32
 71
     5
 42
102.0
  3
AM_JIS$0
100
AcDbAlignedDimension
 13
3.500104582
 23
-8.450000031217773
 33
0.0
 14
105.500104582
 24
-8.978124996699593
 34
0.0
100
AcDbRotatedDimension
1001
ACAD
1000
DSTYLE
1002
{
1070
   140
1040
3.8
1070
    41
1040
2.5
1002
}
  0
DIMENSION
  5
F293
330
1F
100
AcDbEntity
  8
AM_5
100
AcDbDimension
  2
*D19
 10
101.500104582
 20
-25.26651135795727
 30
0.0
 11
52.50010458200001
 21
-21.86651135795727
 31
0.0
 70
    32
 71
     5
 42
98.00000000000001
  3
AM_JIS$0
100
AcDbAlignedDimension
 13
3.500104582
 23
-8.450000031217773
 33
0.0
 14
101.500104582
 24
-5.219505140361506
 34
0.0
100
AcDbRotatedDimension
1001
ACAD
1000
DSTYLE
1002
{
1070
   140
1040
3.8
1070
    41
1040
2.5
1002
}
  0
LINE
  5
F29E
330
1F
100
AcDbEntity
  8
AM_0
100
AcDbLine
 10
101.500104582
 20
-8.45000003121913
 30
0.0
 11
101.500104582
 21
8.450000031217895
 31
0.0
  0
LINE
  5
F29F
330
1F
100
AcDbEntity
  8
AM_0
100
AcDbLine
 10
3.500104582
 20
8.450000031217892
 30
0.0
 11
105.500104582
 21
8.450000031217899
 31
0.0
  0
LINE
  5
F2A0
330
1F
100
AcDbEntity
  8
AM_0
100
AcDbLine
 10
3.500104582
 20
-8.450000031217773
 30
0.0
 11
105.500104582
 21
-8.450000031219183
 31
0.0
  0
ENDSEC
  0
SECTION
  2
OBJECTS
  0
DICTIONARY
  5
C
330
0
100
AcDbDictionary
281
     1
  3
ACAD_COLOR
350
BE
  3
ACAD_GROUP
350
D
  3
ACAD_LAYOUT
350
1A
  3
ACAD_MATERIAL
350
BD
  3
ACAD_MLINESTYLE
350
17
  3
ACAD_PLOTSETTINGS
350
19
  3
ACAD_PLOTSTYLENAME
350
E
  3
ACAD_TABLESTYLE
350
11A
  3
AcAmCatalogState
350
10E
  3
ACDBHEADERROUNDTRIPXREC
350
F379
  3
AcDbVariableDictionary
350
94
  3
ACDMSYSVARMGR
350
D0
  3
ACGREF_MASTER
350
55
  3
ACGREFACAD_MASTER
350
59
  3
AcmDictionary
350
5B
  3
ACME_BOM_MANAGER_NAME
350
4E
  3
ACME_COMMAND_HISTORY
350
49
  3
ACME_SCOPE_NAME
350
48
  3
ACMESTATEMGR
350
53
  3
AcmeSysVarManager
350
4A
  3
AcmSystemVariableManager
350
5F
  3
AD_APPL
350
FA
  3
ADSYSVARMGR
350
F9
  3
AmdtNamedDwgMgr
350
ED
  3
AMG
350
41
  3
AMGSNAPSETTINGS
350
1B8
  3
AMI_MASTER
350
5A
  3
AUTOCAD_ASSEMBLIES_PROJECT
350
102
  3
Designer_Assemblies_SysVars
350
FD
  3
DWGPROPS
350
F37C
  3
GREFAM_MODULE
350
F3
  0
DICTIONARY
  5
34B
330
2
100
AcDbDictionary
280
     1
281
     1
  3
AMLAYER_GROUPCOLORS
360
34C
  0
DICTIONARY
  5
8F
330
1F
100
AcDbDictionary
280
     1
281
     1
  3
ACAD_SORTENTS
360
447
  0
DICTIONARY
  5
EBFD
330
EBEE
100
AcDbDictionary
280
     1
281
     1
  3
ACAD_DIMASSOC
360
EBFE
  0
DICTIONARY
  5
BE
102
{ACAD_REACTORS
330
C
102
}
330
C
100
AcDbDictionary
281
     1
  0
DICTIONARY
  5
D
102
{ACAD_REACTORS
330
C
102
}
330
C
100
AcDbDictionary
281
     1
  0
DICTIONARY
  5
1A
102
{ACAD_REACTORS
330
C
102
}
330
C
100
AcDbDictionary
281
     1
  3
Model
350
22
  3
レイアウト1
350
1E
  3
レイアウト2
350
26
  0
DICTIONARY
  5
BD
102
{ACAD_REACTORS
330
C
102
}
330
C
100
AcDbDictionary
281
     1
  0
DICTIONARY
  5
17
102
{ACAD_REACTORS
330
C
102
}
330
C
100
AcDbDictionary
281
     1
  3
Standard
350
18
  0
DICTIONARY
  5
19
102
{ACAD_REACTORS
330
C
102
}
330
C
100
AcDbDictionary
281
     1
  0
ACDBDICTIONARYWDFLT
  5
E
102
{ACAD_REACTORS
330
C
102
}
330
C
100
AcDbDictionary
281
     1
  3
Normal
350
F
100
AcDbDictionaryWithDefault
340
F
  0
DICTIONARY
  5
11A
102
{ACAD_REACTORS
330
C
102
}
330
C
100
AcDbDictionary
281
     1
  3
Standard
350
11B
  0
ACAD_PROXY_OBJECT
  5
10E
102
{ACAD_REACTORS
330
C
102
}
330
C
100
AcDbProxyObject
 90
      499
 91
      568
 95
       25
 70
     0
 93
      632
310
3FFFFFFFE00A02814029B219D2E283937B3B930B6902334B632B9AE20BABA37B232B9B5AE20B1B0B2369B971817199C971C2E20B1B0B236AE2A32B6B83630BA32C0081014020800BEC04A408FEFD08
  0
DICTIONARY
  5
F379
102
{ACAD_REACTORS
330
C
102
}
330
C
100
AcDbDictionary
281
     1
  3
COLORDICT
350
F37A
  3
MATERIALDICT
350
F37B
  0
DICTIONARY
  5
94
102
{ACAD_REACTORS
330
C
102
}
330
C
100
AcDbDictionary
281
     1
  3
CTABLESTYLE
350
138
  3
DIMASSOC
350
96
  3
HIDETEXT
350
F378
  3
INDEXCTL
350
95
  0
ACAD_PROXY_OBJECT
  5
D0
102
{ACAD_REACTORS
330
C
102
}
330
C
100
AcDbProxyObject
 90
      499
 91
      507
 95
       25
 70
     0
 93
      240
310
4C51A47A0000000000000000000000000000000000000000000000000000
330
D1
330
D2
330
D3
330
D4
330
D5
330
D6
330
D7
330
DA
330
DB
330
DC
330
DD
330
DE
330
DF
330
E0
330
E1
330
E2
330
E3
330
E4
330
E5
330
E6
330
E7
330
E8
330
E9
330
EA
330
EB
330
EC
 94
        0
  0
ACAD_PROXY_OBJECT
  5
55
102
{ACAD_REACTORS
330
C
102
}
330
C
100
AcDbProxyObject
 90
      499
 91
      516
 95
       25
 70
     0
 93
       34
310
0400004280
  0
ACAD_PROXY_OBJECT
  5
59
102
{ACAD_REACTORS
330
C
102
}
330
C
100
AcDbProxyObject
 90
      499
 91
      519
 95
       25
 70
     0
 93
      114
310
04000041C080000000000000000000
  0
DICTIONARY
  5
5B
102
{ACAD_REACTORS
330
C
102
}
330
C
100
AcDbDictionary
281
     1
  3
AcmBOM
350
1B5
  3
AcmBOMDATA
350
5C
  3
AcmStdDictionary
350
61
  3
AMDTSECTSYM_ARROWCOLOR
350
123
  0
ACAD_PROXY_OBJECT
  5
4E
102
{ACAD_REACTORS
330
C
102
}
330
C
100
AcDbProxyObject
 90
      499
 91
      510
 95
       25
 70
     0
 93
       50
310
00010040400000
330
0
330
0
330
4F
 94
        0
  0
ACAD_PROXY_OBJECT
  5
49
102
{ACAD_REACTORS
330
C
102
}
330
C
100
AcDbProxyObject
 90
      499
 91
      506
 95
       25
 70
     0
 93
     4202
310
4780505584C494E458050C475249505F535452455443488050C475249505F535452455443488050653454C4543548050C475249505F535452455443488050653454C45435480504554E444F805054552415345805044D4F5645805045A4F4F4D805055153415645404052D4D5347202D205050413A2020206465736B746F70
310
2E6172782046696C6556657273696F6E3A20392E322E302E34014311D4925417D4D514915510D2201411693D3D36014191111151125520142111493D411D153D3601411353D5916014191561511539110101461354D1C80B4810DBDB5B585B990810D05390D1531311510B80504554E444F805045A4F4F4D805045A4F4F4D4
310
04052D4D5347202D205050413A2020206465736B746F702E6172782046696C6556657273696F6E3A20392E322E302E3401411693D3D350101461354D1C80B4810DBDB5B585B990810D05390D1531311510B805045A4F4F4D805055153415645404052D4D5347202D205050413A2020206465736B746F702E6172782046696C
310
6556657273696F6E3A20392E322E302E34014390535115149154D15511109353D1102014213880B4815539113C05084E202D20554E444F014115539113E014115539113E01411693D3D36014154155491D1601411693D3D3601415454D05591501014B5354D1C80B481414104E88080819195CDADD1BDC0B985C9E08119A5B
310
1955995C9CDA5BDB8E880E4B8C8B8C0B8D00
  0
ACAD_PROXY_OBJECT
  5
48
102
{ACAD_REACTORS
330
C
102
}
330
C
100
AcDbProxyObject
 90
      499
 91
      505
 95
       25
 70
     0
 93
      586
310
09000046408000000000000000001344E200000000000000000000000000000000000000000000000000000000000000000000000000000000000000000000000000000000AAA406AA80
360
4B
360
4C
360
4D
360
4F
360
60
360
C9
360
CA
360
CB
360
CC
360
CD
360
CE
360
D1
360
D2
360
D3
360
D4
360
D5
360
D6
360
D7
360
DA
360
DB
360
DC
360
DD
360
DE
360
DF
360
E0
360
E1
360
E2
360
E3
360
E4
360
E5
360
E6
360
E7
360
E8
360
E9
360
EA
360
EB
360
EC
360
F5
360
F6
360
F7
360
F8
360
FE
360
FF
360
100
360
101
360
106
360
107
360
108
360
109
360
10A
360
10B
360
34D
 94
        0
  0
ACAD_PROXY_OBJECT
  5
53
102
{ACAD_REACTORS
330
C
102
}
330
C
100
AcDbProxyObject
 90
      499
 91
      515
 95
       25
 70
     0
 93
       50
310
09000042641280
  0
ACAD_PROXY_OBJECT
  5
4A
102
{ACAD_REACTORS
330
C
102
}
330
C
100
AcDbProxyObject
 90
      499
 91
      507
 95
       25
 70
     0
 93
       48
310
903412000000
330
4B
330
4C
330
4D
 94
        0
  0
ACAD_PROXY_OBJECT
  5
5F
102
{ACAD_REACTORS
330
C
102
}
330
C
100
AcDbProxyObject
 90
      499
 91
      507
 95
       25
 70
     0
 93
       40
310
90240E0000
330
60
330
34D
 94
        0
  0
ACAD_PROXY_OBJECT
  5
FA
102
{ACAD_REACTORS
330
C
102
}
330
C
100
AcDbProxyObject
 90
      499
 91
      557
 95
       25
 70
     0
 93
       42
310
000900004040
330
F5
 94
        0
  0
ACAD_PROXY_OBJECT
  5
F9
102
{ACAD_REACTORS
330
C
102
}
330
C
100
AcDbProxyObject
 90
      499
 91
      507
 95
       25
 70
     0
 93
        8
310
AA
  0
ACAD_PROXY_OBJECT
  5
ED
102
{ACAD_REACTORS
330
C
102
}
330
C
100
AcDbProxyObject
 90
      499
 91
      548
 95
       25
 70
     0
 93
       42
310
000100005E80
330
C9
 94
        0
  0
DICTIONARY
  5
41
102
{ACAD_REACTORS
330
C
102
}
330
C
100
AcDbDictionary
281
     1
  3
AcMgSettings
350
42
  3
AMGLAYCFG
350
63
  0
DICTIONARY
  5
1B8
102
{ACAD_REACTORS
330
C
102
}
330
C
100
AcDbDictionary
281
     1
  3
DIMENSION
350
1BD
  3
FEA
350
1BC
  3
HATCH (1)
350
1B9
  3
HATCH (2)
350
1BA
  3
SIMPLE WELD
350
1BE
  3
SYMBOLS
350
1BB
  0
ACAD_PROXY_OBJECT
  5
5A
102
{ACAD_REACTORS
330
C
102
}
330
C
100
AcDbProxyObject
 90
      499
 91
      520
 95
       25
 70
     0
 93
       34
310
0500004280
  0
ACAD_PROXY_OBJECT
  5
102
102
{ACAD_REACTORS
330
C
102
}
330
C
100
AcDbProxyObject
 90
      499
 91
      560
 95
       25
 70
     0
 93
       98
310
0900004E400000000000000000
330
109
330
0
330
10A
330
0
330
0
330
0
330
0
330
0
 94
        0
  0
ACAD_PROXY_OBJECT
  5
FD
102
{ACAD_REACTORS
330
C
102
}
330
C
100
AcDbProxyObject
 90
      499
 91
      507
 95
       25
 70
     0
 93
       56
310
90441600000000
330
FE
330
FF
330
100
330
101
 94
        0
  0
XRECORD
  5
F37C
102
{ACAD_REACTORS
330
C
102
}
330
C
100
AcDbXrecord
280
     1
  1
DWGPROPS COOKIE
  2

  3

  4

  6

  7

  8

  9

300
AmdtFileType=84
301
=
302
=
303
=
304
=
305
=
306
=
307
=
308
=
309
=
 40
0.0
 41
2455432.203929398
 42
2455503.032166331
  1

 90
        1
  0
ACAD_PROXY_OBJECT
  5
F3
102
{ACAD_REACTORS
330
C
102
}
330
C
100
AcDbProxyObject
 90
      499
 91
      551
 95
       25
 70
     0
 93
        8
310
05
  0
DICTIONARY
  5
34C
102
{ACAD_REACTORS
330
34B
102
}
330
34B
100
AcDbDictionary
280
     1
281
     1
  0
SORTENTSTABLE
  5
447
102
{ACAD_REACTORS
330
8F
102
}
330
8F
100
AcDbSortentsTable
330
1F
331
A1A
  5
A1A
331
CA9
  5
CA9
331
E55
  5
E55
331
E56
  5
E56
331
EF2
  5
EF2
331
F66
  5
F66
331
105F
  5
105F
331
48D8
  5
48D8
331
48D9
  5
48D9
331
807D
  5
807D
331
E717
  5
E717
331
E718
  5
E718
331
E719
  5
E719
331
E71A
  5
E71A
331
E71B
  5
E71B
331
E71C
  5
E71C
331
E71E
  5
E71E
331
E780
  5
E780
331
EBEE
  5
EBEE
331
F272
  5
F272
331
F27D
  5
F27D
331
F288
  5
F288
331
F293
  5
F293
331
F29E
  5
F29E
331
F29F
  5
F29F
331
F2A0
  5
F2A0
  0
DIMASSOC
  5
EBFE
102
{ACAD_REACTORS
330
EBFD
102
}
330
EBFD
100
AcDbDimAssoc
330
EBEE
 90
       15
 70
     1
 71
     0
  1
AcDbOsnapPointRef
 72
    13
331
E56
 73
     2
 91
        0
 40
0.0
 10
0.0
 20
0.0
 30
2.000000000000000E+50
 75
     0
  1
AcDbOsnapPointRef
 72
     1
331
E56
 73
     2
 91
        0
 40
0.0
 10
0.0
 20
0.0
 30
2.000000000000000E+50
 75
     0
  1
AcDbOsnapPointRef
 72
    13
331
E55
 73
     2
 91
        0
 40
0.0
 10
0.0
 20
0.0
 30
2.000000000000000E+50
 75
     0
  1
AcDbOsnapPointRef
 72
     1
331
E55
 73
     2
 91
        0
 40
0.0
 10
0.0
 20
0.0
 30
2.000000000000000E+50
 75
     0
  0
LAYOUT
  5
22
102
{ACAD_REACTORS
330
1A
102
}
330
1A
100
AcDbPlotSettings
  1

  2

  4

  6

 40
0.0
 41
0.0
 42
0.0
 43
0.0
 44
0.0
 45
0.0
 46
0.0
 47
0.0
 48
0.0
 49
0.0
140
0.0
141
0.0
142
1.0
143
1.0
 70
  1712
 72
     0
 73
     0
 74
     0
  7

 75
     0
147
1.0
148
0.0
149
0.0
100
AcDbLayout
  1
Model
 70
     1
 71
     0
 10
0.0
 20
0.0
 11
12.0
 21
9.0
 12
0.0
 22
0.0
 32
0.0
 14
0.0
 24
0.0
 34
0.0
 15
0.0
 25
0.0
 35
0.0
146
0.0
 13
0.0
 23
0.0
 33
0.0
 16
1.0
 26
0.0
 36
0.0
 17
0.0
 27
1.0
 37
0.0
 76
     0
330
1F
  0
LAYOUT
  5
1E
102
{ACAD_REACTORS
330
1A
102
}
330
1A
100
AcDbPlotSettings
  1

  2

  4

  6

 40
0.0
 41
0.0
 42
0.0
 43
0.0
 44
0.0
 45
0.0
 46
0.0
 47
0.0
 48
0.0
 49
0.0
140
0.0
141
0.0
142
1.0
143
1.0
 70
   688
 72
     0
 73
     0
 74
     5
  7

 75
    16
147
1.0
148
0.0
149
0.0
100
AcDbLayout
  1
レイアウト1
 70
     1
 71
     1
 10
0.0
 20
0.0
 11
420.0
 21
297.0
 12
0.0
 22
0.0
 32
0.0
 14
1.000000000000000E+20
 24
1.000000000000000E+20
 34
1.000000000000000E+20
 15
-1.000000000000000E+20
 25
-1.000000000000000E+20
 35
-1.000000000000000E+20
146
0.0
 13
0.0
 23
0.0
 33
0.0
 16
1.0
 26
0.0
 36
0.0
 17
0.0
 27
1.0
 37
0.0
 76
     0
330
1B
  0
LAYOUT
  5
26
102
{ACAD_REACTORS
330
1A
102
}
330
1A
100
AcDbPlotSettings
  1

  2

  4

  6

 40
0.0
 41
0.0
 42
0.0
 43
0.0
 44
0.0
 45
0.0
 46
0.0
 47
0.0
 48
0.0
 49
0.0
140
0.0
141
0.0
142
1.0
143
1.0
 70
   688
 72
     0
 73
     0
 74
     5
  7

 75
    16
147
1.0
148
0.0
149
0.0
100
AcDbLayout
  1
レイアウト2
 70
     1
 71
     2
 10
0.0
 20
0.0
 11
12.0
 21
9.0
 12
0.0
 22
0.0
 32
0.0
 14
0.0
 24
0.0
 34
0.0
 15
0.0
 25
0.0
 35
0.0
146
0.0
 13
0.0
 23
0.0
 33
0.0
 16
1.0
 26
0.0
 36
0.0
 17
0.0
 27
1.0
 37
0.0
 76
     0
330
23
  0
MLINESTYLE
  5
18
102
{ACAD_REACTORS
330
17
102
}
330
17
100
AcDbMlineStyle
  2
STANDARD
 70
     0
  3

 62
   256
 51
90.0
 52
90.0
 71
     2
 49
0.5
 62
   256
  6
BYLAYER
 49
-0.5
 62
   256
  6
BYLAYER
  0
ACDBPLACEHOLDER
  5
F
102
{ACAD_REACTORS
330
E
102
}
330
E
  0
TABLESTYLE
  5
11B
102
{ACAD_REACTORS
330
11A
102
}
330
11A
100
AcDbTableStyle
  3
Standard
 70
     0
 71
     0
 40
1.5
 41
1.5
280
     0
281
     0
  7
STANDARD
140
4.5
170
     2
 62
     0
 63
     7
283
     0
274
    -2
284
     1
 64
     0
275
    -2
285
     1
 65
     0
276
    -2
286
     1
 66
     0
277
    -2
287
     1
 67
     0
278
    -2
288
     1
 68
     0
279
    -2
289
     1
 69
     0
  7
STANDARD
140
6.0
170
     5
 62
     0
 63
     7
283
     0
274
    -2
284
     1
 64
     0
275
    -2
285
     1
 65
     0
276
    -2
286
     1
 66
     0
277
    -2
287
     1
 67
     0
278
    -2
288
     1
 68
     0
279
    -2
289
     1
 69
     0
  7
STANDARD
140
4.5
170
     5
 62
     0
 63
     7
283
     0
274
    -2
284
     1
 64
     0
275
    -2
285
     1
 65
     0
276
    -2
286
     1
 66
     0
277
    -2
287
     1
 67
     0
278
    -2
288
     1
 68
     0
279
    -2
289
     1
 69
     0
  0
XRECORD
  5
F37A
102
{ACAD_REACTORS
330
F379
102
}
330
F379
100
AcDbXrecord
280
     1
340
BE
  0
XRECORD
  5
F37B
102
{ACAD_REACTORS
330
F379
102
}
330
F379
100
AcDbXrecord
280
     1
340
BD
  0
DICTIONARYVAR
  5
138
102
{ACAD_REACTORS
330
94
102
}
330
94
100
DictionaryVariables
280
     0
  1
STANDARD
  0
DICTIONARYVAR
  5
96
102
{ACAD_REACTORS
330
94
102
}
330
94
100
DictionaryVariables
280
     0
  1
2
  0
DICTIONARYVAR
  5
F378
102
{ACAD_REACTORS
330
94
102
}
330
94
100
DictionaryVariables
280
     0
  1
0
  0
DICTIONARYVAR
  5
95
102
{ACAD_REACTORS
330
94
102
}
330
94
100
DictionaryVariables
280
     0
  1
1
  0
DICTIONARY
  5
1B5
102
{ACAD_REACTORS
330
5B
102
}
330
5B
100
AcDbDictionary
281
     1
  0
ACAD_PROXY_OBJECT
  5
5C
102
{ACAD_REACTORS
330
5B
102
}
330
5B
100
AcDbProxyObject
 90
      499
 91
      521
 95
       25
 70
     0
 93
      118
310
405010040CA904C415CD5B075DD038
350
5D
 94
        0
  0
DICTIONARY
  5
61
102
{ACAD_REACTORS
330
5B
102
}
330
5B
100
AcDbDictionary
281
     1
  3
ISO
350
62
  3
JIS
350
1FE
  0
XRECORD
  5
123
102
{ACAD_REACTORS
330
5B
102
}
330
5B
100
AcDbXrecord
280
     1
 90
-1023410169
  0
ACAD_PROXY_OBJECT
  5
4B
330
48
100
AcDbProxyObject
 90
      499
 91
      508
 95
       25
 70
     0
 93
      156
310
00010143D050D351505391D5531054925390D490
330
48
 94
        0
  0
ACAD_PROXY_OBJECT
  5
4C
330
48
100
AcDbProxyObject
 90
      499
 91
      508
 95
       25
 70
     0
 93
      148
310
000101439050D351531253915054925390D490
330
48
 94
        0
  0
ACAD_PROXY_OBJECT
  5
4D
330
48
100
AcDbProxyObject
 90
      499
 91
      509
 95
       25
 70
     0
 93
      156
310
000101439050D35154D6535093D314D256915080
330
48
 94
        0
  0
ACAD_PROXY_OBJECT
  5
4F
330
48
100
AcDbProxyObject
 90
      499
 91
      511
 95
       25
 70
     0
 93
       88
310
000101411093D34C402B00
330
48
330
0
330
0
 94
        0
  0
ACAD_PROXY_OBJECT
  5
60
330
48
100
AcDbProxyObject
 90
      499
 91
      523
 95
       25
 70
     0
 93
      140
310
00010142105350D55494D511005034A49530
330
48
 94
        0
  0
ACAD_PROXY_OBJECT
  5
C9
330
48
100
AcDbProxyObject
 90
      499
 91
      544
 95
       25
 70
     0
 93
      374
310
0001014119185D1940508372E302E33392E38014124FEA55D00507392E322E302E3240501000041905394D24CCC658
330
48
330
CA
330
D0
 94
        0
  0
ACAD_PROXY_OBJECT
  5
CA
330
48
100
AcDbProxyObject
 90
      499
 91
      545
 95
       25
 70
     0
 93
       56
310
000190240E0000
330
48
330
CB
330
CD
 94
        0
  0
ACAD_PROXY_OBJECT
  5
CB
330
48
100
AcDbProxyObject
 90
      499
 91
      546
 95
       25
 70
     0
 93
       48
310
0001AA000000
330
48
330
1E
330
CC
330
0
 94
        0
  0
ACAD_PROXY_OBJECT
  5
CC
330
48
100
AcDbProxyObject
 90
      499
 91
      547
 95
       25
 70
     0
 93
       28
310
0001AAA0
330
48
 94
        0
  0
ACAD_PROXY_OBJECT
  5
CD
330
48
100
AcDbProxyObject
 90
      499
 91
      546
 95
       25
 70
     0
 93
       48
310
0001AA000000
330
48
330
26
330
CE
330
0
 94
        0
  0
ACAD_PROXY_OBJECT
  5
CE
330
48
100
AcDbProxyObject
 90
      499
 91
      547
 95
       25
 70
     0
 93
       28
310
0001AAA0
330
48
 94
        0
  0
ACAD_PROXY_OBJECT
  5
D1
330
48
100
AcDbProxyObject
 90
      499
 91
      509
 95
       25
 70
     0
 93
      108
310
000101421053521310D05310D010
330
48
 94
        0
  0
ACAD_PROXY_OBJECT
  5
D2
330
48
100
AcDbProxyObject
 90
      499
 91
      509
 95
       25
 70
     0
 93
      124
310
00010142905354915554D15112535010
330
48
 94
        0
  0
ACAD_PROXY_OBJECT
  5
D3
330
48
100
AcDbProxyObject
 90
      499
 91
      509
 95
       25
 70
     0
 93
      132
310
00010143105354D150D51253D391125360
330
48
 94
        0
  0
ACAD_PROXY_OBJECT
  5
D4
330
48
100
AcDbProxyObject
 90
      499
 91
      509
 95
       25
 70
     0
 93
      124
310
00010142905355941093D49111549010
330
48
 94
        0
  0
ACAD_PROXY_OBJECT
  5
D5
330
48
100
AcDbProxyObject
 90
      499
 91
      509
 95
       25
 70
     0
 93
      116
310
0001014290535115D1D0D3D313D4A0
330
48
 94
        0
  0
ACAD_PROXY_OBJECT
  5
D6
330
48
100
AcDbProxyObject
 90
      499
 91
      509
 95
       25
 70
     0
 93
      148
310
00010143505355925155D49151949154D21010
330
48
 94
        0
  0
ACAD_PROXY_OBJECT
  5
D7
330
48
100
AcDbProxyObject
 90
      499
 91
      509
 95
       25
 70
     0
 93
      172
310
00010144105350539393D51154149154D15495915010
330
48
 94
        0
  0
ACAD_PROXY_OBJECT
  5
DA
330
48
100
AcDbProxyObject
 90
      499
 91
      509
 95
       25
 70
     0
 93
      172
310
00010144105350555513D11253505494905391D15010
330
48
 94
        0
  0
ACAD_PROXY_OBJECT
  5
DB
330
48
100
AcDbProxyObject
 90
      499
 91
      509
 95
       25
 70
     0
 93
      124
310
00010142D05351561514915191125360
330
48
 94
        0
  0
ACAD_PROXY_OBJECT
  5
DC
330
48
100
AcDbProxyObject
 90
      499
 91
      509
 95
       25
 70
     0
 93
      132
310
00010142D05355105410539393D5115010
330
48
 94
        0
  0
ACAD_PROXY_OBJECT
  5
DD
330
48
100
AcDbProxyObject
 90
      499
 91
      509
 95
       25
 70
     0
 93
      108
310
00010142105350555513D0D31010
330
48
 94
        0
  0
ACAD_PROXY_OBJECT
  5
DE
330
48
100
AcDbProxyObject
 90
      499
 91
      509
 95
       25
 70
     0
 93
      108
310
00010142105350D3119150551050
330
48
 94
        0
  0
ACAD_PROXY_OBJECT
  5
DF
330
48
100
AcDbProxyObject
 90
      499
 91
      509
 95
       25
 70
     0
 93
      108
310
00010142105350D315925155D3F0
330
48
 94
        0
  0
ACAD_PROXY_OBJECT
  5
E0
330
48
100
AcDbProxyObject
 90
      499
 91
      509
 95
       25
 70
     0
 93
      148
310
0001014350535212511156915493D112535010
330
48
 94
        0
  0
ACAD_PROXY_OBJECT
  5
E1
330
48
100
AcDbProxyObject
 90
      499
 91
      509
 95
       25
 70
     0
 93
      124
310
00010142905352105510D21254D3D010
330
48
 94
        0
  0
ACAD_PROXY_OBJECT
  5
E2
330
48
100
AcDbProxyObject
 90
      499
 91
      509
 95
       25
 70
     0
 93
      148
310
00010143905354D25391D31152105513105660
330
48
 94
        0
  0
ACAD_PROXY_OBJECT
  5
E3
330
48
100
AcDbProxyObject
 90
      499
 91
      509
 95
       25
 70
     0
 93
      124
310
00010142D0535115D1D193111254D420
330
48
 94
        0
  0
ACAD_PROXY_OBJECT
  5
E4
330
48
100
AcDbProxyObject
 90
      499
 91
      509
 95
       25
 70
     0
 93
      100
310
00010142105350555513D213A0
330
48
 94
        0
  0
ACAD_PROXY_OBJECT
  5
E5
330
48
100
AcDbProxyObject
 90
      499
 91
      509
 95
       25
 70
     0
 93
      116
310
000101425053521390D3D553951010
330
48
 94
        0
  0
ACAD_PROXY_OBJECT
  5
E6
330
48
100
AcDbProxyObject
 90
      499
 91
      509
 95
       25
 70
     0
 93
      108
310
0001014210535213941493D29010
330
48
 94
        0
  0
ACAD_PROXY_OBJECT
  5
E7
330
48
100
AcDbProxyObject
 90
      499
 91
      509
 95
       25
 70
     0
 93
      108
310
0001014210535213951654115070
330
48
 94
        0
  0
ACAD_PROXY_OBJECT
  5
E8
330
48
100
AcDbProxyObject
 90
      499
 91
      509
 95
       25
 70
     0
 93
      108
310
000101421053521395925155D0F0
330
48
 94
        0
  0
ACAD_PROXY_OBJECT
  5
E9
330
48
100
AcDbProxyObject
 90
      499
 91
      509
 95
       25
 70
     0
 93
      140
310
00010143505354D150D51253D390D3D41660
330
48
 94
        0
  0
ACAD_PROXY_OBJECT
  5
EA
330
48
100
AcDbProxyObject
 90
      499
 91
      509
 95
       25
 70
     0
 93
      108
310
00010142105350D3141493D29030
330
48
 94
        0
  0
ACAD_PROXY_OBJECT
  5
EB
330
48
100
AcDbProxyObject
 90
      499
 91
      508
 95
       25
 70
     0
 93
      212
310
00010143905350555513D2105510D21493D500000000000002E400
330
48
 94
        0
  0
ACAD_PROXY_OBJECT
  5
EC
330
48
100
AcDbProxyObject
 90
      499
 91
      509
 95
       25
 70
     0
 93
      156
310
00010143905350555513D2105510D21111551010
330
48
 94
        0
  0
ACAD_PROXY_OBJECT
  5
F5
330
48
100
AcDbProxyObject
 90
      499
 91
      553
 95
       25
 70
     0
 93
      706
310
0001000000009AA6A9AA4051E576564204665622031392032313A35383A3234203230303320285554432901420DCB8C0B8CCE4B8E00518547565204E6F762030322030393A34363A313920323031300141CE4B8C8B8C0B8C80
330
48
330
F6
330
F7
330
F9
330
0
 94
        0
  0
ACAD_PROXY_OBJECT
  5
F6
330
48
100
AcDbProxyObject
 90
      499
 91
      554
 95
       25
 70
     0
 93
       70
310
0001AAA80820000000
330
48
330
F6
330
F6
 94
        0
  0
ACAD_PROXY_OBJECT
  5
F7
330
48
100
AcDbProxyObject
 90
      499
 91
      555
 95
       25
 70
     0
 93
       48
310
000100000000
330
48
330
0
330
F8
330
0
330
0
 94
        0
  0
ACAD_PROXY_OBJECT
  5
F8
330
48
100
AcDbProxyObject
 90
      499
 91
      556
 95
       25
 70
     0
 93
       40
310
000100AAAA
330
48
330
0
 94
        0
  0
ACAD_PROXY_OBJECT
  5
FE
330
48
100
AcDbProxyObject
 90
      499
 91
      523
 95
       25
 70
     0
 93
      180
310
00010143105050D3D35411119390535140504434F4D500
330
48
 94
        0
  0
ACAD_PROXY_OBJECT
  5
FF
330
48
100
AcDbProxyObject
 90
      499
 91
      523
 95
       25
 70
     0
 93
      212
310
0001014390505193D311115491119390535140506466F6C6465720
330
48
 94
        0
  0
ACAD_PROXY_OBJECT
  5
100
330
48
100
AcDbProxyObject
 90
      499
 91
      523
 95
       25
 70
     0
 93
      180
310
00010143105050539393D1119390535140504284156290
330
48
 94
        0
  0
ACAD_PROXY_OBJECT
  5
101
330
48
100
AcDbProxyObject
 90
      499
 91
      523
 95
       25
 70
     0
 93
      436
310
00010143905050D3D35415925155D31254D50052295BD96CA0A90B396CA0A894591A496CA0A8DB691A496CA0A89BA96CA0A95E28F95310
330
48
 94
        0
  0
ACAD_PROXY_OBJECT
  5
106
330
48
100
AcDbProxyObject
 90
      499
 91
      561
 95
       25
 70
     0
 93
       32
310
00010000
330
48
340
103
330
108
330
103
 94
        0
  0
ACAD_PROXY_OBJECT
  5
107
330
48
100
AcDbProxyObject
 90
      499
 91
      562
 95
       25
 70
     0
 93
       18
310
000180
330
48
 94
        0
  0
ACAD_PROXY_OBJECT
  5
108
330
48
100
AcDbProxyObject
 90
      499
 91
      563
 95
       25
 70
     0
 93
      170
310
00010142935115CC4D8E4C11D4CD1050055401550000
330
48
330
106
330
107
 94
        0
  0
ACAD_PROXY_OBJECT
  5
109
330
48
100
AcDbProxyObject
 90
      499
 91
      564
 95
       25
 70
     0
 93
      178
310
000100AAAAAAA0B5CDE05F67B350E9537848B67BA3BDC0
330
48
330
108
 94
        0
  0
ACAD_PROXY_OBJECT
  5
10A
330
48
100
AcDbProxyObject
 90
      499
 91
      565
 95
       25
 70
     0
 93
      108
310
000190140A000000000000AAAAA0
330
48
330
10B
330
10B
330
10B
330
10B
330
10B
330
0
 94
        0
  0
ACAD_PROXY_OBJECT
  5
10B
330
48
100
AcDbProxyObject
 90
      499
 91
      566
 95
       25
 70
     0
 93
       51
310
00010000AAAA80
330
48
330
10A
330
108
 94
        0
  0
ACAD_PROXY_OBJECT
  5
34D
330
48
100
AcDbProxyObject
 90
      499
 91
      509
 95
       25
 70
     0
 93
      148
310
0001014350535311D0D3D313D49353D1115010
330
48
 94
        0
  0
DICTIONARY
  5
42
102
{ACAD_REACTORS
330
41
102
}
330
41
100
AcDbDictionary
281
     1
  3
DWGSETTINGS
350
43
  3
FEM
350
AA
  3
Shaft
350
A7
  3
TRANSSETTINGS
350
44
  0
ACAD_PROXY_OBJECT
  5
63
102
{ACAD_REACTORS
330
41
102
}
330
41
100
AcDbProxyObject
 90
      499
 91
      525
 95
       25
 70
     0
 93
    17920
310
41502491013041105357CC201C00030C011E441013141105357CC603800030C011E441013241105357CCA01400030C011E441013341105357CCE01800030C010D9013441105357CD200C00030C010D9013541105357CD600C00030C010D9013641105357CDA00800030C011E9013741105357CDE01000030C010D901384110
310
5357CE200400030C011E9013941105357CE63F400030C0241102324141505357CC4C201C00030C011E902344141505357CC4C600C00030C010D902495041505357CC4CA01C00030C011E40902304E41505357CC13A01C00030C011E902314E41505357CC53A03800030C011E902324E41505357CC93A01400030C011E90233
310
4E41505357CCD3A01800030C010D902344E41505357CD13A00C00030C010D902354E41505357CD53A00C00030C010D902364E41505357CD93A00800030C011E902374E41505357CDD3A01000030C010D902384E41505357CE13A00400030C011E902394E41505357CE53A3F400030C024110332414E41905357CC4C13A01C0
310
0030C011E90334414E41905357CC4C53A00C00030C010D90349504E41905357CC4C93A01C00030C011E409044B4C494E41505357D0D3200400030C011E42504494E464F42105357D410549151A01000030C010D42D055241484D3541905357D093D4A01C00030C011E425045649455742105357D5925155D4E00400030C011
310
E42D06424548494E4441905357D25395A3F400030C0243505545241494C41505357D514A00C00030C010D4250348494441905357D21251201C00030C011E4250356495341905357D59254E01C00030C011E4250650415244494D42505357D41054911253600C00030C010D4250652454644494D42505357D49151911253601
310
000030C010D425534110921395901398000000C0003FFFFFFFE415092139594D06424548494E448000000C0003FFFFFFFE411093D48C9055241484D358010000C30047A411093D48CD055241484D358020000C30047A411093D48D5055241484D358000000C0003FFFFFFFE4110D0530C901348000000C0003FFFFFFFE4110
310
D0530CD01348020000C30047A4110D0530D501348070000C30047A4110D0530DD013481E0000C30047A4110D15393901378000000C0003FFFFFFFE4110D15395D01378000000C0003FFFFFFFE4110D312539044B4C494E8000000C0003FFFFFFFE4110D3D38C501308000000C0003FFFFFFFD034110D3D38C901318000000C
310
0003FFFFFFFD034110D3D38CD01328000000C0003FFFFFFFD034110D3D38D101328000000C0003FFFFFFFD034111115510501348000000C0003FFFFFFFE4111125051D01358000000C0003FFFFFFFE4111125312501358000000C0003FFFFFFFE411112535410650415244494D8000000C0003FFFFFFFE4111125354906524
310
54644494D8000000C0003FFFFFFFE4111915353901388000000C0003FFFFFFFE415191535413901388030000C3004364151915354D410234418000000C0003FFFFFFFE4151915354D510234418030000C300436415191535593901328000000C0003FFFFFFFE415191535595101328030000C3004364112105510D01388000
310
000C0003FFFFFFFD014112125113901338000000C0003FFFFFFFD034112125115D01338000000C0003FFFFFFFD034112131253901348000000C0003FFFFFFFD01411213D0D3901378000000C0003FFFFFFFE411213D0D5D01378000000C0003FFFFFFFE4112539193D04494E464F8000000C0003FFFFFFFE41131150511013
310
58000000C0003FFFFFFFE419397D0921395902394E8000000C0003FFFFFFFE419397D0D3D38C502304E8000000C0003FFFFFFFD03419397D0D3D38C902314E8000000C0003FFFFFFFD03419397D0D3D38CD02324E8000000C0003FFFFFFFD03419397D0D3D38D102324E8000000C0003FFFFFFFD03419397D0D15393902374
310
E8000000C0003FFFFFFFE419397D0D15395D02374E8000000C0003FFFFFFFE419397D1125312502354E8000000C0003FFFFFFFE419397D2105510D02384E8000000C0003FFFFFFFD01419397D2125113902334E8000000C0003FFFFFFFD03419397D2125115D02334E8000000C0003FFFFFFFD03419397D3115051102354E8
310
000000C0003FFFFFFFE419397D391D25410349504E8000000C0003FFFFFFFE419397D412105390334414E8000000C0003FFFFFFFE419397D510D3D3902304E8000000C0003FFFFFFFD03419397D5121312502344E8000000C0003FFFFFFFD01419397D5131153902304E8000000C0003FFFFFFFD03419397D5941312503324
310
14E8000000C0003FFFFFFFE411391D25410249508000000C0003FFFFFFFE411410530C9055241484D358010000C30047A411410530CD055241484D358020000C30047A411410530D5055241484D358000000C0003FFFFFFFE411412105390234418000000C0003FFFFFFFE411413D4D3901358000000C0003FFFFFFFE41149
310
0D1D3901378000000C0003FFFFFFFE411490D1D5D01378000000C0003FFFFFFFE4114D09492D01348000000C0003FFFFFFFD014114D150D5101348000000C0003FFFFFFFD014114D6508CD01358020000C30047A411354D653501358020000C30047A411510D3D3901308000000C0003FFFFFFFD0341151213125013480000
310
00C0003FFFFFFFD01411512550C9055241484D358010000C30047A411512550CD055241484D358020000C30047A411512550D5055241484D358000000C0003FFFFFFFE4115131153901308000000C0003FFFFFFFD03415514905253105545241494C8000000C0003FFFFFFFE4115149312501348000000C0003FFFFFFFD014
310
11516150C501368030000C300436411516150C901368030000C300436411516150CD01368000000C0003FFFFFFFE411516150D501368070000C30047A411516150DD013681E0000C30047A4115925155D04564945578000000C0003FFFFFFFE41159151121034849448000000C0003FFFFFFFD024115915115903564953800
310
0000C0003FFFFFFFD02411594131250232418000000C0003FFFFFFFE4116925690501348000000C0003FFFFFFFD01AAA3F400030C01013F90A4391E41D1E4190D4151E4110D40D0D4091E4051E4791E7F6
340
16
340
16
340
16
340
64
340
16
340
16
340
16
340
65
340
16
340
16
340
65
340
66
340
16
340
16
340
16
340
16
340
64
340
16
340
16
340
16
340
65
340
16
340
16
340
65
340
66
340
16
340
67
340
16
340
16
340
16
340
16
340
16
340
64
340
16
340
16
340
16
340
15
340
15
340
15
340
15
340
15
340
15
340
15
340
15
340
15
340
68
340
15
340
15
340
15
340
15
340
15
340
15
340
15
340
15
340
15
340
15
340
15
340
15
340
15
340
16
340
15
340
15
340
15
340
15
340
69
340
15
340
15
340
68
340
15
340
15
340
15
340
15
340
15
340
15
340
15
340
15
340
68
340
15
340
15
340
15
340
69
340
15
340
15
340
15
340
15
340
15
340
15
340
15
340
15
340
15
340
15
340
15
340
15
340
15
340
15
340
68
340
15
340
15
340
15
340
15
340
15
340
15
340
15
340
15
340
15
340
15
340
15
340
15
340
15
340
15
340
15
340
15
340
15
340
15
340
15
340
15
340
15
340
15
340
6C
 94
        0
  0
ACAD_PROXY_OBJECT
  5
1BD
102
{ACAD_REACTORS
330
1B8
102
}
330
1B8
100
AcDbProxyObject
 90
      499
 91
      580
 95
       25
 70
     0
 93
      253
310
43D1444494D454E53494F4E2C414D44545F2A5F44494D404A9012A404A9012A8
  0
ACAD_PROXY_OBJECT
  5
1BC
102
{ACAD_REACTORS
330
1B8
102
}
330
1B8
100
AcDbProxyObject
 90
      499
 91
      580
 95
       25
 70
     0
 93
      181
310
43D012A42D05357D191504B505357CA9012A404A9012A8
  0
ACAD_PROXY_OBJECT
  5
1B9
102
{ACAD_REACTORS
330
1B8
102
}
330
1B8
100
AcDbProxyObject
 90
      499
 91
      580
 95
       25
 70
     0
 93
      133
310
43D054841544348404A9012A404A9012A8
  0
ACAD_PROXY_OBJECT
  5
1BA
102
{ACAD_REACTORS
330
1B8
102
}
330
1B8
100
AcDbProxyObject
 90
      499
 91
      580
 95
       25
 70
     0
 93
      549
310
43D044C494E4549CE0B0E138B0A8B4E0B0A8B4E138B105357CE0B105357CE138B0A8B505357CE0B0A8B505357CE139012A404A910494E534552542C5354445041525432448
  0
ACAD_PROXY_OBJECT
  5
1BE
102
{ACAD_REACTORS
330
1B8
102
}
330
1B8
100
AcDbProxyObject
 90
      499
 91
      580
 95
       25
 70
     0
 93
      181
310
43D0341524341105357CD5012A404C906494E534552540
  0
ACAD_PROXY_OBJECT
  5
1BB
102
{ACAD_REACTORS
330
1B8
102
}
330
1B8
100
AcDbProxyObject
 90
      499
 91
      580
 95
       25
 70
     0
 93
     1053
310
43D7841434D46434652414D452C41434D444154554D5441524745542C41434D444154554D49442C41434D57454C4453594D2C41434D5355524653594D2C41434D4645415449442C41434D504152545245462C41434D42414C4C4F4F4E2C414D44544544474553594D2C414D47534352455743414C435441424C45404A9012A
310
404A9012A8
  0
ACAD_PROXY_OBJECT
  5
5D
102
{ACAD_REACTORS
330
5C
102
}
330
5C
100
AcDbProxyObject
 90
      499
 91
      522
 95
       25
 70
     0
 93
      157
310
057356C1D77406406AA8FFFFFFFF05DD01009010
330
1F
330
0
330
108
 94
        0
  0
ACAD_PROXY_OBJECT
  5
62
102
{ACAD_REACTORS
330
61
102
}
330
61
100
AcDbProxyObject
 90
      499
 91
      524
 95
       25
 70
     0
 93
     2497
310
5DC0000000000000C408000000C00040D254D3D01640600800030C0200800030C000000000000000C40C88A2085A0B6B23A22B233B2A9BA3220480A1C82C6DAA6EAE4CCA8CAF0E8A6E8C88120284A0B1B6A321A329BA3220480A1A82C6DAAECAD8C8D2DCCEA6E8C8812028420B1B6A4B229BA3220480A1682C6DA88C2E8EAD
310
AA6E8C88120284A0B1B6A127A6A9BA3220480A2082DAC8E888CAE8C2D2D8A6F2DAA6E8C88120288A0B6B23A29B2B1BA34B7B729BCB6A9BA3220480A2282DAC8E886CADCE8CAE498D2DCCAA6E8C88120285A0B6B23A2737BA32A9BA3220480A1682C682DACE98C2F2A6E8C88120285A0B1A0B6B3A234B6A9BA3220480A2282C
310
682DACE90DED8CA86D0C2E4E8A6E8C88120286A0B1A0B6B3AA34BA3632A9BA3220480A2282DAC8E8A8D0E4CAC2C898D2DCCAA6E8C8812032048080
340
6D
360
6E
360
6F
360
70
360
71
360
72
360
73
360
74
360
75
360
76
360
77
360
78
360
7F
360
80
360
8C
360
8D
360
10D
340
0
340
0
 94
        0
  0
ACAD_PROXY_OBJECT
  5
1FE
102
{ACAD_REACTORS
330
61
102
}
330
61
100
AcDbProxyObject
 90
      499
 91
      581
 95
       25
 70
     0
 93
     2387
310
5DC33333333333309408030000C30040D29254D01640600800030C0200800030C003333333333330940C8121E8720B1B6A9BAB9332A32BC3A29BA3220480A1282C6DA8C868CA6E8C88120286A0B1B6ABB2B63234B733A9BA3220480A1082C6DA92C8A6E8C88120285A0B1B6A230BA3AB6A9BA3220480A1282C6DA849E9AA6E
310
8C8812028820B6B23A2232BA30B4B629BCB6A9BA3220480A2282DAC8E8A6CAC6E8D2DEDCA6F2DAA6E8C88120288A0B6B23A21B2B73A32B92634B732A9BA3220480A2282DAC8E8A8D0E4CAC2C898D2DCCAA6E8C88120285A0B6B23A2737BA32A9BA3220480A1682C682DACE98C2F2A6E8C88120285A0B1A0B6B3A234B6A9BA3
310
220480A2282C682DACE90DED8CA86D0C2E4E8A6E8C88120286A0B1A0B6B3AA34BA3632A9BA3220480A02812020
340
1FF
360
200
360
201
360
202
360
203
360
204
360
205
360
206
360
207
360
208
360
209
360
20A
360
214
360
215
360
223
360
224
340
0
340
0
 94
        0
  0
ACAD_PROXY_OBJECT
  5
43
102
{ACAD_REACTORS
330
42
102
}
330
42
100
AcDbProxyObject
 90
      499
 91
      504
 95
       25
 70
     0
 93
     2648
310
4050B44574753455454494E4753A1286829C8E82A4A482B282A02608321A2A720A723A0A849A1ABE1C983E18999AA0C868A9C889282940000000000000488083A1A2A72224A0A9A0A8418983E19183E199820E868A9C8892A6A894000000000000010808321A2A72622A7250000000000000122020C868A9C9E8C8C9400000
310
00000000488083A1A2A727A32318A50000000000000122020E868A9C9E8C8C64940000000000000488084A1A624A720A92920ACA0A8599971A981818981A1A9C192108698929C8AA8B2A082A0AB098929C8A84A22BA3AAA9A1A0A622A50A0E9882A6A89E849482A02608426A0A5A2AB24A2ABA7E8120CA0A68682988A0C008
310
00010652455649534941501304154D0D0531150540CC4E8C50954494D455354414D504A0AC3883E17E2B734141D5915494D253D3905414C4D4B8C0C1107B44574753455454494E4753454E447D
  0
ACAD_PROXY_OBJECT
  5
AA
102
{ACAD_REACTORS
330
42
102
}
330
42
100
AcDbProxyObject
 90
      499
 91
      504
 95
       25
 70
     0
 93
      411
310
4050346454D21092DCC6E486DECACC942842630BCA3B937BAB820A8320A6AFA322A0A20F688AE8EA68AA8A8929C8EA68A9C88FA0
  0
ACAD_PROXY_OBJECT
  5
A7
102
{ACAD_REACTORS
330
42
102
}
330
42
100
AcDbProxyObject
 90
      499
 91
      504
 95
       25
 70
     0
 93
      513
310
40505536861667421292DCE8CAE4E4EAE0E89FC84A634B3B43A2634B732A7F21A98D2CED0E898D2DCCAACD2CAEE9FC883DA22BA3A9A2AA2A24A723A9A2A7223E80
  0
ACAD_PROXY_OBJECT
  5
44
102
{ACAD_REACTORS
330
42
102
}
330
42
100
AcDbProxyObject
 90
      499
 91
      504
 95
       25
 70
     0
 93
      852
310
4050D5452414E5353455454494E4753A2488A482AE929C8EA8A4829CA69882A8929E9C0C00800050D4F524947494E414C4C595F4F4E0600400028529A7AAA921A2A620A723A0A81A52827212AAA0A48AA68AA4AC8A0C0080001107B44574753455454494E4753454E447D0
  0
ACAD_PROXY_OBJECT
  5
6E
330
62
100
AcDbProxyObject
 90
      499
 91
      526
 95
       25
 70
     0
 93
       13
310
5DD0
  0
ACAD_PROXY_OBJECT
  5
6F
330
62
100
AcDbProxyObject
 90
      499
 91
      527
 95
       25
 70
     0
 93
       96
310
5DEA0E80A0280A0280A0280F
  0
ACAD_PROXY_OBJECT
  5
70
330
62
100
AcDbProxyObject
 90
      499
 91
      528
 95
       25
 70
     0
 93
      272
310
5DD0E4050140501405014050140501405014050140D01405012C0000000000000040
340
79
 94
        0
  0
ACAD_PROXY_OBJECT
  5
71
330
62
100
AcDbProxyObject
 90
      499
 91
      529
 95
       25
 70
     0
 93
      497
310
5DE8666666666667A67E199999999999E99FD22405014050140501405014050140501405014050140501405014050140501405014050140501405014050100
340
7A
 94
        0
  0
ACAD_PROXY_OBJECT
  5
72
330
62
100
AcDbProxyObject
 90
      499
 91
      530
 95
       25
 70
     0
 93
       10
310
5DC0
  0
ACAD_PROXY_OBJECT
  5
73
330
62
100
AcDbProxyObject
 90
      499
 91
      531
 95
       25
 70
     0
 93
      257
310
5DE290EA22A7D90F49F80000000000001081400000000000004204010000618000
340
7B
340
7C
 94
        0
  0
ACAD_PROXY_OBJECT
  5
74
330
62
100
AcDbProxyObject
 90
      499
 91
      532
 95
       25
 70
     0
 93
    13453
310
5DD0E411255115350141236025B690140501406901000000000000091013347454E545241434F2C4A504E2C302C8D8096DA2C47454E54524154582C25732C2847454E4D53472067656E647767203232322940690120281A8AA2CA0282484A4BE52028120280A0320200000000000012202668E8A9CA8A482869E5894A09C58
310
605921292F94588E8A9CA8A482A8B0584AE658508E8A9C9AA68E40CECADCC8EECE406464665280D202405044E414D454050496BC914F4051C40640A80000000000004E404CD1D15395149050D3CB1294138B0C0B25AF2453CB11D15395149055160B095CCB0A11D1539354D1C819D95B991DD9C80C8C8D8A50192C3D494628
310
4953424C414E4B28504152543A4E414D45292C424C4F434B3A4E414D452C504152543A4E414D452940480A0A888AA686A480A09251B1DBE80A3A80C81D0000000000100A28099A3A2A72A2920A1A7962528271618164946C76F9623A2A72A2920AA2C1612B9961423A2A726A9A39033B2B7323BB39019189B94A0348090142
310
14D51053911054911014122D2E29A50147501904A000000000000125013347454E545241434F2C4A504E2C302C8B4B8A692C47454E54524154582C25732C2847454E4D53472067656E64776720323138294069012028426A0AA22A924A0A62028246EF4BDFA028EA0320B40000000000001CA02668E8A9CA8A482869E5894A
310
09C5860591BBD2F7E588E8A9CA8A482A8B0584AE658508E8A9C9AA68E40CECADCC8EECE406464625280D202405044E4F544540504928D8B4C4051D40641A80000000000003E404CD1D15395149050D3CB1294138B0C0B24A362D30B11D15395149055160B095CCB0A11D1539354D1C819D95B991DD9C80C8C8D4A501240480
310
A0CAC8A9C889EA480A1106F1072706BF02B680A3A80C83D00000000000007C809BA3A2A72A2920A1A79625282716181641BC41C9C1AFC0AD9623A2A72A2920AA2C1612B9961423A2A726A9A39033B2B7323BB39019191A14A0248090141911154D0D48C90141A43825AF880C90147501908A000000000020145013447454E5
310
45241434F2C4A504E2C302C90E096BE20322C47454E54524154582C25732C2847454E4D53472067656E6477672033362940490120284A9AA20A72220A922192028345A5C53490192028EA03213400000000000024A026A8E8A9CA8A482869E5894A09C586059169714D24064588E8A9CA8A482A8B0584AE658508E8A9C9AA6
310
8E40CECADCC8EECE4064646052809202405094D4154455249414C32405068DDE97BF20324051D40642A8713D0AD7A37045404D11D15395149050D3CB1294138B0C0B2377A5EFC80C8B11D15395149055160B095CCB0A11D1539354D1C819D95B991DD9C80D0C0A501240480A089A82A6A680A091D7F2F9480A3A80A0485A06
310
8100000000000007C809923A2A72A2920A1A796252827161816475FCBE51623A2A72A2920AA2C1612B9961423A2A726A9A39033B2B7323BB3901A1914A024809014154149250D150141226FE29A501475014090C409020000000000000F9013247454E545241434F2C4A504E2C302C89BF8A692C47454E54524154582C2573
310
2C2847454E4D53472067656E6477672034332940490120281A224A6A02824850CB202028EA028121A81A040000000000001F202648E8A9CA8A482869E5894A09C58605921432C80588E8A9CA8A482A8B0584AE658508E8A9C9AA68E40CECADCC8EECE406868528092024050E445020000000000000510201C00030C0001018
310
0000000000003E400000000000000F901073D3C4954454D3E4050180000000000003E400000000000000F901073D3C4954454D3E40501800000000000034400000000000000D101073D3C4954454D3E40501800000000000034400000000000000D101073D3C4954454D3E405029010000000000000F9000000000000003E4
310
041CF4F125511534F901418F4F1455164F9014060000000000000F9000000000000003E4041CF4F125511534F9014060000000000000D100000000000000344041CF4F125511534F901901000000000000000F9000000000000003E40A2200000000000008204018000618048220681A048120280A0D2B292AD32AB8882148
310
421F04D904E44104DF06A706AD06C5069C8820321F04D904E44104DF06A706AD06C5069C8520321F04D904E44104DF06A706AD06C5069C8452028521485214814000000000000F0BF0000000000003C2FD018020000C3008070000C3003373333333333B0FCCDCCCCCCCCCCEC3F00000000000003101203416405034110590
310
1A000000000000062040100006180401000061804008000618008098A02808
340
0
340
0
 94
        0
  0
ACAD_PROXY_OBJECT
  5
75
330
62
100
AcDbProxyObject
 90
      499
 91
      533
 95
       25
 70
     0
 93
      898
310
5DC4000000000000144048CF4F11115510525317D3105091530F880A0F11115510525317D05094D4D0D053114F8A51141C9A9999999999B93F26A666666666724FC000000000000E03F400000000000000400000000000000510000000000000024408070000C300000000000000051000
340
16
340
6D
 94
        0
  0
ACAD_PROXY_OBJECT
  5
76
330
62
100
AcDbProxyObject
 90
      499
 91
      534
 95
       25
 70
     0
 93
      823
310
5DC0B00000000000002880959E9E29A2A1AA24A7A72FA620A122A62FA324A929AA1F169E29A2A1AA24A7A72FA620A122A62FA620A9AA1F000000000000048803FFFE01C00030C0088C0380006180000000000000048800000000000000A2000000000000002880
340
7E
340
6D
 94
        0
  0
ACAD_PROXY_OBJECT
  5
77
330
62
100
AcDbProxyObject
 90
      499
 91
      535
 95
       25
 70
     0
 93
      152
310
5DE80000000000000840A3D0A5723F0BD1F200
  0
ACAD_PROXY_OBJECT
  5
78
330
62
100
AcDbProxyObject
 90
      499
 91
      536
 95
       25
 70
     0
 93
     5143
310
5DD084050BA4050AA405024050A54656D706C6174652031405BE3D2525633C486F6C653A63746469613E2078203C486F6C653A637464657074683E20555C503C696628657175616C28486F6C653A7461707065642C223022292C222525632220486F6C653A6469612C20486F6C653A6E6F6D696E616C20222078202220486F
310
6C653A70697463686465736320222078202220486F6C653A7461706465707468293E203C696628657175616C28486F6C653A7465726D696E6174696F6E2C223022292C22202F202220486F6C653A64657074682C222022293E406901405034050A54656D706C6174652031405BF3D2525633C486F6C653A63746469613E207
310
8203C486F6C653A6374616E676C653E2525645C503C696628657175616C28486F6C653A7461707065642C223022292C222525632220486F6C653A6469612C20486F6C653A6E6F6D696E616C20222078202220486F6C653A70697463686465736320222078202220486F6C653A7461706465707468293E203C6966286571756
310
16C28486F6C653A7465726D696E6174696F6E2C223022292C22202F202220486F6C653A64657074682C222022293E406901405014050A54656D706C61746520314059A3D3C696628657175616C28486F6C653A7461707065642C223022292C222525632220486F6C653A6469612C20486F6C653A6E6F6D696E616C20222078
310
202220486F6C653A70697463686465736320222078202220486F6C653A7461706465707468293E203C696628657175616C28486F6C653A7465726D696E6174696F6E2C223022292C22202F202220486F6C653A64657074682C222022293E4069014051E4050A54656D706C61746520314050C3D3C535444503A444553433E4
310
0690140515AAAB5C
360
1AA
330
1AA
360
1AB
330
1AB
360
1AC
330
1AC
360
1AD
330
1AD
 94
        0
  0
ACAD_PROXY_OBJECT
  5
7F
330
62
100
AcDbProxyObject
 90
      499
 91
      537
 95
       25
 70
     0
 93
    17870
310
5DD02491013041105357CC201C00030C0132441013141105357CC603800030C0132441013241105357CCA01400030C0132441013341105357CCE01800030C01199013441105357CD200C00030C01199013541105357CD600C00030C01199013641105357CDA00800030C01239013741105357CDE01000030C0119901384110
310
5357CE200400030C01199013941105357CE63F400030C0241102324141505357CC4C201C00030C0132902344141505357CC4C600C00030C0119902495041505357CC4CA01C00030C013240902304E41505357CC13A01C00030C0132902314E41505357CC53A03800030C0132902324E41505357CC93A01400030C013290233
310
4E41505357CCD3A01800030C0119902344E41505357CD13A00C00030C0119902354E41505357CD53A00C00030C0119902364E41505357CD93A00800030C0123902374E41505357CDD3A01000030C0119902384E41505357CE13A00400030C0119902394E41505357CE53A3F400030C024110332414E41905357CC4C13A01C0
310
0030C013290334414E41905357CC4C53A00C00030C011990349504E41905357CC4C93A01C00030C0132409044B4C494E41505357D0D3200400030C011942504494E464F42105357D410549151A01000030C011942D055241484D3541905357D093D4A01C00030C0132425045649455742105357D5925155D4E00400030C011
310
942D06424548494E4441905357D25395A3F400030C0243505545241494C41505357D514A00C00030C01194250348494441905357D21251201C00030C01194250356495341905357D59254E01C00030C01324250650415244494D42505357D41054911253600C00030C01194250652454644494D42505357D49151911253601
310
000030C0119425534110921395901398000000C0003FFFFFFFE415092139594D06424548494E448000000C0003FFFFFFFE411093D48C9055241484D358010000C300466411093D48CD055241484D358020000C30048E411093D48D5055241484D358000000C0003FFFFFFFE4110D0530C901348000000C0003FFFFFFFE4110
310
D0530CD01348020000C30048E4110D0530D501348070000C3004CA4110D0530DD013481E0000C30051A4110D15393901378000000C0003FFFFFFFE4110D15395D01378000000C0003FFFFFFFE4110D312539044B4C494E8000000C0003FFFFFFFE4110D3D38C501308000000C0003FFFFFFFD034110D3D38C901318000000C
310
0003FFFFFFFD034110D3D38CD01328000000C0003FFFFFFFD034110D3D38D101328000000C0003FFFFFFFD034111115510501348000000C0003FFFFFFFE4111125051D01358000000C0003FFFFFFFE4111125312501358000000C0003FFFFFFFE411112535410650415244494D8000000C0003FFFFFFFE4111125354906524
310
54644494D8000000C0003FFFFFFFE4111915353901388000000C0003FFFFFFFE415191535413901388030000C3003FFFFFFFE4151915354D410234418000000C0003FFFFFFFE4151915354D510234418030000C300466415191535593901328000000C0003FFFFFFFE415191535595101328030000C3004664112105510D01
310
388000000C0003FFFFFFFD014112125113901338000000C0003FFFFFFFD034112125115D01338000000C0003FFFFFFFD034112131253901348000000C0003FFFFFFFD01411213D0D3901378000000C0003FFFFFFFE411213D0D5D01378000000C0003FFFFFFFE4112539193D04494E464F8000000C0003FFFFFFFE41131150
310
51101358000000C0003FFFFFFFE419397D0921395902394E8000000C0003FFFFFFFE419397D0D3D38C502304E8000000C0003FFFFFFFD03419397D0D3D38C902314E8000000C0003FFFFFFFD03419397D0D3D38CD02324E8000000C0003FFFFFFFD03419397D0D3D38D102324E8000000C0003FFFFFFFD03419397D0D15393
310
902374E8000000C0003FFFFFFFE419397D0D15395D02374E8000000C0003FFFFFFFE419397D1125312502354E8000000C0003FFFFFFFE419397D2105510D02384E8000000C0003FFFFFFFD01419397D2125113902334E8000000C0003FFFFFFFD03419397D2125115D02334E8000000C0003FFFFFFFD03419397D311505110
310
2354E8000000C0003FFFFFFFE419397D391D25410349504E8000000C0003FFFFFFFE419397D412105390334414E8000000C0003FFFFFFFE419397D510D3D3902304E8000000C0003FFFFFFFD03419397D5121312502344E8000000C0003FFFFFFFD01419397D5131153902304E8000000C0003FFFFFFFD03419397D5941312
310
50332414E8000000C0003FFFFFFFE411391D25410249508000000C0003FFFFFFFE411410530C9055241484D358010000C300466411410530CD055241484D358020000C30048E411410530D5055241484D358000000C0003FFFFFFFE411412105390234418000000C0003FFFFFFFE411413D4D3901358000000C0003FFFFFFF
310
E411490D1D3901378000000C0003FFFFFFFE411490D1D5D01378000000C0003FFFFFFFE4114D09492D01348000000C0003FFFFFFFD014114D150D5101348000000C0003FFFFFFFD014114D6508CD01358020000C30048E411354D653501358020000C30048E411510D3D3901308000000C0003FFFFFFFD0341151213125013
310
48000000C0003FFFFFFFD01411512550C9055241484D358010000C300466411512550CD055241484D358020000C30048E411512550D5055241484D358000000C0003FFFFFFFE4115131153901308000000C0003FFFFFFFD03415514905253105545241494C8000000C0003FFFFFFFE4115149312501348000000C0003FFFFF
310
FFD01411516150C501368030000C300466411516150C901368030000C300466411516150CD01368000000C0003FFFFFFFE411516150D501368070000C3004CA411516150DD013681E0000C30051A4115925155D04564945578000000C0003FFFFFFFE41159151121034849448000000C0003FFFFFFFD024115915115903564
310
9538000000C0003FFFFFFFD02411594131250232418000000C0003FFFFFFFE4116925690501348000000C0003FFFFFFFD01429014650248D0346504465054C906465074C90E4C91E519FD8
340
63
340
16
340
16
340
16
340
64
340
16
340
16
340
16
340
65
340
16
340
16
340
65
340
66
340
16
340
16
340
16
340
16
340
64
340
16
340
16
340
16
340
65
340
16
340
16
340
65
340
66
340
16
340
67
340
16
340
16
340
16
340
16
340
16
340
64
340
16
340
16
340
16
340
15
340
15
340
15
340
15
340
15
340
15
340
15
340
15
340
15
340
68
340
15
340
15
340
15
340
15
340
15
340
15
340
15
340
15
340
15
340
15
340
15
340
15
340
15
340
16
340
15
340
15
340
15
340
15
340
69
340
15
340
15
340
68
340
15
340
15
340
15
340
15
340
15
340
15
340
15
340
15
340
68
340
15
340
15
340
15
340
69
340
15
340
15
340
15
340
15
340
15
340
15
340
15
340
15
340
15
340
15
340
15
340
15
340
15
340
15
340
68
340
15
340
15
340
15
340
15
340
15
340
15
340
15
340
15
340
15
340
15
340
15
340
15
340
15
340
15
340
15
340
15
340
15
340
15
340
15
340
15
340
15
340
15
340
6C
 94
        0
  0
ACAD_PROXY_OBJECT
  5
80
330
62
100
AcDbProxyObject
 90
      499
 91
      538
 95
       25
 70
     0
 93
      250
310
5DD020000000000000A1000000000000002440408F0F9023C3E409A0DCFFFF80
340
81
340
0
340
0
340
82
340
83
340
84
340
85
340
86
340
8B
340
0
 94
        0
  0
ACAD_PROXY_OBJECT
  5
8C
330
62
100
AcDbProxyObject
 90
      499
 91
      539
 95
       25
 70
     0
 93
    14055
310
5DD1D023FFFFFFFD030300030CCCCCCCCCCCC250200800030C01030300030000000000000310200800030C0005134C697374206F6620436F6F7264696E61746573015091D15395149050D3CB1153954B0C0B131A5CDD081BD98810DBDBDC991A5B985D195CCB11D15395149055160B095CCB0A11D1539354D1C819D95B991A
310
5B5E880CCC0A78100C000000000000000000000000000000010CCCCCCCCCCCC250200800030C010CCCCCCCCCCCC250200800030C020143CF4F111959985D5B1D151A5D1B194F8050A486F6C65205461626C65014E51D15395149050D3CB1153954B0C0B121BDB19481518589B194B11D15395149055160B095CCB0A11D1539
310
354D1C819D95B991A5B5E880CCC4A78100C000000000000000000000000000000010CCCCCCCCCCCC250200800030C010CCCCCCCCCCCC250200800030C020143CF4F111959985D5B1D151A5D1B194F90D44111409034110541D0C4350F4050E44D03449074510F000141232D24D7C053447454E545241434F2C454E552C302C
310
4F726967696E2C47454E54524154582C25732C2847454E4D53472067656E64696D7A20312900010105002214000281464500A648E8A9CA8A482869E588A9CAA58605890DED8CA588E8A9CA8A482A8B0584AE658508E8A9C9AA68E40CECADCC8D2DAF4406452029F9E9E27B934B3B4B71F1E24A31427A91424A9A12620A7259
310
427B934B3B4B7149624A9A12620A7259424B73232BC149496111116111711149F1E24B73232BC1F00808200111A000140560052F47454E545241434F2C454E552C302C582C47454E54524154582C25732C2847454E4D53472067656E64696D7A20332900010100002054000280AC80A5E8E8A9CA8A482869E588A9CAA58605
310
8B2588E8A9CA8A482A8B0584AE658508E8A9C9AA68E40CECADCC8D2DAF4406852000202000040E800050172014BD1D15395149050D3CB1153954B0C0B1C8B11D15395149055160B095CCB0A11D1539354D1C819D95B991A5B5E880D8A400040400008250000A05090C029823A2A72A2920A1A79622A72A96181642431623A2
310
A72A2920AA2C1612B9961423A2A726A9A39033B2B73234B6BD101B948000808180105A000140C94958C053147454E545241434F2C454E552C302C2525632C47454E54524154582C25732C2847454E4D53472067656E64696D7A203829000101010020F400028248704B5F00A748E8A9CA8A482869E588A9CAA58605888CAE6
310
C6E4D2E0E8D2DEDC588E8A9CA8A482A8B0584AE658508E8A9C9AA68E40CECADCC8D2DAF440646052000200080043280005048B4B8A69014DD1D15395149050D3CB1153954B0C0B14DD185B99185C990B11D15395149055160B095CCB0A11D1539354D1C819D95B991A5B5E880C8C4A4000400100086D0000A09196926BE029
310
A23A2A72A2920A1A79622A72A96181627B934B3B4B71623A2A72A2920AA2C1612B9961423A2A726A9A39033B2B73234B6BD10189480A026202020A0043E80005048D8096DA014CD1D15395149050D3CB1153954B0C0B125D195B4B11D15395149055160B095CCB0A11D1539354D1C819D95B991A5B5E880C4D0A4000404140
310
080D0000A190687072706CD06C5069D06B0029A23A2A72A2920A1A79622A72A96181624B73232BC1623A2A72A2920AA2C1612B9961423A2A726A9A39033B2B73234B6BD10189A94800080828010EA000143A322A0D0E0E4E0D9A0D8A0D3A0D60053947454E545241434F2C454E552C302C486F6C6520496E6465782C47454E
310
54524154582C25732C2847454E4D53472067656E64696D7A2031372900010105002274000281464500A668E8A9CA8A482869E588A9CAA58605890DED8CA588E8A9CA8A482A8B0584AE658508E8A9C9AA68E40CECADCC8D2DAF440626C52000202080044A8000504909497CA014C91D15395149050D3CB1153954B0C0B145D1
310
E4B11D15395149055160B095CCB0A11D1539354D1C819D95B991A5B5E880C4E4A400040418008A521E000000000000001CA040C00000000000034408080000000000006881010000000000000D102040000000000001A204080000000000003440818000000000000728103000000000000125020600000000004028A04000
310
0000000000034408000000000000004881000000000000000D102000000000000001A204000000000000003440818000000000000508143C0000000000000039408180000000000006881030000000000000D102060000000000001A2040C00000000000034408180000000000006881030000000000000E50206000000000
310
00024A040C000000000080514080000000000000068810000000000000009102000000000000001A2040000000000000034408180000000000006881030000000000000A10283A2000000087800000204000000818000002080000008280000020E00000080A24000000
340
0
340
0
340
0
340
0
340
0
340
0
 94
        0
  0
ACAD_PROXY_OBJECT
  5
8D
330
62
100
AcDbProxyObject
 90
      499
 91
      540
 95
       25
 70
     0
 93
     1578
310
5DD9740D254D3D0649534F5F4133429254D3D7D5125513115051349534F5F42525F5265766973696F6E6C697374A411105265766973696F6E6C6973745F424C5F44D254D3D7D09317D4995D9A5CDA5BDB9B1A5CDD1105265766973696F6E6C6973745F544C5F44D254D3D7D51317D4995D9A5CDA5BDB9B1A5CDD1105265766
310
973696F6E6C6973745F42525F44D254D3D7D09497D4995D9A5CDA5BDB9B1A5CDD1105265766973696F6E6C6973745F54525F44D254D3D7D51497D4995D9A5CDA5BDB9B1A5CDD00
  0
ACAD_PROXY_OBJECT
  5
10D
330
62
100
AcDbProxyObject
 90
      499
 91
      567
 95
       25
 70
     0
 93
       14
310
5DE0
340
0
 94
        0
  0
ACAD_PROXY_OBJECT
  5
200
330
1FE
100
AcDbProxyObject
 90
      499
 91
      582
 95
       25
 70
     0
 93
       86
310
5DEA0C80A0280A0280A034
  0
ACAD_PROXY_OBJECT
  5
201
330
1FE
100
AcDbProxyObject
 90
      499
 91
      583
 95
       25
 70
     0
 93
      282
310
5DD0E4050140501405014050140501405014050141101405014048000000000000001000
340
20B
 94
        0
  0
ACAD_PROXY_OBJECT
  5
202
330
1FE
100
AcDbProxyObject
 90
      499
 91
      584
 95
       25
 70
     0
 93
      387
310
5DC8666666666667A67E6DDB36EDDB36ED9F91740501405014050140501405014050140501405014050140501405014040
340
20C
 94
        0
  0
ACAD_PROXY_OBJECT
  5
203
330
1FE
100
AcDbProxyObject
 90
      499
 91
      585
 95
       25
 70
     0
 93
       10
310
5DC0
  0
ACAD_PROXY_OBJECT
  5
204
330
1FE
100
AcDbProxyObject
 90
      499
 91
      586
 95
       25
 70
     0
 93
      257
310
5DE0C16A22A7D90F49F80000000000001081400000000000004204010000618000
340
20D
340
20E
 94
        0
  0
ACAD_PROXY_OBJECT
  5
205
330
1FE
100
AcDbProxyObject
 90
      499
 91
      587
 95
       25
 70
     0
 93
    13013
310
5DD0E411255115350141236025B690140501406901000000000000091013347454E545241434F2C4A504E2C302C8D8096DA2C47454E54524154582C25732C2847454E4D53472067656E647767203232322940690120281A8AA2CA0282484A4BE52028120280A0320200000000000012202668E8A9CA8A482869E5894A09C58
310
605921292F94588E8A9CA8A482A8B0584AE658508E8A9C9AA68E40CECADCC8EECE406464665280D202405044E414D454050496BC914F4051C40640A80000000000004E404CD1D15395149050D3CB1294138B0C0B25AF2453CB11D15395149055160B095CCB0A11D1539354D1C819D95B991DD9C80C8C8D8A50192C3D494628
310
4953424C414E4B28504152543A4E414D45292C424C4F434B3A4E414D452C504152543A4E414D452940480A0A888AA686A480A09251B1DBE80A3A80C81D0000000000100A28099A3A2A72A2920A1A7962528271618164946C76F9623A2A72A2920AA2C1612B9961423A2A726A9A39033B2B7323BB39019189B94A0348090142
310
14D51053911054911014122D2E29A50147501904A000000000000125013347454E545241434F2C4A504E2C302C8B4B8A692C47454E54524154582C25732C2847454E4D53472067656E64776720323138294069012028426A0AA22A924A0A62028246EF4BDFA028EA0320B40000000000001CA02668E8A9CA8A482869E5894A
310
09C5860591BBD2F7E588E8A9CA8A482A8B0584AE658508E8A9C9AA68E40CECADCC8EECE406464625280D202405044E4F544540504928D8B4C4051D40641A80000000000003E404CD1D15395149050D3CB1294138B0C0B24A362D30B11D15395149055160B095CCB0A11D1539354D1C819D95B991DD9C80C8C8D4A501240480
310
A0CAC8A9C889EA480A1106F1072706BF02B680A3A80C83D00000000000007C809BA3A2A72A2920A1A79625282716181641BC41C9C1AFC0AD9623A2A72A2920AA2C1612B9961423A2A726A9A39033B2B7323BB39019191A14A0248090141911154D0D48C90141A43825AF880C90147501908A000000000020145013447454E5
310
45241434F2C4A504E2C302C90E096BE20322C47454E54524154582C25732C2847454E4D53472067656E6477672033362940490120284A9AA20A72220A922192028345A5C53490192028EA03213400000000000024A026A8E8A9CA8A482869E5894A09C586059169714D24064588E8A9CA8A482A8B0584AE658508E8A9C9AA6
310
8E40CECADCC8EECE4064646052809202405094D4154455249414C32405068DDE97BF20324051D40642A8713D0AD7A37045404D11D15395149050D3CB1294138B0C0B2377A5EFC80C8B11D15395149055160B095CCB0A11D1539354D1C819D95B991DD9C80D0C0A501240480A089A82A6A680A091D7F2F9480A3A80A0485A06
310
8100000000000007C809923A2A72A2920A1A796252827161816475FCBE51623A2A72A2920AA2C1612B9961423A2A726A9A39033B2B7323BB3901A1914A024809014154149250D150141226FE29A501475014090C409020000000000000F9013247454E545241434F2C4A504E2C302C89BF8A692C47454E54524154582C2573
310
2C2847454E4D53472067656E6477672034332940490120281A224A6A02824850CB202028EA028121A81A040000000000001F202648E8A9CA8A482869E5894A09C58605921432C80588E8A9CA8A482A8B0584AE658508E8A9C9AA68E40CECADCC8EECE406868528092024050E445020000000000000490201C00030C0001018
310
0000000000003B400000000000000ED01073D3C4954454D3E4050180000000000003B400000000000000ED01073D3C4954454D3E40501800000000000032400000000000000C901073D3C4954454D3E40501800000000000032400000000000000C901073D3C4954454D3E405029010000000000000ED000000000000003B4
310
041CF4F125511534F901418F4F1455164F9014060000000000000ED000000000000003B4041CF4F125511534F9014060000000000000D100000000000000344041CF4F125511534F901901000000000000000ED000000000000003B40A2200000000000008204018000618048220681A048120280C88214844882034852034
310
8452028521485214814000000000000F0BF0000000000003C2FD018020000C3008070000C3003373333333333B0FCCDCCCCCCCCCCEC3F0CCCCCCCCCCCC25012034164050341105901A19999999999984A040100006180401000061804008000618008098A02808
340
0
340
0
 94
        0
  0
ACAD_PROXY_OBJECT
  5
206
330
1FE
100
AcDbProxyObject
 90
      499
 91
      588
 95
       25
 70
     0
 93
      898
310
5DC4000000000000124048CF4F11115510525317D3105091530F880A0F11115510525317D05094D4D0D053114F8A50241C9A9999999999B93F26A666666666724FC000000000000E03F400000000000000400000000000000510000000000000024408070000C300000000000000049000
340
16
340
1FF
 94
        0
  0
ACAD_PROXY_OBJECT
  5
207
330
1FE
100
AcDbProxyObject
 90
      499
 91
      589
 95
       25
 70
     0
 93
      823
310
5DC0B00000000000002480959E9E29A2A1AA24A7A72FA620A122A62FA324A929AA1F169E29A2A1AA24A7A72FA620A122A62FA620A9AA1F000000000000048803FFFE01C00030C008140380006180000000000000048800000000000000A2000000000000002480
340
65
340
1FF
 94
        0
  0
ACAD_PROXY_OBJECT
  5
208
330
1FE
100
AcDbProxyObject
 90
      499
 91
      590
 95
       25
 70
     0
 93
      152
310
5DE8273108AC1C5A0640A3D0A5723F0BD1F200
  0
ACAD_PROXY_OBJECT
  5
209
330
1FE
100
AcDbProxyObject
 90
      499
 91
      591
 95
       25
 70
     0
 93
       14
310
5DE0
340
0
 94
        0
  0
ACAD_PROXY_OBJECT
  5
20A
330
1FE
100
AcDbProxyObject
 90
      499
 91
      592
 95
       25
 70
     0
 93
     6059
310
5DD084050BA4050AA405024050E836583938376838C815B83672031405983D3C486F6C653A6469613E3C696628657175616C28486F6C653A7465726D696E6174696F6E2C223022292C2220905B82B320222C22208368838A838B22293E3C696628657175616C28486F6C653A7465726D696E6174696F6E2C223022292C486F
310
6C653A64657074682C2222293E2C203C486F6C653A63746469613E2082B482AE82E882CC905B82B3203C486F6C653A637464657074683E406901405034050E836583938376838C815B83672031405EF3D3C486F6C653A6374616E676C653E252564202525633C486F6C653A63746469613E208E4D8C8A2C203C69662865717
310
5616C28486F6C653A7461707065642C223022292C22252563222C486F6C653A6E6F6D696E616C202220782022293E3C696628657175616C28486F6C653A7461707065642C223022292C486F6C653A6469612C486F6C653A706974636864657363293E203C696628657175616C28486F6C653A7465726D696E6174696F6E2C2
310
23022292C22905B82B320222C222022293E3C696628657175616C28486F6C653A7465726D696E6174696F6E2C223022292C486F6C653A64657074682C2222293E406901405014050E836583938376838C815B83672031405C73D3C696628657175616C28486F6C653A7461707065642C223022292C22252563222C486F6C65
310
3A6E6F6D696E616C202220782022293E3C696628657175616C28486F6C653A7461707065642C223022292C486F6C653A6469612C486F6C653A706974636864657363293E203C696628657175616C28486F6C653A7465726D696E6174696F6E2C223022292C22905B82B320222C222022293E3C696628657175616C28486F6C
310
653A7465726D696E6174696F6E2C223022292C486F6C653A64657074682C2222293E4069014051E4090E836583938376838C815B83672032405173D3C535444503A444553433E203C535444503A5354443E40690E836583938376838C815B836720314050C3D3C535444503A444553433E40690240515AAABBA120
360
212
330
212
360
213
330
213
360
211
330
211
360
210
360
20F
330
210
330
20F
 94
        0
  0
ACAD_PROXY_OBJECT
  5
214
330
1FE
100
AcDbProxyObject
 90
      499
 91
      537
 95
       25
 70
     0
 93
       26
310
5DD02A80
340
63
 94
        0
  0
ACAD_PROXY_OBJECT
  5
215
330
1FE
100
AcDbProxyObject
 90
      499
 91
      538
 95
       25
 70
     0
 93
      250
310
5DD020000000000000A1000000000000002440408F0F9023C3E409A0DCFFFF80
340
216
340
659
340
FBD
340
21D
340
21E
340
21F
340
220
340
221
340
222
340
0
 94
        0
  0
ACAD_PROXY_OBJECT
  5
223
330
1FE
100
AcDbProxyObject
 90
      499
 91
      593
 95
       25
 70
     0
 93
    13889
310
5DD1D003FFFFFFFD030300030CCCCCCCCCCCC250200800030C01030300030CCCCCCCCCCCC250200800030C00050C8DC0955782CC838A83588367014ED1D15395149050D3CB1294138B0C0B23702555E0B320E2A0D620D9CB11D15395149055160B095CCB0A11D1539354D1C819D95B991A5B5E880CCC0A78000C0000000000
310
00000000000000000000010CCCCCCCCCCCC250200800030C010CCCCCCCCCCCC250200800030C020143CF4F111959985D5B1D151A5D1B194F8050A8C8A8365815B8375838B014E51D15395149050D3CB1294138B0C0B2322A0D96056E0DD60E2CB11D15395149055160B095CCB0A11D1539354D1C819D95B991A5B5E880CCC4
310
A78000C000000000000000000000000000000010CCCCCCCCCCCC250200800030C010CCCCCCCCCCCC250200800030C020143CF4F111959985D5B1D151A5D1B194F90D44111409034110541D0C4350F4050E44D03449074510F000141232D24D7C053247454E545241434F2C4A504E2C302C8CB4935F2C47454E54524154582C
310
25732C2847454E4D53472067656E64696D7A20312900010104002214000281464500A608E8A9CA8A482869E5894A09C5860591914588E8A9CA8A482A8B0584AE658508E8A9C9AA68E40CECADCC8D2DAF4406452029E9E9E27B934B3B4B71F1E24A31427A91424A9A12620A7259427B934B3B4B7149624A9A12620A7259424B
310
A32B6949496111116111711149F1E24BA32B69F00808200111A000140560052F47454E545241434F2C4A504E2C302C582C47454E54524154582C25732C2847454E4D53472067656E64696D7A20332900010100002054000280AC80A5E8E8A9CA8A482869E5894A09C586058B2588E8A9CA8A482A8B0584AE658508E8A9C9AA
310
68E40CECADCC8D2DAF4406852000202000040E800050152014BD1D15395149050D3CB1294138B0C0B148B11D15395149055160B095CCB0A11D1539354D1C819D95B991A5B5E880D8A400040400008250000A0507A6029823A2A72A2920A1A79625282716181641E99623A2A72A2920AA2C1612B9961423A2A726A9A39033B2
310
B73234B6BD101B948000808180105A000140A0F4C053047454E545241434F2C4A504E2C302C83D32C47454E54524154582C25732C2847454E4D53472067656E64696D7A203829000101010020F400028248704B5F00A668E8A9CA8A482869E5894A09C58605921C12D7C588E8A9CA8A482A8B0584AE658508E8A9C9AA68E40
310
CECADCC8D2DAF440646052000200080043280005048B4B8A69014CD1D15395149050D3CB1294138B0C0B22D2E29A4B11D15395149055160B095CCB0A11D1539354D1C819D95B991A5B5E880C8C4A4000400100086D0000A09196926BE029923A2A72A2920A1A796252827161816465A49AF9623A2A72A2920AA2C1612B9961
310
423A2A726A9A39033B2B73234B6BD10189480A02620202080043E80005048D8096DA014CD1D15395149050D3CB1294138B0C0B236025B68B11D15395149055160B095CCB0A11D1539354D1C819D95B991A5B5E880C4D0A4000404140280D0000A190687072706CD06C5069D06B0029DA3A2A72A2920A1A7962528271618164
310
1A1C1C9C1B341B141A741AC1623A2A72A2920AA2C1612B9961423A2A726A9A39033B2B73234B6BD10189A94800080820050EA000143A322A0D0E0E4E0D9A0D8A0D3A0D60053D47454E545241434F2C4A504E2C302C8C8A8343839383668362834E83582C47454E54524154582C25732C2847454E4D53472067656E64696D7A
310
2031372900010105002274000281464500A628E8A9CA8A482869E5894A09C5860591914588E8A9CA8A482A8B0584AE658508E8A9C9AA68E40CECADCC8D2DAF440626C52000202080044A8000504909497CA014CD1D15395149050D3CB1294138B0C0B242525F28B11D15395149055160B095CCB0A11D1539354D1C819D95B9
310
91A5B5E880C4E4A400040418008A521E000000000000001CA040C00000000000034408080000000000006881010000000000000D102040000000000001A204080000000000003440818000000000000728103000000000000125020600000000004028A040000000000000034408000000000000004881000000000000000D
310
102000000000000001A204000000000000003440818000000000000508143C0000000000000039408180000000000006881030000000000000D102060000000000001A2040C00000000000034408180000000000006881030000000000000E5020600000000000024A040C0000000000805140800000000000000688100000
310
00000000009102000000000000001A2040000000000000034408180000000000006881030000000000000A10284220000000878000002020000008380000020400000081800000208000000828000002028900000000
340
0
340
0
340
0
340
0
340
1FF
340
1FF
 94
        0
  0
ACAD_PROXY_OBJECT
  5
224
330
1FE
100
AcDbProxyObject
 90
      499
 91
      540
 95
       25
 70
     0
 93
     2290
310
5DD9740D29254D0A53484D323030355F413440DE184D1134A49535F42525F5265766973696F6E6C6973744050A53484D323030355F41344B10CE971058D8591B4C8C0C0D571058D8591B5711D95B97111DD9D7199BDC9B585D1714D2134C8C0C0D57D04D10140DE184D124433A5C416361646D323030355C416361646D5C47
310
656E5C4477675C5469746C655C7861344110E979A97F0838A835883675F42525F44D29254D7D09497D4995D9A5CDA5BDB9B1A5CDD10E979A97F0838A835883675F54525F44D29254D7D51497D4995D9A5CDA5BDB9B1A5CDD10E979A97F0838A835883675F424C5F44D29254D7D09317D4995D9A5CDA5BDB9B1A5CDD10E979A
310
97F0838A835883675F544C5F44D29254D7D51317D4995D9A5CDA5BDB9B1A5CDD00
  0
ACAD_PROXY_OBJECT
  5
1AA
330
78
100
AcDbProxyObject
 90
      499
 91
      576
 95
       25
 70
     0
 93
     1648
310
5DE014295195B5C1B185D19480C405BE3D2525633C486F6C653A63746469613E2078203C486F6C653A637464657074683E20555C503C696628657175616C28486F6C653A7461707065642C223022292C222525632220486F6C653A6469612C20486F6C653A6E6F6D696E616C20222078202220486F6C653A70697463686465
310
736320222078202220486F6C653A7461706465707468293E203C696628657175616C28486F6C653A7465726D696E6174696F6E2C223022292C22202F202220486F6C653A64657074682C222022293E
  0
ACAD_PROXY_OBJECT
  5
1AB
330
78
100
AcDbProxyObject
 90
      499
 91
      576
 95
       25
 70
     0
 93
     1656
310
5DE014295195B5C1B185D19480C405BF3D2525633C486F6C653A63746469613E2078203C486F6C653A6374616E676C653E2525645C503C696628657175616C28486F6C653A7461707065642C223022292C222525632220486F6C653A6469612C20486F6C653A6E6F6D696E616C20222078202220486F6C653A706974636864
310
65736320222078202220486F6C653A7461706465707468293E203C696628657175616C28486F6C653A7465726D696E6174696F6E2C223022292C22202F202220486F6C653A64657074682C222022293E
  0
ACAD_PROXY_OBJECT
  5
1AC
330
78
100
AcDbProxyObject
 90
      499
 91
      576
 95
       25
 70
     0
 93
     1360
310
5DE014295195B5C1B185D19480C4059A3D3C696628657175616C28486F6C653A7461707065642C223022292C222525632220486F6C653A6469612C20486F6C653A6E6F6D696E616C20222078202220486F6C653A70697463686465736320222078202220486F6C653A7461706465707468293E203C696628657175616C2848
310
6F6C653A7465726D696E6174696F6E2C223022292C22202F202220486F6C653A64657074682C222022293E
  0
ACAD_PROXY_OBJECT
  5
1AD
330
78
100
AcDbProxyObject
 90
      499
 91
      576
 95
       25
 70
     0
 93
      224
310
5DE014295195B5C1B185D19480C4050C3D3C535444503A444553433E
  0
ACAD_PROXY_OBJECT
  5
212
330
20A
100
AcDbProxyObject
 90
      499
 91
      576
 95
       25
 70
     0
 93
     1376
310
5DE0143A0D960E4E0DDA0E32056E0D9C80C405983D3C486F6C653A6469613E3C696628657175616C28486F6C653A7465726D696E6174696F6E2C223022292C2220905B82B320222C22208368838A838B22293E3C696628657175616C28486F6C653A7465726D696E6174696F6E2C223022292C486F6C653A64657074682C22
310
22293E2C203C486F6C653A63746469613E2082B482AE82E882CC905B82B3203C486F6C653A637464657074683E
  0
ACAD_PROXY_OBJECT
  5
213
330
20A
100
AcDbProxyObject
 90
      499
 91
      576
 95
       25
 70
     0
 93
     2072
310
5DE0143A0D960E4E0DDA0E32056E0D9C80C405EF3D3C486F6C653A6374616E676C653E252564202525633C486F6C653A63746469613E208E4D8C8A2C203C696628657175616C28486F6C653A7461707065642C223022292C22252563222C486F6C653A6E6F6D696E616C202220782022293E3C696628657175616C28486F6C
310
653A7461707065642C223022292C486F6C653A6469612C486F6C653A706974636864657363293E203C696628657175616C28486F6C653A7465726D696E6174696F6E2C223022292C22905B82B320222C222022293E3C696628657175616C28486F6C653A7465726D696E6174696F6E2C223022292C486F6C653A6465707468
310
2C2222293E
  0
ACAD_PROXY_OBJECT
  5
211
330
20A
100
AcDbProxyObject
 90
      499
 91
      576
 95
       25
 70
     0
 93
     1752
310
5DE0143A0D960E4E0DDA0E32056E0D9C80C405C73D3C696628657175616C28486F6C653A7461707065642C223022292C22252563222C486F6C653A6E6F6D696E616C202220782022293E3C696628657175616C28486F6C653A7461707065642C223022292C486F6C653A6469612C486F6C653A706974636864657363293E20
310
3C696628657175616C28486F6C653A7465726D696E6174696F6E2C223022292C22905B82B320222C222022293E3C696628657175616C28486F6C653A7465726D696E6174696F6E2C223022292C486F6C653A64657074682C2222293E
  0
ACAD_PROXY_OBJECT
  5
210
330
20A
100
AcDbProxyObject
 90
      499
 91
      576
 95
       25
 70
     0
 93
      344
310
5DE0143A0D960E4E0DDA0E32056E0D9C80C805173D3C535444503A444553433E203C535444503A5354443E
  0
ACAD_PROXY_OBJECT
  5
20F
330
20A
100
AcDbProxyObject
 90
      499
 91
      576
 95
       25
 70
     0
 93
      256
310
5DE0143A0D960E4E0DDA0E32056E0D9C80C4050C3D3C535444503A444553433E
  0
ENDSEC
  0
EOF
