  0
SECTION
  2
HEADER
  9
$ACADVER
  1
AC1014
  9
$ACADMAINTVER
 70
     9
  9
$DWGCODEPAGE
  3
ANSI_932
  9
$INSBASE
 10
0.0
 20
0.0
 30
0.0
  9
$EXTMIN
 10
-238.3000009999175
 20
-55.50001313576387
 30
-0.00000001
  9
$EXTMAX
 10
25.6346954378467
 20
25.02842672747216
 30
0.00000001
  9
$LIMMIN
 10
-250.3842115664679
 20
-81.91178800513261
  9
$LIMMAX
 10
33.73303996502466
 20
57.19627079572649
  9
$ORTHOMODE
 70
     0
  9
$REGENMODE
 70
     1
  9
$FILLMODE
 70
     1
  9
$QTEXTMODE
 70
     0
  9
$MIRRTEXT
 70
     0
  9
$DRAGMODE
 70
     2
  9
$LTSCALE
 40
1.0
  9
$OSMODE
 70
    55
  9
$ATTMODE
 70
     1
  9
$TEXTSIZE
 40
2.5
  9
$TRACEWID
 40
1.0
  9
$TEXTSTYLE
  7
STANDARD
  9
$CLAYER
  8
AM_0
  9
$CELTYPE
  6
BYLAYER
  9
$CECOLOR
 62
   256
  9
$CELTSCALE
 40
1.0
  9
$DELOBJ
 70
     1
  9
$DISPSILH
 70
     0
  9
$DIMSCALE
 40
1.0
  9
$DIMASZ
 40
2.5
  9
$DIMEXO
 40
1.0
  9
$DIMDLI
 40
12.0
  9
$DIMRND
 40
0.0
  9
$DIMDLE
 40
0.0
  9
$DIMEXE
 40
1.0
  9
$DIMTP
 40
0.1
  9
$DIMTM
 40
0.1
  9
$DIMTXT
 40
3.2
  9
$DIMCEN
 40
0.0
  9
$DIMTSZ
 40
0.0
  9
$DIMTOL
 70
     0
  9
$DIMLIM
 70
     0
  9
$DIMTIH
 70
     0
  9
$DIMTOH
 70
     0
  9
$DIMSE1
 70
     0
  9
$DIMSE2
 70
     0
  9
$DIMTAD
 70
     3
  9
$DIMZIN
 70
     8
  9
$DIMBLK
  1
OPEN30
  9
$DIMASO
 70
     1
  9
$DIMSHO
 70
     1
  9
$DIMPOST
  1

  9
$DIMAPOST
  1
"
  9
$DIMALT
 70
     0
  9
$DIMALTD
 70
     2
  9
$DIMALTF
 40
0.0393701
  9
$DIMLFAC
 40
1.0
  9
$DIMTOFL
 70
     1
  9
$DIMTVP
 40
0.0
  9
$DIMTIX
 70
     0
  9
$DIMSOXD
 70
     0
  9
$DIMSAH
 70
     0
  9
$DIMBLK1
  1

  9
$DIMBLK2
  1

  9
$DIMSTYLE
  2
AM_JIS
  9
$DIMCLRD
 70
   256
  9
$DIMCLRE
 70
   256
  9
$DIMCLRT
 70
     2
  9
$DIMTFAC
 40
0.71
  9
$DIMGAP
 40
1.5
  9
$DIMJUST
 70
     0
  9
$DIMSD1
 70
     0
  9
$DIMSD2
 70
     0
  9
$DIMTOLJ
 70
     0
  9
$DIMTZIN
 70
     0
  9
$DIMALTZ
 70
     0
  9
$DIMALTTZ
 70
     0
  9
$DIMFIT
 70
     3
  9
$DIMUPT
 70
     0
  9
$DIMUNIT
 70
     2
  9
$DIMDEC
 70
     3
  9
$DIMTDEC
 70
     3
  9
$DIMALTU
 70
     2
  9
$DIMALTTD
 70
     2
  9
$DIMTXSTY
  7
ASAMI
  9
$DIMAUNIT
 70
     0
  9
$LUNITS
 70
     2
  9
$LUPREC
 70
     2
  9
$SKETCHINC
 40
1.0
  9
$FILLETRAD
 40
2.5
  9
$AUNITS
 70
     0
  9
$AUPREC
 70
     0
  9
$MENU
  1
.
  9
$ELEVATION
 40
0.0
  9
$PELEVATION
 40
0.0
  9
$THICKNESS
 40
0.0
  9
$LIMCHECK
 70
     0
  9
$BLIPMODE
 70
     0
  9
$CHAMFERA
 40
0.5
  9
$CHAMFERB
 40
0.5
  9
$CHAMFERC
 40
20.0
  9
$CHAMFERD
 40
0.0
  9
$SKPOLY
 70
     0
  9
$TDCREATE
 40
2452800.443498622
  9
$TDUPDATE
 40
2453151.673279062
  9
$TDINDWG
 40
0.1318442477
  9
$TDUSRTIMER
 40
0.1318442477
  9
$USRTIMER
 70
     1
  9
$ANGBASE
 50
0.0
  9
$ANGDIR
 70
     0
  9
$PDMODE
 70
     3
  9
$PDSIZE
 40
0.0
  9
$PLINEWID
 40
0.0
  9
$COORDS
 70
     1
  9
$SPLFRAME
 70
     0
  9
$SPLINETYPE
 70
     6
  9
$SPLINESEGS
 70
     8
  9
$ATTDIA
 70
     1
  9
$ATTREQ
 70
     1
  9
$HANDLING
 70
 12289
  9
$HANDSEED
  5
570D
  9
$SURFTAB1
 70
     6
  9
$SURFTAB2
 70
     6
  9
$SURFTYPE
 70
     6
  9
$SURFU
 70
     6
  9
$SURFV
 70
     6
  9
$UCSNAME
  2

  9
$UCSORG
 10
0.0
 20
0.0
 30
0.0
  9
$UCSXDIR
 10
1.0
 20
0.0000000000000027
 30
0.0
  9
$UCSYDIR
 10
-0.0000000000000027
 20
1.0
 30
0.0
  9
$PUCSNAME
  2

  9
$PUCSORG
 10
0.0
 20
0.0
 30
0.0
  9
$PUCSXDIR
 10
1.0
 20
0.0
 30
0.0
  9
$PUCSYDIR
 10
0.0
 20
1.0
 30
0.0
  9
$USERI1
 70
     0
  9
$USERI2
 70
     0
  9
$USERI3
 70
     0
  9
$USERI4
 70
     0
  9
$USERI5
 70
     0
  9
$USERR1
 40
0.0
  9
$USERR2
 40
0.0
  9
$USERR3
 40
0.0
  9
$USERR4
 40
0.0
  9
$USERR5
 40
0.0
  9
$WORLDVIEW
 70
     1
  9
$SHADEDGE
 70
     3
  9
$SHADEDIF
 70
    70
  9
$TILEMODE
 70
     1
  9
$MAXACTVP
 70
    64
  9
$PINSBASE
 10
0.0
 20
0.0
 30
0.0
  9
$PLIMCHECK
 70
     0
  9
$PEXTMIN
 10
1.000000000000000E+20
 20
1.000000000000000E+20
 30
1.000000000000000E+20
  9
$PEXTMAX
 10
-1.000000000000000E+20
 20
-1.000000000000000E+20
 30
-1.000000000000000E+20
  9
$PLIMMIN
 10
0.0
 20
0.0
  9
$PLIMMAX
 10
841.0
 20
594.0
  9
$UNITMODE
 70
     0
  9
$VISRETAIN
 70
     1
  9
$PLINEGEN
 70
     0
  9
$PSLTSCALE
 70
     0
  9
$TREEDEPTH
 70
  3020
  9
$PICKSTYLE
 70
     0
  9
$CMLSTYLE
  2
STANDARD
  9
$CMLJUST
 70
     0
  9
$CMLSCALE
 40
20.0
  9
$PROXYGRAPHICS
 70
     1
  9
$MEASUREMENT
 70
     1
  0
ENDSEC
  0
SECTION
  2
CLASSES
  0
CLASS
  1
ACDBDICTIONARYWDFLT
  2
AcDbDictionaryWithDefault
  3
AutoCAD 2000
 90
        0
280
     0
281
     0
  0
CLASS
  1
ACDBPLACEHOLDER
  2
AcDbPlaceHolder
  3
AutoCAD 2000
 90
        0
280
     0
281
     0
  0
CLASS
  1
LAYOUT
  2
AcDbLayout
  3
AutoCAD 2000
 90
        0
280
     0
281
     0
  0
CLASS
  1
AMGSETTINGSOBJ
  2
AmgSettingsObj
  3
"AcadM|Product Description: AutoCAD Mechanical 2000|Company: Autodesk"
 90
        0
280
     0
281
     0
  0
CLASS
  1
ACME_DOCUMENT
  2
AcMeDbDoc
  3
AcMeServices
 90
        0
280
     0
281
     0
  0
CLASS
  1
ACMESCOPE
  2
AcMeScope
  3
AcMeServices
 90
        0
280
     0
281
     0
  0
CLASS
  1
ACMECOMMANDHISTORY
  2
AcMeCommandHistory
  3
AcMeServices
 90
        0
280
     0
281
     0
  0
CLASS
  1
DICTIONARYVAR
  2
AcDbDictionaryVar
  3
AutoCAD 2000
 90
        0
280
     0
281
     0
  0
CLASS
  1
ACIMSYSVARMAN
  2
AcImSysVarManager
  3
AcMeServices
 90
        0
280
     0
281
     0
  0
CLASS
  1
ACIMREALSYSVAR
  2
AcImRealSysVar
  3
AcMeServices
 90
        0
280
     0
281
     0
  0
CLASS
  1
ACIMINTSYSVAR
  2
AcImIntSysVar
  3
AcMeServices
 90
        0
280
     0
281
     0
  0
CLASS
  1
ACMEDRAWINGMAN
  2
AcMeDrawingMan
  3
AcMeServices
 90
        0
280
     0
281
     0
  0
CLASS
  1
ACMEVIEW
  2
AcMeView
  3
AcMeServices
 90
        0
280
     0
281
     0
  0
CLASS
  1
ACDBENTITYCACHE
  2
AcMeEntityCache
  3
AcMeServices
 90
        0
280
     0
281
     0
  0
CLASS
  1
GSMANAGER
  2
AcMeGSManager
  3
AcMeServices
 90
        0
280
     0
281
     0
  0
CLASS
  1
AmdtInternalReactor
  2
AmdtInternalReactor
  3
AcMeServices
 90
        0
280
     0
281
     0
  0
CLASS
  1
ACMESTATEMGR
  2
AcMeStateMgr
  3
AcMeServices
 90
        0
280
     0
281
     0
  0
CLASS
  1
ACME_DATABASE
  2
AcMeDbDatabase
  3
AcMeServices
 90
        0
280
     0
281
     0
  0
CLASS
  1
ACRFINSADJUSTERMGR
  2
AcRfInsAdjusterMgr
  3
AcMeServices
 90
        0
280
     0
281
     0
  0
CLASS
  1
ACMDATADICTIONARY
  2
AcmDataDictionary
  3
"AcmSymBB|Product Description: AutoCAD Mechanical 2000|Company: Autodesk"
 90
        0
280
     0
281
     0
  0
CLASS
  1
ACMDATAENTRYBLOCK
  2
AcmDataEntryBlock
  3
"AcmSymBB|Product Description: AutoCAD Mechanical 2000|Company: Autodesk"
 90
        0
280
     0
281
     0
  0
CLASS
  1
AMGOBJPROPCFG
  2
AmgObjPropCfg
  3
"AmgLay|Product Description: AutoCAD Mechanical 2000|Company: Autodesk"
 90
        1
280
     0
281
     0
  0
CLASS
  1
ACAMGFILTERDAT
  2
AcAmgFilterDat
  3
"AcadM|Product Description: AutoCAD Mechanical 2000|Company: Autodesk"
 90
        0
280
     0
281
     0
  0
CLASS
  1
LAYER_INDEX
  2
AcDbLayerIndex
  3
AutoCAD 2000
 90
        0
280
     0
281
     0
  0
CLASS
  1
IDBUFFER
  2
AcDbIdBuffer
  3
AutoCAD 2000
 90
        0
280
     0
281
     0
  0
CLASS
  1
ACIMSTRSYSVAR
  2
AcImStrSysVar
  3
AcMeServices
 90
        0
280
     0
281
     0
  0
CLASS
  1
ACMSTANDARDJIS
  2
AcmStandardJIS
  3
"AcmSymBB|Product Description: AutoCAD Mechanical 2000|Company: Autodesk"
 90
        0
280
     0
281
     0
  0
CLASS
  1
ACMSURFSTANDARDJIS
  2
AcmSurfTextStdJIS
  3
"AcmSymBB|Product Description: AutoCAD Mechanical 2000|Company: Autodesk"
 90
        0
280
     0
281
     0
  0
CLASS
  1
ACMFCFSTANDARDJIS
  2
AcmFCFStdJIS
  3
"AcmSymBB|Product Description: AutoCAD Mechanical 2000|Company: Autodesk"
 90
        0
280
     0
281
     0
  0
CLASS
  1
ACMWELDSTANDARDJIS
  2
AcmWeldingStdJIS
  3
"AcmSymBB|Product Description: AutoCAD Mechanical 2000|Company: Autodesk"
 90
        0
280
     0
281
     0
  0
CLASS
  1
ACMIDSTANDARDJIS
  2
AcmIdStdJIS
  3
"AcmSymBB|Product Description: AutoCAD Mechanical 2000|Company: Autodesk"
 90
        0
280
     0
281
     0
  0
CLASS
  1
ACMDATUMSTANDARDJIS
  2
AcmDatumStdJIS
  3
"AcmSymBB|Product Description: AutoCAD Mechanical 2000|Company: Autodesk"
 90
        0
280
     0
281
     0
  0
CLASS
  1
ACMBOMSTANDARDJIS
  2
AcmBOMStdJIS
  3
"AcmSymBB|Product Description: AutoCAD Mechanical 2000|Company: Autodesk"
 90
        0
280
     0
281
     0
  0
CLASS
  1
ACMSTANDARDANSI
  2
AcmStandardANSI
  3
"AcmSymBB|Product Description: AutoCAD Mechanical 2000|Company: Autodesk"
 90
        0
280
     0
281
     0
  0
CLASS
  1
ACMSURFSTANDARDANSI
  2
AcmSurfTextStdANSI
  3
"AcmSymBB|Product Description: AutoCAD Mechanical 2000|Company: Autodesk"
 90
        0
280
     0
281
     0
  0
CLASS
  1
ACMFCFSTANDARDANSI
  2
AcmFCFStdANSI
  3
"AcmSymBB|Product Description: AutoCAD Mechanical 2000|Company: Autodesk"
 90
        0
280
     0
281
     0
  0
CLASS
  1
ACMWELDSTANDARDANSI
  2
AcmWeldingStdANSI
  3
"AcmSymBB|Product Description: AutoCAD Mechanical 2000|Company: Autodesk"
 90
        0
280
     0
281
     0
  0
CLASS
  1
ACMIDSTANDARDANSI
  2
AcmIdStdANSI
  3
"AcmSymBB|Product Description: AutoCAD Mechanical 2000|Company: Autodesk"
 90
        0
280
     0
281
     0
  0
CLASS
  1
ACMDATUMSTANDARDANSI
  2
AcmDatumStdANSI
  3
"AcmSymBB|Product Description: AutoCAD Mechanical 2000|Company: Autodesk"
 90
        0
280
     0
281
     0
  0
CLASS
  1
ACMBOMSTANDARDANSI
  2
AcmBOMStdANSI
  3
"AcmSymBB|Product Description: AutoCAD Mechanical 2000|Company: Autodesk"
 90
        0
280
     0
281
     0
  0
CLASS
  1
ACMSTANDARDBSI
  2
AcmStandardBSI
  3
"AcmSymBB|Product Description: AutoCAD Mechanical 2000|Company: Autodesk"
 90
        0
280
     0
281
     0
  0
CLASS
  1
ACMSURFSTANDARDBSI
  2
AcmSurfTextStdBSI
  3
"AcmSymBB|Product Description: AutoCAD Mechanical 2000|Company: Autodesk"
 90
        0
280
     0
281
     0
  0
CLASS
  1
ACMFCFSTANDARDBSI
  2
AcmFCFStdBSI
  3
"AcmSymBB|Product Description: AutoCAD Mechanical 2000|Company: Autodesk"
 90
        0
280
     0
281
     0
  0
CLASS
  1
ACMWELDSTANDARDBSI
  2
AcmWeldingStdBSI
  3
"AcmSymBB|Product Description: AutoCAD Mechanical 2000|Company: Autodesk"
 90
        0
280
     0
281
     0
  0
CLASS
  1
ACMIDSTANDARDBSI
  2
AcmIdStdBSI
  3
"AcmSymBB|Product Description: AutoCAD Mechanical 2000|Company: Autodesk"
 90
        0
280
     0
281
     0
  0
CLASS
  1
ACMDATUMSTANDARDBSI
  2
AcmDatumStdBSI
  3
"AcmSymBB|Product Description: AutoCAD Mechanical 2000|Company: Autodesk"
 90
        0
280
     0
281
     0
  0
CLASS
  1
ACMBOMSTANDARDBSI
  2
AcmBOMStdBSI
  3
"AcmSymBB|Product Description: AutoCAD Mechanical 2000|Company: Autodesk"
 90
        0
280
     0
281
     0
  0
CLASS
  1
LONG_TRANSACTION
  2
AcDbLongTransaction
  3
AutoCAD 2000
 90
        0
280
     0
281
     0
  0
CLASS
  1
LWPOLYLINE
  2
AcDbPolyline
  3
AutoCAD 2000
 90
        0
280
     0
281
     1
  0
CLASS
  1
HATCH
  2
AcDbHatch
  3
AutoCAD 2000
 90
        0
280
     0
281
     1
  0
CLASS
  1
XRECORD
  2
AcDbXrecord
  3
AutoCAD 2000
 90
        0
280
     0
281
     0
  0
ENDSEC
  0
SECTION
  2
TABLES
  0
TABLE
  2
VPORT
  5
8
330
0
100
AcDbSymbolTable
 70
     3
  0
VPORT
  5
56D7
330
8
100
AcDbSymbolTableRecord
100
AcDbViewportTableRecord
  2
*ACTIVE
 70
     0
 10
0.0
 20
0.0
 11
1.0
 21
1.0
 12
-101.4512374543643
 22
-15.23390909707961
 13
0.0
 23
0.0
 14
2.5
 24
2.5
 15
10.0
 25
10.0
 16
0.0
 26
0.0
 36
1.0
 17
0.0
 27
0.0
 37
0.0
 40
175.6702551584388
 41
1.56570841889117
 42
50.0
 43
0.0
 44
0.0
 50
0.0
 51
0.0
 71
     0
 72
   100
 73
     1
 74
     1
 75
     0
 76
     0
 77
     0
 78
     0
  0
ENDTAB
  0
TABLE
  2
LTYPE
  5
5
330
0
100
AcDbSymbolTable
 70
    10
  0
LTYPE
  5
14
330
5
100
AcDbSymbolTableRecord
100
AcDbLinetypeTableRecord
  2
BYBLOCK
 70
     0
  3

 72
    65
 73
     0
 40
0.0
  0
LTYPE
  5
15
330
5
100
AcDbSymbolTableRecord
100
AcDbLinetypeTableRecord
  2
BYLAYER
 70
     0
  3

 72
    65
 73
     0
 40
0.0
  0
LTYPE
  5
16
330
5
100
AcDbSymbolTableRecord
100
AcDbLinetypeTableRecord
  2
CONTINUOUS
 70
     0
  3
Solid line
 72
    65
 73
     0
 40
0.0
  0
LTYPE
  5
4B
330
5
100
AcDbSymbolTableRecord
100
AcDbLinetypeTableRecord
  2
AM_ISO02W050
 70
     0
  3
__ __ __ __ __ __ __ __ __ __ __ __ __ __ __
 72
    65
 73
     2
 40
7.5
 49
6.0
 74
     0
 49
-1.5
 74
     0
  0
LTYPE
  5
4C
330
5
100
AcDbSymbolTableRecord
100
AcDbLinetypeTableRecord
  2
AM_ISO08W050
 70
     0
  3
____ . ____ . ____ . ____ . ____ . ____ . ____
 72
    65
 73
     4
 40
18.0
 49
12.0
 74
     0
 49
-1.5
 74
     0
 49
3.0
 74
     0
 49
-1.5
 74
     0
  0
LTYPE
  5
4D
330
5
100
AcDbSymbolTableRecord
100
AcDbLinetypeTableRecord
  2
AM_ISO09W050
 70
     0
  3
_____ . . _____ . . _____ . . ____ .. ____
 72
    65
 73
     6
 40
22.5
 49
12.0
 74
     0
 49
-1.5
 74
     0
 49
3.0
 74
     0
 49
-1.5
 74
     0
 49
3.0
 74
     0
 49
-1.5
 74
     0
  0
LTYPE
  5
4E
330
5
100
AcDbSymbolTableRecord
100
AcDbLinetypeTableRecord
  2
AMCONSTR
 70
     0
  3
_______________________
 72
    65
 73
     2
 40
9999.0
 49
9999.0
 74
     0
 49
0.0
 74
     0
  0
LTYPE
  5
4F
330
5
100
AcDbSymbolTableRecord
100
AcDbLinetypeTableRecord
  2
AM_ISO02W050X2
 70
     0
  3
 _ _ _ _ _ _ _ _ _ _ _ _
 72
    65
 73
     2
 40
3.75
 49
3.0
 74
     0
 49
-0.75
 74
     0
  0
LTYPE
  5
50
330
5
100
AcDbSymbolTableRecord
100
AcDbLinetypeTableRecord
  2
AM_ISO08W050X2
 70
     0
  3
__ . __ . __ . __ . __ . __
 72
    65
 73
     4
 40
9.0
 49
6.0
 74
     0
 49
-0.75
 74
     0
 49
1.5
 74
     0
 49
-0.75
 74
     0
  0
LTYPE
  5
53
330
5
100
AcDbSymbolTableRecord
100
AcDbLinetypeTableRecord
  2
AMZIGZAG
 70
     0
  3
/\/-/\/-/\/-/\/-/\/-/\/
 72
    65
 73
     2
 40
11.00009999999999
 49
0.0001
 74
     4
 75
   135
340
52
 46
0.04
 50
0.0
 44
0.0
 45
0.0
 49
-11.0
 74
     0
  0
LTYPE
  5
166
330
5
100
AcDbSymbolTableRecord
100
AcDbLinetypeTableRecord
  2
ACJISTGL
 70
     0
  3
_ _ _ _ _
 72
    65
 73
     2
 40
3.0
 49
2.0
 74
     0
 49
-1.0
 74
     0
  0
LTYPE
  5
26A
330
5
100
AcDbSymbolTableRecord
100
AcDbLinetypeTableRecord
  2
ACJISTGB
 70
     0
  3
__ . . __ . .
 72
    65
 73
     6
 40
9.0
 49
4.0
 74
     0
 49
-1.0
 74
     0
 49
1.0
 74
     0
 49
-1.0
 74
     0
 49
1.0
 74
     0
 49
-1.0
 74
     0
  0
ENDTAB
  0
TABLE
  2
LAYER
  5
2
330
0
100
AcDbSymbolTable
 70
     8
  0
LAYER
  5
10
330
2
100
AcDbSymbolTableRecord
100
AcDbLayerTableRecord
  2
0
 70
     0
 62
     7
  6
CONTINUOUS
  0
LAYER
  5
3F9
330
2
100
AcDbSymbolTableRecord
100
AcDbLayerTableRecord
  2
AM_0
 70
     0
 62
     7
  6
CONTINUOUS
  0
LAYER
  5
C7C
330
2
100
AcDbSymbolTableRecord
100
AcDbLayerTableRecord
  2
AM_7
 70
     0
 62
     4
  6
AM_ISO08W050
  0
LAYER
  5
C97
330
2
100
AcDbSymbolTableRecord
100
AcDbLayerTableRecord
  2
AM_11
 70
     0
 62
     3
  6
AM_ISO09W050
  0
LAYER
  5
CC5
330
2
100
AcDbSymbolTableRecord
100
AcDbLayerTableRecord
  2
AM_5
 70
     0
 62
     3
  6
CONTINUOUS
  0
LAYER
  5
CC7
330
2
100
AcDbSymbolTableRecord
100
AcDbLayerTableRecord
  2
DEFPOINTS
 70
     0
 62
     7
  6
CONTINUOUS
  0
LAYER
  5
19BC
330
2
100
AcDbSymbolTableRecord
100
AcDbLayerTableRecord
  2
AM_6
 70
     0
 62
     2
  6
CONTINUOUS
  0
LAYER
  5
53F4
330
2
100
AcDbSymbolTableRecord
100
AcDbLayerTableRecord
  2
AM_CL
 70
     0
 62
     1
  6
AMCONSTR
  0
ENDTAB
  0
TABLE
  2
STYLE
  5
3
330
0
100
AcDbSymbolTable
 70
     5
  0
STYLE
  5
11
330
3
100
AcDbSymbolTableRecord
100
AcDbTextStyleTableRecord
  2
STANDARD
 70
     0
 40
0.0
 41
1.0
 50
0.0
 71
     0
 42
2.5
  3
simplex.shx
  4
EXTFONT.SHX
  0
STYLE
  5
52
330
3
100
AcDbSymbolTableRecord
100
AcDbTextStyleTableRecord
  2

 70
     1
 40
0.0
 41
1.0
 50
0.0
 71
     0
 42
2.5
  3
ltypeshp.shx
  4

  0
STYLE
  5
6B
330
3
100
AcDbSymbolTableRecord
100
AcDbTextStyleTableRecord
  2
ASAMI
 70
     0
 40
0.0
 41
1.0
 50
0.0
 71
     0
 42
2.5
  3
simplex.shx
  4
EXTFONT.SHX
  0
STYLE
  5
262
330
3
100
AcDbSymbolTableRecord
100
AcDbTextStyleTableRecord
  2
ACJISTS
 70
     0
 40
1.0
 41
1.0
 50
0.0
 71
     0
 42
2.5
  3
simplex.shx
  4
bigfont.shx
  0
STYLE
  5
269
330
3
100
AcDbSymbolTableRecord
100
AcDbTextStyleTableRecord
  2
ACJISGDT
 70
     0
 40
0.0
 41
1.0
 50
0.0
 71
     0
 42
2.5
  3
amgdtans.shx
  4

  0
ENDTAB
  0
TABLE
  2
VIEW
  5
6
330
0
100
AcDbSymbolTable
 70
     0
  0
ENDTAB
  0
TABLE
  2
UCS
  5
7
330
0
100
AcDbSymbolTable
 70
     0
  0
ENDTAB
  0
TABLE
  2
APPID
  5
9
330
0
100
AcDbSymbolTable
 70
    16
  0
APPID
  5
12
330
9
100
AcDbSymbolTableRecord
100
AcDbRegAppTableRecord
  2
ACAD
 70
     0
  0
APPID
  5
30
330
9
100
AcDbSymbolTableRecord
100
AcDbRegAppTableRecord
  2
MCAD_NO_VIS
 70
     0
  0
APPID
  5
31
330
9
100
AcDbSymbolTableRecord
100
AcDbRegAppTableRecord
  2
ACAD_TEMP_GRAPHIC
 70
     0
  0
APPID
  5
2C2
330
9
100
AcDbSymbolTableRecord
100
AcDbRegAppTableRecord
  2
GENIUS_GENDTOL_13
 70
     0
  0
APPID
  5
339
330
9
100
AcDbSymbolTableRecord
100
AcDbRegAppTableRecord
  2
GENIUS_GENODEF_13
 70
     0
  0
APPID
  5
33A
330
9
100
AcDbSymbolTableRecord
100
AcDbRegAppTableRecord
  2
GENIUS_GENOBJ-N-RSBK_13
 70
     0
  0
APPID
  5
33B
330
9
100
AcDbSymbolTableRecord
100
AcDbRegAppTableRecord
  2
GENIUS_GENOBJ-N-LIB_13
 70
     0
  0
APPID
  5
33C
330
9
100
AcDbSymbolTableRecord
100
AcDbRegAppTableRecord
  2
GENIUS_GENSCALE_13
 70
     0
  0
APPID
  5
378
330
9
100
AcDbSymbolTableRecord
100
AcDbRegAppTableRecord
  2
GENIUS_GENDIMSH_14
 70
     0
  0
APPID
  5
C82
330
9
100
AcDbSymbolTableRecord
100
AcDbRegAppTableRecord
  2
GENIUS_GENOBJ-N-CRS_13
 70
     0
  0
APPID
  5
C83
330
9
100
AcDbSymbolTableRecord
100
AcDbRegAppTableRecord
  2
GENIUS_GENOENT_13
 70
     0
  0
APPID
  5
C84
330
9
100
AcDbSymbolTableRecord
100
AcDbRegAppTableRecord
  2
GENIUS_GENOREF_13
 70
     0
  0
APPID
  5
C85
330
9
100
AcDbSymbolTableRecord
100
AcDbRegAppTableRecord
  2
GENIUS_GENOLIS_13
 70
     0
  0
APPID
  5
CA0
330
9
100
AcDbSymbolTableRecord
100
AcDbRegAppTableRecord
  2
GENIUS_GENOBJ-N-CEN_13
 70
     0
  0
APPID
  5
1E1E
330
9
100
AcDbSymbolTableRecord
100
AcDbRegAppTableRecord
  2
GENIUS_GENFIL_13
 70
     0
  0
APPID
  5
1E1F
330
9
100
AcDbSymbolTableRecord
100
AcDbRegAppTableRecord
  2
GENIUS_GENOBJ-N-CHA_13
 70
     0
  0
ENDTAB
  0
TABLE
  2
DIMSTYLE
  5
A
330
0
100
AcDbSymbolTable
 70
     9
  0
DIMSTYLE
105
58
330
A
100
AcDbSymbolTableRecord
100
AcDbDimStyleTableRecord
  2
AM_JIS
 70
     0
  3

  4
"
  5
OPEN30
  6

  7

 40
1.0
 41
2.5
 42
1.0
 43
12.0
 44
1.0
 45
0.0
 46
0.0
 47
0.1
 48
0.1
140
3.2
141
0.0
142
0.0
143
0.0393701
144
1.0
145
0.0
146
0.71
147
1.5
 71
     0
 72
     0
 73
     0
 74
     0
 75
     0
 76
     0
 77
     3
 78
     8
170
     0
171
     2
172
     1
173
     0
174
     0
175
     0
176
   256
177
   256
178
     2
270
     2
271
     3
272
     3
273
     2
274
     2
340
6B
275
     0
280
     0
281
     0
282
     0
283
     0
284
     0
285
     0
286
     0
287
     3
288
     0
  0
DIMSTYLE
105
5F
330
A
100
AcDbSymbolTableRecord
100
AcDbDimStyleTableRecord
  2
AM_JIS$3
 70
     0
  3

  4
"
  5
OPEN30
  6

  7

 40
1.0
 41
2.5
 42
1.0
 43
10.0
 44
1.0
 45
0.0
 46
0.0
 47
0.1
 48
0.1
140
3.2
141
0.0
142
0.0
143
0.0393701
144
1.0
145
0.0
146
0.71
147
1.5
 71
     0
 72
     0
 73
     0
 74
     1
 75
     0
 76
     0
 77
     3
 78
     8
170
     0
171
     2
172
     0
173
     0
174
     0
175
     0
176
   256
177
   256
178
     2
270
     2
271
     2
272
     3
273
     2
274
     2
340
6B
275
     0
280
     0
281
     0
282
     0
283
     0
284
     0
285
     0
286
     0
287
     0
288
     1
  0
DIMSTYLE
105
60
330
A
100
AcDbSymbolTableRecord
100
AcDbDimStyleTableRecord
  2
AM_JIS$4
 70
     0
  3

  4
"
  5
OPEN30
  6

  7

 40
1.0
 41
2.5
 42
1.0
 43
10.0
 44
1.0
 45
0.0
 46
0.0
 47
0.1
 48
0.1
140
3.2
141
0.0
142
0.0
143
0.0393701
144
1.0
145
0.0
146
0.71
147
1.5
 71
     0
 72
     0
 73
     0
 74
     1
 75
     0
 76
     0
 77
     3
 78
     8
170
     0
171
     2
172
     0
173
     0
174
     0
175
     0
176
   256
177
   256
178
     2
270
     2
271
     2
272
     3
273
     2
274
     2
340
6B
275
     0
280
     0
281
     0
282
     0
283
     0
284
     0
285
     0
286
     0
287
     0
288
     1
  0
DIMSTYLE
105
61
330
A
100
AcDbSymbolTableRecord
100
AcDbDimStyleTableRecord
  2
AM_JIS$6
 70
     0
  3

  4
"
  5
OPEN30
  6

  7

 40
1.0
 41
2.5
 42
1.0
 43
10.0
 44
1.0
 45
0.0
 46
0.0
 47
0.1
 48
0.1
140
3.2
141
0.0
142
0.0
143
0.0393701
144
1.0
145
0.0
146
0.71
147
1.5
 71
     0
 72
     0
 73
     0
 74
     0
 75
     0
 76
     0
 77
     0
 78
     8
170
     0
171
     2
172
     1
173
     0
174
     0
175
     0
176
   256
177
   256
178
     2
270
     2
271
     2
272
     2
273
     2
274
     2
340
6B
275
     0
280
     0
281
     0
282
     0
283
     0
284
     0
285
     0
286
     0
287
     3
288
     0
  0
DIMSTYLE
105
62
330
A
100
AcDbSymbolTableRecord
100
AcDbDimStyleTableRecord
  2
AM_JIS$7
 70
     0
  3

  4
"
  5
OPEN30
  6

  7

 40
1.0
 41
2.5
 42
1.0
 43
10.0
 44
1.0
 45
0.0
 46
0.0
 47
0.1
 48
0.1
140
3.2
141
0.0
142
0.0
143
0.0393701
144
1.0
145
0.0
146
0.71
147
1.5
 71
     0
 72
     0
 73
     0
 74
     0
 75
     0
 76
     0
 77
     3
 78
     8
170
     0
171
     2
172
     1
173
     0
174
     0
175
     0
176
   256
177
   256
178
     2
270
     2
271
     2
272
     3
273
     2
274
     2
340
6B
275
     0
280
     0
281
     0
282
     0
283
     0
284
     0
285
     0
286
     0
287
     3
288
     0
  0
DIMSTYLE
105
63
330
A
100
AcDbSymbolTableRecord
100
AcDbDimStyleTableRecord
  2
AM_JIS$SF
 70
     0
  3

  4
"
  5
OPEN30
  6

  7

 40
1.0
 41
2.5
 42
1.0
 43
10.0
 44
1.0
 45
0.0
 46
0.0
 47
0.1
 48
0.1
140
3.2
141
0.0
142
0.0
143
0.0393701
144
1.0
145
0.0
146
0.71
147
1.5
 71
     0
 72
     0
 73
     0
 74
     0
 75
     1
 76
     1
 77
     3
 78
     8
170
     0
171
     2
172
     1
173
     0
174
     0
175
     0
176
   256
177
   256
178
     2
270
     2
271
     2
272
     2
273
     2
274
     2
340
6B
275
     0
280
     0
281
     0
282
     0
283
     0
284
     0
285
     0
286
     0
287
     3
288
     0
  0
DIMSTYLE
105
68
330
A
100
AcDbSymbolTableRecord
100
AcDbDimStyleTableRecord
  2
AM_JIS$SH
 70
     0
  3

  4
"
  5

  6
GENAXEH
  7
OPEN30
 40
1.0
 41
2.5
 42
1.0
 43
10.0
 44
1.0
 45
0.0
 46
0.0
 47
0.1
 48
0.1
140
3.2
141
0.0
142
0.0
143
0.0393701
144
2.0
145
0.0
146
0.71
147
1.5
 71
     0
 72
     0
 73
     0
 74
     0
 75
     1
 76
     1
 77
     3
 78
     8
170
     0
171
     2
172
     1
173
     1
174
     0
175
     0
176
   256
177
   256
178
     2
270
     2
271
     2
272
     2
273
     2
274
     2
340
6B
275
     0
280
     0
281
     0
282
     0
283
     0
284
     0
285
     0
286
     0
287
     3
288
     0
  0
DIMSTYLE
105
B34
102
{ACAD_REACTORS
330
55A9
102
}
330
A
100
AcDbSymbolTableRecord
100
AcDbDimStyleTableRecord
  2
AM_JIS$2
 70
     0
  3

  4
"
  5
OPEN30
  6

  7

 40
1.0
 41
2.5
 42
1.0
 43
12.0
 44
1.0
 45
0.0
 46
0.0
 47
0.1
 48
0.1
140
3.2
141
0.0
142
0.0
143
0.0393701
144
1.0
145
0.0
146
0.71
147
1.5
 71
     0
 72
     0
 73
     0
 74
     0
 75
     0
 76
     0
 77
     3
 78
     8
170
     0
171
     2
172
     1
173
     0
174
     0
175
     0
176
   256
177
   256
178
     2
270
     2
271
     3
272
     3
273
     2
274
     2
340
6B
275
     0
280
     0
281
     0
282
     0
283
     0
284
     0
285
     0
286
     0
287
     3
288
     0
  0
DIMSTYLE
105
BA5
102
{ACAD_REACTORS
330
2216
330
CC6
330
DF5
330
5322
102
}
330
A
100
AcDbSymbolTableRecord
100
AcDbDimStyleTableRecord
  2
AM_JIS$0
 70
     0
  3

  4
"
  5
OPEN30
  6

  7

 40
1.0
 41
2.5
 42
0.0
 43
10.0
 44
1.0
 45
0.0
 46
0.0
 47
0.1
 48
0.1000000001
140
3.799999999999999
141
0.0
142
0.0
143
0.0393701
144
1.0
145
0.0
146
0.71
147
1.5
 71
     0
 72
     0
 73
     0
 74
     0
 75
     0
 76
     0
 77
     3
 78
     1
170
     0
171
     2
172
     1
173
     0
174
     0
175
     0
176
     3
177
     3
178
     2
270
     2
271
     2
272
     2
273
     2
274
     2
340
11
275
     1
280
     0
281
     0
282
     0
283
     0
284
     8
285
     0
286
     0
287
     0
288
     0
  0
ENDTAB
  0
TABLE
  2
BLOCK_RECORD
  5
1
330
0
100
AcDbSymbolTable
 70
    10
  0
BLOCK_RECORD
  5
1F
102
{ACAD_XDICTIONARY
360
74
102
}
330
1
100
AcDbSymbolTableRecord
100
AcDbBlockTableRecord
  2
*MODEL_SPACE
  0
BLOCK_RECORD
  5
101
102
{ACAD_XDICTIONARY
360
5700
102
}
330
1
100
AcDbSymbolTableRecord
100
AcDbBlockTableRecord
  2
*PAPER_SPACE
  0
BLOCK_RECORD
  5
59
330
1
100
AcDbSymbolTableRecord
100
AcDbBlockTableRecord
  2
_OPEN30
  0
BLOCK_RECORD
  5
64
330
1
100
AcDbSymbolTableRecord
100
AcDbBlockTableRecord
  2
GENAXEH
  0
BLOCK_RECORD
  5
CC8
330
1
100
AcDbSymbolTableRecord
100
AcDbBlockTableRecord
  2
*D5
  0
BLOCK_RECORD
  5
DF6
330
1
100
AcDbSymbolTableRecord
100
AcDbBlockTableRecord
  2
*D6
  0
BLOCK_RECORD
  5
2217
330
1
100
AcDbSymbolTableRecord
100
AcDbBlockTableRecord
  2
*D7
  0
BLOCK_RECORD
  5
5323
330
1
100
AcDbSymbolTableRecord
100
AcDbBlockTableRecord
  2
*D8
  0
BLOCK_RECORD
  5
55AA
330
1
100
AcDbSymbolTableRecord
100
AcDbBlockTableRecord
  2
*D9
  0
ENDTAB
  0
ENDSEC
  0
SECTION
  2
BLOCKS
  0
BLOCK
  5
20
330
1F
100
AcDbEntity
  8
0
100
AcDbBlockBegin
  2
*MODEL_SPACE
 70
     0
 10
0.0
 20
0.0
 30
0.0
  3
*MODEL_SPACE
  1

  0
ENDBLK
  5
21
330
1F
100
AcDbEntity
  8
0
100
AcDbBlockEnd
  0
BLOCK
  5
103
330
101
100
AcDbEntity
 67
     1
  8
0
100
AcDbBlockBegin
  2
*PAPER_SPACE
 70
     0
 10
0.0
 20
0.0
 30
0.0
  3
*PAPER_SPACE
  1

  0
ENDBLK
  5
104
330
101
100
AcDbEntity
 67
     1
  8
0
100
AcDbBlockEnd
  0
BLOCK
  5
5D
330
59
100
AcDbEntity
  8
0
100
AcDbBlockBegin
  2
_OPEN30
 70
     0
 10
0.0
 20
0.0
 30
0.0
  3
_OPEN30
  1

  0
LINE
  5
5A
330
59
100
AcDbEntity
  8
0
 62
     0
100
AcDbLine
 10
-1.0
 20
0.26794919
 30
0.0
 11
0.0
 21
0.0
 31
0.0
  0
LINE
  5
5B
330
59
100
AcDbEntity
  8
0
 62
     0
100
AcDbLine
 10
0.0
 20
0.0
 30
0.0
 11
-1.0
 21
-0.26794919
 31
0.0
  0
LINE
  5
5C
330
59
100
AcDbEntity
  8
0
 62
     0
100
AcDbLine
 10
0.0
 20
0.0
 30
0.0
 11
-1.0
 21
0.0
 31
0.0
  0
ENDBLK
  5
5E
330
59
100
AcDbEntity
  8
0
100
AcDbBlockEnd
  0
BLOCK
  5
66
330
64
100
AcDbEntity
  8
0
100
AcDbBlockBegin
  2
GENAXEH
 70
     0
 10
0.0
 20
0.0
 30
0.0
  3
GENAXEH
  1

  0
LINE
  5
65
330
64
100
AcDbEntity
  8
0
100
AcDbLine
 10
-1.0
 20
0.0
 30
0.0
 11
1.0
 21
0.0
 31
0.0
  0
ENDBLK
  5
67
330
64
100
AcDbEntity
  8
0
100
AcDbBlockEnd
  0
BLOCK
  5
CD2
330
CC8
100
AcDbEntity
  8
0
100
AcDbBlockBegin
  2
*D5
 70
     1
 10
0.0
 20
0.0
 30
0.0
  3
*D5
  1

  0
LINE
  5
541E
330
CC8
100
AcDbEntity
  8
AM_5
 62
     3
100
AcDbLine
 10
-216.9999999999174
 20
-8.500001027286916
 30
0.0
 11
-216.9999999999174
 21
-34.00127942500105
 31
0.0
  0
LINE
  5
541F
330
CC8
100
AcDbEntity
  8
AM_5
 62
     3
100
AcDbLine
 10
-2.999999999918352
 20
-8.999999811671319
 30
0.0
 11
-2.999999999918353
 21
-34.00127942500105
 31
0.0
  0
LINE
  5
5420
330
CC8
100
AcDbEntity
  8
AM_5
 62
     3
100
AcDbLine
 10
-214.4999999999174
 20
-33.00127942500105
 30
0.0
 11
-5.499999999918353
 21
-33.00127942500105
 31
0.0
  0
INSERT
  5
5421
330
CC8
100
AcDbEntity
  8
AM_5
 62
     3
100
AcDbBlockReference
  2
_OPEN30
 10
-216.9999999999174
 20
-33.00127942500105
 30
0.0
 41
2.5
 42
2.5
 43
2.5
 50
180.0
  0
INSERT
  5
5422
330
CC8
100
AcDbEntity
  8
AM_5
 62
     3
100
AcDbBlockReference
  2
_OPEN30
 10
-2.999999999918353
 20
-33.00127942500105
 30
0.0
 41
2.5
 42
2.5
 43
2.5
  0
MTEXT
  5
5423
330
CC8
100
AcDbEntity
  8
AM_5
 62
     2
100
AcDbMText
 10
-109.9999999999179
 20
-29.60127942500105
 30
0.0
 40
3.799999999999999
 41
0.0
 71
     5
 72
     1
  1
214
1001
ACAD
1000
MTEXTBEGIN
1070
    73
1070
     1
1070
    44
1040
1.0
1070
    74
1070
     0
1000
MTEXTEND
  0
POINT
  5
5424
330
CC8
100
AcDbEntity
  8
DEFPOINTS
 62
     0
100
AcDbPoint
 10
-216.9999999999174
 20
-8.500001027286916
 30
0.0
  0
POINT
  5
5425
330
CC8
100
AcDbEntity
  8
DEFPOINTS
 62
     0
100
AcDbPoint
 10
-2.999999999918352
 20
-8.999999811671319
 30
0.0
  0
POINT
  5
5426
330
CC8
100
AcDbEntity
  8
DEFPOINTS
 62
     0
100
AcDbPoint
 10
-2.999999999918353
 20
-33.00127942500105
 30
0.0
  0
ENDBLK
  5
CD3
330
CC8
100
AcDbEntity
  8
0
100
AcDbBlockEnd
  0
BLOCK
  5
E00
330
DF6
100
AcDbEntity
  8
0
100
AcDbBlockBegin
  2
*D6
 70
     1
 10
0.0
 20
0.0
 30
0.0
  3
*D6
  1

  0
LINE
  5
5415
330
DF6
100
AcDbEntity
  8
AM_5
 62
     3
100
AcDbLine
 10
-148.9999807594705
 20
-9.000001027286826
 30
0.0
 11
-148.9999807594705
 21
-24.0012794250009
 31
0.0
  0
LINE
  5
5416
330
DF6
100
AcDbEntity
  8
AM_5
 62
     3
100
AcDbLine
 10
-2.999999999918352
 20
-8.999999811671319
 30
0.0
 11
-2.999999999918353
 21
-24.0012794250009
 31
0.0
  0
LINE
  5
5417
330
DF6
100
AcDbEntity
  8
AM_5
 62
     3
100
AcDbLine
 10
-146.4999807594705
 20
-23.0012794250009
 30
0.0
 11
-5.499999999918353
 21
-23.0012794250009
 31
0.0
  0
INSERT
  5
5418
330
DF6
100
AcDbEntity
  8
AM_5
 62
     3
100
AcDbBlockReference
  2
_OPEN30
 10
-148.9999807594705
 20
-23.0012794250009
 30
0.0
 41
2.5
 42
2.5
 43
2.5
 50
180.0
  0
INSERT
  5
5419
330
DF6
100
AcDbEntity
  8
AM_5
 62
     3
100
AcDbBlockReference
  2
_OPEN30
 10
-2.999999999918353
 20
-23.0012794250009
 30
0.0
 41
2.5
 42
2.5
 43
2.5
  0
MTEXT
  5
541A
330
DF6
100
AcDbEntity
  8
AM_5
 62
     2
100
AcDbMText
 10
-75.99999037969446
 20
-19.6012794250009
 30
0.0
 40
3.799999999999999
 41
0.0
 71
     5
 72
     1
  1
146
1001
ACAD
1000
MTEXTBEGIN
1070
    73
1070
     1
1070
    44
1040
1.0
1070
    74
1070
     0
1000
MTEXTEND
  0
POINT
  5
541B
330
DF6
100
AcDbEntity
  8
DEFPOINTS
 62
     0
100
AcDbPoint
 10
-148.9999807594705
 20
-9.000001027286826
 30
0.0
  0
POINT
  5
541C
330
DF6
100
AcDbEntity
  8
DEFPOINTS
 62
     0
100
AcDbPoint
 10
-2.999999999918352
 20
-8.999999811671319
 30
0.0
  0
POINT
  5
541D
330
DF6
100
AcDbEntity
  8
DEFPOINTS
 62
     0
100
AcDbPoint
 10
-2.999999999918353
 20
-23.0012794250009
 30
0.0
  0
ENDBLK
  5
E01
330
DF6
100
AcDbEntity
  8
0
100
AcDbBlockEnd
  0
BLOCK
  5
2221
330
2217
100
AcDbEntity
  8
0
100
AcDbBlockBegin
  2
*D7
 70
     1
 10
0.0
 20
0.0
 30
0.0
  3
*D7
  1

  0
LINE
  5
5427
330
2217
100
AcDbEntity
  8
AM_5
 62
     3
100
AcDbLine
 10
-216.499999999918
 20
9.000001027192807
 30
0.0
 11
-234.0000009999175
 21
9.000001027192759
 31
0.0
  0
LINE
  5
5428
330
2217
100
AcDbEntity
  8
AM_5
 62
     3
100
AcDbLine
 10
-216.499999999918
 20
-9.000001027287598
 30
0.0
 11
-234.0000009999175
 21
-9.000001027287646
 31
0.0
  0
LINE
  5
5429
330
2217
100
AcDbEntity
  8
AM_5
 62
     3
100
AcDbLine
 10
-233.0000009999175
 20
6.500001027192761
 30
0.0
 11
-233.0000009999174
 21
-6.500001027287644
 31
0.0
  0
INSERT
  5
542A
330
2217
100
AcDbEntity
  8
AM_5
 62
     3
100
AcDbBlockReference
  2
_OPEN30
 10
-233.0000009999175
 20
9.000001027192761
 30
0.0
 41
2.5
 42
2.5
 43
2.5
 50
90.00000000000017
  0
INSERT
  5
542B
330
2217
100
AcDbEntity
  8
AM_5
 62
     3
100
AcDbBlockReference
  2
_OPEN30
 10
-233.0000009999174
 20
-9.000001027287645
 30
0.0
 41
2.5
 42
2.5
 43
2.5
 50
270.0000000000001
  0
MTEXT
  5
542C
330
2217
100
AcDbEntity
  8
AM_5
 62
     2
100
AcDbMText
 10
-236.4000009999175
 20
-0.0000000000474419
 30
0.0
 40
3.799999999999999
 41
0.0
 71
     5
 72
     1
  1
%%c18
 11
-0.0000000000000028
 21
1.0
 31
0.0
1001
ACAD
1000
MTEXTBEGIN
1070
    73
1070
     1
1070
    44
1040
1.0
1070
    74
1070
     0
1000
MTEXTEND
  0
POINT
  5
542D
330
2217
100
AcDbEntity
  8
DEFPOINTS
 62
     0
100
AcDbPoint
 10
-216.4999999999179
 20
9.00000102719348
 30
0.0
  0
POINT
  5
542E
330
2217
100
AcDbEntity
  8
DEFPOINTS
 62
     0
100
AcDbPoint
 10
-216.499999999918
 20
-9.000001027286925
 30
0.0
  0
POINT
  5
542F
330
2217
100
AcDbEntity
  8
DEFPOINTS
 62
     0
100
AcDbPoint
 10
-233.0000009999175
 20
-9.00000102728692
 30
0.0
  0
ENDBLK
  5
2222
330
2217
100
AcDbEntity
  8
0
100
AcDbBlockEnd
  0
BLOCK
  5
532D
330
5323
100
AcDbEntity
  8
0
100
AcDbBlockBegin
  2
*D8
 70
     1
 10
0.0
 20
0.0
 30
0.0
  3
*D8
  1

  0
LINE
  5
543B
330
5323
100
AcDbEntity
  8
AM_5
 62
     3
100
AcDbLine
 10
-2.999999999916983
 20
9.000000188327893
 30
0.0
 11
15.55592102493903
 21
9.000000188327945
 31
0.0
  0
LINE
  5
543C
330
5323
100
AcDbEntity
  8
AM_5
 62
     3
100
AcDbLine
 10
-2.999999999916867
 20
-8.999999811666965
 30
0.0
 11
15.55592102493909
 21
-8.999999811666913
 31
0.0
  0
LINE
  5
543D
330
5323
100
AcDbEntity
  8
AM_5
 62
     3
100
AcDbLine
 10
14.55592102493904
 20
6.500000188327942
 30
0.0
 11
14.55592102493908
 21
-6.499999811666916
 31
0.0
  0
INSERT
  5
543E
330
5323
100
AcDbEntity
  8
AM_5
 62
     3
100
AcDbBlockReference
  2
_OPEN30
 10
14.55592102493904
 20
9.000000188327943
 30
0.0
 41
2.5
 42
2.5
 43
2.5
 50
90.00000000000017
  0
INSERT
  5
543F
330
5323
100
AcDbEntity
  8
AM_5
 62
     3
100
AcDbBlockReference
  2
_OPEN30
 10
14.55592102493909
 20
-8.999999811666915
 30
0.0
 41
2.5
 42
2.5
 43
2.5
 50
270.0000000000001
  0
MTEXT
  5
5440
330
5323
100
AcDbEntity
  8
AM_5
 62
     2
100
AcDbMText
 10
11.15592102493906
 20
0.0000001883305032
 30
0.0
 40
3.799999999999999
 41
0.0
 71
     5
 72
     1
  1
%%c18
 11
-0.0000000000000028
 21
1.0
 31
0.0
1001
ACAD
1000
MTEXTBEGIN
1070
    73
1070
     1
1070
    44
1040
1.0
1070
    74
1070
     0
1000
MTEXTEND
  0
POINT
  5
5441
330
5323
100
AcDbEntity
  8
DEFPOINTS
 62
     0
100
AcDbPoint
 10
-2.999999999916955
 20
9.000000188327902
 30
0.0
  0
POINT
  5
5442
330
5323
100
AcDbEntity
  8
DEFPOINTS
 62
     0
100
AcDbPoint
 10
-2.999999999916894
 20
-8.999999811666956
 30
0.0
  0
POINT
  5
5443
330
5323
100
AcDbEntity
  8
DEFPOINTS
 62
     0
100
AcDbPoint
 10
14.55592102493906
 20
-8.999999811666961
 30
0.0
  0
ENDBLK
  5
532E
330
5323
100
AcDbEntity
  8
0
100
AcDbBlockEnd
  0
BLOCK
  5
55B9
330
55AA
100
AcDbEntity
  8
0
100
AcDbBlockBegin
  2
*D9
 70
     1
 10
0.0
 20
0.0
 30
0.0
  3
*D9
  1

  0
LINE
  5
5702
330
55AA
100
AcDbEntity
  8
AM_5
100
AcDbLine
 10
0.3420201471319042
 20
-0.9396925958147159
 30
0.0
 11
9.109602449238694
 21
-25.02842670038263
 31
0.0
  0
LINE
  5
5703
330
55AA
100
AcDbEntity
  8
AM_5
100
AcDbLine
 10
0.3420201492127872
 20
0.9396926423194406
 30
0.0
 11
9.109602504662378
 21
25.02842672747216
 31
0.0
  0
ARC
  5
5704
330
55AA
100
AcDbEntity
  8
AM_5
100
AcDbCircle
 10
0.0000000001242303
 20
0.000000023631052
 30
0.0
 40
25.63469543772248
100
AcDbArc
 50
295.5899349373333
 51
64.41006493578912
  0
INSERT
  5
5705
330
55AA
100
AcDbEntity
  8
AM_5
100
AcDbBlockReference
  2
_OPEN30
 10
8.767582302231019
 20
-24.08873408093686
 30
0.0
 41
2.5
 42
2.5
 43
2.5
 50
202.7949675809179
  0
INSERT
  5
5706
330
55AA
100
AcDbEntity
  8
AM_5
100
AcDbBlockReference
  2
_OPEN30
 10
8.767582355573821
 20
24.08873410878378
 30
0.0
 41
2.5
 42
2.5
 43
2.5
 50
157.2050322922046
  0
MTEXT
  5
5707
330
55AA
100
AcDbEntity
  8
AM_5
 62
     2
100
AcDbMText
 10
22.53469543784671
 20
-0.0000000047520699
 30
0.0
 40
3.2
 41
0.0
 71
     5
 72
     1
  1
140°
  7
ASAMI
 11
-0.0000000000000028
 21
1.0
 31
0.0
  0
POINT
  5
5708
330
55AA
100
AcDbEntity
  8
DEFPOINTS
 62
     0
100
AcDbPoint
 10
23.53819027426199
 20
10.15338412959672
 30
0.0
  0
POINT
  5
5709
330
55AA
100
AcDbEntity
  8
DEFPOINTS
 62
     0
100
AcDbPoint
 10
-0.7112011795483797
 20
-1.954009120923116
 30
0.0
  0
POINT
  5
570A
330
55AA
100
AcDbEntity
  8
DEFPOINTS
 62
     0
100
AcDbPoint
 10
0.0000000001242303
 20
0.0000000236310521
 30
0.0
  0
POINT
  5
570B
330
55AA
100
AcDbEntity
  8
DEFPOINTS
 62
     0
100
AcDbPoint
 10
-0.7112011795483891
 20
1.954009181648563
 30
0.0
  0
POINT
  5
570C
330
55AA
100
AcDbEntity
  8
DEFPOINTS
 62
     0
100
AcDbPoint
 10
0.0000000001242303
 20
0.000000023631052
 30
0.0
  0
ENDBLK
  5
55BA
330
55AA
100
AcDbEntity
  8
0
100
AcDbBlockEnd
  0
ENDSEC
  0
SECTION
  2
ENTITIES
  0
LINE
  5
C9F
330
1F
100
AcDbEntity
  8
AM_7
100
AcDbLine
 10
-218.9999999999175
 20
0.0000010271939059
 30
0.0
 11
5.166848388335779
 21
-0.000000000045921
 31
0.0
1001
GENIUS_GENODEF_13
1002
{
1000
HIER
1070
     0
1002
}
1002
{
1000
MANEDIT
1070
     0
1002
}
1002
{
1000
NOSEL
1070
     0
1002
}
1002
{
1000
BEHIND
1070
     0
1002
}
1002
{
1000
REACTOR
1002
}
1001
GENIUS_GENOBJ-N-CEN_13
1002
{
1000
OWNER
1000
GEN
1002
}
  0
DIMENSION
  5
CC6
330
1F
100
AcDbEntity
  8
AM_5
100
AcDbDimension
  2
*D5
 10
-2.999999999918353
 20
-33.00127942500105
 30
0.0
 11
-109.9999999999179
 21
-29.60127942500105
 31
0.0
 70
    32
  1
<>
  3
AM_JIS$0
100
AcDbAlignedDimension
 13
-216.9999999999174
 23
-8.500001027286916
 33
0.0
 14
-2.999999999918352
 24
-8.999999811671319
 34
0.0
 50
0.0000000000001132
100
AcDbRotatedDimension
1001
GENIUS_GENDTOL_13
1000

1000
h7
1000

1040
0.0
1001
ACAD
1000
DSTYLE
1002
{
1070
   271
1070
     0
1002
}
  0
DIMENSION
  5
DF5
330
1F
100
AcDbEntity
  8
AM_5
100
AcDbDimension
  2
*D6
 10
-2.999999999918353
 20
-23.0012794250009
 30
0.0
 11
-75.99999037969446
 21
-19.6012794250009
 31
0.0
 70
    32
  1
<>
  3
AM_JIS$0
100
AcDbAlignedDimension
 13
-148.9999807594705
 23
-9.000001027286826
 33
0.0
 14
-2.999999999918352
 24
-8.999999811671319
 34
0.0
 50
0.0000000000001527
100
AcDbRotatedDimension
1001
GENIUS_GENDTOL_13
1000

1000
h7
1000

1040
0.0
1001
ACAD
1000
DSTYLE
1002
{
1070
   271
1070
     0
1002
}
  0
TEXT
  5
19BD
330
1F
100
AcDbEntity
  8
AM_6
100
AcDbText
 10
-131.1904761903934
 20
-55.50001313576387
 30
0.0
 40
5.0
  1
MDW180LHK
 50
0.0000000000001527
 72
     4
 11
-109.9999999999172
 21
-53.00001313576381
 31
0.0
100
AcDbText
  0
LINE
  5
21D8
330
1F
100
AcDbEntity
  8
AM_0
 48
0.5
100
AcDbLine
 10
-216.4999999999175
 20
9.000001027193906
 30
0.0
 11
-147.3409988414492
 21
9.000000188339363
 31
0.0
1001
GENIUS_GENODEF_13
1002
{
1000
HIER
1070
     0
1002
}
1002
{
1000
MANEDIT
1070
     0
1002
}
1002
{
1000
NOSEL
1070
     0
1002
}
1002
{
1000
BEHIND
1070
     0
1002
}
1002
{
1000
REACTOR
1002
}
1001
GENIUS_GENOBJ-N-CEN_13
1002
{
1000
OWNER
1000
GEN
1002
}
  0
LINE
  5
21D9
330
1F
100
AcDbEntity
  8
AM_0
 48
0.5
100
AcDbLine
 10
-216.4999999999174
 20
-9.000001027286925
 30
0.0
 11
-86.54587382650772
 21
-9.000001027286748
 31
0.0
1001
GENIUS_GENODEF_13
1002
{
1000
HIER
1070
     0
1002
}
1002
{
1000
MANEDIT
1070
     0
1002
}
1002
{
1000
NOSEL
1070
     0
1002
}
1002
{
1000
BEHIND
1070
     0
1002
}
1002
{
1000
REACTOR
1002
}
1001
GENIUS_GENOBJ-N-CEN_13
1002
{
1000
OWNER
1000
GEN
1002
}
  0
LINE
  5
21DC
330
1F
100
AcDbEntity
  8
AM_0
100
AcDbLine
 10
-216.499999999918
 20
-9.000001027286353
 30
0.0
 11
-216.4999999999179
 21
9.000001027193492
 31
0.0
  0
LINE
  5
21DD
330
1F
100
AcDbEntity
  8
AM_0
 48
0.5
100
AcDbLine
 10
-216.9999999999174
 20
-8.500001027286916
 30
0.0
 11
-216.9999999999175
 21
8.500001027193892
 31
0.0
  0
DIMENSION
  5
2216
330
1F
100
AcDbEntity
  8
AM_5
100
AcDbDimension
  2
*D7
 10
-233.0000009999175
 20
-9.00000102728692
 30
0.0
 11
-236.4000009999175
 21
-0.0000000000467541
 31
0.0
 70
    32
  1
%%c<>
 51
359.9999999999998
  3
AM_JIS$0
100
AcDbAlignedDimension
 13
-216.4999999999179
 23
9.00000102719348
 33
0.0
 14
-216.499999999918
 24
-9.000001027286925
 34
0.0
 50
269.9999999999999
100
AcDbRotatedDimension
1001
ACAD
1000
DSTYLE
1002
{
1070
   271
1070
     0
1002
}
1001
GENIUS_GENDTOL_13
1000

1000
h7
1000

1040
0.0
  0
LINE
  5
3F18
330
1F
100
AcDbEntity
  8
AM_0
 48
0.5
100
AcDbLine
 10
-216.4999999999175
 20
9.000001027193906
 30
0.0
 11
-216.9999999999175
 21
8.500001027193906
 31
0.0
1001
GENIUS_GENFIL_13
1070
     0
1040
0.5
1040
0.5
1040
20.0
1040
0.0
1002
{
1002
}
1001
GENIUS_GENODEF_13
1002
{
1000
HIER
1070
     0
1002
}
1002
{
1000
MANEDIT
1070
     0
1002
}
1002
{
1000
NOSEL
1070
     0
1002
}
1002
{
1000
BEHIND
1070
     0
1002
}
1002
{
1000
REACTOR
1002
}
1001
GENIUS_GENOBJ-N-CHA_13
1002
{
1000
OWNER
1000
GEN
1002
}
  0
LINE
  5
3F1B
330
1F
100
AcDbEntity
  8
AM_0
 48
0.5
100
AcDbLine
 10
-216.9999999999174
 20
-8.500001027286925
 30
0.0
 11
-216.4999999999174
 21
-9.000001027286925
 31
0.0
1001
GENIUS_GENFIL_13
1070
     0
1040
0.5
1040
0.5
1040
20.0
1040
0.0
1002
{
1002
}
1001
GENIUS_GENODEF_13
1002
{
1000
HIER
1070
     0
1002
}
1002
{
1000
MANEDIT
1070
     0
1002
}
1002
{
1000
NOSEL
1070
     0
1002
}
1002
{
1000
BEHIND
1070
     0
1002
}
1002
{
1000
REACTOR
1002
}
1001
GENIUS_GENOBJ-N-CHA_13
1002
{
1000
OWNER
1000
GEN
1002
}
  0
LINE
  5
4D3D
330
1F
100
AcDbEntity
  8
AM_0
 48
0.5
100
AcDbLine
 10
-2.12306592354442
 20
5.802555543123609
 30
0.0
 11
-2.999999999916955
 21
9.000000188327902
 31
0.0
  0
LINE
  5
4D3F
330
1F
100
AcDbEntity
  8
AM_0
 48
0.5
100
AcDbLine
 10
0.0000000001242303
 20
0.0000000236310521
 30
0.0
 11
-0.7112011795483891
 21
1.954009181648563
 31
0.0
  0
ELLIPSE
  5
4D44
330
1F
100
AcDbEntity
  8
AM_0
 48
0.5
100
AcDbEllipse
 10
9.922192517926879
 20
8.013536336826566
 30
0.0
 11
-8.406731997357404
 21
8.936799683791093
 31
0.0
210
0.0
220
0.0
230
0.9999999999999998
 40
0.9973519014804205
 41
0.9986944468197741
 42
1.334517207363391
  0
LINE
  5
4D4B
330
1F
100
AcDbEntity
  8
AM_0
 48
0.5
100
AcDbLine
 10
-2.123065923544434
 20
-5.802553488734919
 30
0.0
 11
-2.999999999918073
 21
-8.999999811671251
 31
0.0
  0
LINE
  5
52B1
330
1F
100
AcDbEntity
  8
AM_0
 48
0.5
100
AcDbLine
 10
0.0000000001242303
 20
0.0000000236310521
 30
0.0
 11
-6.197830486319042
 21
3.455726811862661
 31
0.0
  0
LINE
  5
52B2
330
1F
100
AcDbEntity
  8
AM_0
 48
0.5
100
AcDbLine
 10
-9.387036561763597
 20
9.000000188328401
 30
0.0
 11
-2.999999999916955
 21
9.000000188327902
 31
0.0
  0
LINE
  5
52B3
330
1F
100
AcDbEntity
  8
AM_11
 48
0.5
100
AcDbLine
 10
-77.19162612897453
 20
9.001278801666982
 30
0.0
 11
-61.51525510218577
 21
9.00000018833264
 31
0.0
  0
LINE
  5
52B4
330
1F
100
AcDbEntity
  8
AM_0
 48
0.5
100
AcDbLine
 10
-61.51527625978107
 20
9.00000018833264
 30
0.0
 11
-33.95192657475927
 21
9.000000188330391
 31
0.0
  0
LINE
  5
52B5
330
1F
100
AcDbEntity
  8
AM_11
 48
0.5
100
AcDbLine
 10
-33.95192657475927
 20
9.000000188330391
 30
0.0
 11
-9.387036561763597
 21
9.000000188328401
 31
0.0
  0
SPLINE
  5
52B6
330
1F
100
AcDbEntity
  8
AM_0
100
AcDbSpline
210
0.0
220
0.0
230
1.0
 70
     8
 71
     3
 72
    23
 73
    19
 74
     0
 42
0.0000000001
 43
0.0000000001
 40
16.03460024169435
 40
16.03460024169435
 40
16.03460024169435
 40
16.03460024169435
 40
16.35212704903564
 40
17.38177054169784
 40
18.41822485651776
 40
19.46214173629503
 40
20.51396345435107
 40
21.57393551351153
 40
22.64208202342361
 40
23.7182574881101
 40
24.80209208578934
 40
25.89306333925047
 40
26.99048218457928
 40
28.09348763352352
 40
29.20111863782268
 40
30.31232390128032
 40
31.42594612798585
 40
32.5407912310448
 40
32.5407912310486
 40
32.5407912310486
 40
32.5407912310486
 10
-77.19162612897452
 20
9.001278801666979
 30
0.0
 10
-77.05765131207957
 20
8.970896386563511
 30
0.0
 10
-76.4898071674246
 20
8.83858952010585
 30
0.0
 10
-75.48954359135248
 20
8.579354407855483
 30
0.0
 10
-74.19419964180164
 20
8.193874630906755
 30
0.0
 10
-72.90005886863993
 20
7.761045094367082
 30
0.0
 10
-71.60704480005698
 20
7.283370794827868
 30
0.0
 10
-70.31511154469218
 20
6.763514777202768
 30
0.0
 10
-69.02418443189965
 20
6.204448757718625
 30
0.0
 10
-67.73417356642188
 20
5.609426360375099
 30
0.0
 10
-66.44500564520825
 20
4.98181716231633
 30
0.0
 10
-65.15657731099189
 20
4.325273075229592
 30
0.0
 10
-63.86878415106433
 20
3.643610217007836
 30
0.0
 10
-62.58154036344024
 20
2.94074786331444
 30
0.0
 10
-61.29473824599536
 20
2.220773062483051
 30
0.0
 10
-60.00825861360112
 20
1.487889939135911
 30
0.0
 10
-58.72199671049974
 20
0.7463453525150595
 30
0.0
 10
-57.86471910143109
 20
0.2491802544246963
 30
0.0
 10
-57.43584651200451
 20
0.0004579520021115
 30
0.0
  0
SPLINE
  5
52B7
330
1F
100
AcDbEntity
  8
AM_0
 48
0.5
100
AcDbSpline
210
0.0
220
0.0
230
1.0
 70
     8
 71
     3
 72
    10
 73
     6
 74
     0
 42
0.0000000001
 43
0.0000000001
 40
0.0
 40
0.0
 40
0.0
 40
0.0
 40
2.69986029516136
 40
4.147722969032201
 40
6.285750005020438
 40
6.285750005020438
 40
6.285750005020438
 40
6.285750005020438
 10
-10.9076752526495
 20
1.628952214695553
 30
0.0
 10
-9.979558579438924
 20
0.7927900218924626
 30
0.0
 10
-8.553717823783431
 20
-0.4917835314655842
 30
0.0
 10
-5.181795973294025
 20
0.130101029544887
 30
0.0
 10
-5.816826936134982
 20
2.224690518604597
 30
0.0
 10
-6.236414822589388
 20
3.501407323806387
 30
0.0
  0
SPLINE
  5
52B8
330
1F
100
AcDbEntity
  8
AM_0
 48
0.5
100
AcDbSpline
210
0.0
220
0.0
230
1.0
 70
     8
 71
     3
 72
    25
 73
    21
 74
     0
 42
0.0000000001
 43
0.0000000001
 40
6.846175049578289
 40
6.846175049578289
 40
6.846175049578289
 40
6.846175049578289
 40
7.604337694224321
 40
8.711974558287883
 40
9.814980593243754
 40
10.91239053451967
 40
12.0033633515982
 40
13.08720139956839
 40
14.16337181880432
 40
15.23152222380919
 40
16.29148850140128
 40
17.34331105512262
 40
18.38723020264746
 40
19.42369128463655
 40
20.45333379090873
 40
21.47697865721768
 40
22.49561244472435
 40
23.5103574802404
 40
24.52244778960836
 40
25.53320666051913
 40
25.53320666051913
 40
25.53320666051913
 40
25.53320666051913
 10
-10.90788374107655
 20
1.629059109986081
 30
0.0
 10
-11.20411861090612
 20
1.787083103545032
 30
0.0
 10
-11.933760920924
 20
2.174390766978397
 30
0.0
 10
-13.09789499719533
 20
2.782603222644842
 30
0.0
 10
-14.40051488255444
 20
3.446028087504456
 30
0.0
 10
-15.7032002775136
 20
4.088256710444358
 30
0.0
 10
-17.00596237456813
 20
4.70534030872414
 30
0.0
 10
-18.30881568970273
 20
5.293471786188087
 30
0.0
 10
-19.61177227021829
 20
5.849024194761177
 30
0.0
 10
-20.91483814811749
 20
6.368583262778341
 30
0.0
 10
-22.21802937382913
 20
6.848915608231136
 30
0.0
 10
-23.52134418267674
 20
7.287075815130471
 30
0.0
 10
-24.82479193609709
 20
7.680329768372929
 30
0.0
 10
-26.12836803416312
 20
8.026243680554836
 30
0.0
 10
-27.43206738444775
 20
8.32269734688432
 30
0.0
 10
-28.7358827324769
 20
8.567725734954724
 30
0.0
 10
-30.03979379140722
 20
8.760207415340893
 30
0.0
 10
-31.34378619081554
 20
8.897528009266615
 30
0.0
 10
-32.64783876297588
 20
8.98394075035927
 30
0.0
 10
-33.51742142380881
 20
8.994649391814441
 30
0.0
 10
-33.95192657475927
 20
9.000000188330391
 30
0.0
  0
SPLINE
  5
52BA
330
1F
100
AcDbEntity
  8
AM_0
 48
0.5
100
AcDbSpline
210
0.0
220
0.0
230
1.0
 70
     8
 71
     3
 72
    17
 73
    13
 74
     0
 42
0.0000000001
 43
0.0000000001
 40
0.0
 40
0.0
 40
0.0
 40
0.0
 40
1.010743614677189
 40
2.022833924044153
 40
3.037578959561199
 40
4.056212747067873
 40
5.079857613375832
 40
6.109500119648989
 40
7.14596120163808
 40
8.18989512056258
 40
9.241717674284874
 40
9.693948937866434
 40
9.693948937866434
 40
9.693948937866434
 40
9.693948937866434
 10
-9.387036561763599
 20
9.000000188328398
 30
0.0
 10
-9.821535150006281
 20
8.994649265283028
 30
0.0
 10
-10.69111124376904
 20
8.983940289728908
 30
0.0
 10
-11.99515727902709
 20
8.897528049983792
 30
0.0
 10
-13.29914962746681
 20
8.76020727855529
 30
0.0
 10
-14.60306087867983
 20
8.567726244357302
 30
0.0
 10
-15.90687550346091
 20
8.322695432026682
 30
0.0
 10
-17.21057757700324
 20
8.026250892102332
 30
0.0
 10
-18.51414960143391
 20
7.680300936125401
 30
0.0
 10
-19.8176421605802
 20
7.287174588295513
 30
0.0
 10
-20.86985534455668
 20
6.933027174486325
 30
0.0
 10
-21.48777661858276
 20
6.711634112229075
 30
0.0
 10
-21.6732434331592
 20
6.643867177942345
 30
0.0
  0
LINE
  5
52BB
330
1F
100
AcDbEntity
  8
AM_0
 48
0.5
100
AcDbLine
 10
-9.387036561764823
 20
-8.99999981167161
 30
0.0
 11
-2.999999999917329
 21
-8.999999811671649
 31
0.0
  0
LINE
  5
52BC
330
1F
100
AcDbEntity
  8
AM_11
 48
0.5
100
AcDbLine
 10
-86.54587382650772
 20
-9.000001027286748
 30
0.0
 11
-55.81085736494145
 21
-9.001278425001045
 31
0.0
  0
LINE
  5
52BD
330
1F
100
AcDbEntity
  8
AM_0
 48
0.5
100
AcDbLine
 10
-55.81085736494144
 20
-8.999999811668011
 30
0.0
 11
-33.9519265747605
 21
-8.999999811669596
 31
0.0
  0
LINE
  5
52BE
330
1F
100
AcDbEntity
  8
AM_11
 48
0.5
100
AcDbLine
 10
-33.9519265747605
 20
-8.999999811669596
 30
0.0
 11
-9.387036561764823
 21
-8.99999981167161
 31
0.0
  0
SPLINE
  5
52BF
330
1F
100
AcDbEntity
  8
AM_0
100
AcDbSpline
210
0.0
220
0.0
230
1.0
 70
     8
 71
     3
 72
    17
 73
    13
 74
     0
 42
0.0000000001
 43
0.0000000001
 40
1.717861415174037
 40
1.717861415174037
 40
1.717861415174037
 40
1.717861415174037
 40
2.030549285115227
 40
3.082371838836284
 40
4.126290986361125
 40
5.162752068350215
 40
6.192395305374981
 40
7.216039564037012
 40
8.234688489606833
 40
9.249433870634691
 40
10.26152376260694
 40
11.27226744710342
 40
11.27226744710342
 40
11.27226744710342
 40
11.27226744710352
 10
-70.82845626201771
 20
-5.558747227657923
 30
0.0
 10
-70.95664803750775
 20
-5.605708441707739
 30
0.0
 10
-71.51677317696054
 20
-5.807965615691143
 30
0.0
 10
-72.51198282328011
 20
-6.140627119133705
 30
0.0
 10
-73.81524904063372
 20
-6.534485239067333
 30
0.0
 10
-74.935558054241
 20
-6.988483310914231
 30
0.0
 10
-76.23924279120675
 20
-7.284974339746258
 30
0.0
 10
-81.17330351800394
 20
-8.649234376400059
 30
0.0
 10
-82.66053635845127
 20
-8.73324236706372
 30
0.0
 10
-83.96453439948365
 20
-8.871428138040826
 30
0.0
 10
-85.26858150568196
 20
-8.954659235740008
 30
0.0
 10
-86.13815724548947
 20
-8.973219156366926
 30
0.0
 10
-86.54587382650797
 20
-9.000001027286735
 30
0.0
  0
SPLINE
  5
52C0
330
1F
100
AcDbEntity
  8
AM_0
100
AcDbSpline
210
0.0
220
0.0
230
1.0
 70
     8
 71
     3
 72
    11
 73
     7
 74
     0
 42
0.0000000001
 43
0.0000000001
 40
11.27226913003534
 40
11.27226913003534
 40
11.27226913003534
 40
11.2722691300354
 40
12.28301561507924
 40
13.29510212255852
 40
14.30984805882082
 40
15.18258238371378
 40
15.18258238371378
 40
15.18258238371378
 40
15.18258238371378
 10
-86.54587382650793
 20
-9.000001027286735
 30
0.0
 10
-87.08017068554685
 20
-8.972280431801127
 30
0.0
 10
-87.87037829710159
 20
-8.822530708717355
 30
0.0
 10
-89.16322657046288
 20
-8.607411893620893
 30
0.0
 10
-90.39016237834768
 20
-8.350476055846357
 30
0.0
 10
-91.18367243920044
 20
-8.152961830448008
 30
0.0
 10
-91.54934447041972
 20
-8.055395258640716
 30
0.0
  0
ELLIPSE
  5
52C1
330
1F
100
AcDbEntity
  8
AM_0
 48
0.5
100
AcDbEllipse
 10
5.607583714610737
 20
-2.000575830959361
 30
0.0
 11
12.13923005635995
 21
2.900051467309
 31
0.0
210
0.0
220
0.0
230
1.0
 40
0.6435971774437258
 41
3.007128045640832
 42
3.783260149940501
  0
ELLIPSE
  5
52C2
330
1F
100
AcDbEntity
  8
AM_0
 48
0.5
100
AcDbEllipse
 10
-4.700524102111526
 20
-2.345529367946975
 30
0.0
 11
-0.2062740988128793
 21
1.480246681114526
 31
0.0
210
0.0
220
0.0
230
1.0
 40
0.4329935055196177
 41
1.833531580594926
 42
4.968873470306904
  0
ELLIPSE
  5
52C3
330
1F
100
AcDbEntity
  8
AM_0
 48
0.5
100
AcDbEllipse
 10
-15.78907125885903
 20
15.10526294467589
 30
0.0
 11
0.0000000000008766
 21
21.69995355606017
 31
0.0
210
0.0
220
0.0
230
1.0
 40
0.8597124466401721
 41
3.652175978818159
 42
3.740670756497658
  0
SPLINE
  5
52C4
330
1F
100
AcDbEntity
  8
AM_0
100
AcDbSpline
210
0.0
220
0.0
230
1.0
 70
     8
 71
     3
 72
    17
 73
    13
 74
     0
 42
0.0000000001
 43
0.0000000001
 40
1.580019955310467
 40
1.580019955310467
 40
1.580019955310467
 40
1.580019955310467
 40
2.030549285115227
 40
3.082371838836284
 40
4.126290986361125
 40
5.162752068350215
 40
6.192395305374981
 40
7.216039564037012
 40
8.234688489606833
 40
9.249433870634691
 40
10.26152376260694
 40
11.27226744710342
 40
11.27226744710342
 40
11.27226744710342
 40
11.27226744710352
 10
-21.66852329926304
 20
-6.642264830983831
 30
0.0
 10
-21.85302420217864
 20
-6.710674642701475
 30
0.0
 10
-22.46931920324517
 20
-6.934896938042532
 30
0.0
 10
-23.52148760483008
 20
-7.286597631097911
 30
0.0
 10
-24.82475382218372
 20
-7.680455751031528
 30
0.0
 10
-26.12837882750678
 20
-8.026210887142662
 30
0.0
 10
-27.43206356447252
 20
-8.322701915974693
 30
0.0
 10
-28.73589033555385
 20
-8.56777214746547
 30
0.0
 10
-30.03980718428545
 20
-8.760023073864912
 30
0.0
 10
-31.34380522531782
 20
-8.898208844842011
 30
0.0
 10
-32.64785233151608
 20
-8.981439942541191
 30
0.0
 10
-33.51742807132357
 20
-8.999999863168101
 30
0.0
 10
-33.95192657476039
 20
-8.999999811669603
 30
0.0
  0
SPLINE
  5
52C5
330
1F
100
AcDbEntity
  8
AM_0
100
AcDbSpline
210
0.0
220
0.0
230
1.0
 70
     8
 71
     3
 72
    11
 73
     7
 74
     0
 42
0.0000000001
 43
0.0000000001
 40
11.27226913003534
 40
11.27226913003534
 40
11.27226913003534
 40
11.2722691300354
 40
12.28301561507924
 40
13.29510212255852
 40
14.30984805882082
 40
15.18258238371378
 40
15.18258238371378
 40
15.18258238371378
 40
15.18258238371378
 10
-33.95192657476045
 20
-8.999999811669603
 30
0.0
 10
-34.38477290097885
 20
-8.955951196286642
 30
0.0
 10
-35.24964912293574
 20
-8.84931141551854
 30
0.0
 10
-36.54249739629706
 20
-8.634192600422077
 30
0.0
 10
-37.76943320418184
 20
-8.377256762647531
 30
0.0
 10
-38.56294326503467
 20
-8.179742537249197
 30
0.0
 10
-38.92861529625397
 20
-8.082175965441903
 30
0.0
  0
ELLIPSE
  5
52C6
330
1F
100
AcDbEntity
  8
AM_0
 48
0.5
100
AcDbEllipse
 10
2.544090710460181
 20
10.8050538992649
 30
0.0
 11
0.0000000000004523
 21
18.13900279998752
 31
0.0
210
0.0
220
0.0
230
1.0
 40
0.8597124466401872
 41
2.101163880028932
 42
2.509284810223823
  0
ELLIPSE
  5
52C7
330
1F
100
AcDbEntity
  8
AM_0
 48
0.5
100
AcDbEllipse
 10
-23.96389980061802
 20
61.77811890163566
 30
0.0
 11
0.002435688416193
 21
67.47680573921119
 31
0.0
210
0.0
220
0.0
230
1.0
 40
0.8829893220494989
 41
3.480491684367148
 42
3.555557561677162
  0
ELLIPSE
  5
52C8
330
1F
100
AcDbEntity
  8
AM_0
 48
0.5
100
AcDbEllipse
 10
-4.700524102111526
 20
-2.345529367946975
 30
0.0
 11
-1.080019016344975
 21
0.8097938732162315
 31
0.0
210
0.0
220
0.0
230
1.0
 40
0.530774248387989
 41
4.581559596057431
 42
7.724999937386938
  0
SPLINE
  5
52C9
330
1F
100
AcDbEntity
  8
AM_0
100
AcDbSpline
210
0.0
220
0.0
230
1.0
 70
     8
 71
     3
 72
    46
 73
    42
 74
     0
 42
0.0000000001
 43
0.0000000001
 40
0.0
 40
0.0
 40
0.0
 40
0.0
 40
1.348332046947657
 40
2.024828967632895
 40
2.703918159304097
 40
3.386347665078124
 40
4.072776489761952
 40
4.763750544421347
 40
5.459696642770596
 40
6.160921452191754
 40
6.867565637253344
 40
7.579665907256596
 40
8.297112853413899
 40
9.019671552060676
 40
9.746986763446127
 40
10.47859339096366
 40
11.21393074760089
 40
11.95235532364328
 40
12.69315551794651
 40
13.43556823304427
 40
14.1787950170388
 40
14.92202180103393
 40
15.66443451613169
 40
16.40523471043432
 40
17.14365928647669
 40
17.87899664311455
 40
18.61060327063121
 40
19.3379184820169
 40
20.06048192311554
 40
20.77792886927283
 40
21.49002913927608
 40
22.19667332433747
 40
22.89788836015233
 40
23.59383445850158
 40
24.28480851316097
 40
24.97123685067576
 40
25.65366676154838
 40
26.33276604526152
 40
27.00926273560555
 40
27.68398960851751
 40
28.357818684969
 40
28.357818684969
 40
28.357818684969
 40
28.357818684969
 10
-5.736590678946631
 20
-8.999999811671887
 30
0.0
 10
-6.606208891057061
 20
-8.979497115963592
 30
0.0
 10
-7.91213954118769
 20
-8.948707628849719
 30
0.0
 10
-9.64869247599962
 20
-8.759142413019736
 30
0.0
 10
-10.95261724990073
 20
-8.568010248880408
 30
0.0
 10
-12.25643056927417
 20
-8.322629016959435
 30
0.0
 10
-13.56012899942922
 20
-8.026261640376942
 30
0.0
 10
-14.86370584301135
 20
-7.68032500767448
 30
0.0
 10
-16.16715891672526
 20
-7.28707267641484
 30
0.0
 10
-17.47048241974433
 20
-6.84891927412579
 30
0.0
 10
-18.77367895709967
 20
-6.368582390694653
 30
0.0
 10
-20.07674502358886
 20
-5.84902395200498
 30
0.0
 10
-21.37970155366544
 20
-5.293471374607986
 30
0.0
 10
-22.68255487995856
 20
-4.705339936434645
 30
0.0
 10
-23.98531698341974
 20
-4.088256351756777
 30
0.0
 10
-25.28800234116332
 20
-3.446027633914515
 30
0.0
 10
-26.59062236998985
 20
-2.782603137686654
 30
0.0
 10
-27.89318974767872
 20
-2.102063272951907
 30
0.0
 10
-29.19571828515748
 20
-1.408596363808919
 30
0.0
 10
-30.49821988110931
 20
-0.7064667442844371
 30
0.0
 10
-31.80071052800279
 20
0.0000001881872903
 30
0.0
 10
-33.10320117461015
 20
0.7064671215175184
 30
0.0
 10
-34.40570277142023
 20
1.408596738467761
 30
0.0
 10
-35.70823130576181
 20
2.102063657018458
 30
0.0
 10
-37.0107986950834
 20
2.782603486863416
 30
0.0
 10
-38.31341868077706
 20
3.446028112459109
 30
0.0
 10
-39.61610419825641
 20
4.088256351206737
 30
0.0
 10
-40.91886854300674
 20
4.705343049573525
 30
0.0
 10
-42.22172693155938
 20
5.293469144274618
 30
0.0
 10
-43.5246857859107
 20
5.84902457035498
 30
0.0
 10
-44.8277518220608
 20
6.368583163640913
 30
0.0
 10
-46.13094300603285
 20
6.848915633186578
 30
0.0
 10
-47.4342578252754
 20
7.28707581333762
 30
0.0
 10
-48.73770557838127
 20
7.680329751076067
 30
0.0
 10
-50.04128166752158
 20
8.026243750787877
 30
0.0
 10
-51.34498105346857
 20
8.322697085588252
 30
0.0
 10
-52.64880269387921
 20
8.567727909963599
 30
0.0
 10
-53.95272074898656
 20
8.760205608932158
 30
0.0
 10
-55.25671947686944
 20
8.897528312017445
 30
0.0
 10
-56.56076553893612
 20
8.983940224398144
 30
0.0
 10
-57.43034162913159
 20
8.994649243518418
 30
0.0
 10
-57.86484021559164
 20
9.000000188332343
 30
0.0
  0
SPLINE
  5
52CA
330
1F
100
AcDbEntity
  8
AM_0
100
AcDbSpline
210
0.0
220
0.0
230
1.0
 70
     8
 71
     3
 72
    22
 73
    18
 74
     0
 42
0.0000000001
 43
0.0000000001
 40
17.17441611292
 40
17.17441611292
 40
17.17441611292
 40
17.17441611292
 40
17.38177636558528
 40
18.41823744757437
 40
19.46215659509824
 40
20.51397914882054
 40
21.57394542641293
 40
22.64209583141747
 40
23.71826625065247
 40
24.80210429862395
 40
25.8930771157021
 40
26.99048705697709
 40
28.09349309193389
 40
29.20112995599786
 40
30.31233024745139
 40
31.42594771747373
 40
32.5407895042663
 40
32.54078950426994
 40
32.54078950426994
 40
32.54078950426994
 10
-38.92918560101295
 20
-8.082064950510725
 30
0.0
 10
-39.01650645428615
 20
-8.061230833246634
 30
0.0
 10
-39.53994728096342
 20
-7.934327947765995
 30
0.0
 10
-40.49886137966304
 20
-7.679871145599011
 30
0.0
 10
-41.80230903394781
 20
-7.286617805519452
 30
0.0
 10
-43.10562386965272
 20
-6.84845743245561
 30
0.0
 10
-44.40881508810742
 20
-6.36812513209937
 30
0.0
 10
-45.71188096788694
 20
-5.848566051632119
 30
0.0
 10
-47.01483754822126
 20
-5.29301364729708
 30
0.0
 10
-48.31769086216559
 20
-4.704882165421906
 30
0.0
 10
-49.62045296421113
 20
-4.087798580629447
 30
0.0
 10
-50.92313834024665
 20
-3.445569907770608
 30
0.0
 10
-52.22575829679516
 20
-2.78214523037627
 30
0.0
 10
-53.52832594683254
 20
-2.101606049167068
 30
0.0
 10
-54.83085283648712
 20
-1.408136909781376
 30
0.0
 10
-56.13335826156228
 20
-0.7060168916348263
 30
0.0
 10
-57.00152476746787
 20
-0.2351198889227346
 30
0.0
 10
-57.43584651201028
 20
0.0004579520053451
 30
0.0
  0
SPLINE
  5
52CB
330
1F
100
AcDbEntity
  8
AM_0
100
AcDbSpline
210
0.0
220
0.0
230
1.0
 70
     8
 71
     3
 72
    55
 73
    51
 74
     0
 42
0.0000000001
 43
0.0000000001
 40
0.0
 40
0.0
 40
0.0
 40
0.0
 40
1.010743684496582
 40
2.022833576467832
 40
3.037578957496688
 40
4.056212745003489
 40
5.079857003664532
 40
6.109500240690281
 40
7.145961322679372
 40
8.189895241603872
 40
9.241717795325891
 40
10.30168407291828
 40
11.36983447792315
 40
12.44600489715814
 40
13.52984294512926
 40
14.62081576220742
 40
15.7182257034828
 40
16.82123173843959
 40
17.92886860250316
 40
19.0400688939571
 40
20.15368796660465
 40
21.26852814259644
 40
22.38336992938901
 40
23.49698739941135
 40
24.6081876908653
 40
25.71582455492886
 40
26.81883757994213
 40
27.91624752121713
 40
29.00722033829659
 40
30.09105838626677
 40
31.16722880550176
 40
32.23537921050758
 40
33.29534548809967
 40
34.347168041821
 40
35.39108718934584
 40
36.42754827133493
 40
37.45720575381954
 40
38.48085062012849
 40
39.49948440763516
 40
40.51422944315121
 40
41.52631975251916
 40
42.53706336719636
 40
43.54780698187354
 40
44.55989729124051
 40
45.57464232675757
 40
46.59327611426424
 40
47.6169209805722
 40
48.64656348684535
 40
49.68302456883444
 40
50.58557219878025
 40
50.58557219878025
 40
50.58557219878025
 40
50.58557219878025
 10
-9.387036561764825
 20
-8.999999811671596
 30
0.0
 10
-9.821535070933968
 20
-8.994645029709891
 30
0.0
 10
-10.69111079696023
 20
-8.983928333763214
 30
0.0
 10
-11.99515793081807
 20
-8.897539733432095
 30
0.0
 10
-13.29914939982062
 20
-8.760204426125815
 30
0.0
 10
-14.60306016455344
 20
-8.567723769681084
 30
0.0
 10
-15.90687721403966
 20
-8.322706246027971
 30
0.0
 10
-17.21057482688408
 20
-8.026241409047964
 30
0.0
 10
-18.51415736389736
 20
-7.680326351551984
 30
0.0
 10
-19.81761326493688
 20
-7.287079291844491
 30
0.0
 10
-21.12093365109245
 20
-6.848914743016142
 30
0.0
 10
-22.42412501869563
 20
-6.368583018646296
 30
0.0
 10
-23.72719085795281
 20
-5.849023781817481
 30
0.0
 10
-25.03014744962791
 20
-5.293471420755984
 30
0.0
 10
-26.33300075914148
 20
-4.70533992375115
 30
0.0
 10
-27.63576286751089
 20
-4.088256355912344
 30
0.0
 10
-28.93844822254408
 20
-3.446027630059303
 30
0.0
 10
-30.24106825730334
 20
-2.782603148995303
 30
0.0
 10
-31.54363561386445
 20
-2.102063231357366
 30
0.0
 10
-32.84616423025173
 20
-1.408596519486378
 30
0.0
 10
-34.14866553088088
 20
-0.7064661617370746
 30
0.0
 10
-35.45115790908802
 20
-0.0000016479963987
 30
0.0
 10
-36.75364444019422
 20
0.706475582545799
 30
0.0
 10
-38.05615010652385
 20
1.408595006268254
 30
0.0
 10
-39.35867711492202
 20
2.102063817223497
 30
0.0
 10
-40.66124679394635
 20
2.782606327415192
 30
0.0
 10
-41.96387223259839
 20
3.446025146698178
 30
0.0
 10
-43.26655964361328
 20
4.08825712954444
 30
0.0
 10
-44.56932194005811
 20
4.7053401969921
 30
0.0
 10
-45.87217520216507
 20
5.29347181767877
 30
0.0
 10
-47.1751317971765
 20
5.849024179552925
 30
0.0
 10
-48.47819766962381
 20
6.368583292147294
 30
0.0
 10
-49.78138890272342
 20
6.848915506980015
 30
0.0
 10
-51.08470368768672
 20
7.287076186821012
 30
0.0
 10
-52.38815152835702
 20
7.680328397083861
 30
0.0
 10
-53.69173358180879
 20
8.026250410496471
 30
0.0
 10
-54.99544050349111
 20
8.322681387076725
 30
0.0
 10
-56.29926186042046
 20
8.56777474883299
 30
0.0
 10
-57.60317301169077
 20
8.760027244303495
 30
0.0
 10
-58.90716538674624
 20
8.898196538902102
 30
0.0
 10
-60.2112114149275
 20
8.981453752492431
 30
0.0
 10
-61.51528609872943
 20
9.009267232650827
 30
0.0
 10
-62.81936078061256
 20
8.981453752449031
 30
0.0
 10
-64.12340681456126
 20
8.898196539077437
 30
0.0
 10
-65.42739916838252
 20
8.760027243644755
 30
0.0
 10
-66.73131039926488
 20
8.567774751311292
 30
0.0
 10
-68.03512510052486
 20
8.322682572631189
 30
0.0
 10
-69.3388268860982
 20
8.026253441344188
 30
0.0
 10
-70.58313789257725
 20
7.696031066448533
 30
0.0
 10
-71.39046104419738
 20
7.454536321872818
 30
0.0
 10
-71.76501193235259
 20
7.336844152017963
 30
0.0
  0
POLYLINE
  5
52CC
330
1F
100
AcDbEntity
  8
AM_0
100
AcDb2dPolyline
 66
     1
 10
0.0
 20
0.0
 30
0.0
 70
     2
  0
VERTEX
  5
52CD
330
52CC
100
AcDbEntity
  8
AM_0
100
AcDbVertex
100
AcDb2dVertex
 10
-143.5657361586887
 20
7.834104723359864
 30
0.0
 42
0.0862297278188617
  0
VERTEX
  5
52CE
330
52CC
100
AcDbEntity
  8
AM_0
100
AcDbVertex
100
AcDb2dVertex
 10
-146.8878509410443
 20
7.54489527273524
 30
0.0
 42
0.0414024687830266
 70
     1
  0
VERTEX
  5
52CF
330
52CC
100
AcDbEntity
  8
AM_0
100
AcDbVertex
100
AcDb2dVertex
 10
-147.2894433986306
 20
7.389420668762459
 30
0.0
 42
0.0280074108471844
  0
VERTEX
  5
52D0
330
52CC
100
AcDbEntity
  8
AM_0
100
AcDbVertex
100
AcDb2dVertex
 10
-148.2050890058755
 20
6.873054876580342
 30
0.0
 42
0.0512701366748525
 70
     1
  0
VERTEX
  5
52D1
330
52CC
100
AcDbEntity
  8
AM_0
100
AcDbVertex
100
AcDb2dVertex
 10
-148.6578551057258
 20
6.510190843435875
 30
0.0
 42
0.0658714570033076
  0
VERTEX
  5
52D2
330
52CC
100
AcDbEntity
  8
AM_0
100
AcDbVertex
100
AcDb2dVertex
 10
-148.942016277331
 20
6.14480144059245
 30
0.0
 42
0.1411961588081283
 70
     1
  0
VERTEX
  5
52D3
330
52CC
100
AcDbEntity
  8
AM_0
100
AcDbVertex
100
AcDb2dVertex
 10
-148.9999580324996
 20
5.929029905276056
 30
0.0
 42
0.1226739033459629
  0
VERTEX
  5
52D4
330
52CC
100
AcDbEntity
  8
AM_0
100
AcDbVertex
100
AcDb2dVertex
 10
-148.9434321104082
 20
5.691791385892123
 30
0.0
 42
0.0555312784770531
 70
     1
  0
VERTEX
  5
52D5
330
52CC
100
AcDbEntity
  8
AM_0
100
AcDbVertex
100
AcDb2dVertex
 10
-148.6578551057259
 20
5.251665852172598
 30
0.0
 42
0.0351528005485752
  0
VERTEX
  5
52D6
330
52CC
100
AcDbEntity
  8
AM_0
100
AcDbVertex
100
AcDb2dVertex
 10
-148.1963224094807
 20
4.760784800857887
 30
0.0
 42
0.0198940146009696
 70
     1
  0
VERTEX
  5
52D7
330
52CC
100
AcDbEntity
  8
AM_0
100
AcDbVertex
100
AcDb2dVertex
 10
-147.2526438159922
 20
4.054150387974106
 30
0.0
 42
0.0358460074876439
  0
VERTEX
  5
52D8
330
52CC
100
AcDbEntity
  8
AM_0
100
AcDbVertex
100
AcDb2dVertex
 10
-146.8806876720123
 20
3.803522005964575
 30
0.0
 42
0.021710998496176
 70
     1
  0
VERTEX
  5
52D9
330
52CC
100
AcDbEntity
  8
AM_0
100
AcDbVertex
100
AcDb2dVertex
 10
-146.2263350356709
 20
3.467472155976512
 30
0.0
  0
SEQEND
  5
52DA
330
52CC
100
AcDbEntity
  8
AM_0
  0
LINE
  5
52DB
330
1F
100
AcDbEntity
  8
AM_11
 48
0.5
100
AcDbLine
 10
-147.3409988414492
 20
9.000000188339354
 30
0.0
 11
-107.9392761242002
 21
9.000000188336228
 31
0.0
  0
ELLIPSE
  5
52DC
330
1F
100
AcDbEntity
  8
AM_0
100
AcDbEllipse
 10
-143.7446508145545
 20
29.80248631165808
 30
0.0
 11
-18.75430069418578
 21
17.23578114985729
 31
0.0
210
0.0
220
0.0
230
0.9999999999999998
 40
0.779756012026965
 41
2.036081237371452
 42
2.20034414280498
  0
SPLINE
  5
52DD
330
1F
100
AcDbEntity
  8
AM_0
100
AcDbSpline
210
0.0
220
0.0
230
1.0
 70
     8
 71
     3
 72
    13
 73
     9
 74
     0
 42
0.0000000001
 43
0.0000000001
 40
26.13201924531566
 40
26.13201924531566
 40
26.13201924531566
 40
26.13201924531566
 40
26.99048218457928
 40
28.09348763352352
 40
29.20111863782268
 40
30.31232390128032
 40
31.42594612798585
 40
32.5407912310448
 40
32.5407912310486
 40
32.5407912310486
 40
32.5407912310486
 10
-146.2263350356708
 20
3.467472155976512
 30
0.0
 10
-145.6580085517246
 20
3.238143594444135
 30
0.0
 10
-144.7536939602631
 20
2.861743868280793
 30
0.0
 10
-143.3456092094675
 20
2.259230358346917
 30
0.0
 10
-141.8284136426734
 20
1.593994561743419
 30
0.0
 10
-140.3115982997555
 20
0.9168318501955795
 30
0.0
 10
-138.7950396691271
 20
0.2316661982476042
 30
0.0
 10
-137.7842721467878
 20
-0.2276999069128545
 30
0.0
 10
-137.2786127430795
 20
-0.457512087553205
 30
0.0
  0
SPLINE
  5
52DE
330
1F
100
AcDbEntity
  8
AM_0
100
AcDbSpline
210
0.0
220
0.0
230
1.0
 70
     8
 71
     3
 72
    22
 73
    18
 74
     0
 42
0.0000000001
 43
0.0000000001
 40
30.51371389116273
 40
30.51371389116273
 40
30.51371389116273
 40
30.51371389116273
 40
31.16722880550176
 40
32.23537921050758
 40
33.29534548809967
 40
34.347168041821
 40
35.39108718934584
 40
36.42754827133493
 40
37.45720575381954
 40
38.48085062012849
 40
39.49948440763516
 40
40.51422944315121
 40
41.52631975251916
 40
42.53706336719636
 40
43.54780698187354
 40
44.55989729124051
 40
45.14939243453665
 40
45.14939243453665
 40
45.14939243453665
 40
45.14939243453665
 10
-110.0551628757621
 20
0.0266706654586157
 30
0.0
 10
-121.6099025758724
 20
4.739069787701165
 30
0.0
 10
-122.4304393663018
 20
5.009714263568504
 30
0.0
 10
-123.7641584277399
 20
5.42645069646559
 30
0.0
 10
-125.3006774734731
 20
5.870263706587018
 30
0.0
 10
-126.8373421922179
 20
6.275111443699159
 30
0.0
 10
-128.3741637894183
 20
6.638465059767649
 30
0.0
 10
-129.9111436293153
 20
6.958086949158095
 30
0.0
 10
-131.4482706942776
 20
7.231980558511623
 30
0.0
 10
-132.9855326833647
 20
7.458439703417648
 30
0.0
 10
-134.5229005438784
 20
7.636075423203455
 30
0.0
 10
-136.0603641707613
 20
7.763739836808331
 30
0.0
 10
-137.5978910570092
 20
7.840667083069967
 30
0.0
 10
-139.1354517294779
 20
7.866365930596463
 30
0.0
 10
-140.6730123996843
 20
7.840667083029825
 30
0.0
 10
-141.9952911776184
 20
7.774509368735899
 30
0.0
 10
-142.575338579917
 20
7.850907574543151
 30
0.0
 10
-143.5657361586795
 20
7.834104723358847
 30
0.0
  0
ELLIPSE
  5
52DF
330
1F
100
AcDbEntity
  8
AM_0
100
AcDbEllipse
 10
-147.642850681651
 20
-10.80203065356123
 30
0.0
 11
-0.0000000000011032
 21
4.457517393397327
 31
0.0
210
0.0
220
0.0
230
1.0
 40
0.9252796420580599
 41
0.0952766170357586
 42
0.2313492321874193
  0
ELLIPSE
  5
52E0
330
1F
100
AcDbEntity
  8
AM_0
100
AcDbEllipse
 10
-147.2791846297921
 20
-2.800029699473661
 30
0.0
 11
-0.0000000000107645
 21
4.559384379326854
 31
0.0
210
0.0
220
0.0
230
1.0
 40
0.9252796420588097
 41
2.827283645643253
 42
2.960363693368726
  0
ELLIPSE
  5
52E1
330
1F
100
AcDbEntity
  8
AM_0
100
AcDbEllipse
 10
-148.4391250440229
 20
-7.291213064832673
 30
0.0
 11
0.0000000000033518
 21
0.8435448618903189
 31
0.0
210
0.0
220
0.0
230
1.0
 40
0.925279642058933
 41
0.1926332863372666
 42
0.506111744201621
  0
ELLIPSE
  5
52E2
330
1F
100
AcDbEntity
  8
AM_0
100
AcDbEllipse
 10
-148.5650787601581
 20
-7.049409187584209
 30
0.0
 11
-0.0000000000070292
 21
0.5660667493112484
 31
0.0
210
0.0
220
0.0
230
1.0
 40
0.925279642057769
 41
0.5028645116534998
 42
0.8675868530565672
  0
ELLIPSE
  5
52E3
330
1F
100
AcDbEntity
  8
AM_0
100
AcDbEllipse
 10
-148.8495271090111
 20
-6.788092896489746
 30
0.0
 11
0.0000000000009635
 21
0.162592396754209
 31
0.0
210
0.0
220
0.0
230
1.0
 40
0.925279642057389
 41
0.8708229448584425
 42
1.557899568962251
  0
ELLIPSE
  5
52E4
330
1F
100
AcDbEntity
  8
AM_0
100
AcDbEllipse
 10
-148.8453842800551
 20
-6.786087213052521
 30
0.0
 11
-0.0000000000007908
 21
0.1670562805441065
 31
0.0
210
0.0
220
0.0
230
1.0
 40
0.9252796420574435
 41
1.57025056337441
 42
2.246594350015769
  0
ELLIPSE
  5
52E5
330
1F
100
AcDbEntity
  8
AM_0
100
AcDbEllipse
 10
-148.5270673218243
 20
-6.507449144031425
 30
0.0
 11
0.0000000000021867
 21
0.6097630481071338
 31
0.0
210
0.0
220
0.0
230
1.0
 40
0.9252796420580853
 41
2.250206732579732
 42
2.600849383085858
  0
ELLIPSE
  5
52E6
330
1F
100
AcDbEntity
  8
AM_0
100
AcDbEllipse
 10
-148.3701692172492
 20
-6.229896724514235
 30
0.0
 11
0.0000000000013834
 21
0.9350086248091242
 31
0.0
210
0.0
220
0.0
230
1.0
 40
0.9252796420579416
 41
2.598176912239432
 42
2.892513815370447
  0
ELLIPSE
  5
52E7
330
1F
100
AcDbEntity
  8
AM_0
100
AcDbEllipse
 10
-147.9691659362858
 20
-7.834987457531425
 30
0.0
 11
-0.0000000000000352
 21
1.471989749888853
 31
0.0
210
0.0
220
0.0
230
1.0
 40
0.9252796420583276
 41
-0.1305094391969999
 42
0.0485168534968497
  0
ELLIPSE
  5
52E8
330
1F
100
AcDbEntity
  8
AM_0
100
AcDbEllipse
 10
-147.8965425607619
 20
-5.852678944558711
 30
0.0
 11
-2.597984374811806
 21
0.1871580450182808
 31
0.0
210
0.0
220
0.0
230
1.0
 40
0.552385468064569
 41
1.555536188651554
 42
1.649397627744852
  0
SPLINE
  5
52E9
330
1F
100
AcDbEntity
  8
AM_0
100
AcDbSpline
210
0.0
220
0.0
230
1.0
 70
     8
 71
     3
 72
     9
 73
     5
 74
     0
 42
0.0000000001
 43
0.0000000001
 40
1.580019955310467
 40
1.580019955310467
 40
1.580019955310467
 40
1.580019955310467
 40
2.030549285115227
 40
2.43907978603305
 40
2.43907978603305
 40
2.43907978603305
 40
2.43907978603305
 10
-146.0829004430531
 20
-6.843058765061739
 30
0.0
 10
-146.3004350182439
 20
-6.906267443394588
 30
0.0
 10
-146.7159342159269
 20
-7.024732114964398
 30
0.0
 10
-147.1331704478722
 20
-7.138148050897195
 30
0.0
 10
-147.3319341786892
 20
-7.191031508088368
 30
0.0
  0
SPLINE
  5
52EA
330
1F
100
AcDbEntity
  8
AM_0
100
AcDbSpline
210
0.0
220
0.0
230
1.0
 70
     8
 71
     3
 72
    14
 73
    10
 74
     0
 42
0.0000000001
 43
0.0000000001
 40
4.826907296497788
 40
4.826907296497788
 40
4.826907296497788
 40
4.826907296497788
 40
5.079857003664532
 40
6.109500240690281
 40
7.145961322679372
 40
8.189895241603872
 40
9.241717795325891
 40
10.30168407291828
 40
10.55450228288433
 40
10.55450228288433
 40
10.55450228288433
 40
10.55450228288433
 10
-134.1299453764836
 20
-8.973963945392043
 30
0.0
 10
-134.5125802836611
 20
-8.940165079803783
 30
0.0
 10
-136.6343723606475
 20
-8.829090071272869
 30
0.0
 10
-140.8261089577916
 20
-8.120631509229506
 30
0.0
 10
-142.3630893678285
 20
-7.801016046903944
 30
0.0
 10
-143.899920468554
 20
-7.437667189798949
 30
0.0
 10
-145.4365917913476
 20
-7.032815877854899
 30
0.0
 10
-146.5791495132367
 20
-6.702796270819057
 30
0.0
 10
-147.2104649372751
 20
-6.511274244869745
 30
0.0
 10
-147.4878553910748
 20
-6.441354897772991
 30
0.0
  0
ELLIPSE
  5
52EB
330
1F
100
AcDbEntity
  8
AM_0
100
AcDbEllipse
 10
-148.0730553062344
 20
-8.745060240820583
 30
0.0
 11
0.0000000000009816
 21
2.388945502439823
 31
0.0
210
0.0
220
0.0
230
1.0
 40
0.9252796420579917
 41
-0.2679377313996452
 42
-0.1275323195057896
  0
ELLIPSE
  5
52EC
330
1F
100
AcDbEntity
  8
AM_0
100
AcDbEllipse
 10
-147.6851812484853
 20
-5.190288535938197
 30
0.0
 11
-0.0000000000005039
 21
2.110767833130339
 31
0.0
210
0.0
220
0.0
230
1.0
 40
0.9777777777776842
 41
3.08806023664918
 42
3.196956952929068
  0
SPLINE
  5
52ED
330
1F
100
AcDbEntity
  8
AM_0
100
AcDbSpline
210
0.0
220
0.0
230
1.0
 70
     8
 71
     3
 72
    17
 73
    13
 74
     0
 42
0.0000000001
 43
0.0000000001
 40
4.004329625082316
 40
4.004329625082316
 40
4.004329625082316
 40
4.004329625082316
 40
4.232934581347659
 40
5.09097061220244
 40
5.954688180526682
 40
6.824620803463244
 40
7.701151815239697
 40
8.58445704656667
 40
9.47458238407075
 40
10.37139106676736
 40
11.27458944007584
 40
12.17321262433756
 40
12.17321262433756
 40
12.17321262433756
 40
12.17321262433756
 10
-130.4625757984614
 20
-8.973931188231969
 30
0.0
 10
-130.6589312042517
 20
-8.942453542750328
 30
0.0
 10
-131.3100693242845
 20
-8.837986550508198
 30
0.0
 10
-132.4744084877467
 20
-8.628204363102083
 30
0.0
 10
-134.0113821849811
 20
-8.304936745490003
 30
0.0
 10
-135.5482099521671
 20
-7.937453997989136
 30
0.0
 10
-141.1325512944838
 20
-6.858035802107597
 30
0.0
 10
-142.6690765941648
 20
-6.409175099657628
 30
0.0
 10
-144.2054480630298
 20
-5.9236630063781
 30
0.0
 10
-145.7416903837084
 20
-5.404515448195516
 30
0.0
 10
-147.2718455878518
 20
-4.857058208649849
 30
0.0
 10
-148.2868361087837
 20
-4.476117428873006
 30
0.0
 10
-148.9999580325517
 20
-4.282875776008257
 30
0.0
  0
ELLIPSE
  5
52EE
330
1F
100
AcDbEntity
  8
AM_0
100
AcDbEllipse
 10
-146.7771148940063
 20
-9.257261556524198
 30
0.0
 11
1.882473934489174
 21
1.638809143833727
 31
0.0
210
0.0
220
0.0
230
0.9999999999999998
 40
0.8313320302303392
 41
1.185412737125694
 42
2.219372615341487
  0
SPLINE
  5
52EF
330
1F
100
AcDbEntity
  8
AM_0
100
AcDbSpline
210
0.0
220
0.0
230
1.0
 70
     8
 71
     3
 72
    15
 73
    11
 74
     0
 42
0.0000000001
 43
0.0000000001
 40
5.241236682593577
 40
5.241236682593577
 40
5.241236682593577
 40
5.241236682593577
 40
5.954688180526682
 40
6.824620803463244
 40
7.701151815239697
 40
8.58445704656667
 40
9.47458238407075
 40
10.37139106676736
 40
11.27458944007584
 40
12.17321262433756
 40
12.17321262433756
 40
12.17321262433756
 40
12.17321262433756
 10
-136.7850732766591
 20
-0.6672742028234146
 30
0.0
 10
-137.2090966871468
 20
-0.7522441789181764
 30
0.0
 10
-138.1475224903884
 20
-0.951947215059399
 30
0.0
 10
-139.5958762967725
 20
-1.298274271016899
 30
0.0
 10
-141.1325512944836
 20
-1.707715749937676
 30
0.0
 10
-142.6690765941645
 20
-2.156576452387516
 30
0.0
 10
-144.2054480630295
 20
-2.642088545666961
 30
0.0
 10
-145.7416903837082
 20
-3.161236103849395
 30
0.0
 10
-147.2718455878518
 20
-3.708693343394951
 30
0.0
 10
-148.2868361087836
 20
-4.089634123171702
 30
0.0
 10
-148.9999580325517
 20
-4.282875776036409
 30
0.0
  0
SPLINE
  5
52F0
330
1F
100
AcDbEntity
  8
AM_0
100
AcDbSpline
210
0.0
220
0.0
230
1.0
 70
     8
 71
     3
 72
    21
 73
    17
 74
     0
 42
0.0000000001
 43
0.0000000001
 40
17.52103074144743
 40
17.52103074144743
 40
17.52103074144743
 40
17.52103074144743
 40
18.41823744757437
 40
19.46215659509824
 40
20.51397914882054
 40
21.57394542641293
 40
22.64209583141747
 40
23.71826625065247
 40
24.80210429862395
 40
25.8930771157021
 40
26.99048705697709
 40
28.09349309193389
 40
29.20112995599786
 40
30.31233024745139
 40
31.42594771747373
 40
32.5407895042663
 40
32.54078950426994
 40
32.54078950426994
 40
32.54078950426994
 10
-112.2578921154153
 20
-8.973787098212611
 30
0.0
 10
-115.3995262416443
 20
-8.16450613319332
 30
0.0
 10
-117.3774973325651
 20
-7.537758658058129
 30
0.0
 10
-118.8459932800996
 20
-7.190558356488138
 30
0.0
 10
-120.382658058671
 20
-6.785710902829162
 30
0.0
 10
-121.9191770871371
 20
-6.341897813686468
 30
0.0
 10
-123.4555483358633
 20
-5.861840319482386
 30
0.0
 10
-124.991790715798
 20
-5.348526039835285
 30
0.0
 10
-126.5279113401753
 20
-4.805109639148732
 30
0.0
 10
-128.0639244217638
 20
-4.234942336589905
 30
0.0
 10
-129.5998470400549
 20
-3.641541703265624
 30
0.0
 10
-131.1356925259305
 20
-3.028556577615086
 30
0.0
 10
-132.6714763401585
 20
-2.399758147713326
 30
0.0
 10
-134.2072120961258
 20
-1.759012812145368
 30
0.0
 10
-135.7429225444217
 20
-1.110274315959626
 30
0.0
 10
-136.7665285489056
 20
-0.6751791676910343
 30
0.0
 10
-137.2786127430865
 20
-0.4575120875502329
 30
0.0
  0
SPLINE
  5
52F1
330
1F
100
AcDbEntity
  8
AM_0
100
AcDbSpline
210
0.0
220
0.0
230
1.0
 70
     8
 71
     3
 72
    55
 73
    51
 74
     0
 42
0.0000000001
 43
0.0000000001
 40
0.0
 40
0.0
 40
0.0
 40
0.0
 40
1.010743684496582
 40
2.022833576467832
 40
3.037578957496688
 40
4.056212745003489
 40
5.079857003664532
 40
6.109500240690281
 40
7.145961322679372
 40
8.189895241603872
 40
9.241717795325891
 40
10.30168407291828
 40
11.36983447792315
 40
12.44600489715814
 40
13.52984294512926
 40
14.62081576220742
 40
15.7182257034828
 40
16.82123173843959
 40
17.92886860250316
 40
19.0400688939571
 40
20.15368796660465
 40
21.26852814259644
 40
22.38336992938901
 40
23.49698739941135
 40
24.6081876908653
 40
25.71582455492886
 40
26.81883757994213
 40
27.91624752121713
 40
29.00722033829659
 40
30.09105838626677
 40
31.16722880550176
 40
32.23537921050758
 40
33.29534548809967
 40
34.347168041821
 40
35.39108718934584
 40
36.42754827133493
 40
37.45720575381954
 40
38.48085062012849
 40
39.49948440763516
 40
40.51422944315121
 40
41.52631975251916
 40
42.53706336719636
 40
43.54780698187354
 40
44.55989729124051
 40
45.57464232675757
 40
46.59327611426424
 40
47.6169209805722
 40
48.64656348684535
 40
49.68302456883444
 40
50.55588158215162
 40
50.55588158215162
 40
50.55588158215162
 40
50.55588158215162
 10
-55.81085736494145
 20
-8.999999811668011
 30
0.0
 10
-56.24535587411058
 20
-8.994645029706292
 30
0.0
 10
-57.11493160013685
 20
-8.983928333759614
 30
0.0
 10
-58.41897873399468
 20
-8.897539733428502
 30
0.0
 10
-59.72297020299723
 20
-8.76020442612222
 30
0.0
 10
-61.02688096773007
 20
-8.567723769677485
 30
0.0
 10
-62.33069801721631
 20
-8.322706246024379
 30
0.0
 10
-63.63439563006074
 20
-8.02624140904437
 30
0.0
 10
-64.93797816707391
 20
-7.6803263515484
 30
0.0
 10
-66.24143406811343
 20
-7.287079291840904
 30
0.0
 10
-67.54475445426905
 20
-6.848914743012554
 30
0.0
 10
-68.84794582187225
 20
-6.368583018642713
 30
0.0
 10
-70.15101166112946
 20
-5.849023781813893
 30
0.0
 10
-71.45396825280451
 20
-5.293471420752396
 30
0.0
 10
-72.75682156231816
 20
-4.705339923747566
 30
0.0
 10
-74.0595836706876
 20
-4.088256355908755
 30
0.0
 10
-75.36226902572085
 20
-3.446027630055715
 30
0.0
 10
-76.66488906047994
 20
-2.782603148991716
 30
0.0
 10
-77.96745641704098
 20
-2.10206323135378
 30
0.0
 10
-79.26998503342824
 20
-1.408596519482789
 30
0.0
 10
-80.57248633405752
 20
-0.7064661617334868
 30
0.0
 10
-81.87497871226467
 20
-0.0000016479928102
 30
0.0
 10
-83.17746524337083
 20
0.7064755825493887
 30
0.0
 10
-84.4799709097006
 20
1.408595006271843
 30
0.0
 10
-85.78249791809884
 20
2.102063817227088
 30
0.0
 10
-87.0850675971231
 20
2.782606327418783
 30
0.0
 10
-88.38769303577494
 20
3.446025146701771
 30
0.0
 10
-89.69038044678972
 20
4.088257129548028
 30
0.0
 10
-90.99314274323464
 20
4.705340196995693
 30
0.0
 10
-92.29599600534166
 20
5.293471817682363
 30
0.0
 10
-93.59895260035314
 20
5.849024179556518
 30
0.0
 10
-94.90201847280047
 20
6.368583292150878
 30
0.0
 10
-96.20520970590007
 20
6.848915506983603
 30
0.0
 10
-97.50852449086341
 20
7.287076186824601
 30
0.0
 10
-98.81197233153379
 20
7.680328397087453
 30
0.0
 10
-100.1155543849855
 20
8.026250410500065
 30
0.0
 10
-101.4192613066678
 20
8.322681387080297
 30
0.0
 10
-102.7230826635971
 20
8.567774748836567
 30
0.0
 10
-104.0269938148674
 20
8.760027244307069
 30
0.0
 10
-105.3309861899228
 20
8.898196538905676
 30
0.0
 10
-106.6350322181041
 20
8.981453752496014
 30
0.0
 10
-107.9391069019059
 20
9.009267232654408
 30
0.0
 10
-109.2431815837891
 20
8.98145375245261
 30
0.0
 10
-110.5472276177379
 20
8.898196539081023
 30
0.0
 10
-111.8512199715592
 20
8.760027243648353
 30
0.0
 10
-113.1551312024416
 20
8.567774751314882
 30
0.0
 10
-114.4589459037015
 20
8.322682572634782
 30
0.0
 10
-115.7626476892748
 20
8.026253441347774
 30
0.0
 10
-116.9945138653091
 20
7.699333746765359
 30
0.0
 10
-117.9894495659151
 20
7.461925934610773
 30
0.0
 10
-123.1169151138547
 20
5.222624687652665
 30
0.0
  0
SPLINE
  5
52F2
330
1F
100
AcDbEntity
  8
AM_0
100
AcDbSpline
210
0.0
220
0.0
230
1.0
 70
     8
 71
     3
 72
    22
 73
    18
 74
     0
 42
0.0000000001
 43
0.0000000001
 40
17.17441611292
 40
17.17441611292
 40
17.17441611292
 40
17.17441611292
 40
17.38177636558528
 40
18.41823744757437
 40
19.46215659509824
 40
20.51397914882054
 40
21.57394542641293
 40
22.64209583141747
 40
23.71826625065247
 40
24.80210429862395
 40
25.8930771157021
 40
26.99048705697709
 40
28.09349309193389
 40
29.20112995599786
 40
30.31233024745139
 40
31.42594771747373
 40
32.5407895042663
 40
32.54078950426994
 40
32.54078950426994
 40
32.54078950426994
 10
-91.5493444704197
 20
-8.055395258640716
 30
0.0
 10
-91.63666532369285
 20
-8.034561141376636
 30
0.0
 10
-92.16010615037017
 20
-7.907658255895986
 30
0.0
 10
-93.11902024906983
 20
-7.653201453729023
 30
0.0
 10
-94.42246790335465
 20
-7.259948113649456
 30
0.0
 10
-95.72578273905957
 20
-6.821787740585611
 30
0.0
 10
-97.02897395751428
 20
-6.341455440229367
 30
0.0
 10
-98.33203983729383
 20
-5.821896359762126
 30
0.0
 10
-99.63499641762819
 20
-5.266343955427085
 30
0.0
 10
-100.9378497315725
 20
-4.678212473551915
 30
0.0
 10
-102.2406118336182
 20
-4.061128888759455
 30
0.0
 10
-103.5432972096535
 20
-3.418900215900613
 30
0.0
 10
-104.8459171662019
 20
-2.755475538506278
 30
0.0
 10
-106.1484848162391
 20
-2.074936357297071
 30
0.0
 10
-107.4510117058939
 20
-1.381467217911381
 30
0.0
 10
-108.7535171309691
 20
-0.6793471997648294
 30
0.0
 10
-109.6216836368747
 20
-0.208450197052738
 30
0.0
 10
-110.0560053814171
 20
0.027127643875342
 30
0.0
  0
SPLINE
  5
52F3
330
1F
100
AcDbEntity
  8
AM_0
100
AcDbSpline
210
0.0
220
0.0
230
1.0
 70
     8
 71
     3
 72
    46
 73
    42
 74
     0
 42
0.0000000001
 43
0.0000000001
 40
0.0
 40
0.0
 40
0.0
 40
0.0
 40
1.348332046947654
 40
2.024828967632893
 40
2.703918159304094
 40
3.386347665078122
 40
4.072776489761951
 40
4.763750544421345
 40
5.459696642770595
 40
6.160921452191748
 40
6.867565637253344
 40
7.579665907256597
 40
8.297112853413899
 40
9.019671552060666
 40
9.746986763446125
 40
10.47859339096365
 40
11.21393074760088
 40
11.95235532364327
 40
12.69315551794651
 40
13.43556823304427
 40
14.1787950170388
 40
14.92202180103393
 40
15.66443451613169
 40
16.40523471043432
 40
17.14365928647669
 40
17.87899664311455
 40
18.61060327063121
 40
19.33791848201689
 40
20.06048192311554
 40
20.77792886927282
 40
21.49002913927608
 40
22.19667332433747
 40
22.89788836015233
 40
23.59383445850157
 40
24.28480851316097
 40
24.97123685067575
 40
25.65366676154837
 40
26.33276604526151
 40
27.00926273560554
 40
27.68398960851752
 40
28.35781868496899
 40
28.35781868496899
 40
28.35781868496899
 40
28.35781868496899
 10
-52.16041148212324
 20
-8.999999811668297
 30
0.0
 10
-53.03002969423366
 20
-8.979497115960008
 30
0.0
 10
-54.3359603443643
 20
-8.94870762884612
 30
0.0
 10
-56.07251327917622
 20
-8.759142413016164
 30
0.0
 10
-57.37643805307736
 20
-8.568010248876831
 30
0.0
 10
-58.68025137245081
 20
-8.322629016955843
 30
0.0
 10
-59.98394980260589
 20
-8.026261640373348
 30
0.0
 10
-61.28752664618801
 20
-7.680325007670886
 30
0.0
 10
-62.59097971990185
 20
-7.287072676411253
 30
0.0
 10
-63.89430322292096
 20
-6.848919274122187
 30
0.0
 10
-65.1974997602763
 20
-6.368582390691068
 30
0.0
 10
-66.50056582676549
 20
-5.8490239520014
 30
0.0
 10
-67.80352235684208
 20
-5.293471374604407
 30
0.0
 10
-69.10637568313518
 20
-4.705339936431044
 30
0.0
 10
-70.40913778659644
 20
-4.088256351753204
 30
0.0
 10
-71.71182314434012
 20
-3.446027633910907
 30
0.0
 10
-73.01444317316644
 20
-2.782603137683079
 30
0.0
 10
-74.31701055085527
 20
-2.102063272948312
 30
0.0
 10
-75.61953908833399
 20
-1.408596363805337
 30
0.0
 10
-76.92204068428591
 20
-0.7064667442808477
 30
0.0
 10
-78.22453133117943
 20
0.0000001881908809
 30
0.0
 10
-79.5270219777868
 20
0.7064671215211055
 30
0.0
 10
-80.82952357459699
 20
1.40859673847135
 30
0.0
 10
-82.13205210893864
 20
2.102063657022044
 30
0.0
 10
-83.43461949826014
 20
2.782603486867001
 30
0.0
 10
-84.73723948395365
 20
3.446028112462704
 30
0.0
 10
-86.03992500143288
 20
4.088256351210325
 30
0.0
 10
-87.34268934618327
 20
4.705343049577126
 30
0.0
 10
-88.64554773473596
 20
5.293469144278215
 30
0.0
 10
-89.94850658908731
 20
5.849024570358568
 30
0.0
 10
-91.25157262523746
 20
6.368583163644508
 30
0.0
 10
-92.55476380920951
 20
6.848915633190174
 30
0.0
 10
-93.85807862845215
 20
7.287075813341205
 30
0.0
 10
-95.16152638155803
 20
7.680329751079653
 30
0.0
 10
-96.46510247069835
 20
8.026243750791461
 30
0.0
 10
-97.76880185664527
 20
8.322697085591842
 30
0.0
 10
-99.07262349705584
 20
8.567727909967191
 30
0.0
 10
-100.3765415521632
 20
8.760205608935756
 30
0.0
 10
-101.680540280046
 20
8.897528312021051
 30
0.0
 10
-102.9845863421127
 20
8.983940224401738
 30
0.0
 10
-103.8541624323082
 20
8.994649243522022
 30
0.0
 10
-104.2886610187682
 20
9.000000188335937
 30
0.0
  0
LINE
  5
52F4
330
1F
100
AcDbEntity
  8
AM_0
100
AcDbLine
 10
-107.9392761242002
 20
9.000000188336228
 30
0.0
 11
-77.19162612897453
 21
9.001278801666982
 31
0.0
  0
DIMENSION
  5
5322
330
1F
100
AcDbEntity
  8
AM_5
100
AcDbDimension
  2
*D8
 10
14.55592102493906
 20
-8.999999811666961
 30
0.0
 11
11.15592102493906
 21
0.0000001883304707
 31
0.0
 70
    32
  1
%%c<>
 51
359.9999999999998
  3
AM_JIS$0
100
AcDbAlignedDimension
 13
-2.999999999916955
 23
9.000000188327902
 33
0.0
 14
-2.999999999916894
 24
-8.999999811666956
 34
0.0
 50
89.9999999999955
100
AcDbRotatedDimension
1001
ACAD
1000
DSTYLE
1002
{
1070
   271
1070
     0
1002
}
1001
GENIUS_GENDTOL_13
1000

1000
h7
1000

1040
0.0
  0
ELLIPSE
  5
54E5
330
1F
100
AcDbEntity
  8
AM_0
 48
0.5
100
AcDbEllipse
 10
9.922192517926921
 20
-8.013536276101064
 30
0.0
 11
-8.406731997357356
 21
-8.936799683791138
 31
0.0
210
0.0
220
0.0
230
-0.9999999999999998
 40
0.9973519014804205
 41
0.9986944468197741
 42
1.334517207363391
  0
LINE
  5
54EA
330
1F
100
AcDbEntity
  8
AM_0
100
AcDbLine
 10
-0.7112011795483797
 20
-1.954009120923116
 30
0.0
 11
0.0000000001242303
 21
0.0000000236310521
 31
0.0
  0
DIMENSION
  5
55A9
330
1F
100
AcDbEntity
  8
AM_5
100
AcDbDimension
  2
*D9
 10
0.0000000001242303
 20
0.000000023631052
 30
0.0
 11
22.53469543784671
 21
-0.0000000047521391
 31
0.0
 70
    34
  1
<>
 51
359.9999999999998
  3
AM_JIS$2
100
AcDb2LineAngularDimension
 13
0.0000000001242303
 23
0.0000000236310521
 33
0.0
 14
-0.7112011795483891
 24
1.954009181648563
 34
0.0
 15
-0.7112011795483797
 25
-1.954009120923116
 35
0.0
 16
23.53819027426199
 26
10.15338412959672
 36
0.0
1001
GENIUS_GENDTOL_13
1000

1000
h7
1000

1040
0.0
1001
ACAD
1000
DSTYLE
1002
{
1070
   271
1070
     0
1002
}
  0
ELLIPSE
  5
56A2
330
1F
100
AcDbEntity
  8
AM_11
 48
0.5
100
AcDbEllipse
 10
4.990074636554381
 20
35.77744790639422
 30
0.0
 11
-39.9569892883295
 21
0.0000000000005525
 31
0.0
210
0.0
220
0.0
230
1.0
 40
0.9899999999999995
 41
1.130070686340335
 42
1.247868474200389
  0
ELLIPSE
  5
56A3
330
1F
100
AcDbEntity
  8
AM_11
 48
0.5
100
AcDbEllipse
 10
-29.10079418310083
 20
-35.7774115234984
 30
0.0
 11
-39.95698928832947
 21
0.000000000001493
 31
0.0
210
0.0
220
0.0
230
1.0
 40
0.9900000000000009
 41
4.271664206181739
 42
5.153113667165048
  0
ELLIPSE
  5
56A4
330
1F
100
AcDbEntity
  8
AM_11
 48
0.5
100
AcDbEllipse
 10
-29.10079418310193
 20
35.77743962701396
 30
0.0
 11
-39.9569892883295
 21
0.0000000000005525
 31
0.0
210
0.0
220
0.0
230
1.0
 40
0.9899999999999995
 41
1.130070686340335
 42
2.011520147323624
  0
ELLIPSE
  5
56A5
330
1F
100
AcDbEntity
  8
AM_11
 48
0.5
100
AcDbEllipse
 10
-63.19170327401107
 20
35.7774396270134
 30
0.0
 11
-39.9569892883295
 21
-0.0000000000005742
 31
0.0
210
0.0
220
0.0
230
1.0
 40
0.99
 41
1.130070686340306
 42
2.011520147323597
  0
ELLIPSE
  5
56A6
330
1F
100
AcDbEntity
  8
AM_11
 48
0.5
100
AcDbEllipse
 10
-63.19170327400992
 20
-35.77741152349899
 30
0.0
 11
-39.95698928832939
 21
0.0000000000011203
 31
0.0
210
0.0
220
0.0
230
1.0
 40
0.9900000000000032
 41
4.271664206181728
 42
5.153113667165039
  0
ELLIPSE
  5
56A7
330
1F
100
AcDbEntity
  8
AM_11
 48
0.5
100
AcDbEllipse
 10
-97.28252972634534
 20
35.77743962701346
 30
0.0
 11
-39.9569892883295
 21
0.0000000000005525
 31
0.0
210
0.0
220
0.0
230
1.0
 40
0.9899999999999995
 41
1.130070686340335
 42
2.011520147323624
  0
ELLIPSE
  5
56A8
330
1F
100
AcDbEntity
  8
AM_11
 48
0.5
100
AcDbEllipse
 10
-97.28252972634427
 20
-35.7774115234989
 30
0.0
 11
-39.95698928832947
 21
0.000000000001493
 31
0.0
210
0.0
220
0.0
230
1.0
 40
0.9900000000000009
 41
4.271664206181739
 42
5.153113667165048
  0
ELLIPSE
  5
56A9
330
1F
100
AcDbEntity
  8
AM_11
 48
0.5
100
AcDbEllipse
 10
-131.3734388172533
 20
-35.77741152349949
 30
0.0
 11
-39.95698928832939
 21
0.0000000000011203
 31
0.0
210
0.0
220
0.0
230
1.0
 40
0.9900000000000032
 41
4.271664206181728
 42
5.153113667165039
  0
ELLIPSE
  5
56AA
330
1F
100
AcDbEntity
  8
AM_11
 48
0.5
100
AcDbEllipse
 10
-131.3734388172545
 20
35.77743962701289
 30
0.0
 11
-39.9569892883295
 21
-0.0000000000005742
 31
0.0
210
0.0
220
0.0
230
1.0
 40
0.99
 41
1.130070686340306
 42
2.011520147323597
  0
ELLIPSE
  5
56AB
330
1F
100
AcDbEntity
  8
AM_11
 48
0.5
100
AcDbEllipse
 10
-165.4642953187004
 20
35.77745365837267
 30
0.0
 11
-39.9569892883295
 21
0.0000000000005525
 31
0.0
210
0.0
220
0.0
230
1.0
 40
0.9899999999999995
 41
1.130070686340335
 42
2.011520147323624
  0
ELLIPSE
  5
56AC
330
1F
100
AcDbEntity
  8
AM_11
 48
0.5
100
AcDbEllipse
 10
-199.5552044096084
 20
-35.77739749214028
 30
0.0
 11
-39.95698928832939
 21
0.0000000000011203
 31
0.0
210
0.0
220
0.0
230
1.0
 40
0.9900000000000032
 41
4.271664206181728
 42
5.153113667165039
  0
ELLIPSE
  5
56AD
330
1F
100
AcDbEntity
  8
AM_11
 48
0.5
100
AcDbEllipse
 10
-199.5552044096096
 20
35.77745365837211
 30
0.0
 11
-39.9569892883295
 21
-0.0000000000005742
 31
0.0
210
0.0
220
0.0
230
1.0
 40
0.99
 41
1.130070686340306
 42
2.011520147323597
  0
ELLIPSE
  5
56AE
330
1F
100
AcDbEntity
  8
AM_11
 48
0.5
100
AcDbEllipse
 10
-165.4642953186993
 20
-35.7773974921397
 30
0.0
 11
-39.95698928832947
 21
0.000000000001493
 31
0.0
210
0.0
220
0.0
230
1.0
 40
0.9900000000000009
 41
4.271664206181739
 42
5.153113667165048
  0
ELLIPSE
  5
56AF
330
1F
100
AcDbEntity
  8
AM_11
 48
0.5
100
AcDbEllipse
 10
-233.5453849750367
 20
-35.73054231439409
 30
0.0
 11
-39.95698928832939
 21
0.0000000000011203
 31
0.0
210
0.0
220
0.0
230
1.0
 40
0.9900000000000032
 41
4.271664206181728
 42
4.285457273532417
  0
ELLIPSE
  5
56B0
330
1F
100
AcDbEntity
  8
AM_11
 48
0.5
100
AcDbEllipse
 10
-233.5453849750378
 20
35.82430883611829
 30
0.0
 11
-39.9569892883295
 21
-0.0000000000005742
 31
0.0
210
0.0
220
0.0
230
1.0
 40
0.99
 41
1.997728033647213
 42
2.011520147323597
  0
VIEWPORT
  5
110
330
101
100
AcDbEntity
 67
     1
  8
0
100
AcDbViewport
 10
420.5
 20
297.0
 30
0.0
 40
948.9782706766916
 41
628.452
 68
     1
 69
     1
1001
ACAD
1000
MVIEW
1002
{
1070
    16
1010
0.0
1020
0.0
1030
0.0
1010
0.0
1020
0.0
1030
1.0
1040
0.0
1040
628.452
1040
420.5
1040
297.0
1040
50.0
1040
0.0
1040
0.0
1070
     0
1070
   100
1070
     1
1070
     1
1070
     0
1070
     0
1070
     0
1070
     0
1040
0.0
1040
0.0
1040
0.0
1040
10.0
1040
10.0
1040
10.0
1040
10.0
1070
     0
1002
{
1002
}
1002
}
  0
ENDSEC
  0
SECTION
  2
OBJECTS
  0
DICTIONARY
  5
C
330
0
100
AcDbDictionary
  3
ACAD_GROUP
350
D
  3
ACAD_LAYOUT
350
1A
  3
ACAD_MLINESTYLE
350
17
  3
ACAD_PLOTSETTINGS
350
19
  3
ACAD_PLOTSTYLENAME
350
E
  3
ACDBVARIABLEDICTIONARY
350
34
  3
ACMDICTIONARY
350
43
  3
AMG
350
2B
  3
AMGSNAPSETTINGS
350
6E
  3
DWGPROPS
350
56CB
  3
ACDBHEADERROUNDTRIPXREC
350
56D8
  0
DICTIONARY
  5
74
330
1F
100
AcDbDictionary
280
     1
  3
ACAD_INDEX
360
56CD
  3
ACAD_LAYOUTSELFREF
360
56FB
  0
DICTIONARY
  5
5700
330
101
100
AcDbDictionary
280
     1
  3
ACAD_LAYOUTSELFREF
360
5701
  0
DICTIONARY
  5
D
102
{ACAD_REACTORS
330
C
102
}
330
C
100
AcDbDictionary
  0
DICTIONARY
  5
1A
102
{ACAD_REACTORS
330
C
102
}
330
C
100
AcDbDictionary
  0
DICTIONARY
  5
17
102
{ACAD_REACTORS
330
C
102
}
330
C
100
AcDbDictionary
  3
STANDARD
350
18
  0
DICTIONARY
  5
19
102
{ACAD_REACTORS
330
C
102
}
330
C
100
AcDbDictionary
  0
ACDBDICTIONARYWDFLT
  5
E
102
{ACAD_REACTORS
330
C
102
}
330
C
100
AcDbDictionary
281
     1
  3
Normal
350
F
100
AcDbDictionaryWithDefault
340
F
  0
DICTIONARY
  5
34
102
{ACAD_REACTORS
330
C
102
}
330
C
100
AcDbDictionary
  3
INDEXCTL
350
35
  3
SORTENTS
350
B5E
  0
DICTIONARY
  5
43
102
{ACAD_REACTORS
330
C
102
}
330
C
100
AcDbDictionary
  3
ACMSTDDICTIONARY
350
260
  0
DICTIONARY
  5
2B
102
{ACAD_REACTORS
330
C
102
}
330
C
100
AcDbDictionary
  3
ACMGSETTINGS
350
2C
  0
DICTIONARY
  5
6E
102
{ACAD_REACTORS
330
C
102
}
330
C
100
AcDbDictionary
  0
XRECORD
  5
56CB
102
{ACAD_REACTORS
330
C
102
}
330
C
100
AcDbXrecord
  1
DWGPROPS COOKIE
  2

  3

  4

  6

  7

  8

  9

300
AmdtFileType=82
301
=
302
=
303
=
304
=
305
=
306
=
307
=
308
=
309
=
 40
0.1316928819444445
 41
2452800.443498622
 42
2452948.674084919
  1

 90
        1
  0
DICTIONARY
  5
56D8
102
{ACAD_REACTORS
330
C
102
}
330
C
100
AcDbDictionary
  3
TSTACKALIGN
350
56D9
  3
TSTACKSIZE
350
56DA
  3
HYPERLINKBASE
350
56DB
  3
STYLESHEET
350
56DC
  3
LAYOUTDICT
350
56DD
  3
PLOTSETDICT
350
56DE
  3
PLOTSTYLNAMDICT
350
56DF
  3
LWETCUNION
350
56E0
  3
INSUNITS
350
56E1
  3
CEPSNTYPE
350
56E2
  3
FINGERPRINTGUID
350
56E3
  3
VERSIONGUID
350
56E4
  3
PSVPSCALE
350
56E5
  3
DIMSTYLEDATA
350
56E6
  3
PUCSORTHOREF
350
56E7
  3
PUCSORTHOVIEW
350
56E8
  3
PUCSBASE
350
56E9
  3
PUCSORGTOP
350
56EA
  3
PUCSORGBOTTOM
350
56EB
  3
PUCSORGLEFT
350
56EC
  3
PUCSORGRIGHT
350
56ED
  3
PUCSORGFRONT
350
56EE
  3
PUCSORGBACK
350
56EF
  3
UCSORTHOREF
350
56F0
  3
UCSORTHOVIEW
350
56F1
  3
UCSBASE
350
56F2
  3
UCSORGTOP
350
56F3
  3
UCSORGBOTTOM
350
56F4
  3
UCSORGLEFT
350
56F5
  3
UCSORGRIGHT
350
56F6
  3
UCSORGFRONT
350
56F7
  3
UCSORGBACK
350
56F8
  0
DICTIONARY
  5
56CD
102
{ACAD_REACTORS
330
74
102
}
330
74
100
AcDbDictionary
  3
*A1
350
56CE
  0
XRECORD
  5
56FB
102
{ACAD_REACTORS
330
74
102
}
330
74
100
AcDbXrecord
340
1F
  0
XRECORD
  5
5701
102
{ACAD_REACTORS
330
5700
102
}
330
5700
100
AcDbXrecord
340
101
  0
MLINESTYLE
  5
18
102
{ACAD_REACTORS
330
17
102
}
330
17
100
AcDbMlineStyle
  2
STANDARD
 70
     0
  3

 62
   256
 51
90.0
 52
90.0
 71
     2
 49
0.5
 62
   256
  6
BYLAYER
 49
-0.5
 62
   256
  6
BYLAYER
  0
ACDBPLACEHOLDER
  5
F
102
{ACAD_REACTORS
330
E
102
}
330
E
100
AcDbPlaceHolder
280
     0
  0
DICTIONARYVAR
  5
35
102
{ACAD_REACTORS
330
34
102
}
330
34
100
DictionaryVariables
280
     0
  1
1
  0
DICTIONARYVAR
  5
B5E
102
{ACAD_REACTORS
330
34
102
}
330
34
100
DictionaryVariables
280
     0
  1
96
  0
DICTIONARY
  5
260
102
{ACAD_REACTORS
330
43
102
}
330
43
100
AcDbDictionary
  0
DICTIONARY
  5
2C
102
{ACAD_REACTORS
330
2B
102
}
330
2B
100
AcDbDictionary
  3
DWGSETTINGS
350
2D
  0
XRECORD
  5
56D9
102
{ACAD_REACTORS
330
56D8
102
}
330
56D8
100
AcDbXrecord
 90
        1
  0
XRECORD
  5
56DA
102
{ACAD_REACTORS
330
56D8
102
}
330
56D8
100
AcDbXrecord
 90
       70
  0
XRECORD
  5
56DB
102
{ACAD_REACTORS
330
56D8
102
}
330
56D8
100
AcDbXrecord
  1

  0
XRECORD
  5
56DC
102
{ACAD_REACTORS
330
56D8
102
}
330
56D8
100
AcDbXrecord
  1
ASAMI.ctb
  0
XRECORD
  5
56DD
102
{ACAD_REACTORS
330
56D8
102
}
330
56D8
100
AcDbXrecord
340
1A
  0
XRECORD
  5
56DE
102
{ACAD_REACTORS
330
56D8
102
}
330
56D8
100
AcDbXrecord
340
19
  0
XRECORD
  5
56DF
102
{ACAD_REACTORS
330
56D8
102
}
330
56D8
100
AcDbXrecord
340
E
  0
XRECORD
  5
56E0
102
{ACAD_REACTORS
330
56D8
102
}
330
56D8
100
AcDbXrecord
 90
    10781
  0
XRECORD
  5
56E1
102
{ACAD_REACTORS
330
56D8
102
}
330
56D8
100
AcDbXrecord
 90
        4
  0
XRECORD
  5
56E2
102
{ACAD_REACTORS
330
56D8
102
}
330
56D8
100
AcDbXrecord
 90
        0
  0
XRECORD
  5
56E3
102
{ACAD_REACTORS
330
56D8
102
}
330
56D8
100
AcDbXrecord
  1
{AFB28963-8C59-40AE-9337-C84526B81ACE}
  0
XRECORD
  5
56E4
102
{ACAD_REACTORS
330
56D8
102
}
330
56D8
100
AcDbXrecord
  1
{9D691912-CC3F-41EA-8896-D9446489E374}
  0
XRECORD
  5
56E5
102
{ACAD_REACTORS
330
56D8
102
}
330
56D8
100
AcDbXrecord
 40
0.0
  0
XRECORD
  5
56E6
102
{ACAD_REACTORS
330
56D8
102
}
330
56D8
100
AcDbXrecord
1000
DSTYLE
1002
{
1070
    79
 70
     2
1070
   341
340
59
1070
   342
340
59
1070
   371
 70
    -1
1070
   372
 70
    -1
1002
}
  0
XRECORD
  5
56E7
102
{ACAD_REACTORS
330
56D8
102
}
330
56D8
100
AcDbXrecord
340
0
  0
XRECORD
  5
56E8
102
{ACAD_REACTORS
330
56D8
102
}
330
56D8
100
AcDbXrecord
 70
     0
  0
XRECORD
  5
56E9
102
{ACAD_REACTORS
330
56D8
102
}
330
56D8
100
AcDbXrecord
340
0
  0
XRECORD
  5
56EA
102
{ACAD_REACTORS
330
56D8
102
}
330
56D8
100
AcDbXrecord
 10
0.0
 20
0.0
 30
0.0
  0
XRECORD
  5
56EB
102
{ACAD_REACTORS
330
56D8
102
}
330
56D8
100
AcDbXrecord
 10
0.0
 20
0.0
 30
0.0
  0
XRECORD
  5
56EC
102
{ACAD_REACTORS
330
56D8
102
}
330
56D8
100
AcDbXrecord
 10
0.0
 20
0.0
 30
0.0
  0
XRECORD
  5
56ED
102
{ACAD_REACTORS
330
56D8
102
}
330
56D8
100
AcDbXrecord
 10
0.0
 20
0.0
 30
0.0
  0
XRECORD
  5
56EE
102
{ACAD_REACTORS
330
56D8
102
}
330
56D8
100
AcDbXrecord
 10
0.0
 20
0.0
 30
0.0
  0
XRECORD
  5
56EF
102
{ACAD_REACTORS
330
56D8
102
}
330
56D8
100
AcDbXrecord
 10
0.0
 20
0.0
 30
0.0
  0
XRECORD
  5
56F0
102
{ACAD_REACTORS
330
56D8
102
}
330
56D8
100
AcDbXrecord
340
0
  0
XRECORD
  5
56F1
102
{ACAD_REACTORS
330
56D8
102
}
330
56D8
100
AcDbXrecord
 70
     0
  0
XRECORD
  5
56F2
102
{ACAD_REACTORS
330
56D8
102
}
330
56D8
100
AcDbXrecord
340
0
  0
XRECORD
  5
56F3
102
{ACAD_REACTORS
330
56D8
102
}
330
56D8
100
AcDbXrecord
 10
0.0
 20
0.0
 30
0.0
  0
XRECORD
  5
56F4
102
{ACAD_REACTORS
330
56D8
102
}
330
56D8
100
AcDbXrecord
 10
0.0
 20
0.0
 30
0.0
  0
XRECORD
  5
56F5
102
{ACAD_REACTORS
330
56D8
102
}
330
56D8
100
AcDbXrecord
 10
0.0
 20
0.0
 30
0.0
  0
XRECORD
  5
56F6
102
{ACAD_REACTORS
330
56D8
102
}
330
56D8
100
AcDbXrecord
 10
0.0
 20
0.0
 30
0.0
  0
XRECORD
  5
56F7
102
{ACAD_REACTORS
330
56D8
102
}
330
56D8
100
AcDbXrecord
 10
0.0
 20
0.0
 30
0.0
  0
XRECORD
  5
56F8
102
{ACAD_REACTORS
330
56D8
102
}
330
56D8
100
AcDbXrecord
 10
0.0
 20
0.0
 30
0.0
  0
LAYER_INDEX
  5
56CE
102
{ACAD_REACTORS
330
56CD
102
}
330
56CD
100
AcDbIndex
 40
2453151.673279062
100
AcDbLayerIndex
  8
0
360
56CF
 90
        0
  8
AM_0
360
56D0
 90
       60
  8
AM_7
360
56D1
 90
        1
  8
AM_11
360
56D2
 90
       20
  8
AM_5
360
56D3
 90
        5
  8
Defpoints
360
56D4
 90
        0
  8
AM_6
360
56D5
 90
        1
  8
AM_CL
360
56D6
 90
        0
  0
XRECORD
  5
2D
102
{ACAD_REACTORS
330
2C
102
}
330
2C
100
AcDbXrecord
  1
VERSION
140
15.0
  1
PRODUCT
  2
AutoCAD Mechanical 2000
  0
IDBUFFER
  5
56CF
330
0
100
AcDbIdBuffer
  0
IDBUFFER
  5
56D0
330
0
100
AcDbIdBuffer
330
52EB
330
52EC
330
52ED
330
52EE
330
52EF
330
52F0
330
52F1
330
52F2
330
52F3
330
52F4
330
54E5
330
54EA
330
21D8
330
21D9
330
21DC
330
21DD
330
3F18
330
3F1B
330
4D3D
330
4D3F
330
4D44
330
4D4B
330
52B1
330
52B2
330
52B4
330
52B6
330
52B7
330
52B8
330
52BA
330
52BB
330
52BD
330
52BF
330
52C0
330
52C1
330
52C2
330
52C3
330
52C4
330
52C5
330
52C6
330
52C7
330
52C8
330
52C9
330
52CA
330
52CB
330
52CC
330
52DC
330
52DD
330
52DE
330
52DF
330
52E0
330
52E1
330
52E2
330
52E3
330
52E4
330
52E5
330
52E6
330
52E7
330
52E8
330
52E9
330
52EA
  0
IDBUFFER
  5
56D1
330
0
100
AcDbIdBuffer
330
C9F
  0
IDBUFFER
  5
56D2
330
0
100
AcDbIdBuffer
330
56AD
330
56AE
330
56AF
330
56B0
330
52B3
330
52B5
330
52BC
330
52BE
330
52DB
330
56A2
330
56A3
330
56A4
330
56A5
330
56A6
330
56A7
330
56A8
330
56A9
330
56AA
330
56AB
330
56AC
  0
IDBUFFER
  5
56D3
330
0
100
AcDbIdBuffer
330
CC6
330
DF5
330
2216
330
5322
330
55A9
  0
IDBUFFER
  5
56D4
330
0
100
AcDbIdBuffer
  0
IDBUFFER
  5
56D5
330
0
100
AcDbIdBuffer
330
19BD
  0
IDBUFFER
  5
56D6
330
0
100
AcDbIdBuffer
  0
ENDSEC
  0
EOF
