  0
SECTION
  2
HEADER
  9
$ACADVER
  1
AC1014
  9
$ACADMAINTVER
 70
     9
  9
$DWGCODEPAGE
  3
ANSI_932
  9
$INSBASE
 10
0.0
 20
0.0
 30
0.0
  9
$EXTMIN
 10
-201.8000010000006
 20
-57.00000100000005
 30
-0.00000001
  9
$EXTMAX
 10
26.66431635751338
 20
25.99593300635401
 30
0.00000001
  9
$LIMMIN
 10
-208.8642419370753
 20
-73.30409503913955
  9
$LIMMAX
 10
39.44840217523176
 20
45.38637662249903
  9
$ORTHOMODE
 70
     0
  9
$REGENMODE
 70
     1
  9
$FILLMODE
 70
     1
  9
$QTEXTMODE
 70
     0
  9
$MIRRTEXT
 70
     0
  9
$DRAGMODE
 70
     2
  9
$LTSCALE
 40
1.0
  9
$OSMODE
 70
    55
  9
$ATTMODE
 70
     1
  9
$TEXTSIZE
 40
2.5
  9
$TRACEWID
 40
1.0
  9
$TEXTSTYLE
  7
STANDARD
  9
$CLAYER
  8
AM_0
  9
$CELTYPE
  6
BYLAYER
  9
$CECOLOR
 62
   256
  9
$CELTSCALE
 40
1.0
  9
$DELOBJ
 70
     1
  9
$DISPSILH
 70
     0
  9
$DIMSCALE
 40
1.0
  9
$DIMASZ
 40
2.5
  9
$DIMEXO
 40
1.0
  9
$DIMDLI
 40
12.0
  9
$DIMRND
 40
0.0
  9
$DIMDLE
 40
0.0
  9
$DIMEXE
 40
1.0
  9
$DIMTP
 40
0.1
  9
$DIMTM
 40
0.1
  9
$DIMTXT
 40
3.2
  9
$DIMCEN
 40
0.0
  9
$DIMTSZ
 40
0.0
  9
$DIMTOL
 70
     0
  9
$DIMLIM
 70
     0
  9
$DIMTIH
 70
     0
  9
$DIMTOH
 70
     0
  9
$DIMSE1
 70
     0
  9
$DIMSE2
 70
     0
  9
$DIMTAD
 70
     3
  9
$DIMZIN
 70
     8
  9
$DIMBLK
  1
OPEN30
  9
$DIMASO
 70
     1
  9
$DIMSHO
 70
     1
  9
$DIMPOST
  1

  9
$DIMAPOST
  1
"
  9
$DIMALT
 70
     0
  9
$DIMALTD
 70
     2
  9
$DIMALTF
 40
0.0393701
  9
$DIMLFAC
 40
1.0
  9
$DIMTOFL
 70
     1
  9
$DIMTVP
 40
0.0
  9
$DIMTIX
 70
     0
  9
$DIMSOXD
 70
     0
  9
$DIMSAH
 70
     0
  9
$DIMBLK1
  1

  9
$DIMBLK2
  1

  9
$DIMSTYLE
  2
AM_JIS
  9
$DIMCLRD
 70
   256
  9
$DIMCLRE
 70
   256
  9
$DIMCLRT
 70
     2
  9
$DIMTFAC
 40
0.71
  9
$DIMGAP
 40
1.5
  9
$DIMJUST
 70
     0
  9
$DIMSD1
 70
     0
  9
$DIMSD2
 70
     0
  9
$DIMTOLJ
 70
     0
  9
$DIMTZIN
 70
     0
  9
$DIMALTZ
 70
     0
  9
$DIMALTTZ
 70
     0
  9
$DIMFIT
 70
     3
  9
$DIMUPT
 70
     0
  9
$DIMUNIT
 70
     2
  9
$DIMDEC
 70
     3
  9
$DIMTDEC
 70
     3
  9
$DIMALTU
 70
     2
  9
$DIMALTTD
 70
     2
  9
$DIMTXSTY
  7
ASAMI
  9
$DIMAUNIT
 70
     0
  9
$LUNITS
 70
     2
  9
$LUPREC
 70
     2
  9
$SKETCHINC
 40
1.0
  9
$FILLETRAD
 40
2.5
  9
$AUNITS
 70
     0
  9
$AUPREC
 70
     0
  9
$MENU
  1
.
  9
$ELEVATION
 40
0.0
  9
$PELEVATION
 40
0.0
  9
$THICKNESS
 40
0.0
  9
$LIMCHECK
 70
     0
  9
$BLIPMODE
 70
     0
  9
$CHAMFERA
 40
1.0
  9
$CHAMFERB
 40
1.0
  9
$CHAMFERC
 40
20.0
  9
$CHAMFERD
 40
0.0
  9
$SKPOLY
 70
     0
  9
$TDCREATE
 40
2452800.443498622
  9
$TDUPDATE
 40
2453151.567785359
  9
$TDINDWG
 40
0.1147824074
  9
$TDUSRTIMER
 40
0.1147824074
  9
$USRTIMER
 70
     1
  9
$ANGBASE
 50
0.0
  9
$ANGDIR
 70
     0
  9
$PDMODE
 70
     0
  9
$PDSIZE
 40
0.0
  9
$PLINEWID
 40
0.0
  9
$COORDS
 70
     1
  9
$SPLFRAME
 70
     0
  9
$SPLINETYPE
 70
     6
  9
$SPLINESEGS
 70
     8
  9
$ATTDIA
 70
     1
  9
$ATTREQ
 70
     1
  9
$HANDLING
 70
 12289
  9
$HANDSEED
  5
5305
  9
$SURFTAB1
 70
     6
  9
$SURFTAB2
 70
     6
  9
$SURFTYPE
 70
     6
  9
$SURFU
 70
     6
  9
$SURFV
 70
     6
  9
$UCSNAME
  2

  9
$UCSORG
 10
0.0
 20
0.0
 30
0.0
  9
$UCSXDIR
 10
1.0
 20
0.0000000000000027
 30
0.0
  9
$UCSYDIR
 10
-0.0000000000000027
 20
1.0
 30
0.0
  9
$PUCSNAME
  2

  9
$PUCSORG
 10
0.0
 20
0.0
 30
0.0
  9
$PUCSXDIR
 10
1.0
 20
0.0
 30
0.0
  9
$PUCSYDIR
 10
0.0
 20
1.0
 30
0.0
  9
$USERI1
 70
     0
  9
$USERI2
 70
     0
  9
$USERI3
 70
     0
  9
$USERI4
 70
     0
  9
$USERI5
 70
     0
  9
$USERR1
 40
0.0
  9
$USERR2
 40
0.0
  9
$USERR3
 40
0.0
  9
$USERR4
 40
0.0
  9
$USERR5
 40
0.0
  9
$WORLDVIEW
 70
     1
  9
$SHADEDGE
 70
     3
  9
$SHADEDIF
 70
    70
  9
$TILEMODE
 70
     1
  9
$MAXACTVP
 70
    64
  9
$PINSBASE
 10
0.0
 20
0.0
 30
0.0
  9
$PLIMCHECK
 70
     0
  9
$PEXTMIN
 10
1.000000000000000E+20
 20
1.000000000000000E+20
 30
1.000000000000000E+20
  9
$PEXTMAX
 10
-1.000000000000000E+20
 20
-1.000000000000000E+20
 30
-1.000000000000000E+20
  9
$PLIMMIN
 10
0.0
 20
0.0
  9
$PLIMMAX
 10
841.0
 20
594.0
  9
$UNITMODE
 70
     0
  9
$VISRETAIN
 70
     1
  9
$PLINEGEN
 70
     0
  9
$PSLTSCALE
 70
     0
  9
$TREEDEPTH
 70
  3020
  9
$PICKSTYLE
 70
     0
  9
$CMLSTYLE
  2
STANDARD
  9
$CMLJUST
 70
     0
  9
$CMLSCALE
 40
20.0
  9
$PROXYGRAPHICS
 70
     1
  9
$MEASUREMENT
 70
     1
  0
ENDSEC
  0
SECTION
  2
CLASSES
  0
CLASS
  1
ACDBDICTIONARYWDFLT
  2
AcDbDictionaryWithDefault
  3
AutoCAD 2000
 90
        0
280
     0
281
     0
  0
CLASS
  1
ACDBPLACEHOLDER
  2
AcDbPlaceHolder
  3
AutoCAD 2000
 90
        0
280
     0
281
     0
  0
CLASS
  1
LAYOUT
  2
AcDbLayout
  3
AutoCAD 2000
 90
        0
280
     0
281
     0
  0
CLASS
  1
AMGSETTINGSOBJ
  2
AmgSettingsObj
  3
"AcadM|Product Description: AutoCAD Mechanical 2000|Company: Autodesk"
 90
        0
280
     0
281
     0
  0
CLASS
  1
ACME_DOCUMENT
  2
AcMeDbDoc
  3
AcMeServices
 90
        0
280
     0
281
     0
  0
CLASS
  1
ACMESCOPE
  2
AcMeScope
  3
AcMeServices
 90
        0
280
     0
281
     0
  0
CLASS
  1
ACMECOMMANDHISTORY
  2
AcMeCommandHistory
  3
AcMeServices
 90
        0
280
     0
281
     0
  0
CLASS
  1
DICTIONARYVAR
  2
AcDbDictionaryVar
  3
AutoCAD 2000
 90
        0
280
     0
281
     0
  0
CLASS
  1
ACIMSYSVARMAN
  2
AcImSysVarManager
  3
AcMeServices
 90
        0
280
     0
281
     0
  0
CLASS
  1
ACIMREALSYSVAR
  2
AcImRealSysVar
  3
AcMeServices
 90
        0
280
     0
281
     0
  0
CLASS
  1
ACIMINTSYSVAR
  2
AcImIntSysVar
  3
AcMeServices
 90
        0
280
     0
281
     0
  0
CLASS
  1
ACMEDRAWINGMAN
  2
AcMeDrawingMan
  3
AcMeServices
 90
        0
280
     0
281
     0
  0
CLASS
  1
ACMEVIEW
  2
AcMeView
  3
AcMeServices
 90
        0
280
     0
281
     0
  0
CLASS
  1
ACDBENTITYCACHE
  2
AcMeEntityCache
  3
AcMeServices
 90
        0
280
     0
281
     0
  0
CLASS
  1
GSMANAGER
  2
AcMeGSManager
  3
AcMeServices
 90
        0
280
     0
281
     0
  0
CLASS
  1
AmdtInternalReactor
  2
AmdtInternalReactor
  3
AcMeServices
 90
        0
280
     0
281
     0
  0
CLASS
  1
ACMESTATEMGR
  2
AcMeStateMgr
  3
AcMeServices
 90
        0
280
     0
281
     0
  0
CLASS
  1
ACME_DATABASE
  2
AcMeDbDatabase
  3
AcMeServices
 90
        0
280
     0
281
     0
  0
CLASS
  1
ACRFINSADJUSTERMGR
  2
AcRfInsAdjusterMgr
  3
AcMeServices
 90
        0
280
     0
281
     0
  0
CLASS
  1
ACMDATADICTIONARY
  2
AcmDataDictionary
  3
"AcmSymBB|Product Description: AutoCAD Mechanical 2000|Company: Autodesk"
 90
        0
280
     0
281
     0
  0
CLASS
  1
ACMDATAENTRYBLOCK
  2
AcmDataEntryBlock
  3
"AcmSymBB|Product Description: AutoCAD Mechanical 2000|Company: Autodesk"
 90
        0
280
     0
281
     0
  0
CLASS
  1
AMGOBJPROPCFG
  2
AmgObjPropCfg
  3
"AmgLay|Product Description: AutoCAD Mechanical 2000|Company: Autodesk"
 90
        1
280
     0
281
     0
  0
CLASS
  1
ACAMGFILTERDAT
  2
AcAmgFilterDat
  3
"AcadM|Product Description: AutoCAD Mechanical 2000|Company: Autodesk"
 90
        0
280
     0
281
     0
  0
CLASS
  1
LAYER_INDEX
  2
AcDbLayerIndex
  3
AutoCAD 2000
 90
        0
280
     0
281
     0
  0
CLASS
  1
IDBUFFER
  2
AcDbIdBuffer
  3
AutoCAD 2000
 90
        0
280
     0
281
     0
  0
CLASS
  1
ACIMSTRSYSVAR
  2
AcImStrSysVar
  3
AcMeServices
 90
        0
280
     0
281
     0
  0
CLASS
  1
ACMSTANDARDJIS
  2
AcmStandardJIS
  3
"AcmSymBB|Product Description: AutoCAD Mechanical 2000|Company: Autodesk"
 90
        0
280
     0
281
     0
  0
CLASS
  1
ACMSURFSTANDARDJIS
  2
AcmSurfTextStdJIS
  3
"AcmSymBB|Product Description: AutoCAD Mechanical 2000|Company: Autodesk"
 90
        0
280
     0
281
     0
  0
CLASS
  1
ACMFCFSTANDARDJIS
  2
AcmFCFStdJIS
  3
"AcmSymBB|Product Description: AutoCAD Mechanical 2000|Company: Autodesk"
 90
        0
280
     0
281
     0
  0
CLASS
  1
ACMWELDSTANDARDJIS
  2
AcmWeldingStdJIS
  3
"AcmSymBB|Product Description: AutoCAD Mechanical 2000|Company: Autodesk"
 90
        0
280
     0
281
     0
  0
CLASS
  1
ACMIDSTANDARDJIS
  2
AcmIdStdJIS
  3
"AcmSymBB|Product Description: AutoCAD Mechanical 2000|Company: Autodesk"
 90
        0
280
     0
281
     0
  0
CLASS
  1
ACMDATUMSTANDARDJIS
  2
AcmDatumStdJIS
  3
"AcmSymBB|Product Description: AutoCAD Mechanical 2000|Company: Autodesk"
 90
        0
280
     0
281
     0
  0
CLASS
  1
ACMBOMSTANDARDJIS
  2
AcmBOMStdJIS
  3
"AcmSymBB|Product Description: AutoCAD Mechanical 2000|Company: Autodesk"
 90
        0
280
     0
281
     0
  0
CLASS
  1
ACMSTANDARDANSI
  2
AcmStandardANSI
  3
"AcmSymBB|Product Description: AutoCAD Mechanical 2000|Company: Autodesk"
 90
        0
280
     0
281
     0
  0
CLASS
  1
ACMSURFSTANDARDANSI
  2
AcmSurfTextStdANSI
  3
"AcmSymBB|Product Description: AutoCAD Mechanical 2000|Company: Autodesk"
 90
        0
280
     0
281
     0
  0
CLASS
  1
ACMFCFSTANDARDANSI
  2
AcmFCFStdANSI
  3
"AcmSymBB|Product Description: AutoCAD Mechanical 2000|Company: Autodesk"
 90
        0
280
     0
281
     0
  0
CLASS
  1
ACMWELDSTANDARDANSI
  2
AcmWeldingStdANSI
  3
"AcmSymBB|Product Description: AutoCAD Mechanical 2000|Company: Autodesk"
 90
        0
280
     0
281
     0
  0
CLASS
  1
ACMIDSTANDARDANSI
  2
AcmIdStdANSI
  3
"AcmSymBB|Product Description: AutoCAD Mechanical 2000|Company: Autodesk"
 90
        0
280
     0
281
     0
  0
CLASS
  1
ACMDATUMSTANDARDANSI
  2
AcmDatumStdANSI
  3
"AcmSymBB|Product Description: AutoCAD Mechanical 2000|Company: Autodesk"
 90
        0
280
     0
281
     0
  0
CLASS
  1
ACMBOMSTANDARDANSI
  2
AcmBOMStdANSI
  3
"AcmSymBB|Product Description: AutoCAD Mechanical 2000|Company: Autodesk"
 90
        0
280
     0
281
     0
  0
CLASS
  1
ACMSTANDARDBSI
  2
AcmStandardBSI
  3
"AcmSymBB|Product Description: AutoCAD Mechanical 2000|Company: Autodesk"
 90
        0
280
     0
281
     0
  0
CLASS
  1
ACMSURFSTANDARDBSI
  2
AcmSurfTextStdBSI
  3
"AcmSymBB|Product Description: AutoCAD Mechanical 2000|Company: Autodesk"
 90
        0
280
     0
281
     0
  0
CLASS
  1
ACMFCFSTANDARDBSI
  2
AcmFCFStdBSI
  3
"AcmSymBB|Product Description: AutoCAD Mechanical 2000|Company: Autodesk"
 90
        0
280
     0
281
     0
  0
CLASS
  1
ACMWELDSTANDARDBSI
  2
AcmWeldingStdBSI
  3
"AcmSymBB|Product Description: AutoCAD Mechanical 2000|Company: Autodesk"
 90
        0
280
     0
281
     0
  0
CLASS
  1
ACMIDSTANDARDBSI
  2
AcmIdStdBSI
  3
"AcmSymBB|Product Description: AutoCAD Mechanical 2000|Company: Autodesk"
 90
        0
280
     0
281
     0
  0
CLASS
  1
ACMDATUMSTANDARDBSI
  2
AcmDatumStdBSI
  3
"AcmSymBB|Product Description: AutoCAD Mechanical 2000|Company: Autodesk"
 90
        0
280
     0
281
     0
  0
CLASS
  1
ACMBOMSTANDARDBSI
  2
AcmBOMStdBSI
  3
"AcmSymBB|Product Description: AutoCAD Mechanical 2000|Company: Autodesk"
 90
        0
280
     0
281
     0
  0
CLASS
  1
LONG_TRANSACTION
  2
AcDbLongTransaction
  3
AutoCAD 2000
 90
        0
280
     0
281
     0
  0
CLASS
  1
LWPOLYLINE
  2
AcDbPolyline
  3
AutoCAD 2000
 90
        0
280
     0
281
     1
  0
CLASS
  1
HATCH
  2
AcDbHatch
  3
AutoCAD 2000
 90
        0
280
     0
281
     1
  0
CLASS
  1
XRECORD
  2
AcDbXrecord
  3
AutoCAD 2000
 90
        0
280
     0
281
     0
  0
ENDSEC
  0
SECTION
  2
TABLES
  0
TABLE
  2
VPORT
  5
8
330
0
100
AcDbSymbolTable
 70
     3
  0
VPORT
  5
52CF
330
8
100
AcDbSymbolTableRecord
100
AcDbViewportTableRecord
  2
*ACTIVE
 70
     0
 10
0.0
 20
0.0
 11
1.0
 21
1.0
 12
-83.33138088578328
 22
-15.50279855613838
 13
0.0
 23
0.0
 14
2.5
 24
2.5
 15
10.0
 25
10.0
 16
0.0
 26
0.0
 36
1.0
 17
0.0
 27
0.0
 37
0.0
 40
152.0878066138804
 41
1.56570841889117
 42
50.0
 43
0.0
 44
0.0
 50
0.0
 51
0.0
 71
     0
 72
   100
 73
     1
 74
     1
 75
     0
 76
     0
 77
     0
 78
     0
  0
ENDTAB
  0
TABLE
  2
LTYPE
  5
5
330
0
100
AcDbSymbolTable
 70
    10
  0
LTYPE
  5
14
330
5
100
AcDbSymbolTableRecord
100
AcDbLinetypeTableRecord
  2
BYBLOCK
 70
     0
  3

 72
    65
 73
     0
 40
0.0
  0
LTYPE
  5
15
330
5
100
AcDbSymbolTableRecord
100
AcDbLinetypeTableRecord
  2
BYLAYER
 70
     0
  3

 72
    65
 73
     0
 40
0.0
  0
LTYPE
  5
16
330
5
100
AcDbSymbolTableRecord
100
AcDbLinetypeTableRecord
  2
CONTINUOUS
 70
     0
  3
Solid line
 72
    65
 73
     0
 40
0.0
  0
LTYPE
  5
4B
330
5
100
AcDbSymbolTableRecord
100
AcDbLinetypeTableRecord
  2
AM_ISO02W050
 70
     0
  3
__ __ __ __ __ __ __ __ __ __ __ __ __ __ __
 72
    65
 73
     2
 40
7.5
 49
6.0
 74
     0
 49
-1.5
 74
     0
  0
LTYPE
  5
4C
330
5
100
AcDbSymbolTableRecord
100
AcDbLinetypeTableRecord
  2
AM_ISO08W050
 70
     0
  3
____ . ____ . ____ . ____ . ____ . ____ . ____
 72
    65
 73
     4
 40
18.0
 49
12.0
 74
     0
 49
-1.5
 74
     0
 49
3.0
 74
     0
 49
-1.5
 74
     0
  0
LTYPE
  5
4D
330
5
100
AcDbSymbolTableRecord
100
AcDbLinetypeTableRecord
  2
AM_ISO09W050
 70
     0
  3
_____ . . _____ . . _____ . . ____ .. ____
 72
    65
 73
     6
 40
22.5
 49
12.0
 74
     0
 49
-1.5
 74
     0
 49
3.0
 74
     0
 49
-1.5
 74
     0
 49
3.0
 74
     0
 49
-1.5
 74
     0
  0
LTYPE
  5
4E
330
5
100
AcDbSymbolTableRecord
100
AcDbLinetypeTableRecord
  2
AMCONSTR
 70
     0
  3
_______________________
 72
    65
 73
     2
 40
9999.0
 49
9999.0
 74
     0
 49
0.0
 74
     0
  0
LTYPE
  5
4F
330
5
100
AcDbSymbolTableRecord
100
AcDbLinetypeTableRecord
  2
AM_ISO02W050X2
 70
     0
  3
 _ _ _ _ _ _ _ _ _ _ _ _
 72
    65
 73
     2
 40
3.75
 49
3.0
 74
     0
 49
-0.75
 74
     0
  0
LTYPE
  5
50
330
5
100
AcDbSymbolTableRecord
100
AcDbLinetypeTableRecord
  2
AM_ISO08W050X2
 70
     0
  3
__ . __ . __ . __ . __ . __
 72
    65
 73
     4
 40
9.0
 49
6.0
 74
     0
 49
-0.75
 74
     0
 49
1.5
 74
     0
 49
-0.75
 74
     0
  0
LTYPE
  5
53
330
5
100
AcDbSymbolTableRecord
100
AcDbLinetypeTableRecord
  2
AMZIGZAG
 70
     0
  3
/\/-/\/-/\/-/\/-/\/-/\/
 72
    65
 73
     2
 40
11.00009999999999
 49
0.0001
 74
     4
 75
   135
340
52
 46
0.04
 50
0.0
 44
0.0
 45
0.0
 49
-11.0
 74
     0
  0
LTYPE
  5
166
330
5
100
AcDbSymbolTableRecord
100
AcDbLinetypeTableRecord
  2
ACJISTGL
 70
     0
  3
_ _ _ _ _
 72
    65
 73
     2
 40
3.0
 49
2.0
 74
     0
 49
-1.0
 74
     0
  0
LTYPE
  5
26A
330
5
100
AcDbSymbolTableRecord
100
AcDbLinetypeTableRecord
  2
ACJISTGB
 70
     0
  3
__ . . __ . .
 72
    65
 73
     6
 40
9.0
 49
4.0
 74
     0
 49
-1.0
 74
     0
 49
1.0
 74
     0
 49
-1.0
 74
     0
 49
1.0
 74
     0
 49
-1.0
 74
     0
  0
ENDTAB
  0
TABLE
  2
LAYER
  5
2
330
0
100
AcDbSymbolTable
 70
     7
  0
LAYER
  5
10
330
2
100
AcDbSymbolTableRecord
100
AcDbLayerTableRecord
  2
0
 70
     0
 62
     7
  6
CONTINUOUS
  0
LAYER
  5
3F9
330
2
100
AcDbSymbolTableRecord
100
AcDbLayerTableRecord
  2
AM_0
 70
     0
 62
     7
  6
CONTINUOUS
  0
LAYER
  5
C7C
330
2
100
AcDbSymbolTableRecord
100
AcDbLayerTableRecord
  2
AM_7
 70
     0
 62
     4
  6
AM_ISO08W050
  0
LAYER
  5
C97
330
2
100
AcDbSymbolTableRecord
100
AcDbLayerTableRecord
  2
AM_11
 70
     0
 62
     3
  6
AM_ISO09W050
  0
LAYER
  5
CC5
330
2
100
AcDbSymbolTableRecord
100
AcDbLayerTableRecord
  2
AM_5
 70
     0
 62
     3
  6
CONTINUOUS
  0
LAYER
  5
CC7
330
2
100
AcDbSymbolTableRecord
100
AcDbLayerTableRecord
  2
DEFPOINTS
 70
     0
 62
     7
  6
CONTINUOUS
  0
LAYER
  5
19BC
330
2
100
AcDbSymbolTableRecord
100
AcDbLayerTableRecord
  2
AM_6
 70
     0
 62
     2
  6
CONTINUOUS
  0
ENDTAB
  0
TABLE
  2
STYLE
  5
3
330
0
100
AcDbSymbolTable
 70
     5
  0
STYLE
  5
11
330
3
100
AcDbSymbolTableRecord
100
AcDbTextStyleTableRecord
  2
STANDARD
 70
     0
 40
0.0
 41
1.0
 50
0.0
 71
     0
 42
2.5
  3
simplex.shx
  4
EXTFONT.SHX
  0
STYLE
  5
52
330
3
100
AcDbSymbolTableRecord
100
AcDbTextStyleTableRecord
  2

 70
     1
 40
0.0
 41
1.0
 50
0.0
 71
     0
 42
2.5
  3
ltypeshp.shx
  4

  0
STYLE
  5
6B
330
3
100
AcDbSymbolTableRecord
100
AcDbTextStyleTableRecord
  2
ASAMI
 70
     0
 40
0.0
 41
1.0
 50
0.0
 71
     0
 42
2.5
  3
simplex.shx
  4
EXTFONT.SHX
  0
STYLE
  5
262
330
3
100
AcDbSymbolTableRecord
100
AcDbTextStyleTableRecord
  2
ACJISTS
 70
     0
 40
1.0
 41
1.0
 50
0.0
 71
     0
 42
2.5
  3
simplex.shx
  4
bigfont.shx
  0
STYLE
  5
269
330
3
100
AcDbSymbolTableRecord
100
AcDbTextStyleTableRecord
  2
ACJISGDT
 70
     0
 40
0.0
 41
1.0
 50
0.0
 71
     0
 42
2.5
  3
amgdtans.shx
  4

  0
ENDTAB
  0
TABLE
  2
VIEW
  5
6
330
0
100
AcDbSymbolTable
 70
     0
  0
ENDTAB
  0
TABLE
  2
UCS
  5
7
330
0
100
AcDbSymbolTable
 70
     0
  0
ENDTAB
  0
TABLE
  2
APPID
  5
9
330
0
100
AcDbSymbolTable
 70
    16
  0
APPID
  5
12
330
9
100
AcDbSymbolTableRecord
100
AcDbRegAppTableRecord
  2
ACAD
 70
     0
  0
APPID
  5
30
330
9
100
AcDbSymbolTableRecord
100
AcDbRegAppTableRecord
  2
MCAD_NO_VIS
 70
     0
  0
APPID
  5
31
330
9
100
AcDbSymbolTableRecord
100
AcDbRegAppTableRecord
  2
ACAD_TEMP_GRAPHIC
 70
     0
  0
APPID
  5
2C2
330
9
100
AcDbSymbolTableRecord
100
AcDbRegAppTableRecord
  2
GENIUS_GENDTOL_13
 70
     0
  0
APPID
  5
339
330
9
100
AcDbSymbolTableRecord
100
AcDbRegAppTableRecord
  2
GENIUS_GENODEF_13
 70
     0
  0
APPID
  5
33A
330
9
100
AcDbSymbolTableRecord
100
AcDbRegAppTableRecord
  2
GENIUS_GENOBJ-N-RSBK_13
 70
     0
  0
APPID
  5
33B
330
9
100
AcDbSymbolTableRecord
100
AcDbRegAppTableRecord
  2
GENIUS_GENOBJ-N-LIB_13
 70
     0
  0
APPID
  5
33C
330
9
100
AcDbSymbolTableRecord
100
AcDbRegAppTableRecord
  2
GENIUS_GENSCALE_13
 70
     0
  0
APPID
  5
378
330
9
100
AcDbSymbolTableRecord
100
AcDbRegAppTableRecord
  2
GENIUS_GENDIMSH_14
 70
     0
  0
APPID
  5
C82
330
9
100
AcDbSymbolTableRecord
100
AcDbRegAppTableRecord
  2
GENIUS_GENOBJ-N-CRS_13
 70
     0
  0
APPID
  5
C83
330
9
100
AcDbSymbolTableRecord
100
AcDbRegAppTableRecord
  2
GENIUS_GENOENT_13
 70
     0
  0
APPID
  5
C84
330
9
100
AcDbSymbolTableRecord
100
AcDbRegAppTableRecord
  2
GENIUS_GENOREF_13
 70
     0
  0
APPID
  5
C85
330
9
100
AcDbSymbolTableRecord
100
AcDbRegAppTableRecord
  2
GENIUS_GENOLIS_13
 70
     0
  0
APPID
  5
CA0
330
9
100
AcDbSymbolTableRecord
100
AcDbRegAppTableRecord
  2
GENIUS_GENOBJ-N-CEN_13
 70
     0
  0
APPID
  5
2796
330
9
100
AcDbSymbolTableRecord
100
AcDbRegAppTableRecord
  2
GENIUS_GENFIL_13
 70
     0
  0
APPID
  5
2797
330
9
100
AcDbSymbolTableRecord
100
AcDbRegAppTableRecord
  2
GENIUS_GENOBJ-N-CHA_13
 70
     0
  0
ENDTAB
  0
TABLE
  2
DIMSTYLE
  5
A
330
0
100
AcDbSymbolTable
 70
     9
  0
DIMSTYLE
105
58
330
A
100
AcDbSymbolTableRecord
100
AcDbDimStyleTableRecord
  2
AM_JIS
 70
     0
  3

  4
"
  5
OPEN30
  6

  7

 40
1.0
 41
2.5
 42
1.0
 43
12.0
 44
1.0
 45
0.0
 46
0.0
 47
0.1
 48
0.1
140
3.2
141
0.0
142
0.0
143
0.0393701
144
1.0
145
0.0
146
0.71
147
1.5
 71
     0
 72
     0
 73
     0
 74
     0
 75
     0
 76
     0
 77
     3
 78
     8
170
     0
171
     2
172
     1
173
     0
174
     0
175
     0
176
   256
177
   256
178
     2
270
     2
271
     3
272
     3
273
     2
274
     2
340
6B
275
     0
280
     0
281
     0
282
     0
283
     0
284
     0
285
     0
286
     0
287
     3
288
     0
  0
DIMSTYLE
105
5F
330
A
100
AcDbSymbolTableRecord
100
AcDbDimStyleTableRecord
  2
AM_JIS$3
 70
     0
  3

  4
"
  5
OPEN30
  6

  7

 40
1.0
 41
2.5
 42
1.0
 43
10.0
 44
1.0
 45
0.0
 46
0.0
 47
0.1
 48
0.1
140
3.2
141
0.0
142
0.0
143
0.0393701
144
1.0
145
0.0
146
0.71
147
1.5
 71
     0
 72
     0
 73
     0
 74
     1
 75
     0
 76
     0
 77
     3
 78
     8
170
     0
171
     2
172
     0
173
     0
174
     0
175
     0
176
   256
177
   256
178
     2
270
     2
271
     2
272
     3
273
     2
274
     2
340
6B
275
     0
280
     0
281
     0
282
     0
283
     0
284
     0
285
     0
286
     0
287
     0
288
     1
  0
DIMSTYLE
105
60
330
A
100
AcDbSymbolTableRecord
100
AcDbDimStyleTableRecord
  2
AM_JIS$4
 70
     0
  3

  4
"
  5
OPEN30
  6

  7

 40
1.0
 41
2.5
 42
1.0
 43
10.0
 44
1.0
 45
0.0
 46
0.0
 47
0.1
 48
0.1
140
3.2
141
0.0
142
0.0
143
0.0393701
144
1.0
145
0.0
146
0.71
147
1.5
 71
     0
 72
     0
 73
     0
 74
     1
 75
     0
 76
     0
 77
     3
 78
     8
170
     0
171
     2
172
     0
173
     0
174
     0
175
     0
176
   256
177
   256
178
     2
270
     2
271
     2
272
     3
273
     2
274
     2
340
6B
275
     0
280
     0
281
     0
282
     0
283
     0
284
     0
285
     0
286
     0
287
     0
288
     1
  0
DIMSTYLE
105
61
330
A
100
AcDbSymbolTableRecord
100
AcDbDimStyleTableRecord
  2
AM_JIS$6
 70
     0
  3

  4
"
  5
OPEN30
  6

  7

 40
1.0
 41
2.5
 42
1.0
 43
10.0
 44
1.0
 45
0.0
 46
0.0
 47
0.1
 48
0.1
140
3.2
141
0.0
142
0.0
143
0.0393701
144
1.0
145
0.0
146
0.71
147
1.5
 71
     0
 72
     0
 73
     0
 74
     0
 75
     0
 76
     0
 77
     0
 78
     8
170
     0
171
     2
172
     1
173
     0
174
     0
175
     0
176
   256
177
   256
178
     2
270
     2
271
     2
272
     2
273
     2
274
     2
340
6B
275
     0
280
     0
281
     0
282
     0
283
     0
284
     0
285
     0
286
     0
287
     3
288
     0
  0
DIMSTYLE
105
62
330
A
100
AcDbSymbolTableRecord
100
AcDbDimStyleTableRecord
  2
AM_JIS$7
 70
     0
  3

  4
"
  5
OPEN30
  6

  7

 40
1.0
 41
2.5
 42
1.0
 43
10.0
 44
1.0
 45
0.0
 46
0.0
 47
0.1
 48
0.1
140
3.2
141
0.0
142
0.0
143
0.0393701
144
1.0
145
0.0
146
0.71
147
1.5
 71
     0
 72
     0
 73
     0
 74
     0
 75
     0
 76
     0
 77
     3
 78
     8
170
     0
171
     2
172
     1
173
     0
174
     0
175
     0
176
   256
177
   256
178
     2
270
     2
271
     2
272
     3
273
     2
274
     2
340
6B
275
     0
280
     0
281
     0
282
     0
283
     0
284
     0
285
     0
286
     0
287
     3
288
     0
  0
DIMSTYLE
105
63
330
A
100
AcDbSymbolTableRecord
100
AcDbDimStyleTableRecord
  2
AM_JIS$SF
 70
     0
  3

  4
"
  5
OPEN30
  6

  7

 40
1.0
 41
2.5
 42
1.0
 43
10.0
 44
1.0
 45
0.0
 46
0.0
 47
0.1
 48
0.1
140
3.2
141
0.0
142
0.0
143
0.0393701
144
1.0
145
0.0
146
0.71
147
1.5
 71
     0
 72
     0
 73
     0
 74
     0
 75
     1
 76
     1
 77
     3
 78
     8
170
     0
171
     2
172
     1
173
     0
174
     0
175
     0
176
   256
177
   256
178
     2
270
     2
271
     2
272
     2
273
     2
274
     2
340
6B
275
     0
280
     0
281
     0
282
     0
283
     0
284
     0
285
     0
286
     0
287
     3
288
     0
  0
DIMSTYLE
105
68
330
A
100
AcDbSymbolTableRecord
100
AcDbDimStyleTableRecord
  2
AM_JIS$SH
 70
     0
  3

  4
"
  5

  6
GENAXEH
  7
OPEN30
 40
1.0
 41
2.5
 42
1.0
 43
10.0
 44
1.0
 45
0.0
 46
0.0
 47
0.1
 48
0.1
140
3.2
141
0.0
142
0.0
143
0.0393701
144
2.0
145
0.0
146
0.71
147
1.5
 71
     0
 72
     0
 73
     0
 74
     0
 75
     1
 76
     1
 77
     3
 78
     8
170
     0
171
     2
172
     1
173
     1
174
     0
175
     0
176
   256
177
   256
178
     2
270
     2
271
     2
272
     2
273
     2
274
     2
340
6B
275
     0
280
     0
281
     0
282
     0
283
     0
284
     0
285
     0
286
     0
287
     3
288
     0
  0
DIMSTYLE
105
B34
102
{ACAD_REACTORS
330
5059
102
}
330
A
100
AcDbSymbolTableRecord
100
AcDbDimStyleTableRecord
  2
AM_JIS$2
 70
     0
  3

  4
"
  5
OPEN30
  6

  7

 40
1.0
 41
2.5
 42
1.0
 43
12.0
 44
1.0
 45
0.0
 46
0.0
 47
0.1
 48
0.1
140
3.2
141
0.0
142
0.0
143
0.0393701
144
1.0
145
0.0
146
0.71
147
1.5
 71
     0
 72
     0
 73
     0
 74
     0
 75
     0
 76
     0
 77
     3
 78
     8
170
     0
171
     2
172
     1
173
     0
174
     0
175
     0
176
   256
177
   256
178
     2
270
     2
271
     3
272
     3
273
     2
274
     2
340
6B
275
     0
280
     0
281
     0
282
     0
283
     0
284
     0
285
     0
286
     0
287
     3
288
     0
  0
DIMSTYLE
105
BA5
102
{ACAD_REACTORS
330
4819
330
466D
330
CC6
330
2069
102
}
330
A
100
AcDbSymbolTableRecord
100
AcDbDimStyleTableRecord
  2
AM_JIS$0
 70
     0
  3

  4
"
  5
OPEN30
  6

  7

 40
1.0
 41
2.5
 42
0.0
 43
10.0
 44
1.0
 45
0.0
 46
0.0
 47
0.1
 48
0.1000000001
140
3.799999999999999
141
0.0
142
0.0
143
0.0393701
144
1.0
145
0.0
146
0.71
147
1.5
 71
     0
 72
     0
 73
     0
 74
     0
 75
     0
 76
     0
 77
     3
 78
     1
170
     0
171
     2
172
     1
173
     0
174
     0
175
     0
176
     3
177
     3
178
     2
270
     2
271
     2
272
     2
273
     2
274
     2
340
11
275
     1
280
     0
281
     0
282
     0
283
     0
284
     8
285
     0
286
     0
287
     0
288
     0
  0
ENDTAB
  0
TABLE
  2
BLOCK_RECORD
  5
1
330
0
100
AcDbSymbolTable
 70
    10
  0
BLOCK_RECORD
  5
1F
102
{ACAD_XDICTIONARY
360
74
102
}
330
1
100
AcDbSymbolTableRecord
100
AcDbBlockTableRecord
  2
*MODEL_SPACE
  0
BLOCK_RECORD
  5
101
102
{ACAD_XDICTIONARY
360
52F8
102
}
330
1
100
AcDbSymbolTableRecord
100
AcDbBlockTableRecord
  2
*PAPER_SPACE
  0
BLOCK_RECORD
  5
59
330
1
100
AcDbSymbolTableRecord
100
AcDbBlockTableRecord
  2
_OPEN30
  0
BLOCK_RECORD
  5
64
330
1
100
AcDbSymbolTableRecord
100
AcDbBlockTableRecord
  2
GENAXEH
  0
BLOCK_RECORD
  5
CC8
330
1
100
AcDbSymbolTableRecord
100
AcDbBlockTableRecord
  2
*D5
  0
BLOCK_RECORD
  5
206A
330
1
100
AcDbSymbolTableRecord
100
AcDbBlockTableRecord
  2
*D6
  0
BLOCK_RECORD
  5
466E
330
1
100
AcDbSymbolTableRecord
100
AcDbBlockTableRecord
  2
*D7
  0
BLOCK_RECORD
  5
481A
330
1
100
AcDbSymbolTableRecord
100
AcDbBlockTableRecord
  2
*D8
  0
BLOCK_RECORD
  5
505A
330
1
100
AcDbSymbolTableRecord
100
AcDbBlockTableRecord
  2
*D9
  0
ENDTAB
  0
ENDSEC
  0
SECTION
  2
BLOCKS
  0
BLOCK
  5
20
330
1F
100
AcDbEntity
  8
0
100
AcDbBlockBegin
  2
*MODEL_SPACE
 70
     0
 10
0.0
 20
0.0
 30
0.0
  3
*MODEL_SPACE
  1

  0
ENDBLK
  5
21
330
1F
100
AcDbEntity
  8
0
100
AcDbBlockEnd
  0
BLOCK
  5
103
330
101
100
AcDbEntity
 67
     1
  8
0
100
AcDbBlockBegin
  2
*PAPER_SPACE
 70
     0
 10
0.0
 20
0.0
 30
0.0
  3
*PAPER_SPACE
  1

  0
ENDBLK
  5
104
330
101
100
AcDbEntity
 67
     1
  8
0
100
AcDbBlockEnd
  0
BLOCK
  5
5D
330
59
100
AcDbEntity
  8
0
100
AcDbBlockBegin
  2
_OPEN30
 70
     0
 10
0.0
 20
0.0
 30
0.0
  3
_OPEN30
  1

  0
LINE
  5
5A
330
59
100
AcDbEntity
  8
0
 62
     0
100
AcDbLine
 10
-1.0
 20
0.26794919
 30
0.0
 11
0.0
 21
0.0
 31
0.0
  0
LINE
  5
5B
330
59
100
AcDbEntity
  8
0
 62
     0
100
AcDbLine
 10
0.0
 20
0.0
 30
0.0
 11
-1.0
 21
-0.26794919
 31
0.0
  0
LINE
  5
5C
330
59
100
AcDbEntity
  8
0
 62
     0
100
AcDbLine
 10
0.0
 20
0.0
 30
0.0
 11
-1.0
 21
0.0
 31
0.0
  0
ENDBLK
  5
5E
330
59
100
AcDbEntity
  8
0
100
AcDbBlockEnd
  0
BLOCK
  5
66
330
64
100
AcDbEntity
  8
0
100
AcDbBlockBegin
  2
GENAXEH
 70
     0
 10
0.0
 20
0.0
 30
0.0
  3
GENAXEH
  1

  0
LINE
  5
65
330
64
100
AcDbEntity
  8
0
100
AcDbLine
 10
-1.0
 20
0.0
 30
0.0
 11
1.0
 21
0.0
 31
0.0
  0
ENDBLK
  5
67
330
64
100
AcDbEntity
  8
0
100
AcDbBlockEnd
  0
BLOCK
  5
CD2
330
CC8
100
AcDbEntity
  8
0
100
AcDbBlockBegin
  2
*D5
 70
     1
 10
0.0
 20
0.0
 30
0.0
  3
*D5
  1

  0
LINE
  5
5286
330
CC8
100
AcDbEntity
  8
AM_5
 62
     3
100
AcDbLine
 10
-180.0000000000007
 20
-9.500000000000015
 30
0.0
 11
-180.0000000000007
 21
-35.500001
 31
0.0
  0
LINE
  5
5287
330
CC8
100
AcDbEntity
  8
AM_5
 62
     3
100
AcDbLine
 10
-4.000000041666816
 20
-10.25000035694669
 30
0.0
 11
-4.000000041666818
 21
-35.500001
 31
0.0
  0
LINE
  5
5288
330
CC8
100
AcDbEntity
  8
AM_5
 62
     3
100
AcDbLine
 10
-177.5000000000007
 20
-34.500001
 30
0.0
 11
-6.500000041666818
 21
-34.500001
 31
0.0
  0
INSERT
  5
5289
330
CC8
100
AcDbEntity
  8
AM_5
 62
     3
100
AcDbBlockReference
  2
_OPEN30
 10
-180.0000000000007
 20
-34.500001
 30
0.0
 41
2.5
 42
2.5
 43
2.5
 50
180.0
  0
INSERT
  5
528A
330
CC8
100
AcDbEntity
  8
AM_5
 62
     3
100
AcDbBlockReference
  2
_OPEN30
 10
-4.000000041666818
 20
-34.500001
 30
0.0
 41
2.5
 42
2.5
 43
2.5
  0
MTEXT
  5
528B
330
CC8
100
AcDbEntity
  8
AM_5
 62
     2
100
AcDbMText
 10
-92.00000002083376
 20
-31.100001
 30
0.0
 40
3.799999999999999
 41
0.0
 71
     5
 72
     1
  1
176
1001
ACAD
1000
MTEXTBEGIN
1070
    73
1070
     1
1070
    44
1040
1.0
1070
    74
1070
     0
1000
MTEXTEND
  0
POINT
  5
528C
330
CC8
100
AcDbEntity
  8
DEFPOINTS
 62
     0
100
AcDbPoint
 10
-180.0000000000007
 20
-9.500000000000015
 30
0.0
  0
POINT
  5
528D
330
CC8
100
AcDbEntity
  8
DEFPOINTS
 62
     0
100
AcDbPoint
 10
-4.000000041666816
 20
-10.25000035694669
 30
0.0
  0
POINT
  5
528E
330
CC8
100
AcDbEntity
  8
DEFPOINTS
 62
     0
100
AcDbPoint
 10
-4.000000041666818
 20
-34.500001
 30
0.0
  0
ENDBLK
  5
CD3
330
CC8
100
AcDbEntity
  8
0
100
AcDbBlockEnd
  0
BLOCK
  5
2074
330
206A
100
AcDbEntity
  8
0
100
AcDbBlockBegin
  2
*D6
 70
     1
 10
0.0
 20
0.0
 30
0.0
  3
*D6
  1

  0
LINE
  5
527D
330
206A
100
AcDbEntity
  8
AM_5
 62
     3
100
AcDbLine
 10
-109.0000000000006
 20
-10.50000000000047
 30
0.0
 11
-109.0000000000006
 21
-25.50000100000019
 31
0.0
  0
LINE
  5
527E
330
206A
100
AcDbEntity
  8
AM_5
 62
     3
100
AcDbLine
 10
-4.000000041666786
 20
-10.2500003569467
 30
0.0
 11
-4.000000041666742
 21
-25.50000099999988
 31
0.0
  0
LINE
  5
527F
330
206A
100
AcDbEntity
  8
AM_5
 62
     3
100
AcDbLine
 10
-106.5000000000006
 20
-24.50000100000018
 30
0.0
 11
-6.500000041666746
 21
-24.50000099999989
 31
0.0
  0
INSERT
  5
5280
330
206A
100
AcDbEntity
  8
AM_5
 62
     3
100
AcDbBlockReference
  2
_OPEN30
 10
-109.0000000000006
 20
-24.50000100000019
 30
0.0
 41
2.5
 42
2.5
 43
2.5
 50
180.0000000000001
  0
INSERT
  5
5281
330
206A
100
AcDbEntity
  8
AM_5
 62
     3
100
AcDbBlockReference
  2
_OPEN30
 10
-4.000000041666746
 20
-24.50000099999988
 30
0.0
 41
2.5
 42
2.5
 43
2.5
 50
0.0000000000001527
  0
MTEXT
  5
5282
330
206A
100
AcDbEntity
  8
AM_5
 62
     2
100
AcDbMText
 10
-56.5000000208337
 20
-21.10000100000003
 30
0.0
 40
3.799999999999999
 41
0.0
 71
     5
 72
     1
  1
105
1001
ACAD
1000
MTEXTBEGIN
1070
    73
1070
     1
1070
    44
1040
1.0
1070
    74
1070
     0
1000
MTEXTEND
  0
POINT
  5
5283
330
206A
100
AcDbEntity
  8
DEFPOINTS
 62
     0
100
AcDbPoint
 10
-109.0000000000007
 20
-10.50000000000015
 30
0.0
  0
POINT
  5
5284
330
206A
100
AcDbEntity
  8
DEFPOINTS
 62
     0
100
AcDbPoint
 10
-4.000000041666816
 20
-10.25000035694669
 30
0.0
  0
POINT
  5
5285
330
206A
100
AcDbEntity
  8
DEFPOINTS
 62
     0
100
AcDbPoint
 10
-4.000000041666817
 20
-24.50000099999987
 30
0.0
  0
ENDBLK
  5
2075
330
206A
100
AcDbEntity
  8
0
100
AcDbBlockEnd
  0
BLOCK
  5
4678
330
466E
100
AcDbEntity
  8
0
100
AcDbBlockBegin
  2
*D7
 70
     1
 10
0.0
 20
0.0
 30
0.0
  3
*D7
  1

  0
LINE
  5
528F
330
466E
100
AcDbEntity
  8
AM_5
 62
     3
100
AcDbLine
 10
-179.0000000000006
 20
10.49999999999934
 30
0.0
 11
-197.5000010000006
 21
10.49999999999929
 31
0.0
  0
LINE
  5
5290
330
466E
100
AcDbEntity
  8
AM_5
 62
     3
100
AcDbLine
 10
-179.0000000000006
 20
-10.50000000000057
 30
0.0
 11
-197.5000010000005
 21
-10.50000000000062
 31
0.0
  0
LINE
  5
5291
330
466E
100
AcDbEntity
  8
AM_5
 62
     3
100
AcDbLine
 10
-196.5000010000006
 20
7.999999999999293
 30
0.0
 11
-196.5000010000006
 21
-8.000000000000623
 31
0.0
  0
INSERT
  5
5292
330
466E
100
AcDbEntity
  8
AM_5
 62
     3
100
AcDbBlockReference
  2
_OPEN30
 10
-196.5000010000006
 20
10.49999999999929
 30
0.0
 41
2.5
 42
2.5
 43
2.5
 50
90.00000000000017
  0
INSERT
  5
5293
330
466E
100
AcDbEntity
  8
AM_5
 62
     3
100
AcDbBlockReference
  2
_OPEN30
 10
-196.5000010000006
 20
-10.50000000000062
 30
0.0
 41
2.5
 42
2.5
 43
2.5
 50
270.0000000000001
  0
MTEXT
  5
5294
330
466E
100
AcDbEntity
  8
AM_5
 62
     2
100
AcDbMText
 10
-199.9000010000006
 20
-0.0000000000006669
 30
0.0
 40
3.799999999999999
 41
0.0
 71
     5
 72
     1
  1
%%c21
 11
-0.0000000000000028
 21
1.0
 31
0.0
1001
ACAD
1000
MTEXTBEGIN
1070
    73
1070
     1
1070
    44
1040
1.0
1070
    74
1070
     0
1000
MTEXTEND
  0
POINT
  5
5295
330
466E
100
AcDbEntity
  8
DEFPOINTS
 62
     0
100
AcDbPoint
 10
-179.0000000000006
 20
10.49999999999989
 30
0.0
  0
POINT
  5
5296
330
466E
100
AcDbEntity
  8
DEFPOINTS
 62
     0
100
AcDbPoint
 10
-179.0000000000007
 20
-10.50000000000002
 30
0.0
  0
POINT
  5
5297
330
466E
100
AcDbEntity
  8
DEFPOINTS
 62
     0
100
AcDbPoint
 10
-196.5000010000006
 20
-10.50000000000001
 30
0.0
  0
ENDBLK
  5
4679
330
466E
100
AcDbEntity
  8
0
100
AcDbBlockEnd
  0
BLOCK
  5
4824
330
481A
100
AcDbEntity
  8
0
100
AcDbBlockBegin
  2
*D8
 70
     1
 10
0.0
 20
0.0
 30
0.0
  3
*D8
  1

  0
LINE
  5
52A3
330
481A
100
AcDbEntity
  8
AM_5
 62
     3
100
AcDbLine
 10
-4.000000000000648
 20
10.24999999999927
 30
0.0
 11
17.74213734207337
 21
10.24999999999933
 31
0.0
  0
LINE
  5
52A4
330
481A
100
AcDbEntity
  8
AM_5
 62
     3
100
AcDbLine
 10
-4.000000041666784
 20
-10.2500002149407
 30
0.0
 11
17.74213734207342
 21
-10.25000021494064
 31
0.0
  0
LINE
  5
52A5
330
481A
100
AcDbEntity
  8
AM_5
 62
     3
100
AcDbLine
 10
16.74213734207338
 20
7.749999999999332
 30
0.0
 11
16.74213734207342
 21
-7.750000214940648
 31
0.0
  0
INSERT
  5
52A6
330
481A
100
AcDbEntity
  8
AM_5
 62
     3
100
AcDbBlockReference
  2
_OPEN30
 10
16.74213734207337
 20
10.24999999999933
 30
0.0
 41
2.5
 42
2.5
 43
2.5
 50
90.00000000000017
  0
INSERT
  5
52A7
330
481A
100
AcDbEntity
  8
AM_5
 62
     3
100
AcDbBlockReference
  2
_OPEN30
 10
16.74213734207343
 20
-10.25000021494064
 30
0.0
 41
2.5
 42
2.5
 43
2.5
 50
270.0000000000001
  0
MTEXT
  5
52A8
330
481A
100
AcDbEntity
  8
AM_5
 62
     2
100
AcDbMText
 10
13.3421373420734
 20
-0.0000001074706679
 30
0.0
 40
3.799999999999999
 41
0.0
 71
     5
 72
     1
  1
%%c20.5
 11
-0.0000000000000028
 21
1.0
 31
0.0
1001
ACAD
1000
MTEXTBEGIN
1070
    73
1070
     1
1070
    44
1040
1.0
1070
    74
1070
     0
1000
MTEXTEND
  0
POINT
  5
52A9
330
481A
100
AcDbEntity
  8
DEFPOINTS
 62
     0
100
AcDbPoint
 10
-4.000000000000616
 20
10.24999999999928
 30
0.0
  0
POINT
  5
52AA
330
481A
100
AcDbEntity
  8
DEFPOINTS
 62
     0
100
AcDbPoint
 10
-4.000000041666816
 20
-10.25000021494069
 30
0.0
  0
POINT
  5
52AB
330
481A
100
AcDbEntity
  8
DEFPOINTS
 62
     0
100
AcDbPoint
 10
16.7421373420734
 20
-10.25000021494069
 30
0.0
  0
ENDBLK
  5
4825
330
481A
100
AcDbEntity
  8
0
100
AcDbBlockEnd
  0
BLOCK
  5
5068
330
505A
100
AcDbEntity
  8
0
100
AcDbBlockBegin
  2
*D9
 70
     1
 10
0.0
 20
0.0
 30
0.0
  3
*D9
  1

  0
LINE
  5
52FA
330
505A
100
AcDbEntity
  8
AM_5
100
AcDbLine
 10
0.3420201408159578
 20
-0.9396926216998192
 30
0.0
 11
9.461753376184363
 21
-25.9959539655267
 31
0.0
  0
LINE
  5
52FB
330
505A
100
AcDbEntity
  8
AM_5
100
AcDbLine
 10
0.3420222223657845
 20
0.9396918640740279
 30
0.0
 11
9.461810960837285
 21
25.99593300635402
 31
0.0
  0
ARC
  5
52FC
330
505A
100
AcDbEntity
  8
AM_5
100
AcDbCircle
 10
-0.0000000000001837
 20
-0.0000000000005043
 30
0.0
 40
26.6643163575299
100
AcDbArc
 50
295.3739222050545
 51
64.62595087677538
  0
INSERT
  5
52FD
330
505A
100
AcDbEntity
  8
AM_5
100
AcDbBlockReference
  2
_OPEN30
 10
9.119733235368226
 20
-25.05626134382739
 30
0.0
 41
2.5
 42
2.5
 43
2.5
 50
202.6869610260205
  0
INSERT
  5
52FE
330
505A
100
AcDbEntity
  8
AM_5
100
AcDbBlockReference
  2
_OPEN30
 10
9.119788738471321
 20
25.0562411422795
 30
0.0
 41
2.5
 42
2.5
 43
2.5
 50
157.3129120558093
  0
MTEXT
  5
52FF
330
505A
100
AcDbEntity
  8
AM_5
 62
     2
100
AcDbMText
 10
23.56431635751526
 20
-0.0000260991297773
 30
0.0
 40
3.2
 41
0.0
 71
     5
 72
     1
  1
140°
  7
ASAMI
 11
0.0000011075699751
 21
0.9999999999993868
 31
0.0
  0
POINT
  5
5300
330
505A
100
AcDbEntity
  8
DEFPOINTS
 62
     0
100
AcDbPoint
 10
24.48359695085081
 20
-10.56121428448108
 30
0.0
  0
POINT
  5
5301
330
505A
100
AcDbEntity
  8
DEFPOINTS
 62
     0
100
AcDbPoint
 10
-0.0000000000001794
 20
-0.0000000000004925
 30
0.0
  0
POINT
  5
5302
330
505A
100
AcDbEntity
  8
DEFPOINTS
 62
     0
100
AcDbPoint
 10
-0.0000000000001794
 20
-0.000000000000516
 30
0.0
  0
POINT
  5
5303
330
505A
100
AcDbEntity
  8
DEFPOINTS
 62
     0
100
AcDbPoint
 10
-1.243466970606529
 20
3.416397451966302
 30
0.0
  0
POINT
  5
5304
330
505A
100
AcDbEntity
  8
DEFPOINTS
 62
     0
100
AcDbPoint
 10
-1.24349182625033
 20
-3.416442195151562
 30
0.0
  0
ENDBLK
  5
5069
330
505A
100
AcDbEntity
  8
0
100
AcDbBlockEnd
  0
ENDSEC
  0
SECTION
  2
ENTITIES
  0
LINE
  5
C1D
330
1F
100
AcDbEntity
  8
AM_0
 48
0.5
100
AcDbLine
 10
-0.0000000000001794
 20
-0.000000000000516
 30
0.0
 11
-1.243466970606529
 21
3.416397451966302
 31
0.0
  0
LINE
  5
C20
330
1F
100
AcDbEntity
  8
AM_0
 48
0.5
100
AcDbLine
 10
-0.0000000000001794
 20
-0.0000000000004925
 30
0.0
 11
-1.24349182625033
 21
-3.416442195151562
 31
0.0
  0
DIMENSION
  5
CC6
330
1F
100
AcDbEntity
  8
AM_5
100
AcDbDimension
  2
*D5
 10
-4.000000041666818
 20
-34.500001
 30
0.0
 11
-92.00000002083376
 21
-31.100001
 31
0.0
 70
    32
  1
<>
  3
AM_JIS$0
100
AcDbAlignedDimension
 13
-180.0000000000007
 23
-9.500000000000015
 33
0.0
 14
-4.000000041666816
 24
-10.25000035694669
 34
0.0
 50
0.0000000000001132
100
AcDbRotatedDimension
1001
GENIUS_GENDTOL_13
1000

1000
h7
1000

1040
0.0
1001
ACAD
1000
DSTYLE
1002
{
1070
   271
1070
     0
1002
}
  0
TEXT
  5
19BD
330
1F
100
AcDbEntity
  8
AM_6
100
AcDbText
 10
-114.5000000208336
 20
-57.00000100000005
 30
0.0
 40
5.0
  1
MDW205MHK
 50
0.0000000000001527
 72
     4
 11
-92.00000002083369
 21
-54.500001
 31
0.0
100
AcDbText
  0
DIMENSION
  5
2069
330
1F
100
AcDbEntity
  8
AM_5
100
AcDbDimension
  2
*D6
 10
-4.000000041666817
 20
-24.50000099999987
 30
0.0
 11
-56.50000002083377
 21
-21.10000099999987
 31
0.0
 70
    32
  1
<>
 51
359.9999999999998
  3
AM_JIS$0
100
AcDbAlignedDimension
 13
-109.0000000000007
 23
-10.50000000000015
 33
0.0
 14
-4.000000041666816
 24
-10.25000035694669
 34
0.0
 50
0.0000000000001527
100
AcDbRotatedDimension
1001
ACAD
1000
DSTYLE
1002
{
1070
   271
1070
     0
1070
   174
1070
     1
1002
}
1001
GENIUS_GENDTOL_13
1000

1000
h7
1000

1040
0.0
  0
LINE
  5
23EF
330
1F
100
AcDbEntity
  8
AM_7
100
AcDbLine
 10
-182.5000000000006
 20
-0.0000000000000507
 30
0.0
 11
2.742136342074116
 21
-0.0000000000005441
 31
0.0
1001
GENIUS_GENODEF_13
1002
{
1000
HIER
1070
     0
1002
}
1002
{
1000
MANEDIT
1070
     0
1002
}
1002
{
1000
NOSEL
1070
     0
1002
}
1002
{
1000
BEHIND
1070
     0
1002
}
1002
{
1000
REACTOR
1002
}
1001
GENIUS_GENOBJ-N-CEN_13
1002
{
1000
OWNER
1000
GEN
1002
}
  0
LINE
  5
24A7
330
1F
100
AcDbEntity
  8
AM_0
 48
0.5
100
AcDbLine
 10
-2.856958555044744
 20
7.843430607708585
 30
0.0
 11
-4.000000000000698
 21
10.24999999999946
 31
0.0
  0
ELLIPSE
  5
24B7
330
1F
100
AcDbEntity
  8
AM_11
 48
0.5
100
AcDbEllipse
 10
-28.32582499005432
 20
38.36737078347187
 30
0.0
 11
-44.28566312789857
 21
0.000000000000337
 31
0.0
210
0.0
220
0.0
230
1.0
 40
0.9578947368421058
 41
1.130070686340284
 42
2.011520147323574
  0
ELLIPSE
  5
24B8
330
1F
100
AcDbEntity
  8
AM_11
 48
0.5
100
AcDbEllipse
 10
-28.32582499005642
 20
-38.36737699914834
 30
0.0
 11
-44.2856631278985
 21
0.0000000000001994
 31
0.0
210
0.0
220
0.0
230
1.0
 40
0.9578947368421054
 41
4.271664206181664
 42
5.153113667164971
  0
ELLIPSE
  5
24B9
330
1F
100
AcDbEntity
  8
AM_11
 48
0.5
100
AcDbEllipse
 10
9.45826591903663
 20
38.36737078347087
 30
0.0
 11
-44.28566312789846
 21
0.0000000000034641
 31
0.0
210
0.0
220
0.0
230
1.0
 40
0.9578947368421141
 41
1.130070686340349
 42
1.291800737381041
  0
ELLIPSE
  5
24BE
330
1F
100
AcDbEntity
  8
AM_0
 48
0.5
100
AcDbEllipse
 10
9.799404866631284
 20
10.40037920864711
 30
0.0
 11
11.65966178385858
 21
5.943408837044885
 31
0.0
210
0.0
220
0.0
230
1.0
 40
0.8518863252772563
 41
2.825112492637462
 42
3.25008581321566
  0
ELLIPSE
  5
24C7
330
1F
100
AcDbEntity
  8
AM_11
 48
0.5
100
AcDbEllipse
 10
-141.6780977173164
 20
38.36737078347476
 30
0.0
 11
-44.28566312789857
 21
0.0000000000009861
 31
0.0
210
0.0
220
0.0
230
1.0
 40
0.9578947368421058
 41
1.130070686340301
 42
2.011520147323591
  0
ELLIPSE
  5
24C8
330
1F
100
AcDbEntity
  8
AM_11
 48
0.5
100
AcDbEllipse
 10
-141.6780977173185
 20
-38.36737699914545
 30
0.0
 11
44.2856631278985
 21
0.0000000000007402
 31
0.0
210
0.0
220
0.0
230
1.0
 40
0.957894736842107
 41
1.13007155259185
 42
2.011521013575156
  0
ELLIPSE
  5
24D4
330
1F
100
AcDbEntity
  8
AM_11
 48
0.5
100
AcDbEllipse
 10
-103.8940068082255
 20
38.36737078347383
 30
0.0
 11
-44.28566312789863
 21
0.0000000000002584
 31
0.0
210
0.0
220
0.0
230
1.0
 40
0.9578947368421049
 41
1.130070686340283
 42
2.011520147323574
  0
ELLIPSE
  5
24D5
330
1F
100
AcDbEntity
  8
AM_11
 48
0.5
100
AcDbEllipse
 10
-103.8940068082276
 20
-38.36737699914637
 30
0.0
 11
-44.28566312789843
 21
0.0000000000007992
 31
0.0
210
0.0
220
0.0
230
1.0
 40
0.9578947368421083
 41
4.271664206181676
 42
5.153113667164986
  0
ELLIPSE
  5
24E6
330
1F
100
AcDbEntity
  8
AM_11
 48
0.5
100
AcDbEllipse
 10
-66.10991589914732
 20
-38.36737699914738
 30
0.0
 11
-44.2856631278985
 21
0.0000000000012024
 31
0.0
210
0.0
220
0.0
230
1.0
 40
0.957894736842106
 41
4.271664206181685
 42
5.153113667164993
  0
ELLIPSE
  5
24E7
330
1F
100
AcDbEntity
  8
AM_11
 48
0.5
100
AcDbEllipse
 10
-66.10991589914521
 20
38.36737078347283
 30
0.0
 11
44.28566312789858
 21
0.0000000000000715
 31
0.0
210
0.0
220
0.0
230
1.0
 40
0.9578947368421051
 41
4.271663339930067
 42
5.153112800913361
  0
ELLIPSE
  5
2BF3
330
1F
100
AcDbEntity
  8
AM_11
 48
0.5
100
AcDbEllipse
 10
-179.4621886263918
 20
38.36737078347358
 30
0.0
 11
-44.28566312789863
 21
0.0000000000002584
 31
0.0
210
0.0
220
0.0
230
1.0
 40
0.9578947368421049
 41
1.558651886451923
 42
2.011520147323574
  0
ELLIPSE
  5
2BF5
330
1F
100
AcDbEntity
  8
AM_11
 48
0.5
100
AcDbEllipse
 10
-179.4621886263939
 20
-38.36737699914662
 30
0.0
 11
-44.28566312789843
 21
0.0000000000007992
 31
0.0
210
0.0
220
0.0
230
1.0
 40
0.9578947368421083
 41
4.271664206181676
 42
4.724533420727635
  0
LINE
  5
2C0E
330
1F
100
AcDbEntity
  8
AM_0
 48
0.5
100
AcDbLine
 10
-109.0000000000006
 20
-10.50000000000015
 30
0.0
 11
-109.0000000000007
 21
10.49999999999984
 31
0.0
  0
LINE
  5
2FB7
330
1F
100
AcDbEntity
  8
AM_0
100
AcDbLine
 10
-109.0000000000006
 20
10.49999999999983
 30
0.0
 11
-108.5670482059721
 21
10.25003516517138
 31
0.0
  0
LINE
  5
2FB9
330
1F
100
AcDbEntity
  8
AM_0
100
AcDbLine
 10
-109.0000000000006
 20
-10.50000000000012
 30
0.0
 11
-108.566986806854
 21
-10.24999971637427
 31
0.0
  0
ELLIPSE
  5
4071
330
1F
100
AcDbEntity
  8
AM_0
 48
0.5
100
AcDbEllipse
 10
9.799404866631206
 20
-10.40037920864817
 30
0.0
 11
11.65966178385855
 21
-5.943408837044979
 31
0.0
210
0.0
220
0.0
230
-0.9999999999999998
 40
0.8518863252772563
 41
2.825112492637462
 42
3.25008581321566
  0
LINE
  5
4072
330
1F
100
AcDbEntity
  8
AM_0
 48
0.5
100
AcDbLine
 10
-2.856958555044804
 20
-7.843430607709548
 30
0.0
 11
-4.000000000000698
 21
-10.25000024538156
 31
0.0
  0
LINE
  5
4431
330
1F
100
AcDbEntity
  8
AM_0
 48
0.5
100
AcDbLine
 10
-108.5671089252596
 20
-10.24999969571337
 30
0.0
 11
-102.899631348227
 21
-10.24999988364796
 31
0.0
  0
LINE
  5
4432
330
1F
100
AcDbEntity
  8
AM_0
100
AcDbLine
 10
-108.5670416415897
 20
10.25008013383522
 30
0.0
 11
-108.5671089252596
 21
-10.24999969571337
 31
0.0
  0
LINE
  5
4433
330
1F
100
AcDbEntity
  8
AM_0
 48
0.5
100
AcDbLine
 10
-104.0596172521789
 20
10.2501608826064
 30
0.0
 11
-108.5670416415897
 21
10.25008013383522
 31
0.0
  0
LINE
  5
4434
330
1F
100
AcDbEntity
  8
AM_0
 48
0.5
100
AcDbLine
 10
-12.70805355998036
 20
10.24999999999979
 30
0.0
 11
-4.000000000000698
 21
10.24999999999945
 31
0.0
  0
LINE
  5
4435
330
1F
100
AcDbEntity
  8
AM_0
 48
0.5
100
AcDbLine
 10
-12.70805355764986
 20
-10.24999894015373
 30
0.0
 11
-4.000000000000698
 21
-10.2500003569467
 31
0.0
  0
LINE
  5
4436
330
1F
100
AcDbEntity
  8
AM_0
 48
0.5
100
AcDbLine
 10
-0.0000000000001661
 20
-0.0000000000004927
 30
0.0
 11
-8.016058464243318
 21
3.935689714427083
 31
0.0
  0
LINE
  5
4437
330
1F
100
AcDbEntity
  8
AM_0
 48
0.5
100
AcDbLine
 10
-82.93902300120079
 20
10.2500010598489
 30
0.0
 11
-45.80366641553054
 21
10.25000000000104
 31
0.0
  0
LINE
  5
4438
330
1F
100
AcDbEntity
  8
AM_0
 48
0.5
100
AcDbLine
 10
-78.11235635524224
 20
-10.24999999999985
 30
0.0
 11
-45.80367343040496
 21
-10.25000000000012
 31
0.0
  0
LINE
  5
4439
330
1F
100
AcDbEntity
  8
AM_11
 48
0.5
100
AcDbLine
 10
-45.80367343040496
 20
-10.25000000000012
 30
0.0
 11
-12.70805355764986
 21
-10.24999894015373
 31
0.0
  0
LINE
  5
443A
330
1F
100
AcDbEntity
  8
AM_11
 48
0.5
100
AcDbLine
 10
-45.80366641553054
 20
10.25000000000104
 30
0.0
 11
-12.70805355998036
 21
10.24999999999979
 31
0.0
  0
SPLINE
  5
443B
330
1F
100
AcDbEntity
  8
AM_0
100
AcDbSpline
210
0.0
220
0.0
230
1.0
 70
     8
 71
     3
 72
    22
 73
    18
 74
     0
 42
0.0000000001
 43
0.0000000001
 40
17.17441611292
 40
17.17441611292
 40
17.17441611292
 40
17.17441611292
 40
17.38177636558528
 40
18.41823744757437
 40
19.46215659509824
 40
20.51397914882054
 40
21.57394542641293
 40
22.64209583141747
 40
23.71826625065247
 40
24.80210429862395
 40
25.8930771157021
 40
26.99048705697709
 40
28.09349309193389
 40
29.20112995599786
 40
30.31233024745139
 40
31.42594771747373
 40
32.5407895042663
 40
32.54078950426994
 40
32.54078950426994
 40
32.54078950426994
 10
-52.50939307134908
 20
-9.204573126055095
 30
0.0
 10
-52.62703809856548
 20
-9.180845381393231
 30
0.0
 10
-53.3322557870361
 20
-9.036317095151403
 30
0.0
 10
-54.62417485345582
 20
-8.746519070461276
 30
0.0
 10
-56.38027467400716
 20
-8.298647210926276
 30
0.0
 10
-58.13619555167304
 20
-7.799631230492502
 30
0.0
 10
-59.89194988315642
 20
-7.252586110642392
 30
0.0
 10
-61.64753534922791
 20
-6.66086604677698
 30
0.0
 10
-63.40297355910893
 20
-6.028153586284357
 30
0.0
 10
-65.15827264097175
 20
-5.358337176371017
 30
0.0
 10
-66.91344883550693
 20
-4.655547538135214
 30
0.0
 10
-68.66852165916089
 20
-3.924120438490481
 30
0.0
 10
-70.42350634490695
 20
-3.168553444791428
 30
0.0
 10
-72.1784205595032
 20
-2.393494932858777
 30
0.0
 10
-73.93327985873674
 20
-1.603710635225131
 30
0.0
 10
-75.68811023932212
 20
-0.8040739478916123
 30
0.0
 10
-76.85776752491989
 20
-0.2677745836917667
 30
0.0
 10
-77.4429174809961
 20
0.0005224018096395
 30
0.0
  0
SPLINE
  5
443C
330
1F
100
AcDbEntity
  8
AM_0
100
AcDbSpline
210
0.0
220
0.0
230
1.0
 70
     8
 71
     3
 72
    17
 73
    13
 74
     0
 42
0.0000000001
 43
0.0000000001
 40
1.580019955310467
 40
1.580019955310467
 40
1.580019955310467
 40
1.580019955310467
 40
2.030549285115227
 40
3.082371838836284
 40
4.126290986361125
 40
5.162752068350215
 40
6.192395305374981
 40
7.216039564037012
 40
8.234688489606833
 40
9.249433870634691
 40
10.26152376260694
 40
11.27226744710342
 40
11.27226744710342
 40
11.27226744710342
 40
11.27226744710352
 10
-29.25456893548319
 20
-7.564800767704298
 30
0.0
 10
-29.50314201890281
 20
-7.642711942160511
 30
0.0
 10
-30.3334596286832
 20
-7.898076222965635
 30
0.0
 10
-31.75101769872849
 20
-8.298624234500973
 30
0.0
 10
-33.50687307420275
 20
-8.747184871092098
 30
0.0
 10
-35.26321183501797
 20
-9.140961553885377
 30
0.0
 10
-37.01963107066205
 20
-9.478631892277448
 30
0.0
 10
-38.77624166503399
 20
-9.757739655919781
 30
0.0
 10
-40.5329736185913
 20
-9.976692099874759
 30
0.0
 10
-42.2898149603425
 20
-10.13407033904318
 30
0.0
 10
-44.04672240626663
 20
-10.22886131142285
 30
0.0
 10
-45.21827831463922
 20
-10.24999899880356
 30
0.0
 10
-45.80367343040498
 20
-10.25000000000012
 30
0.0
  0
SPLINE
  5
443D
330
1F
100
AcDbEntity
  8
AM_0
100
AcDbSpline
210
0.0
220
0.0
230
1.0
 70
     8
 71
     3
 72
    11
 73
     7
 74
     0
 42
0.0000000001
 43
0.0000000001
 40
11.27226913003534
 40
11.27226913003534
 40
11.27226913003534
 40
11.2722691300354
 40
12.28301561507924
 40
13.29510212255852
 40
14.30984805882082
 40
15.18258238371378
 40
15.18258238371378
 40
15.18258238371378
 40
15.18258238371378
 10
-45.80367343040506
 20
-10.25000000000012
 30
0.0
 10
-46.38682857801707
 20
-10.19983246152191
 30
0.0
 10
-47.5520529529161
 20
-10.07838160009161
 30
0.0
 10
-49.29387251382177
 20
-9.833385171787369
 30
0.0
 10
-50.94688999018272
 20
-9.54076380098864
 30
0.0
 10
-52.01596466371374
 20
-9.315817044285001
 30
0.0
 10
-52.50862471515038
 20
-9.204699559726718
 30
0.0
  0
SPLINE
  5
443E
330
1F
100
AcDbEntity
  8
AM_0
 48
0.5
100
AcDbSpline
210
0.0
220
0.0
230
1.0
 70
     8
 71
     3
 72
    25
 73
    21
 74
     0
 42
0.0000000001
 43
0.0000000001
 40
6.846175049578289
 40
6.846175049578289
 40
6.846175049578289
 40
6.846175049578289
 40
7.604337694224321
 40
8.711974558287883
 40
9.814980593243754
 40
10.91239053451967
 40
12.0033633515982
 40
13.08720139956839
 40
14.16337181880432
 40
15.23152222380919
 40
16.29148850140128
 40
17.34331105512262
 40
18.38723020264746
 40
19.42369128463655
 40
20.45333379090873
 40
21.47697865721768
 40
22.49561244472435
 40
23.5103574802404
 40
24.52244778960836
 40
25.53320666051913
 40
25.53320666051913
 40
25.53320666051913
 40
25.53320666051913
 10
-14.75704988665198
 20
1.855318165067437
 30
0.0
 10
-15.1561591259365
 20
2.035289935509565
 30
0.0
 10
-16.13918650373489
 20
2.47639032997531
 30
0.0
 10
-17.70759290326886
 20
3.1690767378176
 30
0.0
 10
-19.46257749310337
 20
3.92464394501877
 30
0.0
 10
-21.21765034225272
 20
4.656070987811388
 30
0.0
 10
-22.97282653006353
 20
5.358860641407753
 30
0.0
 10
-24.72812561353002
 20
6.028677046297189
 30
0.0
 10
-26.48356382365517
 20
6.661389511616491
 30
0.0
 10
-28.23914928719342
 20
7.253109561302655
 30
0.0
 10
-29.99490362845389
 20
7.800154732512731
 30
0.0
 10
-31.75082446993562
 20
8.29917052370358
 30
0.0
 10
-33.50692442404962
 20
8.747043081562981
 30
0.0
 10
-35.26319729343834
 20
9.141000592658993
 30
0.0
 10
-37.01963621721238
 20
9.478628379311992
 30
0.0
 10
-38.77623142161464
 20
9.757688487947667
 30
0.0
 10
-40.53295557472904
 20
9.976903735054072
 30
0.0
 10
-42.28978931567258
 20
10.13329663369163
 30
0.0
 10
-44.04670412573971
 20
10.23171114438044
 30
0.0
 10
-45.21826935862296
 20
10.24390709714878
 30
0.0
 10
-45.80366641553054
 20
10.25000000000103
 30
0.0
  0
SPLINE
  5
443F
330
1F
100
AcDbEntity
  8
AM_0
 48
0.5
100
AcDbSpline
210
0.0
220
0.0
230
1.0
 70
     8
 71
     3
 72
    17
 73
    13
 74
     0
 42
0.0000000001
 43
0.0000000001
 40
0.0
 40
0.0
 40
0.0
 40
0.0
 40
1.010743614677189
 40
2.022833924044153
 40
3.037578959561199
 40
4.056212747067873
 40
5.079857613375832
 40
6.109500119648989
 40
7.14596120163808
 40
8.18989512056258
 40
9.241717674284874
 40
9.693948937866434
 40
9.693948937866434
 40
9.693948937866434
 40
9.693948937866434
 10
-12.70805355998036
 20
10.24999999999979
 30
0.0
 10
-13.29344177279774
 20
10.2439058931981
 30
0.0
 10
-14.46499815804469
 20
10.2317095599281
 30
0.0
 10
-16.22190416111995
 20
10.13329562021832
 30
0.0
 10
-17.97873783339487
 20
9.976902519424694
 30
0.0
 10
-19.73546224556654
 20
9.757688008254705
 30
0.0
 10
-21.49205647555619
 20
9.478625138655894
 30
0.0
 10
-23.24849906830173
 20
9.141007745964207
 30
0.0
 10
-25.00476644939155
 20
8.747009184990425
 30
0.0
 10
-26.76092676904989
 20
8.29928195551745
 30
0.0
 10
-28.17854517320186
 20
7.895947400901398
 30
0.0
 10
-29.01105381661756
 20
7.643805302219488
 30
0.0
 10
-29.26092824673008
 20
7.566626293726256
 30
0.0
  0
SPLINE
  5
4440
330
1F
100
AcDbEntity
  8
AM_0
 48
0.5
100
AcDbSpline
210
0.0
220
0.0
230
1.0
 70
     8
 71
     3
 72
    10
 73
     6
 74
     0
 42
0.0000000001
 43
0.0000000001
 40
0.0
 40
0.0
 40
0.0
 40
0.0
 40
2.69986029516136
 40
4.147722969032201
 40
6.285750005020438
 40
6.285750005020438
 40
6.285750005020438
 40
6.285750005020438
 10
-14.75676899582516
 20
1.85519642320878
 30
0.0
 10
-13.50634246897693
 20
0.9029005925164108
 30
0.0
 10
-11.58534572859355
 20
-0.5600859543635261
 30
0.0
 10
-7.042446489723386
 20
0.1481714623429861
 30
0.0
 10
-7.898006554773785
 20
2.533676158216518
 30
0.0
 10
-8.016058464243318
 20
3.935689714427084
 30
0.0
  0
ELLIPSE
  5
4441
330
1F
100
AcDbEntity
  8
AM_0
 48
0.5
100
AcDbEllipse
 10
-20.75301048764903
 20
37.49078601006363
 30
0.0
 11
-30.30054850949777
 21
30.30054850949778
 31
0.0
210
0.0
220
0.0
230
1.0
 40
0.9999999999999914
 41
2.755964978443536
 42
2.861758854623459
  0
ELLIPSE
  5
4442
330
1F
100
AcDbEntity
  8
AM_0
 48
0.5
100
AcDbEllipse
 10
-73.22760693578866
 20
168.2689800110475
 30
0.0
 11
-130.2286077707444
 21
130.2286077707445
 31
0.0
210
0.0
220
0.0
230
1.0
 40
0.9999999999996431
 41
2.712126903869485
 42
2.732184780171082
  0
ELLIPSE
  5
4443
330
1F
100
AcDbEntity
  8
AM_0
 48
0.5
100
AcDbEllipse
 10
-4.839550140372447
 20
-2.504261967309165
 30
0.0
 11
-0.3023132975148739
 21
1.681681363354176
 31
0.0
210
0.0
220
0.0
230
1.0
 40
0.5071669508808171
 41
1.800658447399878
 42
4.936000337111854
  0
ELLIPSE
  5
4444
330
1F
100
AcDbEntity
  8
AM_0
 48
0.5
100
AcDbEllipse
 10
-4.839699932616564
 20
-2.507897376651085
 30
0.0
 11
-1.508739767546369
 21
0.8470230297457705
 31
0.0
210
0.0
220
0.0
230
1.0
 40
0.4957125835687846
 41
4.474232573723973
 42
7.617672915053487
  0
ELLIPSE
  5
4445
330
1F
100
AcDbEntity
  8
AM_0
 48
0.5
100
AcDbEllipse
 10
3.366431975276702
 20
12.30575667507998
 30
0.0
 11
-21.00981488400223
 21
0.0000000000029543
 31
0.0
210
0.0
220
0.0
230
1.0
 40
0.9832694318577907
 41
0.5303675532341967
 42
0.9384884834290904
  0
ELLIPSE
  5
4446
330
1F
100
AcDbEntity
  8
AM_0
 48
0.5
100
AcDbEllipse
 10
7.542668925148997
 20
-2.73741343534475
 30
0.0
 11
-17.39516308031935
 21
5.894371460381429
 31
0.0
210
0.0
220
0.0
230
1.0
 40
0.664984022106093
 41
0.5964687305498653
 42
1.088354357010207
  0
SPLINE
  5
4447
330
1F
100
AcDbEntity
  8
AM_0
100
AcDbSpline
210
0.0
220
0.0
230
1.0
 70
     8
 71
     3
 72
    46
 73
    42
 74
     0
 42
0.0000000001
 43
0.0000000001
 40
0.0
 40
0.0
 40
0.0
 40
0.0
 40
1.685415058684571
 40
2.531036209541119
 40
3.379897699130121
 40
4.232934581347655
 40
5.090970612202441
 40
5.954688180526682
 40
6.824620803463246
 40
7.701151815239689
 40
8.584457046566678
 40
9.474582384070741
 40
10.37139106676737
 40
11.27458944007583
 40
12.18373345430765
 40
13.09824173870457
 40
14.01741343450111
 40
14.9404441545541
 40
15.86644439743314
 40
16.79446029130534
 40
17.7234937712985
 40
18.65252725129241
 40
19.58054314516461
 40
20.50654338804289
 40
21.42957410809586
 40
22.34874580389317
 40
23.26325408828901
 40
24.17239810252111
 40
25.07560240389441
 40
25.97241108659103
 40
26.8625364240951
 40
27.74584165542183
 40
28.62236045019041
 40
29.49229307312697
 40
30.35601064145121
 40
31.21404606334468
 40
32.06708345193547
 40
32.91595755657689
 40
33.76157841950693
 40
34.60498701064689
 40
35.44727335621125
 40
35.44727335621125
 40
35.44727335621125
 40
35.44727335621125
 10
-7.789906412518186
 20
-10.24999894015392
 30
0.0
 10
-8.961519542677393
 20
-10.22664864781949
 30
0.0
 10
-10.72096463647
 20
-10.19158284305096
 30
0.0
 10
-13.06057550398459
 20
-9.975689125022478
 30
0.0
 10
-14.81731813490873
 20
-9.758010826974953
 30
0.0
 10
-16.57391060615797
 20
-9.478548868398338
 30
0.0
 10
-18.33034829026622
 20
-9.141019356179439
 30
0.0
 10
-20.08662216406868
 20
-8.747035968935033
 30
0.0
 10
-21.84272928607047
 20
-8.299165258333832
 30
0.0
 10
-23.59866184097463
 20
-7.800157216838016
 30
0.0
 10
-25.3544233384692
 20
-7.253106877374831
 30
0.0
 10
-27.11000905608964
 20
-6.661387544422772
 30
0.0
 10
-28.8654471982597
 20
-6.028674886831804
 30
0.0
 10
-30.62074629675978
 20
-5.358858526689993
 30
0.0
 10
-32.37592249320205
 20
-4.656068888584702
 30
0.0
 10
-34.13099529221191
 20
-3.924641737708842
 30
0.0
 10
-35.88598007533615
 20
-3.169074950338288
 30
0.0
 10
-37.64089392300476
 20
-2.394015659945983
 30
0.0
 10
-39.39575544230722
 20
-1.604233902310974
 30
0.0
 10
-41.1505806640181
 20
-0.8045862800748121
 30
0.0
 10
-42.90539113435843
 20
0.0000010596846018
 30
0.0
 10
-44.66020160431319
 20
0.8045884004217519
 30
0.0
 10
-46.41502682718042
 20
1.604236019726135
 30
0.0
 10
-48.16988834225631
 20
2.39401778807549
 30
0.0
 10
-49.9248022055973
 20
3.169077038732188
 30
0.0
 10
-51.67978693060983
 20
3.924643973438349
 30
0.0
 10
-53.43485994482724
 20
4.65607057867864
 30
0.0
 10
-55.19003916089796
 20
5.358863762929661
 30
0.0
 10
-56.94534507964352
 20
6.028674037450295
 30
0.0
 10
-58.70078635324621
 20
6.661389939375092
 30
0.0
 10
-60.45637202999162
 20
7.25310944839514
 30
0.0
 10
-62.21212631501741
 20
7.800154760933203
 30
0.0
 10
-63.96804717050404
 20
8.299170521660711
 30
0.0
 10
-65.72414712419436
 20
8.747043061862774
 30
0.0
 10
-67.48041998155773
 20
9.14100067264561
 30
0.0
 10
-69.2368589533786
 20
9.478628081723776
 30
0.0
 10
-70.99346263533653
 20
9.75769096504009
 30
0.0
 10
-72.75019621421126
 20
9.976901677754236
 30
0.0
 10
-74.50703848133755
 20
10.13329697849019
 30
0.0
 10
-76.2639445205314
 20
10.23171054536816
 30
0.0
 10
-77.43550090097222
 20
10.24390692825511
 30
0.0
 10
-78.02088911138793
 20
10.25000105984872
 30
0.0
  0
SPLINE
  5
4448
330
1F
100
AcDbEntity
  8
AM_0
100
AcDbSpline
210
0.0
220
0.0
230
1.0
 70
     8
 71
     3
 72
    13
 73
     9
 74
     0
 42
0.0000000001
 43
0.0000000001
 40
16.03460056234195
 40
16.03460056234195
 40
16.03460056234195
 40
16.03460056234195
 40
16.35212717791071
 40
17.38177067057215
 40
18.41822498539278
 40
19.46214186516937
 40
20.5139635832251
 40
21.34083983469381
 40
21.34083983469381
 40
21.34083983469381
 40
21.34083983469381
 10
-102.8996163934495
 20
-10.24999999999964
 30
0.0
 10
-102.5286789320254
 20
-10.2168523583703
 30
0.0
 10
-101.7636372194513
 20
-10.06617367248879
 30
0.0
 10
-100.4160098535647
 20
-9.770930236540921
 30
0.0
 10
-98.67082771590984
 20
-9.331912818976336
 30
0.0
 10
-96.92726686440982
 20
-8.838967739364832
 30
0.0
 10
-95.31389949881519
 20
-8.335133624873428
 30
0.0
 10
-94.28459953081114
 20
-7.988207981033143
 30
0.0
 10
-93.83305180387525
 20
-7.831394428830289
 30
0.0
  0
ELLIPSE
  5
4449
330
1F
100
AcDbEntity
  8
AM_0
 48
0.5
100
AcDbEllipse
 10
-103.0254176819039
 20
-6.833854675290583
 30
0.0
 11
-2.938768610493368
 21
1.954955827857808
 31
0.0
210
0.0
220
0.0
230
1.0
 40
0.9533223776444634
 41
0.6204969377444103
 42
2.172127168256938
  0
ELLIPSE
  5
444A
330
1F
100
AcDbEntity
  8
AM_0
 48
0.5
100
AcDbEllipse
 10
-103.8947544570768
 20
-6.937953631080611
 30
0.0
 11
2.529066841897255
 21
0.6402266927875929
 31
0.0
210
0.0
220
0.0
230
1.0
 40
0.9856920594379364
 41
1.036438448448569
 42
2.86468463071038
  0
SPLINE
  5
444B
330
1F
100
AcDbEntity
  8
AM_0
100
AcDbSpline
210
0.0
220
0.0
230
1.0
 70
     8
 71
     3
 72
    55
 73
    51
 74
     0
 42
0.0000000001
 43
0.0000000001
 40
0.0
 40
0.0
 40
0.0
 40
0.0
 40
1.010743684496582
 40
2.022833576467832
 40
3.037578957496688
 40
4.056212745003489
 40
5.079857003664532
 40
6.109500240690281
 40
7.145961322679372
 40
8.189895241603872
 40
9.241717795325891
 40
10.30168407291828
 40
11.36983447792315
 40
12.44600489715814
 40
13.52984294512926
 40
14.62081576220742
 40
15.7182257034828
 40
16.82123173843959
 40
17.92886860250316
 40
19.0400688939571
 40
20.15368796660465
 40
21.26852814259644
 40
22.38336992938901
 40
23.49698739941135
 40
24.6081876908653
 40
25.71582455492886
 40
26.81883757994213
 40
27.91624752121713
 40
29.00722033829659
 40
30.09105838626677
 40
31.16722880550176
 40
32.23537921050758
 40
33.29534548809967
 40
34.347168041821
 40
35.39108718934584
 40
36.42754827133493
 40
37.45720575381954
 40
38.48085062012849
 40
39.49948440763516
 40
40.51422944315121
 40
41.52631975251916
 40
42.53706336719636
 40
43.54780698187354
 40
44.55989729124051
 40
45.57464232675757
 40
46.59327611426424
 40
47.6169209805722
 40
48.64656348684535
 40
49.68302456883444
 40
50.58557219878025
 40
50.58557219878025
 40
50.58557219878025
 40
50.58557219878025
 10
-12.70805355764986
 20
-10.24999894015372
 30
0.0
 10
-13.2934416639336
 20
-10.24390043847514
 30
0.0
 10
-14.46499755373908
 20
-10.23169531253591
 30
0.0
 10
-16.22190503692817
 20
-10.13330829549218
 30
0.0
 10
-17.97873752436114
 20
-9.976898639948981
 30
0.0
 10
-19.73546128111121
 20
-9.757684558998095
 30
0.0
 10
-21.49205877784067
 20
-9.478636823726549
 30
0.0
 10
-23.24849536080836
 20
-9.140996314943823
 30
0.0
 10
-25.0047769052168
 20
-8.747037499462349
 30
0.0
 10
-26.7608878363981
 20
-8.299172792573305
 30
0.0
 10
-28.51681619203622
 20
-7.80015205640774
 30
0.0
 10
-30.27257072446333
 20
-7.253107592542145
 30
0.0
 10
-32.0281561359402
 20
-6.661387350598262
 30
0.0
 10
-33.78359436110028
 20
-6.028674939389399
 30
0.0
 10
-35.53889343699376
 20
-5.358858512245063
 30
0.0
 10
-37.29406964004878
 20
-4.656068893317587
 30
0.0
 10
-39.04914243540693
 20
-3.924641733318348
 30
0.0
 10
-40.80412722652422
 20
-3.169074963217732
 30
0.0
 10
-42.55904104572793
 20
-2.39401561257458
 30
0.0
 10
-44.31390267134171
 20
-1.604234079610454
 30
0.0
 10
-46.06872749517241
 20
-0.8045856166182469
 30
0.0
 10
-47.8235402980648
 20
-0.0000010315247536
 30
0.0
 10
-49.57834522331602
 20
0.8045980365926943
 30
0.0
 10
-51.33317592893702
 20
1.604234046943213
 30
0.0
 10
-53.08803538815055
 20
2.394017970531078
 30
0.0
 10
-54.84295233634622
 20
3.169080273804895
 30
0.0
 10
-56.59794440798227
 20
3.924640595766019
 30
0.0
 10
-58.35301997330899
 20
4.656071465118651
 30
0.0
 10
-60.10819642975306
 20
5.358860514156213
 30
0.0
 10
-61.86349544177681
 20
6.028677082160426
 30
0.0
 10
-63.61893367143192
 20
6.661389494294825
 30
0.0
 10
-65.37451912762489
 20
7.253109594749471
 30
0.0
 10
-67.13027347883896
 20
7.800154617197795
 30
0.0
 10
-68.88619428814208
 20
8.299170947016646
 30
0.0
 10
-70.64229435980556
 20
8.747041519815946
 30
0.0
 10
-72.39857525272468
 20
9.141008257313583
 30
0.0
 10
-74.15502437723825
 20
9.47861020286326
 30
0.0
 10
-75.91162767726941
 20
9.757744309307843
 30
0.0
 10
-77.66835195479102
 20
9.97669854026031
 30
0.0
 10
-79.42518566292459
 20
10.13405801466422
 30
0.0
 10
-81.18209165646552
 20
10.22887873014203
 30
0.0
 10
-82.93903625695014
 20
10.26055519365572
 30
0.0
 10
-84.69598085484967
 20
10.2288787300925
 30
0.0
 10
-86.45288685616089
 20
10.1340580148637
 30
0.0
 10
-88.20972053568631
 20
9.976698539509767
 30
0.0
 10
-89.96644492046709
 20
9.757744312129926
 30
0.0
 10
-91.72303925349458
 20
9.478611553077525
 30
0.0
 10
-93.47948145826718
 20
9.141011709111715
 30
0.0
 10
-95.15590807041737
 20
8.764925115480501
 30
0.0
 10
-96.24359274806945
 20
8.48988943415812
 30
0.0
 10
-96.74821504365194
 20
8.355851129601191
 30
0.0
  0
SPLINE
  5
444C
330
1F
100
AcDbEntity
  8
AM_0
100
AcDbSpline
210
0.0
220
0.0
230
1.0
 70
     8
 71
     3
 72
    23
 73
    19
 74
     0
 42
0.0000000001
 43
0.0000000001
 40
16.03460024169435
 40
16.03460024169435
 40
16.03460024169435
 40
16.03460024169435
 40
16.35212704903564
 40
17.38177054169784
 40
18.41822485651776
 40
19.46214173629503
 40
20.51396345435107
 40
21.57393551351153
 40
22.64208202342361
 40
23.7182574881101
 40
24.80209208578934
 40
25.89306333925047
 40
26.99048218457928
 40
28.09348763352352
 40
29.20111863782268
 40
30.31232390128032
 40
31.42594612798585
 40
32.5407912310448
 40
32.5407912310486
 40
32.5407912310486
 40
32.5407912310486
 10
-104.059345786465
 20
10.25000000000034
 30
0.0
 10
-103.878845134111
 20
10.21539780502139
 30
0.0
 10
-103.1138040545926
 20
10.06471498488909
 30
0.0
 10
-101.7661759540931
 20
9.769474995937315
 30
0.0
 10
-100.0209940360615
 20
9.330456361079106
 30
0.0
 10
-98.27743312508314
 20
8.837511611131203
 30
0.0
 10
-96.5353901927533
 20
8.293493658878256
 30
0.0
 10
-94.79480341088118
 20
7.701435416583054
 30
0.0
 10
-93.0555721777223
 20
7.064721338837277
 30
0.0
 10
-91.31757537982414
 20
6.387056941862758
 30
0.0
 10
-89.58071425796648
 20
5.672279799629214
 30
0.0
 10
-87.84484956169514
 20
4.924549033780484
 30
0.0
 10
-86.10984061858806
 20
4.148210778583533
 30
0.0
 10
-84.37557182994774
 20
3.347728653543885
 30
0.0
 10
-82.6418980916113
 20
2.527757352597086
 30
0.0
 10
-80.90865882867346
 20
1.693084906562894
 30
0.0
 10
-79.17571290653139
 20
0.8485480162447556
 30
0.0
 10
-78.02072593755013
 20
0.2823322100863236
 30
0.0
 10
-77.44291748098835
 20
-0.0009348565616022
 30
0.0
  0
LINE
  5
444D
330
1F
100
AcDbEntity
  8
AM_11
 48
0.5
100
AcDbLine
 10
-104.059345786465
 20
10.25000000000034
 30
0.0
 11
-82.93899449614405
 21
10.25000000000017
 31
0.0
  0
SPLINE
  5
444E
330
1F
100
AcDbEntity
  8
AM_0
 48
0.5
100
AcDbSpline
210
0.0
220
0.0
230
1.0
 70
     8
 71
     3
 72
    26
 73
    22
 74
     0
 42
0.0000000001
 43
0.0000000001
 40
0.0
 40
0.0
 40
0.0
 40
0.0
 40
0.8422864037471089
 40
1.685694647057321
 40
2.531315797913884
 40
3.380177287502886
 40
4.233214169721234
 40
5.09125020057522
 40
5.954967768899448
 40
6.824900391836836
 40
7.701419186604396
 40
8.584724417931369
 40
9.47485577056355
 40
10.37165251267315
 40
11.27486274211709
 40
12.18400675634887
 40
13.09851504074504
 40
14.01768673654235
 40
14.94071745659532
 40
15.8667176994736
 40
16.76607142455336
 40
16.76607142455336
 40
16.76607142455336
 40
16.76607142455336
 10
-73.19450243936846
 20
-10.25052134195832
 30
0.0
 10
-73.77989054572262
 20
-10.24442284054549
 30
0.0
 10
-74.95144643566955
 20
-10.23221771513807
 30
0.0
 10
-76.70835391779966
 20
-10.13383069409807
 30
0.0
 10
-78.46518640927361
 20
-9.977421053803578
 30
0.0
 10
-80.22191015083405
 20
-9.758206915533712
 30
0.0
 10
-81.97850770468278
 20
-9.47915939580468
 30
0.0
 10
-83.73494407258242
 20
-9.14151807545218
 30
0.0
 10
-85.49121808605397
 20
-8.747564190242181
 30
0.0
 10
-87.24731776734735
 20
-8.299690417662404
 30
0.0
 10
-89.00323896487298
 20
-7.800675739640322
 30
0.0
 10
-90.75899612992776
 20
-7.253626065038449
 30
0.0
 10
-92.51458198722751
 20
-6.661919249264662
 30
0.0
 10
-94.27001642805434
 20
-6.029184968654677
 30
0.0
 10
-96.02532292377638
 20
-5.359387863306201
 30
0.0
 10
-97.78050526695182
 20
-4.656591095069273
 30
0.0
 10
-99.53557654154273
 20
-3.925160979392008
 30
0.0
 10
-101.2905689773677
 20
-3.169610282171313
 30
0.0
 10
-103.0454535712288
 20
-2.39448924061526
 30
0.0
 10
-104.7823116876128
 20
-1.613088396532792
 30
0.0
 10
-105.9330455371162
 20
-1.088137828273538
 30
0.0
 10
-106.5000000000005
 20
-0.8294876416501535
 30
0.0
  0
SPLINE
  5
444F
330
1F
100
AcDbEntity
  8
AM_0
 48
0.5
100
AcDbSpline
210
0.0
220
0.0
230
1.0
 70
     8
 71
     3
 72
    22
 73
    18
 74
     0
 42
0.0000000001
 43
0.0000000001
 40
0.0
 40
0.0
 40
0.0
 40
0.0
 40
1.010743684496582
 40
2.022833993863546
 40
3.037578683882831
 40
4.056212471389632
 40
5.079857945358201
 40
6.109499720892564
 40
7.145961650132166
 40
8.189873411961459
 40
9.241710626092514
 40
10.30166235592959
 40
11.36982472628033
 40
12.44598212828784
 40
13.52983440361964
 40
14.62080578343036
 40
14.90544694398022
 40
14.90544694398022
 40
14.90544694398022
 40
14.90544694398022
 10
-78.11235635524261
 20
-10.24999999999984
 30
0.0
 10
-78.69803780264149
 20
-10.24442466221929
 30
0.0
 10
-79.86959415805265
 20
-10.23222318006854
 30
0.0
 10
-81.62649980033267
 20
-10.13380875618875
 30
0.0
 10
-83.38333418884417
 20
-9.977425432767928
 30
0.0
 10
-85.14005887970578
 20
-9.758211149733355
 30
0.0
 10
-86.89665159204805
 20
-9.479137380522166
 30
0.0
 10
-88.65309400057013
 20
-9.141525253307838
 30
0.0
 10
-90.40936036715676
 20
-8.747557052218633
 30
0.0
 10
-92.16546276850834
 20
-8.299676795344812
 30
0.0
 10
-93.92138538833803
 20
-7.800680972134887
 30
0.0
 10
-95.67713740292509
 20
-7.253606527377524
 30
0.0
 10
-97.43273013041884
 20
-6.661934745890199
 30
0.0
 10
-99.18816225216311
 20
-6.029183091366491
 30
0.0
 10
-100.9434666541104
 20
-5.359382478326141
 30
0.0
 10
-102.2627005806169
 20
-4.831172225197852
 30
0.0
 10
-102.9978237609428
 20
-4.529264223371564
 30
0.0
 10
-103.1498227899275
 20
-4.466530427888319
 30
0.0
  0
LINE
  5
4450
330
1F
100
AcDbEntity
  8
AM_0
 48
0.5
100
AcDbLine
 10
-86.66666467448489
 20
4.395926581479497
 30
0.0
 11
-106.5000000000005
 21
-0.8294876416501555
 31
0.0
  0
LINE
  5
4451
330
1F
100
AcDbEntity
  8
AM_11
 48
0.5
100
AcDbLine
 10
-102.899631348227
 20
-10.24999988364796
 30
0.0
 11
-78.11235635524224
 21
-10.24999999999985
 31
0.0
  0
LINE
  5
466B
330
1F
100
AcDbEntity
  8
AM_0
100
AcDbLine
 10
-179.0000000000006
 20
-10.50000000000007
 30
0.0
 11
-109.0000000000006
 21
-10.50000000000015
 31
0.0
  0
DIMENSION
  5
466D
330
1F
100
AcDbEntity
  8
AM_5
100
AcDbDimension
  2
*D7
 10
-196.5000010000006
 20
-10.50000000000001
 30
0.0
 11
-199.9000010000006
 21
-0.0000000000000853
 31
0.0
 70
    32
  1
%%c<>
 51
359.9999999999998
  3
AM_JIS$0
100
AcDbAlignedDimension
 13
-179.0000000000006
 23
10.49999999999989
 33
0.0
 14
-179.0000000000007
 24
-10.50000000000002
 34
0.0
 50
270.0
100
AcDbRotatedDimension
1001
ACAD
1000
DSTYLE
1002
{
1070
   271
1070
     0
1002
}
1001
GENIUS_GENDTOL_13
1000

1000
h7
1000

1040
0.0
  0
LINE
  5
467A
330
1F
100
AcDbEntity
  8
AM_0
 48
0.5
100
AcDbLine
 10
-180.0000000000007
 20
-9.500000000000015
 30
0.0
 11
-180.0000000000005
 21
9.499999999999984
 31
0.0
  0
LINE
  5
467B
330
1F
100
AcDbEntity
  8
AM_0
 48
0.5
100
AcDbLine
 10
-179.0000000000007
 20
-10.50000000000002
 30
0.0
 11
-179.0000000000005
 21
10.49999999999992
 31
0.0
  0
LINE
  5
467D
330
1F
100
AcDbEntity
  8
AM_0
100
AcDbLine
 10
-109.0000000000006
 20
10.49999999999984
 30
0.0
 11
-179.0000000000005
 21
10.49999999999992
 31
0.0
  0
LINE
  5
4689
330
1F
100
AcDbEntity
  8
AM_0
 48
0.5
100
AcDbLine
 10
-179.0000000000005
 20
10.49999999999992
 30
0.0
 11
-180.0000000000005
 21
9.499999999999928
 31
0.0
1001
GENIUS_GENFIL_13
1070
     0
1040
1.0
1040
1.0
1040
20.0
1040
0.0
1002
{
1002
}
1001
GENIUS_GENODEF_13
1002
{
1000
HIER
1070
     0
1002
}
1002
{
1000
MANEDIT
1070
     0
1002
}
1002
{
1000
NOSEL
1070
     0
1002
}
1002
{
1000
BEHIND
1070
     0
1002
}
1002
{
1000
REACTOR
1002
}
1001
GENIUS_GENOBJ-N-CHA_13
1002
{
1000
OWNER
1000
GEN
1002
}
  0
LINE
  5
468C
330
1F
100
AcDbEntity
  8
AM_0
 48
0.5
100
AcDbLine
 10
-179.0000000000006
 20
-10.50000000000007
 30
0.0
 11
-180.0000000000006
 21
-9.500000000000071
 31
0.0
1001
GENIUS_GENFIL_13
1070
     0
1040
1.0
1040
1.0
1040
20.0
1040
0.0
1002
{
1002
}
1001
GENIUS_GENODEF_13
1002
{
1000
HIER
1070
     0
1002
}
1002
{
1000
MANEDIT
1070
     0
1002
}
1002
{
1000
NOSEL
1070
     0
1002
}
1002
{
1000
BEHIND
1070
     0
1002
}
1002
{
1000
REACTOR
1002
}
1001
GENIUS_GENOBJ-N-CHA_13
1002
{
1000
OWNER
1000
GEN
1002
}
  0
DIMENSION
  5
4819
330
1F
100
AcDbEntity
  8
AM_5
100
AcDbDimension
  2
*D8
 10
16.7421373420734
 20
-10.25000021494069
 30
0.0
 11
13.3421373420734
 21
-0.0000001074707067
 31
0.0
 70
    32
  1
%%c<>
 51
359.9999999999998
  3
AM_JIS$0
100
AcDbAlignedDimension
 13
-4.000000000000616
 23
10.24999999999928
 33
0.0
 14
-4.000000041666816
 24
-10.25000021494069
 34
0.0
 50
89.99999999999774
100
AcDbRotatedDimension
1001
ACAD
1000
DSTYLE
1002
{
1070
   271
1070
     1
1002
}
1001
GENIUS_GENDTOL_13
1000

1000
h7
1000

1040
0.0
  0
DIMENSION
  5
5059
330
1F
100
AcDbEntity
  8
AM_5
100
AcDbDimension
  2
*D9
 10
-1.24349182625033
 20
-3.416442195151562
 30
0.0
 11
23.56431635751526
 21
-0.000026099129847
 31
0.0
 70
    34
  1
<>
 51
359.9999999999998
  3
AM_JIS$2
100
AcDb2LineAngularDimension
 13
-0.0000000000001794
 23
-0.000000000000516
 33
0.0
 14
-1.243466970606529
 24
3.416397451966302
 34
0.0
 15
-0.0000000000001794
 25
-0.0000000000004925
 35
0.0
 16
24.48359695085081
 26
-10.56121428448108
 36
0.0
1001
GENIUS_GENDTOL_13
1000

1000
h7
1000

1040
0.0
1001
ACAD
1000
DSTYLE
1002
{
1070
   271
1070
     1
1070
   179
1070
     1
1002
}
  0
VIEWPORT
  5
110
330
101
100
AcDbEntity
 67
     1
  8
0
100
AcDbViewport
 10
420.5
 20
297.0
 30
0.0
 40
948.9782706766916
 41
628.452
 68
     1
 69
     1
1001
ACAD
1000
MVIEW
1002
{
1070
    16
1010
0.0
1020
0.0
1030
0.0
1010
0.0
1020
0.0
1030
1.0
1040
0.0
1040
628.452
1040
420.5
1040
297.0
1040
50.0
1040
0.0
1040
0.0
1070
     0
1070
   100
1070
     1
1070
     1
1070
     0
1070
     0
1070
     0
1070
     0
1040
0.0
1040
0.0
1040
0.0
1040
10.0
1040
10.0
1040
10.0
1040
10.0
1070
     0
1002
{
1002
}
1002
}
  0
ENDSEC
  0
SECTION
  2
OBJECTS
  0
DICTIONARY
  5
C
330
0
100
AcDbDictionary
  3
ACAD_GROUP
350
D
  3
ACAD_LAYOUT
350
1A
  3
ACAD_MLINESTYLE
350
17
  3
ACAD_PLOTSETTINGS
350
19
  3
ACAD_PLOTSTYLENAME
350
E
  3
ACDBVARIABLEDICTIONARY
350
34
  3
ACMDICTIONARY
350
43
  3
AMG
350
2B
  3
AMGSNAPSETTINGS
350
6E
  3
DWGPROPS
350
52C4
  3
ACDBHEADERROUNDTRIPXREC
350
52D0
  0
DICTIONARY
  5
74
330
1F
100
AcDbDictionary
280
     1
  3
ACAD_INDEX
360
52C6
  3
ACAD_LAYOUTSELFREF
360
52F3
  0
DICTIONARY
  5
52F8
330
101
100
AcDbDictionary
280
     1
  3
ACAD_LAYOUTSELFREF
360
52F9
  0
DICTIONARY
  5
D
102
{ACAD_REACTORS
330
C
102
}
330
C
100
AcDbDictionary
  0
DICTIONARY
  5
1A
102
{ACAD_REACTORS
330
C
102
}
330
C
100
AcDbDictionary
  0
DICTIONARY
  5
17
102
{ACAD_REACTORS
330
C
102
}
330
C
100
AcDbDictionary
  3
STANDARD
350
18
  0
DICTIONARY
  5
19
102
{ACAD_REACTORS
330
C
102
}
330
C
100
AcDbDictionary
  0
ACDBDICTIONARYWDFLT
  5
E
102
{ACAD_REACTORS
330
C
102
}
330
C
100
AcDbDictionary
281
     1
  3
Normal
350
F
100
AcDbDictionaryWithDefault
340
F
  0
DICTIONARY
  5
34
102
{ACAD_REACTORS
330
C
102
}
330
C
100
AcDbDictionary
  3
INDEXCTL
350
35
  3
SORTENTS
350
B5E
  0
DICTIONARY
  5
43
102
{ACAD_REACTORS
330
C
102
}
330
C
100
AcDbDictionary
  3
ACMSTDDICTIONARY
350
260
  0
DICTIONARY
  5
2B
102
{ACAD_REACTORS
330
C
102
}
330
C
100
AcDbDictionary
  3
ACMGSETTINGS
350
2C
  0
DICTIONARY
  5
6E
102
{ACAD_REACTORS
330
C
102
}
330
C
100
AcDbDictionary
  0
XRECORD
  5
52C4
102
{ACAD_REACTORS
330
C
102
}
330
C
100
AcDbXrecord
  1
DWGPROPS COOKIE
  2

  3

  4

  6

  7

  8

  9

300
AmdtFileType=82
301
=
302
=
303
=
304
=
305
=
306
=
307
=
308
=
309
=
 40
0.1147031944444445
 41
2452800.443498622
 42
2452946.645215567
  1

 90
        1
  0
DICTIONARY
  5
52D0
102
{ACAD_REACTORS
330
C
102
}
330
C
100
AcDbDictionary
  3
TSTACKALIGN
350
52D1
  3
TSTACKSIZE
350
52D2
  3
HYPERLINKBASE
350
52D3
  3
STYLESHEET
350
52D4
  3
LAYOUTDICT
350
52D5
  3
PLOTSETDICT
350
52D6
  3
PLOTSTYLNAMDICT
350
52D7
  3
LWETCUNION
350
52D8
  3
INSUNITS
350
52D9
  3
CEPSNTYPE
350
52DA
  3
FINGERPRINTGUID
350
52DB
  3
VERSIONGUID
350
52DC
  3
PSVPSCALE
350
52DD
  3
DIMSTYLEDATA
350
52DE
  3
PUCSORTHOREF
350
52DF
  3
PUCSORTHOVIEW
350
52E0
  3
PUCSBASE
350
52E1
  3
PUCSORGTOP
350
52E2
  3
PUCSORGBOTTOM
350
52E3
  3
PUCSORGLEFT
350
52E4
  3
PUCSORGRIGHT
350
52E5
  3
PUCSORGFRONT
350
52E6
  3
PUCSORGBACK
350
52E7
  3
UCSORTHOREF
350
52E8
  3
UCSORTHOVIEW
350
52E9
  3
UCSBASE
350
52EA
  3
UCSORGTOP
350
52EB
  3
UCSORGBOTTOM
350
52EC
  3
UCSORGLEFT
350
52ED
  3
UCSORGRIGHT
350
52EE
  3
UCSORGFRONT
350
52EF
  3
UCSORGBACK
350
52F0
  0
DICTIONARY
  5
52C6
102
{ACAD_REACTORS
330
74
102
}
330
74
100
AcDbDictionary
  3
*A1
350
52C7
  0
XRECORD
  5
52F3
102
{ACAD_REACTORS
330
74
102
}
330
74
100
AcDbXrecord
340
1F
  0
XRECORD
  5
52F9
102
{ACAD_REACTORS
330
52F8
102
}
330
52F8
100
AcDbXrecord
340
101
  0
MLINESTYLE
  5
18
102
{ACAD_REACTORS
330
17
102
}
330
17
100
AcDbMlineStyle
  2
STANDARD
 70
     0
  3

 62
   256
 51
90.0
 52
90.0
 71
     2
 49
0.5
 62
   256
  6
BYLAYER
 49
-0.5
 62
   256
  6
BYLAYER
  0
ACDBPLACEHOLDER
  5
F
102
{ACAD_REACTORS
330
E
102
}
330
E
100
AcDbPlaceHolder
280
     0
  0
DICTIONARYVAR
  5
35
102
{ACAD_REACTORS
330
34
102
}
330
34
100
DictionaryVariables
280
     0
  1
1
  0
DICTIONARYVAR
  5
B5E
102
{ACAD_REACTORS
330
34
102
}
330
34
100
DictionaryVariables
280
     0
  1
96
  0
DICTIONARY
  5
260
102
{ACAD_REACTORS
330
43
102
}
330
43
100
AcDbDictionary
  0
DICTIONARY
  5
2C
102
{ACAD_REACTORS
330
2B
102
}
330
2B
100
AcDbDictionary
  3
DWGSETTINGS
350
2D
  0
XRECORD
  5
52D1
102
{ACAD_REACTORS
330
52D0
102
}
330
52D0
100
AcDbXrecord
 90
        1
  0
XRECORD
  5
52D2
102
{ACAD_REACTORS
330
52D0
102
}
330
52D0
100
AcDbXrecord
 90
       70
  0
XRECORD
  5
52D3
102
{ACAD_REACTORS
330
52D0
102
}
330
52D0
100
AcDbXrecord
  1

  0
XRECORD
  5
52D4
102
{ACAD_REACTORS
330
52D0
102
}
330
52D0
100
AcDbXrecord
  1
ASAMI.ctb
  0
XRECORD
  5
52D5
102
{ACAD_REACTORS
330
52D0
102
}
330
52D0
100
AcDbXrecord
340
1A
  0
XRECORD
  5
52D6
102
{ACAD_REACTORS
330
52D0
102
}
330
52D0
100
AcDbXrecord
340
19
  0
XRECORD
  5
52D7
102
{ACAD_REACTORS
330
52D0
102
}
330
52D0
100
AcDbXrecord
340
E
  0
XRECORD
  5
52D8
102
{ACAD_REACTORS
330
52D0
102
}
330
52D0
100
AcDbXrecord
 90
    10781
  0
XRECORD
  5
52D9
102
{ACAD_REACTORS
330
52D0
102
}
330
52D0
100
AcDbXrecord
 90
        4
  0
XRECORD
  5
52DA
102
{ACAD_REACTORS
330
52D0
102
}
330
52D0
100
AcDbXrecord
 90
        0
  0
XRECORD
  5
52DB
102
{ACAD_REACTORS
330
52D0
102
}
330
52D0
100
AcDbXrecord
  1
{AFB28963-8C59-40AE-9337-C84526B81ACE}
  0
XRECORD
  5
52DC
102
{ACAD_REACTORS
330
52D0
102
}
330
52D0
100
AcDbXrecord
  1
{F03C49EB-D324-4173-9554-3E0B2EE2F2BB}
  0
XRECORD
  5
52DD
102
{ACAD_REACTORS
330
52D0
102
}
330
52D0
100
AcDbXrecord
 40
0.0
  0
XRECORD
  5
52DE
102
{ACAD_REACTORS
330
52D0
102
}
330
52D0
100
AcDbXrecord
1000
DSTYLE
1002
{
1070
    79
 70
     2
1070
   341
340
59
1070
   342
340
59
1070
   371
 70
    -1
1070
   372
 70
    -1
1002
}
  0
XRECORD
  5
52DF
102
{ACAD_REACTORS
330
52D0
102
}
330
52D0
100
AcDbXrecord
340
0
  0
XRECORD
  5
52E0
102
{ACAD_REACTORS
330
52D0
102
}
330
52D0
100
AcDbXrecord
 70
     0
  0
XRECORD
  5
52E1
102
{ACAD_REACTORS
330
52D0
102
}
330
52D0
100
AcDbXrecord
340
0
  0
XRECORD
  5
52E2
102
{ACAD_REACTORS
330
52D0
102
}
330
52D0
100
AcDbXrecord
 10
0.0
 20
0.0
 30
0.0
  0
XRECORD
  5
52E3
102
{ACAD_REACTORS
330
52D0
102
}
330
52D0
100
AcDbXrecord
 10
0.0
 20
0.0
 30
0.0
  0
XRECORD
  5
52E4
102
{ACAD_REACTORS
330
52D0
102
}
330
52D0
100
AcDbXrecord
 10
0.0
 20
0.0
 30
0.0
  0
XRECORD
  5
52E5
102
{ACAD_REACTORS
330
52D0
102
}
330
52D0
100
AcDbXrecord
 10
0.0
 20
0.0
 30
0.0
  0
XRECORD
  5
52E6
102
{ACAD_REACTORS
330
52D0
102
}
330
52D0
100
AcDbXrecord
 10
0.0
 20
0.0
 30
0.0
  0
XRECORD
  5
52E7
102
{ACAD_REACTORS
330
52D0
102
}
330
52D0
100
AcDbXrecord
 10
0.0
 20
0.0
 30
0.0
  0
XRECORD
  5
52E8
102
{ACAD_REACTORS
330
52D0
102
}
330
52D0
100
AcDbXrecord
340
0
  0
XRECORD
  5
52E9
102
{ACAD_REACTORS
330
52D0
102
}
330
52D0
100
AcDbXrecord
 70
     0
  0
XRECORD
  5
52EA
102
{ACAD_REACTORS
330
52D0
102
}
330
52D0
100
AcDbXrecord
340
0
  0
XRECORD
  5
52EB
102
{ACAD_REACTORS
330
52D0
102
}
330
52D0
100
AcDbXrecord
 10
0.0
 20
0.0
 30
0.0
  0
XRECORD
  5
52EC
102
{ACAD_REACTORS
330
52D0
102
}
330
52D0
100
AcDbXrecord
 10
0.0
 20
0.0
 30
0.0
  0
XRECORD
  5
52ED
102
{ACAD_REACTORS
330
52D0
102
}
330
52D0
100
AcDbXrecord
 10
0.0
 20
0.0
 30
0.0
  0
XRECORD
  5
52EE
102
{ACAD_REACTORS
330
52D0
102
}
330
52D0
100
AcDbXrecord
 10
0.0
 20
0.0
 30
0.0
  0
XRECORD
  5
52EF
102
{ACAD_REACTORS
330
52D0
102
}
330
52D0
100
AcDbXrecord
 10
0.0
 20
0.0
 30
0.0
  0
XRECORD
  5
52F0
102
{ACAD_REACTORS
330
52D0
102
}
330
52D0
100
AcDbXrecord
 10
0.0
 20
0.0
 30
0.0
  0
LAYER_INDEX
  5
52C7
102
{ACAD_REACTORS
330
52C6
102
}
330
52C6
100
AcDbIndex
 40
2453151.567785359
100
AcDbLayerIndex
  8
0
360
52C8
 90
        0
  8
AM_0
360
52C9
 90
       44
  8
AM_7
360
52CA
 90
        1
  8
AM_11
360
52CB
 90
       15
  8
AM_5
360
52CC
 90
        5
  8
Defpoints
360
52CD
 90
        0
  8
AM_6
360
52CE
 90
        1
  0
XRECORD
  5
2D
102
{ACAD_REACTORS
330
2C
102
}
330
2C
100
AcDbXrecord
  1
VERSION
140
15.0
  1
PRODUCT
  2
AutoCAD Mechanical 2000
  0
IDBUFFER
  5
52C8
330
0
100
AcDbIdBuffer
  0
IDBUFFER
  5
52C9
330
0
100
AcDbIdBuffer
330
4438
330
443B
330
443C
330
443D
330
443E
330
443F
330
4440
330
4441
330
4442
330
4443
330
4444
330
4445
330
4446
330
4447
330
4448
330
4449
330
444A
330
444B
330
444C
330
444E
330
444F
330
4450
330
466B
330
467A
330
467B
330
467D
330
4689
330
468C
330
C1D
330
C20
330
24A7
330
24BE
330
2C0E
330
2FB7
330
2FB9
330
4071
330
4072
330
4431
330
4432
330
4433
330
4434
330
4435
330
4436
330
4437
  0
IDBUFFER
  5
52CA
330
0
100
AcDbIdBuffer
330
23EF
  0
IDBUFFER
  5
52CB
330
0
100
AcDbIdBuffer
330
24B7
330
24B8
330
24B9
330
24C7
330
24C8
330
24D4
330
24D5
330
24E6
330
24E7
330
2BF3
330
2BF5
330
4439
330
443A
330
444D
330
4451
  0
IDBUFFER
  5
52CC
330
0
100
AcDbIdBuffer
330
CC6
330
2069
330
466D
330
4819
330
5059
  0
IDBUFFER
  5
52CD
330
0
100
AcDbIdBuffer
  0
IDBUFFER
  5
52CE
330
0
100
AcDbIdBuffer
330
19BD
  0
ENDSEC
  0
EOF
