  0
SECTION
  2
HEADER
  9
$ACADVER
  1
AC1014
  9
$ACADMAINTVER
 70
     9
  9
$DWGCODEPAGE
  3
ANSI_932
  9
$INSBASE
 10
0.0
 20
0.0
 30
0.0
  9
$EXTMIN
 10
-235.3391712182718
 20
-59.0000009999994
 30
-0.00000001
  9
$EXTMAX
 10
28.88684427261761
 20
28.08442440585795
 30
0.00000001
  9
$LIMMIN
 10
-246.4750061107129
 20
-91.79930317716587
  9
$LIMMAX
 10
55.49561552499631
 20
57.19272414005956
  9
$ORTHOMODE
 70
     0
  9
$REGENMODE
 70
     1
  9
$FILLMODE
 70
     1
  9
$QTEXTMODE
 70
     0
  9
$MIRRTEXT
 70
     0
  9
$DRAGMODE
 70
     2
  9
$LTSCALE
 40
1.0
  9
$OSMODE
 70
    55
  9
$ATTMODE
 70
     1
  9
$TEXTSIZE
 40
2.5
  9
$TRACEWID
 40
1.0
  9
$TEXTSTYLE
  7
STANDARD
  9
$CLAYER
  8
AM_0
  9
$CELTYPE
  6
BYLAYER
  9
$CECOLOR
 62
   256
  9
$CELTSCALE
 40
1.0
  9
$DELOBJ
 70
     1
  9
$DISPSILH
 70
     0
  9
$DIMSCALE
 40
1.0
  9
$DIMASZ
 40
2.5
  9
$DIMEXO
 40
1.0
  9
$DIMDLI
 40
12.0
  9
$DIMRND
 40
0.0
  9
$DIMDLE
 40
0.0
  9
$DIMEXE
 40
1.0
  9
$DIMTP
 40
0.1
  9
$DIMTM
 40
0.1
  9
$DIMTXT
 40
3.2
  9
$DIMCEN
 40
0.0
  9
$DIMTSZ
 40
0.0
  9
$DIMTOL
 70
     0
  9
$DIMLIM
 70
     0
  9
$DIMTIH
 70
     0
  9
$DIMTOH
 70
     0
  9
$DIMSE1
 70
     0
  9
$DIMSE2
 70
     0
  9
$DIMTAD
 70
     3
  9
$DIMZIN
 70
     8
  9
$DIMBLK
  1
OPEN30
  9
$DIMASO
 70
     1
  9
$DIMSHO
 70
     1
  9
$DIMPOST
  1

  9
$DIMAPOST
  1
"
  9
$DIMALT
 70
     0
  9
$DIMALTD
 70
     2
  9
$DIMALTF
 40
0.0393701
  9
$DIMLFAC
 40
1.0
  9
$DIMTOFL
 70
     1
  9
$DIMTVP
 40
0.0
  9
$DIMTIX
 70
     0
  9
$DIMSOXD
 70
     0
  9
$DIMSAH
 70
     0
  9
$DIMBLK1
  1

  9
$DIMBLK2
  1

  9
$DIMSTYLE
  2
AM_JIS
  9
$DIMCLRD
 70
   256
  9
$DIMCLRE
 70
   256
  9
$DIMCLRT
 70
     2
  9
$DIMTFAC
 40
0.71
  9
$DIMGAP
 40
1.5
  9
$DIMJUST
 70
     0
  9
$DIMSD1
 70
     0
  9
$DIMSD2
 70
     0
  9
$DIMTOLJ
 70
     0
  9
$DIMTZIN
 70
     0
  9
$DIMALTZ
 70
     0
  9
$DIMALTTZ
 70
     0
  9
$DIMFIT
 70
     3
  9
$DIMUPT
 70
     0
  9
$DIMUNIT
 70
     2
  9
$DIMDEC
 70
     3
  9
$DIMTDEC
 70
     3
  9
$DIMALTU
 70
     2
  9
$DIMALTTD
 70
     2
  9
$DIMTXSTY
  7
ASAMI
  9
$DIMAUNIT
 70
     0
  9
$LUNITS
 70
     2
  9
$LUPREC
 70
     2
  9
$SKETCHINC
 40
1.0
  9
$FILLETRAD
 40
2.5
  9
$AUNITS
 70
     0
  9
$AUPREC
 70
     0
  9
$MENU
  1
.
  9
$ELEVATION
 40
0.0
  9
$PELEVATION
 40
0.0
  9
$THICKNESS
 40
0.0
  9
$LIMCHECK
 70
     0
  9
$BLIPMODE
 70
     0
  9
$CHAMFERA
 40
1.25
  9
$CHAMFERB
 40
1.25
  9
$CHAMFERC
 40
20.0
  9
$CHAMFERD
 40
0.0
  9
$SKPOLY
 70
     0
  9
$TDCREATE
 40
2452800.443498622
  9
$TDUPDATE
 40
2453151.568669513
  9
$TDINDWG
 40
0.1291092824
  9
$TDUSRTIMER
 40
0.1291092824
  9
$USRTIMER
 70
     1
  9
$ANGBASE
 50
0.0
  9
$ANGDIR
 70
     0
  9
$PDMODE
 70
     0
  9
$PDSIZE
 40
0.0
  9
$PLINEWID
 40
0.0
  9
$COORDS
 70
     1
  9
$SPLFRAME
 70
     0
  9
$SPLINETYPE
 70
     6
  9
$SPLINESEGS
 70
     8
  9
$ATTDIA
 70
     1
  9
$ATTREQ
 70
     1
  9
$HANDLING
 70
 12289
  9
$HANDSEED
  5
5CD2
  9
$SURFTAB1
 70
     6
  9
$SURFTAB2
 70
     6
  9
$SURFTYPE
 70
     6
  9
$SURFU
 70
     6
  9
$SURFV
 70
     6
  9
$UCSNAME
  2

  9
$UCSORG
 10
0.0
 20
0.0
 30
0.0
  9
$UCSXDIR
 10
1.0
 20
0.0000000000000027
 30
0.0
  9
$UCSYDIR
 10
-0.0000000000000027
 20
1.0
 30
0.0
  9
$PUCSNAME
  2

  9
$PUCSORG
 10
0.0
 20
0.0
 30
0.0
  9
$PUCSXDIR
 10
1.0
 20
0.0
 30
0.0
  9
$PUCSYDIR
 10
0.0
 20
1.0
 30
0.0
  9
$USERI1
 70
     0
  9
$USERI2
 70
     0
  9
$USERI3
 70
     0
  9
$USERI4
 70
     0
  9
$USERI5
 70
     0
  9
$USERR1
 40
0.0
  9
$USERR2
 40
0.0
  9
$USERR3
 40
0.0
  9
$USERR4
 40
0.0
  9
$USERR5
 40
0.0
  9
$WORLDVIEW
 70
     1
  9
$SHADEDGE
 70
     3
  9
$SHADEDIF
 70
    70
  9
$TILEMODE
 70
     1
  9
$MAXACTVP
 70
    64
  9
$PINSBASE
 10
0.0
 20
0.0
 30
0.0
  9
$PLIMCHECK
 70
     0
  9
$PEXTMIN
 10
1.000000000000000E+20
 20
1.000000000000000E+20
 30
1.000000000000000E+20
  9
$PEXTMAX
 10
-1.000000000000000E+20
 20
-1.000000000000000E+20
 30
-1.000000000000000E+20
  9
$PLIMMIN
 10
0.0
 20
0.0
  9
$PLIMMAX
 10
841.0
 20
594.0
  9
$UNITMODE
 70
     0
  9
$VISRETAIN
 70
     1
  9
$PLINEGEN
 70
     0
  9
$PSLTSCALE
 70
     0
  9
$TREEDEPTH
 70
  3020
  9
$PICKSTYLE
 70
     0
  9
$CMLSTYLE
  2
STANDARD
  9
$CMLJUST
 70
     0
  9
$CMLSCALE
 40
20.0
  9
$PROXYGRAPHICS
 70
     1
  9
$MEASUREMENT
 70
     1
  0
ENDSEC
  0
SECTION
  2
CLASSES
  0
CLASS
  1
ACDBDICTIONARYWDFLT
  2
AcDbDictionaryWithDefault
  3
AutoCAD 2000
 90
        0
280
     0
281
     0
  0
CLASS
  1
ACDBPLACEHOLDER
  2
AcDbPlaceHolder
  3
AutoCAD 2000
 90
        0
280
     0
281
     0
  0
CLASS
  1
LAYOUT
  2
AcDbLayout
  3
AutoCAD 2000
 90
        0
280
     0
281
     0
  0
CLASS
  1
AMGSETTINGSOBJ
  2
AmgSettingsObj
  3
"AcadM|Product Description: AutoCAD Mechanical 2000|Company: Autodesk"
 90
        0
280
     0
281
     0
  0
CLASS
  1
ACME_DOCUMENT
  2
AcMeDbDoc
  3
AcMeServices
 90
        0
280
     0
281
     0
  0
CLASS
  1
ACMESCOPE
  2
AcMeScope
  3
AcMeServices
 90
        0
280
     0
281
     0
  0
CLASS
  1
ACMECOMMANDHISTORY
  2
AcMeCommandHistory
  3
AcMeServices
 90
        0
280
     0
281
     0
  0
CLASS
  1
DICTIONARYVAR
  2
AcDbDictionaryVar
  3
AutoCAD 2000
 90
        0
280
     0
281
     0
  0
CLASS
  1
ACIMSYSVARMAN
  2
AcImSysVarManager
  3
AcMeServices
 90
        0
280
     0
281
     0
  0
CLASS
  1
ACIMREALSYSVAR
  2
AcImRealSysVar
  3
AcMeServices
 90
        0
280
     0
281
     0
  0
CLASS
  1
ACIMINTSYSVAR
  2
AcImIntSysVar
  3
AcMeServices
 90
        0
280
     0
281
     0
  0
CLASS
  1
ACMEDRAWINGMAN
  2
AcMeDrawingMan
  3
AcMeServices
 90
        0
280
     0
281
     0
  0
CLASS
  1
ACMEVIEW
  2
AcMeView
  3
AcMeServices
 90
        0
280
     0
281
     0
  0
CLASS
  1
ACDBENTITYCACHE
  2
AcMeEntityCache
  3
AcMeServices
 90
        0
280
     0
281
     0
  0
CLASS
  1
GSMANAGER
  2
AcMeGSManager
  3
AcMeServices
 90
        0
280
     0
281
     0
  0
CLASS
  1
AmdtInternalReactor
  2
AmdtInternalReactor
  3
AcMeServices
 90
        0
280
     0
281
     0
  0
CLASS
  1
ACMESTATEMGR
  2
AcMeStateMgr
  3
AcMeServices
 90
        0
280
     0
281
     0
  0
CLASS
  1
ACME_DATABASE
  2
AcMeDbDatabase
  3
AcMeServices
 90
        0
280
     0
281
     0
  0
CLASS
  1
ACRFINSADJUSTERMGR
  2
AcRfInsAdjusterMgr
  3
AcMeServices
 90
        0
280
     0
281
     0
  0
CLASS
  1
ACMDATADICTIONARY
  2
AcmDataDictionary
  3
"AcmSymBB|Product Description: AutoCAD Mechanical 2000|Company: Autodesk"
 90
        0
280
     0
281
     0
  0
CLASS
  1
ACMDATAENTRYBLOCK
  2
AcmDataEntryBlock
  3
"AcmSymBB|Product Description: AutoCAD Mechanical 2000|Company: Autodesk"
 90
        0
280
     0
281
     0
  0
CLASS
  1
AMGOBJPROPCFG
  2
AmgObjPropCfg
  3
"AmgLay|Product Description: AutoCAD Mechanical 2000|Company: Autodesk"
 90
        1
280
     0
281
     0
  0
CLASS
  1
ACAMGFILTERDAT
  2
AcAmgFilterDat
  3
"AcadM|Product Description: AutoCAD Mechanical 2000|Company: Autodesk"
 90
        0
280
     0
281
     0
  0
CLASS
  1
LAYER_INDEX
  2
AcDbLayerIndex
  3
AutoCAD 2000
 90
        0
280
     0
281
     0
  0
CLASS
  1
IDBUFFER
  2
AcDbIdBuffer
  3
AutoCAD 2000
 90
        0
280
     0
281
     0
  0
CLASS
  1
ACIMSTRSYSVAR
  2
AcImStrSysVar
  3
AcMeServices
 90
        0
280
     0
281
     0
  0
CLASS
  1
ACMSTANDARDJIS
  2
AcmStandardJIS
  3
"AcmSymBB|Product Description: AutoCAD Mechanical 2000|Company: Autodesk"
 90
        0
280
     0
281
     0
  0
CLASS
  1
ACMSURFSTANDARDJIS
  2
AcmSurfTextStdJIS
  3
"AcmSymBB|Product Description: AutoCAD Mechanical 2000|Company: Autodesk"
 90
        0
280
     0
281
     0
  0
CLASS
  1
ACMFCFSTANDARDJIS
  2
AcmFCFStdJIS
  3
"AcmSymBB|Product Description: AutoCAD Mechanical 2000|Company: Autodesk"
 90
        0
280
     0
281
     0
  0
CLASS
  1
ACMWELDSTANDARDJIS
  2
AcmWeldingStdJIS
  3
"AcmSymBB|Product Description: AutoCAD Mechanical 2000|Company: Autodesk"
 90
        0
280
     0
281
     0
  0
CLASS
  1
ACMIDSTANDARDJIS
  2
AcmIdStdJIS
  3
"AcmSymBB|Product Description: AutoCAD Mechanical 2000|Company: Autodesk"
 90
        0
280
     0
281
     0
  0
CLASS
  1
ACMDATUMSTANDARDJIS
  2
AcmDatumStdJIS
  3
"AcmSymBB|Product Description: AutoCAD Mechanical 2000|Company: Autodesk"
 90
        0
280
     0
281
     0
  0
CLASS
  1
ACMBOMSTANDARDJIS
  2
AcmBOMStdJIS
  3
"AcmSymBB|Product Description: AutoCAD Mechanical 2000|Company: Autodesk"
 90
        0
280
     0
281
     0
  0
CLASS
  1
ACMSTANDARDANSI
  2
AcmStandardANSI
  3
"AcmSymBB|Product Description: AutoCAD Mechanical 2000|Company: Autodesk"
 90
        0
280
     0
281
     0
  0
CLASS
  1
ACMSURFSTANDARDANSI
  2
AcmSurfTextStdANSI
  3
"AcmSymBB|Product Description: AutoCAD Mechanical 2000|Company: Autodesk"
 90
        0
280
     0
281
     0
  0
CLASS
  1
ACMFCFSTANDARDANSI
  2
AcmFCFStdANSI
  3
"AcmSymBB|Product Description: AutoCAD Mechanical 2000|Company: Autodesk"
 90
        0
280
     0
281
     0
  0
CLASS
  1
ACMWELDSTANDARDANSI
  2
AcmWeldingStdANSI
  3
"AcmSymBB|Product Description: AutoCAD Mechanical 2000|Company: Autodesk"
 90
        0
280
     0
281
     0
  0
CLASS
  1
ACMIDSTANDARDANSI
  2
AcmIdStdANSI
  3
"AcmSymBB|Product Description: AutoCAD Mechanical 2000|Company: Autodesk"
 90
        0
280
     0
281
     0
  0
CLASS
  1
ACMDATUMSTANDARDANSI
  2
AcmDatumStdANSI
  3
"AcmSymBB|Product Description: AutoCAD Mechanical 2000|Company: Autodesk"
 90
        0
280
     0
281
     0
  0
CLASS
  1
ACMBOMSTANDARDANSI
  2
AcmBOMStdANSI
  3
"AcmSymBB|Product Description: AutoCAD Mechanical 2000|Company: Autodesk"
 90
        0
280
     0
281
     0
  0
CLASS
  1
ACMSTANDARDBSI
  2
AcmStandardBSI
  3
"AcmSymBB|Product Description: AutoCAD Mechanical 2000|Company: Autodesk"
 90
        0
280
     0
281
     0
  0
CLASS
  1
ACMSURFSTANDARDBSI
  2
AcmSurfTextStdBSI
  3
"AcmSymBB|Product Description: AutoCAD Mechanical 2000|Company: Autodesk"
 90
        0
280
     0
281
     0
  0
CLASS
  1
ACMFCFSTANDARDBSI
  2
AcmFCFStdBSI
  3
"AcmSymBB|Product Description: AutoCAD Mechanical 2000|Company: Autodesk"
 90
        0
280
     0
281
     0
  0
CLASS
  1
ACMWELDSTANDARDBSI
  2
AcmWeldingStdBSI
  3
"AcmSymBB|Product Description: AutoCAD Mechanical 2000|Company: Autodesk"
 90
        0
280
     0
281
     0
  0
CLASS
  1
ACMIDSTANDARDBSI
  2
AcmIdStdBSI
  3
"AcmSymBB|Product Description: AutoCAD Mechanical 2000|Company: Autodesk"
 90
        0
280
     0
281
     0
  0
CLASS
  1
ACMDATUMSTANDARDBSI
  2
AcmDatumStdBSI
  3
"AcmSymBB|Product Description: AutoCAD Mechanical 2000|Company: Autodesk"
 90
        0
280
     0
281
     0
  0
CLASS
  1
ACMBOMSTANDARDBSI
  2
AcmBOMStdBSI
  3
"AcmSymBB|Product Description: AutoCAD Mechanical 2000|Company: Autodesk"
 90
        0
280
     0
281
     0
  0
CLASS
  1
LONG_TRANSACTION
  2
AcDbLongTransaction
  3
AutoCAD 2000
 90
        0
280
     0
281
     0
  0
CLASS
  1
LWPOLYLINE
  2
AcDbPolyline
  3
AutoCAD 2000
 90
        0
280
     0
281
     1
  0
CLASS
  1
HATCH
  2
AcDbHatch
  3
AutoCAD 2000
 90
        0
280
     0
281
     1
  0
CLASS
  1
XRECORD
  2
AcDbXrecord
  3
AutoCAD 2000
 90
        0
280
     0
281
     0
  0
ENDSEC
  0
SECTION
  2
TABLES
  0
TABLE
  2
VPORT
  5
8
330
0
100
AcDbSymbolTable
 70
     3
  0
VPORT
  5
5C9C
330
8
100
AcDbSymbolTableRecord
100
AcDbViewportTableRecord
  2
*ACTIVE
 70
     0
 10
0.0
 20
0.0
 11
1.0
 21
1.0
 12
-98.33419042760084
 22
-15.4618044568798
 13
0.0
 23
0.0
 14
2.5
 24
2.5
 15
10.0
 25
10.0
 16
0.0
 26
0.0
 36
1.0
 17
0.0
 27
0.0
 37
0.0
 40
175.8671855240983
 41
1.56570841889117
 42
50.0
 43
0.0
 44
0.0
 50
0.0
 51
0.0
 71
     0
 72
   100
 73
     1
 74
     1
 75
     0
 76
     0
 77
     0
 78
     0
  0
ENDTAB
  0
TABLE
  2
LTYPE
  5
5
330
0
100
AcDbSymbolTable
 70
    10
  0
LTYPE
  5
14
330
5
100
AcDbSymbolTableRecord
100
AcDbLinetypeTableRecord
  2
BYBLOCK
 70
     0
  3

 72
    65
 73
     0
 40
0.0
  0
LTYPE
  5
15
330
5
100
AcDbSymbolTableRecord
100
AcDbLinetypeTableRecord
  2
BYLAYER
 70
     0
  3

 72
    65
 73
     0
 40
0.0
  0
LTYPE
  5
16
330
5
100
AcDbSymbolTableRecord
100
AcDbLinetypeTableRecord
  2
CONTINUOUS
 70
     0
  3
Solid line
 72
    65
 73
     0
 40
0.0
  0
LTYPE
  5
4B
330
5
100
AcDbSymbolTableRecord
100
AcDbLinetypeTableRecord
  2
AM_ISO02W050
 70
     0
  3
__ __ __ __ __ __ __ __ __ __ __ __ __ __ __
 72
    65
 73
     2
 40
7.5
 49
6.0
 74
     0
 49
-1.5
 74
     0
  0
LTYPE
  5
4C
330
5
100
AcDbSymbolTableRecord
100
AcDbLinetypeTableRecord
  2
AM_ISO08W050
 70
     0
  3
____ . ____ . ____ . ____ . ____ . ____ . ____
 72
    65
 73
     4
 40
18.0
 49
12.0
 74
     0
 49
-1.5
 74
     0
 49
3.0
 74
     0
 49
-1.5
 74
     0
  0
LTYPE
  5
4D
330
5
100
AcDbSymbolTableRecord
100
AcDbLinetypeTableRecord
  2
AM_ISO09W050
 70
     0
  3
_____ . . _____ . . _____ . . ____ .. ____
 72
    65
 73
     6
 40
22.5
 49
12.0
 74
     0
 49
-1.5
 74
     0
 49
3.0
 74
     0
 49
-1.5
 74
     0
 49
3.0
 74
     0
 49
-1.5
 74
     0
  0
LTYPE
  5
4E
330
5
100
AcDbSymbolTableRecord
100
AcDbLinetypeTableRecord
  2
AMCONSTR
 70
     0
  3
_______________________
 72
    65
 73
     2
 40
9999.0
 49
9999.0
 74
     0
 49
0.0
 74
     0
  0
LTYPE
  5
4F
330
5
100
AcDbSymbolTableRecord
100
AcDbLinetypeTableRecord
  2
AM_ISO02W050X2
 70
     0
  3
 _ _ _ _ _ _ _ _ _ _ _ _
 72
    65
 73
     2
 40
3.75
 49
3.0
 74
     0
 49
-0.75
 74
     0
  0
LTYPE
  5
50
330
5
100
AcDbSymbolTableRecord
100
AcDbLinetypeTableRecord
  2
AM_ISO08W050X2
 70
     0
  3
__ . __ . __ . __ . __ . __
 72
    65
 73
     4
 40
9.0
 49
6.0
 74
     0
 49
-0.75
 74
     0
 49
1.5
 74
     0
 49
-0.75
 74
     0
  0
LTYPE
  5
53
330
5
100
AcDbSymbolTableRecord
100
AcDbLinetypeTableRecord
  2
AMZIGZAG
 70
     0
  3
/\/-/\/-/\/-/\/-/\/-/\/
 72
    65
 73
     2
 40
11.00009999999999
 49
0.0001
 74
     4
 75
   135
340
52
 46
0.04
 50
0.0
 44
0.0
 45
0.0
 49
-11.0
 74
     0
  0
LTYPE
  5
166
330
5
100
AcDbSymbolTableRecord
100
AcDbLinetypeTableRecord
  2
ACJISTGL
 70
     0
  3
_ _ _ _ _
 72
    65
 73
     2
 40
3.0
 49
2.0
 74
     0
 49
-1.0
 74
     0
  0
LTYPE
  5
26A
330
5
100
AcDbSymbolTableRecord
100
AcDbLinetypeTableRecord
  2
ACJISTGB
 70
     0
  3
__ . . __ . .
 72
    65
 73
     6
 40
9.0
 49
4.0
 74
     0
 49
-1.0
 74
     0
 49
1.0
 74
     0
 49
-1.0
 74
     0
 49
1.0
 74
     0
 49
-1.0
 74
     0
  0
ENDTAB
  0
TABLE
  2
LAYER
  5
2
330
0
100
AcDbSymbolTable
 70
     8
  0
LAYER
  5
10
330
2
100
AcDbSymbolTableRecord
100
AcDbLayerTableRecord
  2
0
 70
     0
 62
     7
  6
CONTINUOUS
  0
LAYER
  5
3F9
330
2
100
AcDbSymbolTableRecord
100
AcDbLayerTableRecord
  2
AM_0
 70
     0
 62
     7
  6
CONTINUOUS
  0
LAYER
  5
C7C
330
2
100
AcDbSymbolTableRecord
100
AcDbLayerTableRecord
  2
AM_7
 70
     0
 62
     4
  6
AM_ISO08W050
  0
LAYER
  5
C97
330
2
100
AcDbSymbolTableRecord
100
AcDbLayerTableRecord
  2
AM_11
 70
     0
 62
     3
  6
AM_ISO09W050
  0
LAYER
  5
CC5
330
2
100
AcDbSymbolTableRecord
100
AcDbLayerTableRecord
  2
AM_5
 70
     0
 62
     3
  6
CONTINUOUS
  0
LAYER
  5
CC7
330
2
100
AcDbSymbolTableRecord
100
AcDbLayerTableRecord
  2
DEFPOINTS
 70
     0
 62
     7
  6
CONTINUOUS
  0
LAYER
  5
19BC
330
2
100
AcDbSymbolTableRecord
100
AcDbLayerTableRecord
  2
AM_6
 70
     0
 62
     2
  6
CONTINUOUS
  0
LAYER
  5
5A85
330
2
100
AcDbSymbolTableRecord
100
AcDbLayerTableRecord
  2
AM_CL
 70
     0
 62
     1
  6
AMCONSTR
  0
ENDTAB
  0
TABLE
  2
STYLE
  5
3
330
0
100
AcDbSymbolTable
 70
     5
  0
STYLE
  5
11
330
3
100
AcDbSymbolTableRecord
100
AcDbTextStyleTableRecord
  2
STANDARD
 70
     0
 40
0.0
 41
1.0
 50
0.0
 71
     0
 42
2.5
  3
simplex.shx
  4
EXTFONT.SHX
  0
STYLE
  5
52
330
3
100
AcDbSymbolTableRecord
100
AcDbTextStyleTableRecord
  2

 70
     1
 40
0.0
 41
1.0
 50
0.0
 71
     0
 42
2.5
  3
ltypeshp.shx
  4

  0
STYLE
  5
6B
330
3
100
AcDbSymbolTableRecord
100
AcDbTextStyleTableRecord
  2
ASAMI
 70
     0
 40
0.0
 41
1.0
 50
0.0
 71
     0
 42
2.5
  3
simplex.shx
  4
EXTFONT.SHX
  0
STYLE
  5
262
330
3
100
AcDbSymbolTableRecord
100
AcDbTextStyleTableRecord
  2
ACJISTS
 70
     0
 40
1.0
 41
1.0
 50
0.0
 71
     0
 42
2.5
  3
simplex.shx
  4
bigfont.shx
  0
STYLE
  5
269
330
3
100
AcDbSymbolTableRecord
100
AcDbTextStyleTableRecord
  2
ACJISGDT
 70
     0
 40
0.0
 41
1.0
 50
0.0
 71
     0
 42
2.5
  3
amgdtans.shx
  4

  0
ENDTAB
  0
TABLE
  2
VIEW
  5
6
330
0
100
AcDbSymbolTable
 70
     0
  0
ENDTAB
  0
TABLE
  2
UCS
  5
7
330
0
100
AcDbSymbolTable
 70
     0
  0
ENDTAB
  0
TABLE
  2
APPID
  5
9
330
0
100
AcDbSymbolTable
 70
    16
  0
APPID
  5
12
330
9
100
AcDbSymbolTableRecord
100
AcDbRegAppTableRecord
  2
ACAD
 70
     0
  0
APPID
  5
30
330
9
100
AcDbSymbolTableRecord
100
AcDbRegAppTableRecord
  2
MCAD_NO_VIS
 70
     0
  0
APPID
  5
31
330
9
100
AcDbSymbolTableRecord
100
AcDbRegAppTableRecord
  2
ACAD_TEMP_GRAPHIC
 70
     0
  0
APPID
  5
2C2
330
9
100
AcDbSymbolTableRecord
100
AcDbRegAppTableRecord
  2
GENIUS_GENDTOL_13
 70
     0
  0
APPID
  5
339
330
9
100
AcDbSymbolTableRecord
100
AcDbRegAppTableRecord
  2
GENIUS_GENODEF_13
 70
     0
  0
APPID
  5
33A
330
9
100
AcDbSymbolTableRecord
100
AcDbRegAppTableRecord
  2
GENIUS_GENOBJ-N-RSBK_13
 70
     0
  0
APPID
  5
33B
330
9
100
AcDbSymbolTableRecord
100
AcDbRegAppTableRecord
  2
GENIUS_GENOBJ-N-LIB_13
 70
     0
  0
APPID
  5
33C
330
9
100
AcDbSymbolTableRecord
100
AcDbRegAppTableRecord
  2
GENIUS_GENSCALE_13
 70
     0
  0
APPID
  5
378
330
9
100
AcDbSymbolTableRecord
100
AcDbRegAppTableRecord
  2
GENIUS_GENDIMSH_14
 70
     0
  0
APPID
  5
C82
330
9
100
AcDbSymbolTableRecord
100
AcDbRegAppTableRecord
  2
GENIUS_GENOBJ-N-CRS_13
 70
     0
  0
APPID
  5
C83
330
9
100
AcDbSymbolTableRecord
100
AcDbRegAppTableRecord
  2
GENIUS_GENOENT_13
 70
     0
  0
APPID
  5
C84
330
9
100
AcDbSymbolTableRecord
100
AcDbRegAppTableRecord
  2
GENIUS_GENOREF_13
 70
     0
  0
APPID
  5
C85
330
9
100
AcDbSymbolTableRecord
100
AcDbRegAppTableRecord
  2
GENIUS_GENOLIS_13
 70
     0
  0
APPID
  5
CA0
330
9
100
AcDbSymbolTableRecord
100
AcDbRegAppTableRecord
  2
GENIUS_GENOBJ-N-CEN_13
 70
     0
  0
APPID
  5
2796
330
9
100
AcDbSymbolTableRecord
100
AcDbRegAppTableRecord
  2
GENIUS_GENFIL_13
 70
     0
  0
APPID
  5
2797
330
9
100
AcDbSymbolTableRecord
100
AcDbRegAppTableRecord
  2
GENIUS_GENOBJ-N-CHA_13
 70
     0
  0
ENDTAB
  0
TABLE
  2
DIMSTYLE
  5
A
330
0
100
AcDbSymbolTable
 70
     9
  0
DIMSTYLE
105
58
330
A
100
AcDbSymbolTableRecord
100
AcDbDimStyleTableRecord
  2
AM_JIS
 70
     0
  3

  4
"
  5
OPEN30
  6

  7

 40
1.0
 41
2.5
 42
1.0
 43
12.0
 44
1.0
 45
0.0
 46
0.0
 47
0.1
 48
0.1
140
3.2
141
0.0
142
0.0
143
0.0393701
144
1.0
145
0.0
146
0.71
147
1.5
 71
     0
 72
     0
 73
     0
 74
     0
 75
     0
 76
     0
 77
     3
 78
     8
170
     0
171
     2
172
     1
173
     0
174
     0
175
     0
176
   256
177
   256
178
     2
270
     2
271
     3
272
     3
273
     2
274
     2
340
6B
275
     0
280
     0
281
     0
282
     0
283
     0
284
     0
285
     0
286
     0
287
     3
288
     0
  0
DIMSTYLE
105
5F
330
A
100
AcDbSymbolTableRecord
100
AcDbDimStyleTableRecord
  2
AM_JIS$3
 70
     0
  3

  4
"
  5
OPEN30
  6

  7

 40
1.0
 41
2.5
 42
1.0
 43
10.0
 44
1.0
 45
0.0
 46
0.0
 47
0.1
 48
0.1
140
3.2
141
0.0
142
0.0
143
0.0393701
144
1.0
145
0.0
146
0.71
147
1.5
 71
     0
 72
     0
 73
     0
 74
     1
 75
     0
 76
     0
 77
     3
 78
     8
170
     0
171
     2
172
     0
173
     0
174
     0
175
     0
176
   256
177
   256
178
     2
270
     2
271
     2
272
     3
273
     2
274
     2
340
6B
275
     0
280
     0
281
     0
282
     0
283
     0
284
     0
285
     0
286
     0
287
     0
288
     1
  0
DIMSTYLE
105
60
330
A
100
AcDbSymbolTableRecord
100
AcDbDimStyleTableRecord
  2
AM_JIS$4
 70
     0
  3

  4
"
  5
OPEN30
  6

  7

 40
1.0
 41
2.5
 42
1.0
 43
10.0
 44
1.0
 45
0.0
 46
0.0
 47
0.1
 48
0.1
140
3.2
141
0.0
142
0.0
143
0.0393701
144
1.0
145
0.0
146
0.71
147
1.5
 71
     0
 72
     0
 73
     0
 74
     1
 75
     0
 76
     0
 77
     3
 78
     8
170
     0
171
     2
172
     0
173
     0
174
     0
175
     0
176
   256
177
   256
178
     2
270
     2
271
     2
272
     3
273
     2
274
     2
340
6B
275
     0
280
     0
281
     0
282
     0
283
     0
284
     0
285
     0
286
     0
287
     0
288
     1
  0
DIMSTYLE
105
61
330
A
100
AcDbSymbolTableRecord
100
AcDbDimStyleTableRecord
  2
AM_JIS$6
 70
     0
  3

  4
"
  5
OPEN30
  6

  7

 40
1.0
 41
2.5
 42
1.0
 43
10.0
 44
1.0
 45
0.0
 46
0.0
 47
0.1
 48
0.1
140
3.2
141
0.0
142
0.0
143
0.0393701
144
1.0
145
0.0
146
0.71
147
1.5
 71
     0
 72
     0
 73
     0
 74
     0
 75
     0
 76
     0
 77
     0
 78
     8
170
     0
171
     2
172
     1
173
     0
174
     0
175
     0
176
   256
177
   256
178
     2
270
     2
271
     2
272
     2
273
     2
274
     2
340
6B
275
     0
280
     0
281
     0
282
     0
283
     0
284
     0
285
     0
286
     0
287
     3
288
     0
  0
DIMSTYLE
105
62
330
A
100
AcDbSymbolTableRecord
100
AcDbDimStyleTableRecord
  2
AM_JIS$7
 70
     0
  3

  4
"
  5
OPEN30
  6

  7

 40
1.0
 41
2.5
 42
1.0
 43
10.0
 44
1.0
 45
0.0
 46
0.0
 47
0.1
 48
0.1
140
3.2
141
0.0
142
0.0
143
0.0393701
144
1.0
145
0.0
146
0.71
147
1.5
 71
     0
 72
     0
 73
     0
 74
     0
 75
     0
 76
     0
 77
     3
 78
     8
170
     0
171
     2
172
     1
173
     0
174
     0
175
     0
176
   256
177
   256
178
     2
270
     2
271
     2
272
     3
273
     2
274
     2
340
6B
275
     0
280
     0
281
     0
282
     0
283
     0
284
     0
285
     0
286
     0
287
     3
288
     0
  0
DIMSTYLE
105
63
330
A
100
AcDbSymbolTableRecord
100
AcDbDimStyleTableRecord
  2
AM_JIS$SF
 70
     0
  3

  4
"
  5
OPEN30
  6

  7

 40
1.0
 41
2.5
 42
1.0
 43
10.0
 44
1.0
 45
0.0
 46
0.0
 47
0.1
 48
0.1
140
3.2
141
0.0
142
0.0
143
0.0393701
144
1.0
145
0.0
146
0.71
147
1.5
 71
     0
 72
     0
 73
     0
 74
     0
 75
     1
 76
     1
 77
     3
 78
     8
170
     0
171
     2
172
     1
173
     0
174
     0
175
     0
176
   256
177
   256
178
     2
270
     2
271
     2
272
     2
273
     2
274
     2
340
6B
275
     0
280
     0
281
     0
282
     0
283
     0
284
     0
285
     0
286
     0
287
     3
288
     0
  0
DIMSTYLE
105
68
330
A
100
AcDbSymbolTableRecord
100
AcDbDimStyleTableRecord
  2
AM_JIS$SH
 70
     0
  3

  4
"
  5

  6
GENAXEH
  7
OPEN30
 40
1.0
 41
2.5
 42
1.0
 43
10.0
 44
1.0
 45
0.0
 46
0.0
 47
0.1
 48
0.1
140
3.2
141
0.0
142
0.0
143
0.0393701
144
2.0
145
0.0
146
0.71
147
1.5
 71
     0
 72
     0
 73
     0
 74
     0
 75
     1
 76
     1
 77
     3
 78
     8
170
     0
171
     2
172
     1
173
     1
174
     0
175
     0
176
   256
177
   256
178
     2
270
     2
271
     2
272
     2
273
     2
274
     2
340
6B
275
     0
280
     0
281
     0
282
     0
283
     0
284
     0
285
     0
286
     0
287
     3
288
     0
  0
DIMSTYLE
105
B34
102
{ACAD_REACTORS
330
587E
102
}
330
A
100
AcDbSymbolTableRecord
100
AcDbDimStyleTableRecord
  2
AM_JIS$2
 70
     0
  3

  4
"
  5
OPEN30
  6

  7

 40
1.0
 41
2.5
 42
1.0
 43
12.0
 44
1.0
 45
0.0
 46
0.0
 47
0.1
 48
0.1
140
3.2
141
0.0
142
0.0
143
0.0393701
144
1.0
145
0.0
146
0.71
147
1.5
 71
     0
 72
     0
 73
     0
 74
     0
 75
     0
 76
     0
 77
     3
 78
     8
170
     0
171
     2
172
     1
173
     0
174
     0
175
     0
176
   256
177
   256
178
     2
270
     2
271
     3
272
     3
273
     2
274
     2
340
6B
275
     0
280
     0
281
     0
282
     0
283
     0
284
     0
285
     0
286
     0
287
     3
288
     0
  0
DIMSTYLE
105
BA5
102
{ACAD_REACTORS
330
CC6
330
2069
330
4819
330
466D
102
}
330
A
100
AcDbSymbolTableRecord
100
AcDbDimStyleTableRecord
  2
AM_JIS$0
 70
     0
  3

  4
"
  5
OPEN30
  6

  7

 40
1.0
 41
2.5
 42
0.0
 43
10.0
 44
1.0
 45
0.0
 46
0.0
 47
0.1
 48
0.1000000001
140
3.799999999999999
141
0.0
142
0.0
143
0.0393701
144
1.0
145
0.0
146
0.71
147
1.5
 71
     0
 72
     0
 73
     0
 74
     0
 75
     0
 76
     0
 77
     3
 78
     1
170
     0
171
     2
172
     1
173
     0
174
     0
175
     0
176
     3
177
     3
178
     2
270
     2
271
     2
272
     2
273
     2
274
     2
340
11
275
     1
280
     0
281
     0
282
     0
283
     0
284
     8
285
     0
286
     0
287
     0
288
     0
  0
ENDTAB
  0
TABLE
  2
BLOCK_RECORD
  5
1
330
0
100
AcDbSymbolTable
 70
    10
  0
BLOCK_RECORD
  5
1F
102
{ACAD_XDICTIONARY
360
74
102
}
330
1
100
AcDbSymbolTableRecord
100
AcDbBlockTableRecord
  2
*MODEL_SPACE
  0
BLOCK_RECORD
  5
101
102
{ACAD_XDICTIONARY
360
5CC5
102
}
330
1
100
AcDbSymbolTableRecord
100
AcDbBlockTableRecord
  2
*PAPER_SPACE
  0
BLOCK_RECORD
  5
59
330
1
100
AcDbSymbolTableRecord
100
AcDbBlockTableRecord
  2
_OPEN30
  0
BLOCK_RECORD
  5
64
330
1
100
AcDbSymbolTableRecord
100
AcDbBlockTableRecord
  2
GENAXEH
  0
BLOCK_RECORD
  5
CC8
330
1
100
AcDbSymbolTableRecord
100
AcDbBlockTableRecord
  2
*D5
  0
BLOCK_RECORD
  5
206A
330
1
100
AcDbSymbolTableRecord
100
AcDbBlockTableRecord
  2
*D6
  0
BLOCK_RECORD
  5
466E
330
1
100
AcDbSymbolTableRecord
100
AcDbBlockTableRecord
  2
*D7
  0
BLOCK_RECORD
  5
481A
330
1
100
AcDbSymbolTableRecord
100
AcDbBlockTableRecord
  2
*D8
  0
BLOCK_RECORD
  5
587F
330
1
100
AcDbSymbolTableRecord
100
AcDbBlockTableRecord
  2
*D9
  0
ENDTAB
  0
ENDSEC
  0
SECTION
  2
BLOCKS
  0
BLOCK
  5
20
330
1F
100
AcDbEntity
  8
0
100
AcDbBlockBegin
  2
*MODEL_SPACE
 70
     0
 10
0.0
 20
0.0
 30
0.0
  3
*MODEL_SPACE
  1

  0
ENDBLK
  5
21
330
1F
100
AcDbEntity
  8
0
100
AcDbBlockEnd
  0
BLOCK
  5
103
330
101
100
AcDbEntity
 67
     1
  8
0
100
AcDbBlockBegin
  2
*PAPER_SPACE
 70
     0
 10
0.0
 20
0.0
 30
0.0
  3
*PAPER_SPACE
  1

  0
ENDBLK
  5
104
330
101
100
AcDbEntity
 67
     1
  8
0
100
AcDbBlockEnd
  0
BLOCK
  5
5D
330
59
100
AcDbEntity
  8
0
100
AcDbBlockBegin
  2
_OPEN30
 70
     0
 10
0.0
 20
0.0
 30
0.0
  3
_OPEN30
  1

  0
LINE
  5
5A
330
59
100
AcDbEntity
  8
0
 62
     0
100
AcDbLine
 10
-1.0
 20
0.26794919
 30
0.0
 11
0.0
 21
0.0
 31
0.0
  0
LINE
  5
5B
330
59
100
AcDbEntity
  8
0
 62
     0
100
AcDbLine
 10
0.0
 20
0.0
 30
0.0
 11
-1.0
 21
-0.26794919
 31
0.0
  0
LINE
  5
5C
330
59
100
AcDbEntity
  8
0
 62
     0
100
AcDbLine
 10
0.0
 20
0.0
 30
0.0
 11
-1.0
 21
0.0
 31
0.0
  0
ENDBLK
  5
5E
330
59
100
AcDbEntity
  8
0
100
AcDbBlockEnd
  0
BLOCK
  5
66
330
64
100
AcDbEntity
  8
0
100
AcDbBlockBegin
  2
GENAXEH
 70
     0
 10
0.0
 20
0.0
 30
0.0
  3
GENAXEH
  1

  0
LINE
  5
65
330
64
100
AcDbEntity
  8
0
100
AcDbLine
 10
-1.0
 20
0.0
 30
0.0
 11
1.0
 21
0.0
 31
0.0
  0
ENDBLK
  5
67
330
64
100
AcDbEntity
  8
0
100
AcDbBlockEnd
  0
BLOCK
  5
CD2
330
CC8
100
AcDbEntity
  8
0
100
AcDbBlockBegin
  2
*D5
 70
     1
 10
0.0
 20
0.0
 30
0.0
  3
*D5
  1

  0
LINE
  5
5C48
330
CC8
100
AcDbEntity
  8
AM_5
 62
     3
100
AcDbLine
 10
-205.000000000001
 20
-11.24999999999951
 30
0.0
 11
-205.000000000001
 21
-37.50000099999934
 31
0.0
  0
LINE
  5
5C49
330
CC8
100
AcDbEntity
  8
AM_5
 62
     3
100
AcDbLine
 10
-5.000000000000843
 20
-12.25000056804099
 30
0.0
 11
-5.000000000000845
 21
-37.50000099999934
 31
0.0
  0
LINE
  5
5C4A
330
CC8
100
AcDbEntity
  8
AM_5
 62
     3
100
AcDbLine
 10
-202.500000000001
 20
-36.50000099999934
 30
0.0
 11
-7.500000000000845
 21
-36.50000099999934
 31
0.0
  0
INSERT
  5
5C4B
330
CC8
100
AcDbEntity
  8
AM_5
 62
     3
100
AcDbBlockReference
  2
_OPEN30
 10
-205.000000000001
 20
-36.50000099999934
 30
0.0
 41
2.5
 42
2.5
 43
2.5
 50
180.0
  0
INSERT
  5
5C4C
330
CC8
100
AcDbEntity
  8
AM_5
 62
     3
100
AcDbBlockReference
  2
_OPEN30
 10
-5.000000000000845
 20
-36.50000099999934
 30
0.0
 41
2.5
 42
2.5
 43
2.5
  0
MTEXT
  5
5C4D
330
CC8
100
AcDbEntity
  8
AM_5
 62
     2
100
AcDbMText
 10
-105.0000000000009
 20
-33.10000099999934
 30
0.0
 40
3.799999999999999
 41
0.0
 71
     5
 72
     1
  1
200
1001
ACAD
1000
MTEXTBEGIN
1070
    73
1070
     1
1070
    44
1040
1.0
1070
    74
1070
     0
1000
MTEXTEND
  0
POINT
  5
5C4E
330
CC8
100
AcDbEntity
  8
DEFPOINTS
 62
     0
100
AcDbPoint
 10
-205.000000000001
 20
-11.24999999999951
 30
0.0
  0
POINT
  5
5C4F
330
CC8
100
AcDbEntity
  8
DEFPOINTS
 62
     0
100
AcDbPoint
 10
-5.000000000000843
 20
-12.25000056804099
 30
0.0
  0
POINT
  5
5C50
330
CC8
100
AcDbEntity
  8
DEFPOINTS
 62
     0
100
AcDbPoint
 10
-5.000000000000845
 20
-36.50000099999934
 30
0.0
  0
ENDBLK
  5
CD3
330
CC8
100
AcDbEntity
  8
0
100
AcDbBlockEnd
  0
BLOCK
  5
2074
330
206A
100
AcDbEntity
  8
0
100
AcDbBlockBegin
  2
*D6
 70
     1
 10
0.0
 20
0.0
 30
0.0
  3
*D6
  1

  0
LINE
  5
5C65
330
206A
100
AcDbEntity
  8
AM_5
 62
     3
100
AcDbLine
 10
-130.0000000000007
 20
-12.49999999999992
 30
0.0
 11
-130.0000000000006
 21
-27.50000099999958
 31
0.0
  0
LINE
  5
5C66
330
206A
100
AcDbEntity
  8
AM_5
 62
     3
100
AcDbLine
 10
-5.000000000000808
 20
-12.25000056804101
 30
0.0
 11
-5.000000000000764
 21
-27.50000099999922
 31
0.0
  0
LINE
  5
5C67
330
206A
100
AcDbEntity
  8
AM_5
 62
     3
100
AcDbLine
 10
-127.5000000000007
 20
-26.50000099999958
 30
0.0
 11
-7.500000000000767
 21
-26.50000099999923
 31
0.0
  0
INSERT
  5
5C68
330
206A
100
AcDbEntity
  8
AM_5
 62
     3
100
AcDbBlockReference
  2
_OPEN30
 10
-130.0000000000006
 20
-26.50000099999958
 30
0.0
 41
2.5
 42
2.5
 43
2.5
 50
180.0000000000001
  0
INSERT
  5
5C69
330
206A
100
AcDbEntity
  8
AM_5
 62
     3
100
AcDbBlockReference
  2
_OPEN30
 10
-5.000000000000767
 20
-26.50000099999922
 30
0.0
 41
2.5
 42
2.5
 43
2.5
 50
0.0000000000001527
  0
MTEXT
  5
5C6A
330
206A
100
AcDbEntity
  8
AM_5
 62
     2
100
AcDbMText
 10
-67.50000000000074
 20
-23.1000009999994
 30
0.0
 40
3.799999999999999
 41
0.0
 71
     5
 72
     1
  1
125
1001
ACAD
1000
MTEXTBEGIN
1070
    73
1070
     1
1070
    44
1040
1.0
1070
    74
1070
     0
1000
MTEXTEND
  0
POINT
  5
5C6B
330
206A
100
AcDbEntity
  8
DEFPOINTS
 62
     0
100
AcDbPoint
 10
-130.0000000000007
 20
-12.49999999999954
 30
0.0
  0
POINT
  5
5C6C
330
206A
100
AcDbEntity
  8
DEFPOINTS
 62
     0
100
AcDbPoint
 10
-5.000000000000843
 20
-12.25000056804099
 30
0.0
  0
POINT
  5
5C6D
330
206A
100
AcDbEntity
  8
DEFPOINTS
 62
     0
100
AcDbPoint
 10
-5.000000000000844
 20
-26.50000099999921
 30
0.0
  0
ENDBLK
  5
2075
330
206A
100
AcDbEntity
  8
0
100
AcDbBlockEnd
  0
BLOCK
  5
4678
330
466E
100
AcDbEntity
  8
0
100
AcDbBlockBegin
  2
*D7
 70
     1
 10
0.0
 20
0.0
 30
0.0
  3
*D7
  1

  0
LINE
  5
5C51
330
466E
100
AcDbEntity
  8
AM_5
 62
     3
100
AcDbLine
 10
-203.7500000000007
 20
12.49999999999982
 30
0.0
 11
-222.5000010000008
 21
12.49999999999976
 31
0.0
  0
LINE
  5
5C52
330
466E
100
AcDbEntity
  8
AM_5
 62
     3
100
AcDbLine
 10
-203.7500000000009
 20
-12.50000000000018
 30
0.0
 11
-222.5000010000008
 21
-12.50000000000023
 31
0.0
  0
LINE
  5
5C53
330
466E
100
AcDbEntity
  8
AM_5
 62
     3
100
AcDbLine
 10
-221.5000010000009
 20
9.999999999999769
 30
0.0
 11
-221.5000010000008
 21
-10.00000000000023
 31
0.0
  0
INSERT
  5
5C54
330
466E
100
AcDbEntity
  8
AM_5
 62
     3
100
AcDbBlockReference
  2
_OPEN30
 10
-221.5000010000009
 20
12.49999999999976
 30
0.0
 41
2.5
 42
2.5
 43
2.5
 50
90.00000000000017
  0
INSERT
  5
5C55
330
466E
100
AcDbEntity
  8
AM_5
 62
     3
100
AcDbBlockReference
  2
_OPEN30
 10
-221.5000010000008
 20
-12.50000000000023
 30
0.0
 41
2.5
 42
2.5
 43
2.5
 50
270.0000000000001
  0
MTEXT
  5
5C56
330
466E
100
AcDbEntity
  8
AM_5
 62
     2
100
AcDbMText
 10
-224.9000010000008
 20
-0.0000000000002318
 30
0.0
 40
3.799999999999999
 41
0.0
 71
     5
 72
     1
  1
%%c25
 11
-0.0000000000000028
 21
1.0
 31
0.0
1001
ACAD
1000
MTEXTBEGIN
1070
    73
1070
     1
1070
    44
1040
1.0
1070
    74
1070
     0
1000
MTEXTEND
  0
POINT
  5
5C57
330
466E
100
AcDbEntity
  8
DEFPOINTS
 62
     0
100
AcDbPoint
 10
-203.7500000000007
 20
12.50000000000045
 30
0.0
  0
POINT
  5
5C58
330
466E
100
AcDbEntity
  8
DEFPOINTS
 62
     0
100
AcDbPoint
 10
-203.750000000001
 20
-12.49999999999954
 30
0.0
  0
POINT
  5
5C59
330
466E
100
AcDbEntity
  8
DEFPOINTS
 62
     0
100
AcDbPoint
 10
-221.5000010000008
 20
-12.49999999999954
 30
0.0
  0
ENDBLK
  5
4679
330
466E
100
AcDbEntity
  8
0
100
AcDbBlockEnd
  0
BLOCK
  5
4824
330
481A
100
AcDbEntity
  8
0
100
AcDbBlockBegin
  2
*D8
 70
     1
 10
0.0
 20
0.0
 30
0.0
  3
*D8
  1

  0
LINE
  5
5C6E
330
481A
100
AcDbEntity
  8
AM_5
 62
     3
100
AcDbLine
 10
-5.000000000000881
 20
12.25
 30
0.0
 11
18.05788916828685
 21
12.25000000000006
 31
0.0
  0
LINE
  5
5C6F
330
481A
100
AcDbEntity
  8
AM_5
 62
     3
100
AcDbLine
 10
-5.000000041667042
 20
-12.24999999999995
 30
0.0
 11
18.05788916828693
 21
-12.24999999999989
 31
0.0
  0
LINE
  5
5C70
330
481A
100
AcDbEntity
  8
AM_5
 62
     3
100
AcDbLine
 10
17.05788916828686
 20
9.750000000000063
 30
0.0
 11
17.05788916828692
 21
-9.749999999999895
 31
0.0
  0
INSERT
  5
5C71
330
481A
100
AcDbEntity
  8
AM_5
 62
     3
100
AcDbBlockReference
  2
_OPEN30
 10
17.05788916828685
 20
12.25000000000006
 30
0.0
 41
2.5
 42
2.5
 43
2.5
 50
90.00000000000017
  0
INSERT
  5
5C72
330
481A
100
AcDbEntity
  8
AM_5
 62
     3
100
AcDbBlockReference
  2
_OPEN30
 10
17.05788916828693
 20
-12.24999999999989
 30
0.0
 41
2.5
 42
2.5
 43
2.5
 50
270.0000000000001
  0
MTEXT
  5
5C73
330
481A
100
AcDbEntity
  8
AM_5
 62
     2
100
AcDbMText
 10
13.65788916828689
 20
0.0000000000000737
 30
0.0
 40
3.799999999999999
 41
0.0
 71
     5
 72
     1
  1
%%c24.5
 11
-0.0000000000000028
 21
1.0
 31
0.0
1001
ACAD
1000
MTEXTBEGIN
1070
    73
1070
     1
1070
    44
1040
1.0
1070
    74
1070
     0
1000
MTEXTEND
  0
POINT
  5
5C74
330
481A
100
AcDbEntity
  8
DEFPOINTS
 62
     0
100
AcDbPoint
 10
-5.000000000000843
 20
12.25000000000001
 30
0.0
  0
POINT
  5
5C75
330
481A
100
AcDbEntity
  8
DEFPOINTS
 62
     0
100
AcDbPoint
 10
-5.00000004166708
 20
-12.24999999999994
 30
0.0
  0
POINT
  5
5C76
330
481A
100
AcDbEntity
  8
DEFPOINTS
 62
     0
100
AcDbPoint
 10
17.05788916828689
 20
-12.24999999999994
 30
0.0
  0
ENDBLK
  5
4825
330
481A
100
AcDbEntity
  8
0
100
AcDbBlockEnd
  0
BLOCK
  5
588D
330
587F
100
AcDbEntity
  8
0
100
AcDbBlockBegin
  2
*D9
 70
     1
 10
0.0
 20
0.0
 30
0.0
  3
*D9
  1

  0
LINE
  5
5CC7
330
587F
100
AcDbEntity
  8
AM_5
100
AcDbLine
 10
0.3420201408158153
 20
-0.9396926216992135
 30
0.0
 11
10.22190268667647
 21
-28.08444704887165
 31
0.0
  0
LINE
  5
5CC8
330
587F
100
AcDbEntity
  8
AM_5
100
AcDbLine
 10
0.3420222223656428
 20
0.9396918640746367
 30
0.0
 11
10.221964897632
 21
28.08442440585795
 31
0.0
  0
ARC
  5
5CC9
330
587F
100
AcDbEntity
  8
AM_5
100
AcDbCircle
 10
-0.0000000000003269
 20
0.0000000000001032
 30
0.0
 40
28.88684427263561
100
AcDbArc
 50
294.9601882143396
 51
65.03968486749018
  0
INSERT
  5
5CCA
330
587F
100
AcDbEntity
  8
AM_5
100
AcDbBlockReference
  2
_OPEN30
 10
9.879882545860331
 20
-27.14475442717235
 30
0.0
 41
2.5
 42
2.5
 43
2.5
 50
202.480094030663
  0
INSERT
  5
5CCB
330
587F
100
AcDbEntity
  8
AM_5
100
AcDbBlockReference
  2
_OPEN30
 10
9.879942675266045
 20
27.14473254178344
 30
0.0
 41
2.5
 42
2.5
 43
2.5
 50
157.5197790511667
  0
MTEXT
  5
5CCC
330
587F
100
AcDbEntity
  8
AM_5
 62
     2
100
AcDbMText
 10
25.78684427261946
 20
-0.0000285607343825
 30
0.0
 40
3.2
 41
0.0
 71
     5
 72
     1
  1
140°
  7
ASAMI
 11
0.0000011075699751
 21
0.9999999999993868
 31
0.0
  0
POINT
  5
5CCD
330
587F
100
AcDbEntity
  8
DEFPOINTS
 62
     0
100
AcDbPoint
 10
26.52435722971289
 20
-11.4415141297845
 30
0.0
  0
POINT
  5
5CCE
330
587F
100
AcDbEntity
  8
DEFPOINTS
 62
     0
100
AcDbPoint
 10
-0.000000000000322
 20
0.0000000000001166
 30
0.0
  0
POINT
  5
5CCF
330
587F
100
AcDbEntity
  8
DEFPOINTS
 62
     0
100
AcDbPoint
 10
-0.000000000000322
 20
0.0000000000000897
 30
0.0
  0
POINT
  5
5CD0
330
587F
100
AcDbEntity
  8
DEFPOINTS
 62
     0
100
AcDbPoint
 10
-1.425437746792967
 20
3.916358054693761
 30
0.0
  0
POINT
  5
5CD1
330
587F
100
AcDbEntity
  8
DEFPOINTS
 62
     0
100
AcDbPoint
 10
-1.425466239848057
 20
-3.916409345660866
 30
0.0
  0
ENDBLK
  5
588E
330
587F
100
AcDbEntity
  8
0
100
AcDbBlockEnd
  0
ENDSEC
  0
SECTION
  2
ENTITIES
  0
LINE
  5
C1D
330
1F
100
AcDbEntity
  8
AM_0
 48
0.5
100
AcDbLine
 10
-0.0000000000002842
 20
0.0000000000000908
 30
0.0
 11
-1.486094672188361
 21
4.083011588936044
 31
0.0
  0
LINE
  5
C20
330
1F
100
AcDbEntity
  8
AM_0
 48
0.5
100
AcDbLine
 10
-0.0000000000002842
 20
0.0000000000001188
 30
0.0
 11
-1.48612437771388
 21
-4.083065062497501
 31
0.0
  0
DIMENSION
  5
CC6
330
1F
100
AcDbEntity
  8
AM_5
100
AcDbDimension
  2
*D5
 10
-5.000000000000845
 20
-36.50000099999934
 30
0.0
 11
-105.0000000000009
 21
-33.10000099999934
 31
0.0
 70
    32
  1
<>
  3
AM_JIS$0
100
AcDbAlignedDimension
 13
-205.000000000001
 23
-11.24999999999951
 33
0.0
 14
-5.000000000000843
 24
-12.25000056804099
 34
0.0
 50
0.0000000000001132
100
AcDbRotatedDimension
1001
GENIUS_GENDTOL_13
1000

1000
h7
1000

1040
0.0
1001
ACAD
1000
DSTYLE
1002
{
1070
   271
1070
     0
1002
}
  0
TEXT
  5
19BD
330
1F
100
AcDbEntity
  8
AM_6
100
AcDbText
 10
-127.5000000000008
 20
-59.0000009999994
 30
0.0
 40
5.0
  1
MDW245MHK
 50
0.0000000000001527
 72
     4
 11
-105.0000000000008
 21
-56.50000099999934
 31
0.0
100
AcDbText
  0
DIMENSION
  5
2069
330
1F
100
AcDbEntity
  8
AM_5
100
AcDbDimension
  2
*D6
 10
-5.000000000000844
 20
-26.50000099999921
 30
0.0
 11
-67.50000000000081
 21
-23.10000099999921
 31
0.0
 70
    32
  1
<>
 51
359.9999999999998
  3
AM_JIS$0
100
AcDbAlignedDimension
 13
-130.0000000000007
 23
-12.49999999999954
 33
0.0
 14
-5.000000000000843
 24
-12.25000056804099
 34
0.0
 50
0.0000000000001527
100
AcDbRotatedDimension
1001
ACAD
1000
DSTYLE
1002
{
1070
   271
1070
     0
1070
   174
1070
     1
1002
}
1001
GENIUS_GENDTOL_13
1000

1000
h7
1000

1040
0.0
  0
LINE
  5
23EF
330
1F
100
AcDbEntity
  8
AM_7
100
AcDbLine
 10
-209.493263302178
 20
0.0000000000016324
 30
0.0
 11
3.90888731120475
 21
-0.0000000000000305
 31
0.0
1001
GENIUS_GENODEF_13
1002
{
1000
HIER
1070
     0
1002
}
1002
{
1000
MANEDIT
1070
     0
1002
}
1002
{
1000
NOSEL
1070
     0
1002
}
1002
{
1000
BEHIND
1070
     0
1002
}
1002
{
1000
REACTOR
1002
}
1001
GENIUS_GENOBJ-N-CEN_13
1002
{
1000
OWNER
1000
GEN
1002
}
  0
LINE
  5
24A7
330
1F
100
AcDbEntity
  8
AM_0
 48
0.5
100
AcDbLine
 10
-3.900240428757622
 20
9.663246287624113
 30
0.0
 11
-5.000000000000845
 21
12.25000000000002
 31
0.0
  0
ELLIPSE
  5
24B7
330
1F
100
AcDbEntity
  8
AM_11
 48
0.5
100
AcDbEllipse
 10
-32.92435578937978
 20
45.67546168677966
 30
0.0
 11
-52.72102753321259
 21
0.0000000000004012
 31
0.0
210
0.0
220
0.0
230
1.0
 40
0.9578947368421056
 41
1.130070686340284
 42
2.011520147323574
  0
ELLIPSE
  5
24B8
330
1F
100
AcDbEntity
  8
AM_11
 48
0.5
100
AcDbEllipse
 10
-32.92435578938228
 20
-45.67542853062534
 30
0.0
 11
-52.72102753321251
 21
0.0000000000002374
 31
0.0
210
0.0
220
0.0
230
1.0
 40
0.9578947368421054
 41
4.271664206181664
 42
5.153113667164971
  0
ELLIPSE
  5
24B9
330
1F
100
AcDbEntity
  8
AM_11
 48
0.5
100
AcDbEllipse
 10
12.05670481668088
 20
45.67546168677848
 30
0.0
 11
-52.72102753321245
 21
0.0000000000041239
 31
0.0
210
0.0
220
0.0
230
1.0
 40
0.9578947368421141
 41
1.130070686340349
 42
1.291800737381041
  0
ELLIPSE
  5
24BE
330
1F
100
AcDbEntity
  8
AM_0
 48
0.5
100
AcDbEllipse
 10
11.71148386499829
 20
12.42972149326188
 30
0.0
 11
-9.133611645707773
 21
18.17618019105943
 31
0.0
210
0.0
220
0.0
230
1.0
 40
0.7661203636765101
 41
1.345828882220657
 42
1.646194032212534
  0
ELLIPSE
  5
24C7
330
1F
100
AcDbEntity
  8
AM_11
 48
0.5
100
AcDbEllipse
 10
-167.8675376075489
 20
45.67546168678311
 30
0.0
 11
-52.72102753321259
 21
0.0000000000011739
 31
0.0
210
0.0
220
0.0
230
1.0
 40
0.9578947368421056
 41
1.130070686340301
 42
2.011520147323591
  0
ELLIPSE
  5
24C8
330
1F
100
AcDbEntity
  8
AM_11
 48
0.5
100
AcDbEllipse
 10
-167.8675376075515
 20
-45.67542853062191
 30
0.0
 11
52.72102753321251
 21
0.0000000000008812
 31
0.0
210
0.0
220
0.0
230
1.0
 40
0.957894736842107
 41
1.13007155259185
 42
2.011521013575156
  0
ELLIPSE
  5
24D4
330
1F
100
AcDbEntity
  8
AM_11
 48
0.5
100
AcDbEllipse
 10
-122.8864770014883
 20
45.67546168678201
 30
0.0
 11
-52.72102753321266
 21
0.0000000000003076
 31
0.0
210
0.0
220
0.0
230
1.0
 40
0.9578947368421049
 41
1.130070686340283
 42
2.011520147323574
  0
ELLIPSE
  5
24D5
330
1F
100
AcDbEntity
  8
AM_11
 48
0.5
100
AcDbEllipse
 10
-122.8864770014908
 20
-45.67542853062301
 30
0.0
 11
-52.72102753321243
 21
0.0000000000009514
 31
0.0
210
0.0
220
0.0
230
1.0
 40
0.9578947368421081
 41
4.271664206181676
 42
5.153113667164986
  0
ELLIPSE
  5
24E6
330
1F
100
AcDbEntity
  8
AM_11
 48
0.5
100
AcDbEllipse
 10
-77.9054163954429
 20
-45.67542853062421
 30
0.0
 11
-52.72102753321249
 21
0.0000000000014314
 31
0.0
210
0.0
220
0.0
230
1.0
 40
0.9578947368421058
 41
4.271664206181685
 42
5.153113667164993
  0
ELLIPSE
  5
24E7
330
1F
100
AcDbEntity
  8
AM_11
 48
0.5
100
AcDbEllipse
 10
-77.90541639544037
 20
45.67546168678081
 30
0.0
 11
52.72102753321259
 21
0.0000000000000852
 31
0.0
210
0.0
220
0.0
230
1.0
 40
0.9578947368421049
 41
4.271663339930067
 42
5.153112800913361
  0
ELLIPSE
  5
2BF3
330
1F
100
AcDbEntity
  8
AM_11
 48
0.5
100
AcDbEllipse
 10
-212.8485982135907
 20
45.67546168678158
 30
0.0
 11
-52.72102753321266
 21
0.0000000000003076
 31
0.0
210
0.0
220
0.0
230
1.0
 40
0.9578947368421049
 41
1.130070686340283
 42
1.130071893450395
  0
ELLIPSE
  5
2BF5
330
1F
100
AcDbEntity
  8
AM_11
 48
0.5
100
AcDbEllipse
 10
-212.8485982135935
 20
-45.67542853062331
 30
0.0
 11
-52.72102753321243
 21
0.0000000000009514
 31
0.0
210
0.0
220
0.0
230
1.0
 40
0.9578947368421081
 41
4.271664206181676
 42
4.562963178437293
  0
LINE
  5
2C0E
330
1F
100
AcDbEntity
  8
AM_0
 48
0.5
100
AcDbLine
 10
-130.0000000000007
 20
-12.49999999999954
 30
0.0
 11
-130.0000000000008
 21
12.50000000000045
 31
0.0
  0
LINE
  5
2FB7
330
1F
100
AcDbEntity
  8
AM_0
100
AcDbLine
 10
-130.0000000000008
 20
12.50000000000043
 30
0.0
 11
-129.5670482059723
 21
12.25003516517198
 31
0.0
  0
LINE
  5
2FB9
330
1F
100
AcDbEntity
  8
AM_0
100
AcDbLine
 10
-130.0000000000008
 20
-12.49999999999953
 30
0.0
 11
-129.5669868068542
 21
-12.24999971637368
 31
0.0
  0
LINE
  5
4431
330
1F
100
AcDbEntity
  8
AM_0
 48
0.5
100
AcDbLine
 10
-129.5671154894946
 20
-12.24999967545691
 30
0.0
 11
-123.1971202520394
 21
-12.24999986203195
 31
0.0
  0
LINE
  5
4432
330
1F
100
AcDbEntity
  8
AM_0
100
AcDbLine
 10
-129.5670350772287
 20
12.25011856978783
 30
0.0
 11
-129.5671154894946
 21
-12.24999967545692
 31
0.0
  0
LINE
  5
4433
330
1F
100
AcDbEntity
  8
AM_0
 48
0.5
100
AcDbLine
 10
-125.4528217024686
 20
12.25019227433519
 30
0.0
 11
-129.5670350772287
 21
12.25011856978782
 31
0.0
  0
LINE
  5
4434
330
1F
100
AcDbEntity
  8
AM_0
 48
0.5
100
AcDbLine
 10
-16.27656265569477
 20
12.25000000000046
 30
0.0
 11
-5.000000000000845
 21
12.25000000000002
 31
0.0
  0
LINE
  5
4435
330
1F
100
AcDbEntity
  8
AM_0
 48
0.5
100
AcDbLine
 10
-16.27656265290954
 20
-12.24999873335375
 30
0.0
 11
-5.000000000000843
 21
-12.25000056804099
 31
0.0
  0
LINE
  5
4436
330
1F
100
AcDbEntity
  8
AM_0
 48
0.5
100
AcDbLine
 10
-0.0000000000002682
 20
0.0000000000001188
 30
0.0
 11
-10.66905632176512
 21
5.101459772942213
 31
0.0
  0
LINE
  5
4437
330
1F
100
AcDbEntity
  8
AM_0
 48
0.5
100
AcDbLine
 10
-100.211135890324
 20
12.2500012666494
 30
0.0
 11
-55.82985606842548
 21
12.25000000000195
 31
0.0
  0
LINE
  5
4438
330
1F
100
AcDbEntity
  8
AM_0
 48
0.5
100
AcDbLine
 10
-93.57330393675312
 20
-12.24999999999911
 30
0.0
 11
-55.82986445205588
 21
-12.24999999999944
 31
0.0
  0
LINE
  5
4439
330
1F
100
AcDbEntity
  8
AM_11
 48
0.5
100
AcDbLine
 10
-55.82986445205588
 20
-12.24999999999944
 30
0.0
 11
-16.27656265290954
 21
-12.24999873335375
 31
0.0
  0
LINE
  5
443A
330
1F
100
AcDbEntity
  8
AM_11
 48
0.5
100
AcDbLine
 10
-55.82985606842548
 20
12.25000000000195
 30
0.0
 11
-16.27656265569477
 21
12.25000000000046
 31
0.0
  0
SPLINE
  5
443B
330
1F
100
AcDbEntity
  8
AM_0
100
AcDbSpline
210
0.0
220
0.0
230
1.0
 70
     8
 71
     3
 72
    22
 73
    18
 74
     0
 42
0.0000000001
 43
0.0000000001
 40
17.17441611292
 40
17.17441611292
 40
17.17441611292
 40
17.17441611292
 40
17.38177636558528
 40
18.41823744757437
 40
19.46215659509824
 40
20.51397914882054
 40
21.57394542641293
 40
22.64209583141747
 40
23.71826625065247
 40
24.80210429862395
 40
25.8930771157021
 40
26.99048705697709
 40
28.09349309193389
 40
29.20112995599786
 40
30.31233024745139
 40
31.42594771747373
 40
32.5407895042663
 40
32.54078950426994
 40
32.54078950426994
 40
32.54078950426994
 10
-63.84401719367203
 20
-11.00058739455294
 30
0.0
 10
-63.98461734815017
 20
-10.97222984605462
 30
0.0
 10
-64.82743848802968
 20
-10.79950091859487
 30
0.0
 10
-66.37143932350692
 20
-10.45315693786765
 30
0.0
 10
-68.47019276758046
 20
-9.917895447203871
 30
0.0
 10
-70.56873235308358
 20
-9.321510494978141
 30
0.0
 10
-72.66707289558809
 20
-8.667724863937765
 30
0.0
 10
-74.76521162333208
 20
-7.960547226635198
 30
0.0
 10
-76.86317436197038
 20
-7.204378676290357
 30
0.0
 10
-78.9609708256601
 20
-6.403866381515877
 30
0.0
 10
-81.05862042400699
 20
-5.56394705777065
 30
0.0
 10
-83.15614648154465
 20
-4.689802475268407
 30
0.0
 10
-85.25356720353386
 20
-3.786807775481735
 30
0.0
 10
-87.350903703905
 20
-2.860518334391493
 30
0.0
 10
-89.44817457372067
 20
-1.916629783561038
 30
0.0
 10
-91.54541088222515
 20
-0.9609664255282959
 30
0.0
 10
-92.94329397964688
 20
-0.3200232829479924
 30
0.0
 10
-93.64261953690869
 20
0.0006243338707615
 30
0.0
  0
SPLINE
  5
443C
330
1F
100
AcDbEntity
  8
AM_0
100
AcDbSpline
210
0.0
220
0.0
230
1.0
 70
     8
 71
     3
 72
    17
 73
    13
 74
     0
 42
0.0000000001
 43
0.0000000001
 40
1.580019955310467
 40
1.580019955310467
 40
1.580019955310467
 40
1.580019955310467
 40
2.030549285115227
 40
3.082371838836284
 40
4.126290986361125
 40
5.162752068350215
 40
6.192395305374981
 40
7.216039564037012
 40
8.234688489606833
 40
9.249433870634691
 40
10.26152376260694
 40
11.27226744710342
 40
11.27226744710342
 40
11.27226744710342
 40
11.27226744710352
 10
-36.05166639714937
 20
-9.040859454084923
 30
0.0
 10
-36.34874154562647
 20
-9.133972808922836
 30
0.0
 10
-37.34107234755914
 20
-9.439164266470424
 30
0.0
 10
-39.03522711419864
 20
-9.917867987573631
 30
0.0
 10
-41.1336884165947
 20
-10.45395265081668
 30
0.0
 10
-43.23272742342264
 20
-10.92456380830133
 30
0.0
 10
-45.33186260748509
 20
-11.32812104198942
 30
0.0
 10
-47.43122648856375
 20
-11.66168885707415
 30
0.0
 10
-49.53073540866882
 20
-11.92336372911791
 30
0.0
 10
-51.63037506100563
 20
-12.11144991739236
 30
0.0
 10
-53.73009371589056
 20
-12.22473668926076
 30
0.0
 10
-55.13024589906756
 20
-12.24999880344746
 30
0.0
 10
-55.82986445205591
 20
-12.24999999999945
 30
0.0
  0
SPLINE
  5
443D
330
1F
100
AcDbEntity
  8
AM_0
100
AcDbSpline
210
0.0
220
0.0
230
1.0
 70
     8
 71
     3
 72
    11
 73
     7
 74
     0
 42
0.0000000001
 43
0.0000000001
 40
11.27226913003534
 40
11.27226913003534
 40
11.27226913003534
 40
11.2722691300354
 40
12.28301561507924
 40
13.29510212255852
 40
14.30984805882082
 40
15.18258238371378
 40
15.18258238371378
 40
15.18258238371378
 40
15.18258238371378
 10
-55.82986445205601
 20
-12.24999999999945
 30
0.0
 10
-56.52680596993377
 20
-12.19004367352549
 30
0.0
 10
-57.91939119847164
 20
-12.04489508303561
 30
0.0
 10
-60.00107799077352
 20
-11.75209447359883
 30
0.0
 10
-61.97663546252199
 20
-11.40237624996133
 30
0.0
 10
-63.25431007235176
 20
-11.13353744316917
 30
0.0
 10
-63.84309891431261
 20
-11.00073849820927
 30
0.0
  0
SPLINE
  5
443E
330
1F
100
AcDbEntity
  8
AM_0
 48
0.5
100
AcDbSpline
210
0.0
220
0.0
230
1.0
 70
     8
 71
     3
 72
    25
 73
    21
 74
     0
 42
0.0000000001
 43
0.0000000001
 40
6.846175049578289
 40
6.846175049578289
 40
6.846175049578289
 40
6.846175049578289
 40
7.604337694224321
 40
8.711974558287883
 40
9.814980593243754
 40
10.91239053451967
 40
12.0033633515982
 40
13.08720139956839
 40
14.16337181880432
 40
15.23152222380919
 40
16.29148850140128
 40
17.34331105512262
 40
18.38723020264746
 40
19.42369128463655
 40
20.45333379090873
 40
21.47697865721768
 40
22.49561244472435
 40
23.5103574802404
 40
24.52244778960836
 40
25.53320666051913
 40
25.53320666051913
 40
25.53320666051913
 40
25.53320666051913
 10
-18.72536314366817
 20
2.217331465569106
 30
0.0
 10
-19.20234735647161
 20
2.432419679024332
 30
0.0
 10
-20.37718495432823
 20
2.95958844314193
 30
0.0
 10
-22.25162187084444
 20
3.787433174465643
 30
0.0
 10
-24.34904247820762
 20
4.690428129413384
 30
0.0
 10
-26.44656856621539
 20
5.564572643970416
 30
0.0
 10
-28.54421815652587
 20
6.404491986073389
 30
0.0
 10
-30.64201462213216
 20
7.20500427484369
 30
0.0
 10
-32.73997736106222
 20
7.961172830957002
 30
0.0
 10
-34.83811608577866
 20
8.668350451313635
 30
0.0
 10
-36.93645663996801
 20
9.322136143735434
 30
0.0
 10
-39.03499618222666
 20
9.918520869792791
 30
0.0
 10
-41.13374978592389
 20
10.45378319503939
 30
0.0
 10
-43.23271004446163
 20
10.92461046439803
 30
0.0
 10
-45.33186875824036
 20
11.32811684356869
 30
0.0
 10
-47.43121424642843
 20
11.66162770510889
 30
0.0
 10
-49.53071384405295
 20
11.92361665896777
 30
0.0
 10
-51.63034441249768
 20
12.11052524514437
 30
0.0
 10
-53.73007186843157
 20
12.22814258718709
 30
0.0
 10
-55.13023519553592
 20
12.24271823805657
 30
0.0
 10
-55.82985606842548
 20
12.25000000000194
 30
0.0
  0
SPLINE
  5
443F
330
1F
100
AcDbEntity
  8
AM_0
 48
0.5
100
AcDbSpline
210
0.0
220
0.0
230
1.0
 70
     8
 71
     3
 72
    17
 73
    13
 74
     0
 42
0.0000000001
 43
0.0000000001
 40
0.0
 40
0.0
 40
0.0
 40
0.0
 40
1.010743614677189
 40
2.022833924044153
 40
3.037578959561199
 40
4.056212747067873
 40
5.079857613375832
 40
6.109500119648989
 40
7.14596120163808
 40
8.18989512056258
 40
9.241717674284874
 40
9.693948937866434
 40
9.693948937866434
 40
9.693948937866434
 40
9.693948937866434
 10
-16.27656265569476
 20
12.25000000000046
 30
0.0
 10
-16.97617295881797
 20
12.24271679918868
 30
0.0
 10
-18.37632571191799
 20
12.22814069357331
 30
0.0
 10
-20.47604264242257
 20
12.11052403392017
 30
0.0
 10
-22.57567312879991
 20
11.92361520614241
 30
0.0
 10
-24.67517303602947
 20
11.6616271318173
 30
0.0
 10
-26.77451735967563
 20
11.32811297058946
 30
0.0
 10
-28.87368045832274
 20
10.92461901347012
 30
0.0
 10
-30.97263415767399
 20
10.45374268450146
 30
0.0
 10
-33.07145990555835
 20
9.918654044399609
 30
0.0
 10
-34.76568677881314
 20
9.436620064492622
 30
0.0
 10
-35.76063613313923
 20
9.135279507531313
 30
0.0
 10
-36.05926654961516
 20
9.043041180307698
 30
0.0
  0
SPLINE
  5
4440
330
1F
100
AcDbEntity
  8
AM_0
 48
0.5
100
AcDbSpline
210
0.0
220
0.0
230
1.0
 70
     8
 71
     3
 72
    10
 73
     6
 74
     0
 42
0.0000000001
 43
0.0000000001
 40
0.0
 40
0.0
 40
0.0
 40
0.0
 40
2.69986029516136
 40
4.147722969032201
 40
6.285750005020438
 40
6.285750005020438
 40
6.285750005020438
 40
6.285750005020438
 10
-18.72502744487514
 20
2.217185969201442
 30
0.0
 10
-17.23061525425164
 20
1.079076317886171
 30
0.0
 10
-14.93478988159832
 20
-0.6693710186288757
 30
0.0
 10
-9.505471279046178
 20
0.1770829671911027
 30
0.0
 10
-10.5279698933747
 20
3.425882596007634
 30
0.0
 10
-10.66905632176512
 20
5.101459772942214
 30
0.0
  0
ELLIPSE
  5
4441
330
1F
100
AcDbEntity
  8
AM_0
 48
0.5
100
AcDbEllipse
 10
-24.80237838767818
 20
44.80606132910116
 30
0.0
 11
-36.21285065769248
 21
36.21285065769248
 31
0.0
210
0.0
220
0.0
230
1.0
 40
0.9999999999999912
 41
2.755964978443536
 42
2.861758854623459
  0
ELLIPSE
  5
4442
330
1F
100
AcDbEntity
  8
AM_0
 48
0.5
100
AcDbEllipse
 10
-87.5159204842353
 20
201.101951720521
 30
0.0
 11
-132.2851138690723
 21
178.4101351866062
 31
0.0
210
0.0
220
0.0
230
1.0
 40
0.8868454644545558
 41
2.820613923527278
 42
2.847924151504171
  0
ELLIPSE
  5
4443
330
1F
100
AcDbEntity
  8
AM_0
 48
0.5
100
AcDbEllipse
 10
-5.783852606786655
 20
-2.992898448734637
 30
0.0
 11
-0.3613012580055811
 21
2.009814312301334
 31
0.0
210
0.0
220
0.0
230
0.9999999999999998
 40
0.5071669508808171
 41
1.800658447399878
 42
4.936000337111854
  0
ELLIPSE
  5
4444
330
1F
100
AcDbEntity
  8
AM_0
 48
0.5
100
AcDbEllipse
 10
-5.78403162678572
 20
-2.997243206240834
 30
0.0
 11
-1.80312801487249
 21
1.012295816037627
 31
0.0
210
0.0
220
0.0
230
0.9999999999999998
 40
0.4957125835687847
 41
4.474232573723973
 42
7.617672915053487
  0
ELLIPSE
  5
4445
330
1F
100
AcDbEntity
  8
AM_0
 48
0.5
100
AcDbEllipse
 10
2.934407862051491
 20
14.70687992875483
 30
0.0
 11
-25.10929095892951
 21
0.0000000000035308
 31
0.0
210
0.0
220
0.0
230
1.0
 40
0.9832694318577907
 41
0.5303675532341967
 42
0.9384884834290904
  0
ELLIPSE
  5
4446
330
1F
100
AcDbEntity
  8
AM_0
 48
0.5
100
AcDbEllipse
 10
7.925520314337893
 20
-3.271542886143022
 30
0.0
 11
-20.76924001064854
 21
4.004339930083023
 31
0.0
210
0.0
220
0.0
230
1.0
 40
0.6232587418544969
 41
0.4434916753810803
 42
1.024326112782035
  0
SPLINE
  5
4447
330
1F
100
AcDbEntity
  8
AM_0
100
AcDbSpline
210
0.0
220
0.0
230
1.0
 70
     8
 71
     3
 72
    46
 73
    42
 74
     0
 42
0.0000000001
 43
0.0000000001
 40
0.0
 40
0.0
 40
0.0
 40
0.0
 40
1.685415058684571
 40
2.531036209541119
 40
3.379897699130121
 40
4.232934581347655
 40
5.090970612202441
 40
5.954688180526682
 40
6.824620803463246
 40
7.701151815239689
 40
8.584457046566678
 40
9.474582384070741
 40
10.37139106676737
 40
11.27458944007583
 40
12.18373345430765
 40
13.09824173870457
 40
14.01741343450111
 40
14.9404441545541
 40
15.86644439743314
 40
16.79446029130534
 40
17.7234937712985
 40
18.65252725129241
 40
19.58054314516461
 40
20.50654338804289
 40
21.42957410809586
 40
22.34874580389317
 40
23.26325408828901
 40
24.17239810252111
 40
25.07560240389441
 40
25.97241108659103
 40
26.8625364240951
 40
27.74584165542183
 40
28.62236045019041
 40
29.49229307312697
 40
30.35601064145121
 40
31.21404606334468
 40
32.06708345193547
 40
32.91595755657689
 40
33.76157841950693
 40
34.60498701064689
 40
35.44727335621125
 40
35.44727335621125
 40
35.44727335621125
 40
35.44727335621125
 10
-10.39877704043508
 20
-12.24999873335398
 30
0.0
 10
-11.79899761062535
 20
-12.22209228641772
 30
0.0
 10
-13.90174906418238
 20
-12.18018437340167
 30
0.0
 10
-16.69786936926079
 20
-11.92216505185543
 30
0.0
 10
-18.79739105012135
 20
-11.66201293955473
 30
0.0
 10
-20.89673327185824
 20
-11.32802181832901
 30
0.0
 10
-22.99589050408518
 20
-10.92463288909179
 30
0.0
 10
-25.09485196301982
 20
-10.45377469458019
 30
0.0
 10
-27.19361413321708
 20
-9.918514577032414
 30
0.0
 10
-29.29216767444401
 20
-9.322139112805707
 30
0.0
 10
-31.39051678120581
 20
-8.668347243691169
 30
0.0
 10
-33.48865580958146
 20
-7.961170479919195
 30
0.0
 10
-35.5866184672969
 20
-7.205001694017793
 30
0.0
 10
-37.68441495087018
 20
-6.40448945872636
 30
0.0
 10
-39.78206455149631
 20
-5.56457013513711
 30
0.0
 10
-41.87959057958127
 20
-4.690425491407424
 30
0.0
 10
-43.97701141794926
 20
-3.78743103820847
 30
0.0
 10
-46.0743474797971
 20
-2.861140666764007
 30
0.0
 10
-48.17162100286591
 20
-1.91725515154168
 30
0.0
 10
-50.26885114588623
 20
-0.961578724966754
 30
0.0
 10
-52.36606365921979
 20
0.0000012664530336
 30
0.0
 10
-54.46327617209256
 20
0.9615812590413352
 30
0.0
 10
-56.56050631649485
 20
1.917257682112428
 30
0.0
 10
-58.65777983451238
 20
2.861143210139705
 30
0.0
 10
-60.75511591509062
 20
3.787433534095272
 30
0.0
 10
-62.85253668400804
 20
4.690428163378245
 30
0.0
 10
-64.95006296929227
 20
5.564572155006888
 30
0.0
 10
-67.04771617874263
 20
6.40449571667274
 30
0.0
 10
-69.14552081334098
 20
7.205000678904719
 30
0.0
 10
-71.2434872135003
 20
7.961173342180696
 30
0.0
 10
-73.34162619302529
 20
8.668350316375386
 30
0.0
 10
-75.43996668000734
 20
9.322136177701363
 30
0.0
 10
-77.53850623900355
 20
9.918520867351313
 30
0.0
 10
-79.63725984219441
 20
10.45378317149524
 30
0.0
 10
-81.73622008636039
 20
10.9246105599918
 30
0.0
 10
-83.83537885756096
 20
11.32811648791449
 30
0.0
 10
-85.93473447746189
 20
11.66163066553642
 30
0.0
 10
-88.03424534001949
 20
11.92361420024357
 30
0.0
 10
-90.1338860982924
 20
12.11052565722069
 30
0.0
 10
-92.23360307196307
 20
12.22814187129436
 30
0.0
 10
-93.63375581931919
 20
12.24271803620803
 30
0.0
 10
-94.3333661195721
 20
12.25000126664917
 30
0.0
  0
SPLINE
  5
4448
330
1F
100
AcDbEntity
  8
AM_0
100
AcDbSpline
210
0.0
220
0.0
230
1.0
 70
     8
 71
     3
 72
    13
 73
     9
 74
     0
 42
0.0000000001
 43
0.0000000001
 40
16.03460056234195
 40
16.03460056234195
 40
16.03460056234195
 40
16.03460056234195
 40
16.35212717791071
 40
17.38177067057215
 40
18.41822498539278
 40
19.46214186516937
 40
20.5139635832251
 40
21.34083983469381
 40
21.34083983469381
 40
21.34083983469381
 40
21.34083983469381
 10
-123.1971025190008
 20
-12.24999999999886
 30
0.0
 10
-122.7537870163232
 20
-12.21038452585648
 30
0.0
 10
-121.8394688720273
 20
-12.03030512077859
 30
0.0
 10
-120.2288898249921
 20
-11.67745320952381
 30
0.0
 10
-118.1431843434045
 20
-11.15277385682467
 30
0.0
 10
-116.0594164964899
 20
-10.56364437143531
 30
0.0
 10
-114.1312457424866
 20
-9.961501161433393
 30
0.0
 10
-112.9011067563354
 20
-9.546882709038905
 30
0.0
 10
-112.361452155851
 20
-9.359471390552569
 30
0.0
  0
ELLIPSE
  5
4449
330
1F
100
AcDbEntity
  8
AM_0
 48
0.5
100
AcDbEllipse
 10
-123.3474504003243
 20
-8.167289733883162
 30
0.0
 11
-3.512186875955489
 21
2.336410623537381
 31
0.0
210
0.0
220
0.0
230
1.0
 40
0.9533223776444634
 41
0.6204969377444103
 42
2.172127168256938
  0
ELLIPSE
  5
444A
330
1F
100
AcDbEntity
  8
AM_0
 48
0.5
100
AcDbEllipse
 10
-124.3864138633359
 20
-8.291700681046854
 30
0.0
 11
3.022543298852819
 21
0.7651489743071237
 31
0.0
210
0.0
220
0.0
230
0.9999999999999998
 40
0.9856920594379364
 41
1.036438448448569
 42
2.86468463071038
  0
SPLINE
  5
444B
330
1F
100
AcDbEntity
  8
AM_0
100
AcDbSpline
210
0.0
220
0.0
230
1.0
 70
     8
 71
     3
 72
    55
 73
    51
 74
     0
 42
0.0000000001
 43
0.0000000001
 40
0.0
 40
0.0
 40
0.0
 40
0.0
 40
1.010743684496582
 40
2.022833576467832
 40
3.037578957496688
 40
4.056212745003489
 40
5.079857003664532
 40
6.109500240690281
 40
7.145961322679372
 40
8.189895241603872
 40
9.241717795325891
 40
10.30168407291828
 40
11.36983447792315
 40
12.44600489715814
 40
13.52984294512926
 40
14.62081576220742
 40
15.7182257034828
 40
16.82123173843959
 40
17.92886860250316
 40
19.0400688939571
 40
20.15368796660465
 40
21.26852814259644
 40
22.38336992938901
 40
23.49698739941135
 40
24.6081876908653
 40
25.71582455492886
 40
26.81883757994213
 40
27.91624752121713
 40
29.00722033829659
 40
30.09105838626677
 40
31.16722880550176
 40
32.23537921050758
 40
33.29534548809967
 40
34.347168041821
 40
35.39108718934584
 40
36.42754827133493
 40
37.45720575381954
 40
38.48085062012849
 40
39.49948440763516
 40
40.51422944315121
 40
41.52631975251916
 40
42.53706336719636
 40
43.54780698187354
 40
44.55989729124051
 40
45.57464232675757
 40
46.59327611426424
 40
47.6169209805722
 40
48.64656348684535
 40
49.68302456883444
 40
50.58557219878025
 40
50.58557219878025
 40
50.58557219878025
 40
50.58557219878025
 10
-16.27656265290952
 20
-12.24999873335375
 30
0.0
 10
-16.97617282871204
 20
-12.24271028012812
 30
0.0
 10
-18.37632498969909
 20
-12.22812366620075
 30
0.0
 10
-20.47604368912019
 20
-12.11053918241679
 30
0.0
 10
-22.57567275946692
 20
-11.92361056969442
 30
0.0
 10
-24.67517188338773
 20
-11.6616230095336
 30
0.0
 10
-26.77452011118635
 20
-11.32812693567249
 30
0.0
 10
-28.87367602741603
 20
-10.92460535200533
 30
0.0
 10
-30.97264665366027
 20
-10.45377652374698
 30
0.0
 10
-33.07141337629158
 20
-9.918523581367393
 30
0.0
 10
-35.16996189888347
 20
-9.322132945462207
 30
0.0
 10
-37.26830268154027
 20
-8.668348098403324
 30
0.0
 10
-39.36644134403702
 20
-7.961170248275268
 30
0.0
 10
-41.46440410093565
 20
-7.20500175683053
 30
0.0
 10
-43.56220055749127
 20
-6.404489441462907
 30
0.0
 10
-45.65985016602044
 20
-5.564570140793485
 30
0.0
 10
-47.75737618974115
 20
-4.690425486160247
 30
0.0
 10
-49.85479703766183
 20
-3.787431053600977
 30
0.0
 10
-51.95213306549065
 20
-2.861140610149404
 30
0.0
 10
-54.04940671561444
 20
-1.91725536343618
 30
0.0
 10
-56.14663638311942
 20
-0.9615779320552494
 30
0.0
 10
-58.24385168413716
 20
-0.0000012327971716
 30
0.0
 10
-60.34105757041301
 20
0.9615927754407541
 30
0.0
 10
-62.43829426737469
 20
1.917255324396253
 30
0.0
 10
-64.53556532838598
 20
2.861143428196383
 30
0.0
 10
-66.63290509574178
 20
3.787437400401678
 30
0.0
 10
-68.73033464477022
 20
4.690424126647901
 30
0.0
 10
-70.82786397894119
 20
5.564573214410803
 30
0.0
 10
-72.92551389030116
 20
6.404491833992278
 30
0.0
 10
-75.02331027052466
 20
7.205004317704632
 30
0.0
 10
-77.1212730327954
 20
7.961172810255499
 30
0.0
 10
-79.21941174873333
 20
8.668350491286661
 30
0.0
 10
-81.31775231481844
 20
9.322136005920024
 30
0.0
 10
-83.41629181861973
 20
9.918521375703528
 30
0.0
 10
-85.51504556280292
 20
10.45378132856122
 30
0.0
 10
-87.61401541043797
 20
10.92461962459499
 30
0.0
 10
-89.71318631534444
 20
11.32809512049582
 30
0.0
 10
-91.81254147879631
 20
11.66169441844178
 30
0.0
 10
-93.91204122510261
 20
11.92337142616547
 30
0.0
 10
-96.01167175433545
 20
12.11143518825794
 30
0.0
 10
-98.11138867344533
 20
12.22475750675582
 30
0.0
 10
-100.211151732561
 20
12.26261474363803
 30
0.0
 10
-102.3109147885873
 20
12.22475750669662
 30
0.0
 10
-104.4106317169836
 20
12.11143518849635
 30
0.0
 10
-106.5102622120262
 20
11.92337142526847
 30
0.0
 10
-108.6097620865203
 20
11.66169442181452
 30
0.0
 10
-110.7091065333093
 20
11.32809673416653
 30
0.0
 10
-112.8082691682814
 20
10.9246237499147
 30
0.0
 10
-114.8118034120707
 20
10.47515440630667
 30
0.0
 10
-116.1117192463378
 20
10.14645322618968
 30
0.0
 10
-116.7148044288632
 20
9.986261106109449
 30
0.0
  0
SPLINE
  5
444C
330
1F
100
AcDbEntity
  8
AM_0
100
AcDbSpline
210
0.0
220
0.0
230
1.0
 70
     8
 71
     3
 72
    23
 73
    19
 74
     0
 42
0.0000000001
 43
0.0000000001
 40
16.03460024169435
 40
16.03460024169435
 40
16.03460024169435
 40
16.03460024169435
 40
16.35212704903564
 40
17.38177054169784
 40
18.41822485651776
 40
19.46214173629503
 40
20.51396345435107
 40
21.57393551351153
 40
22.64208202342361
 40
23.7182574881101
 40
24.80209208578934
 40
25.89306333925047
 40
26.99048218457928
 40
28.09348763352352
 40
29.20111863782268
 40
30.31232390128032
 40
31.42594612798585
 40
32.5407912310448
 40
32.5407912310486
 40
32.5407912310486
 40
32.5407912310486
 10
-125.452497267835
 20
12.25000000000111
 30
0.0
 10
-125.2367769759973
 20
12.2086461572214
 30
0.0
 10
-124.3224595882802
 20
12.02856181120962
 30
0.0
 10
-122.711879663293
 20
11.67571401953554
 30
0.0
 10
-120.6261744441821
 20
11.15103321202207
 30
0.0
 10
-118.5424065261834
 20
10.56190412062092
 30
0.0
 10
-116.4604527777892
 20
9.911736324025939
 30
0.0
 10
-114.3802393067713
 20
9.204154522258502
 30
0.0
 10
-112.3016458817766
 20
8.443203551294038
 30
0.0
 10
-110.2245277574592
 20
7.633311954909858
 30
0.0
 10
-108.1487669045074
 20
6.779066101996598
 30
0.0
 10
-106.0741969016465
 20
5.885436650128604
 30
0.0
 10
-104.0006496281771
 20
4.957617759771271
 30
0.0
 10
-101.9279869295582
 20
4.000944000577544
 30
0.0
 10
-99.85603538861957
 20
3.020978299446002
 30
0.0
 10
-97.78460309876702
 20
2.023442937112457
 30
0.0
 10
-95.71352138693866
 20
1.014118360878583
 30
0.0
 10
-94.33317110693668
 20
0.337421421811189
 30
0.0
 10
-93.64261953689945
 20
-0.0011172675973078
 30
0.0
  0
LINE
  5
444D
330
1F
100
AcDbEntity
  8
AM_11
 48
0.5
100
AcDbLine
 10
-125.452497267835
 20
12.25000000000111
 30
0.0
 11
-100.211101823305
 21
12.25000000000091
 31
0.0
  0
SPLINE
  5
444E
330
1F
100
AcDbEntity
  8
AM_0
 48
0.5
100
AcDbSpline
210
0.0
220
0.0
230
1.0
 70
     8
 71
     3
 72
    26
 73
    22
 74
     0
 42
0.0000000001
 43
0.0000000001
 40
0.0
 40
0.0
 40
0.0
 40
0.0
 40
0.8422864037471089
 40
1.685694647057321
 40
2.531315797913884
 40
3.380177287502886
 40
4.233214169721234
 40
5.09125020057522
 40
5.954967768899448
 40
6.824900391836836
 40
7.701419186604396
 40
8.584724417931369
 40
9.47485577056355
 40
10.37165251267315
 40
11.27486274211709
 40
12.18400675634887
 40
13.09851504074504
 40
14.01768673654235
 40
14.94071745659532
 40
15.8667176994736
 40
16.76607142455336
 40
16.76607142455336
 40
16.76607142455336
 40
16.76607142455336
 10
-87.69586876900147
 20
-12.25062306721778
 30
0.0
 10
-88.39547894488815
 20
-12.24333461430975
 30
0.0
 10
-89.79563110604422
 20
-12.22874800101797
 30
0.0
 10
-91.89534980419974
 20
-12.11116351245796
 30
0.0
 10
-93.9949788793759
 20
-11.92423491795967
 30
0.0
 10
-96.09447798514327
 20
-11.66224728929568
 30
0.0
 10
-98.19382628120639
 20
-11.32875147303415
 30
0.0
 10
-100.2929819404035
 20
-10.92522891944214
 30
0.0
 10
-102.3919435662597
 20
-10.45440598345946
 30
0.0
 10
-104.490696843903
 20
-9.919142206473875
 30
0.0
 10
-106.5892368116776
 20
-9.322758810788949
 30
0.0
 10
-108.6875807406455
 20
-8.668967736264759
 30
0.0
 10
-110.7857199359549
 20
-7.961805932047304
 30
0.0
 10
-112.8836781701138
 20
-7.205611304001224
 30
0.0
 10
-114.9814834942694
 20
-6.405122080535973
 30
0.0
 10
-117.0791404409913
 20
-5.565194235569888
 30
0.0
 10
-119.1766646472097
 20
-4.69104604854096
 30
0.0
 10
-121.2740946314883
 20
-3.788070825033302
 30
0.0
 10
-123.3713957314688
 20
-2.861706653417531
 30
0.0
 10
-125.4471529925131
 20
-1.927837351953118
 30
0.0
 10
-126.8224202760659
 20
-1.300457404521326
 30
0.0
 10
-127.5000000000008
 20
-0.9913388888006963
 30
0.0
  0
SPLINE
  5
444F
330
1F
100
AcDbEntity
  8
AM_0
 48
0.5
100
AcDbSpline
210
0.0
220
0.0
230
1.0
 70
     8
 71
     3
 72
    22
 73
    18
 74
     0
 42
0.0000000001
 43
0.0000000001
 40
0.0
 40
0.0
 40
0.0
 40
0.0
 40
1.010743684496582
 40
2.022833993863546
 40
3.037578683882831
 40
4.056212471389632
 40
5.079857945358201
 40
6.109499720892564
 40
7.145961650132166
 40
8.189873411961459
 40
9.241710626092514
 40
10.30166235592959
 40
11.36982472628033
 40
12.44598212828784
 40
13.52983440361964
 40
14.62080578343036
 40
14.90544694398022
 40
14.90544694398022
 40
14.90544694398022
 40
14.90544694398022
 10
-93.57330393675349
 20
-12.24999999999911
 30
0.0
 10
-94.27326469096191
 20
-12.24333679143211
 30
0.0
 10
-95.67341740840452
 20
-12.22875453227633
 30
0.0
 10
-97.77313390771478
 20
-12.11113729398097
 30
0.0
 10
-99.87276525008219
 20
-11.92424015135608
 30
0.0
 10
-101.9722654903802
 20
-11.66225234968062
 30
0.0
 10
-104.0716080002526
 20
-11.32872516208676
 30
0.0
 10
-106.1707708787303
 20
-10.925237497855
 30
0.0
 10
-108.2697233656265
 20
-10.45439745265083
 30
0.0
 10
-110.368479894071
 20
-9.919125926143095
 30
0.0
 10
-112.4670215616724
 20
-9.322765064258065
 30
0.0
 10
-114.5653593352033
 20
-8.668944386377312
 30
0.0
 10
-116.6635067412324
 20
-7.961824452404655
 30
0.0
 10
-118.7614622038048
 20
-7.205609060412904
 30
0.0
 10
-120.8592650256443
 20
-6.405115644828096
 30
0.0
 10
-122.4359104500058
 20
-5.773839976455263
 30
0.0
 10
-123.3144722996635
 20
-5.413023096223844
 30
0.0
 10
-123.4961296757671
 20
-5.338048560158504
 30
0.0
  0
LINE
  5
4450
330
1F
100
AcDbEntity
  8
AM_0
 48
0.5
100
AcDbLine
 10
-104.3455284151346
 20
5.109082606768686
 30
0.0
 11
-127.5000000000008
 21
-0.9913388888006984
 31
0.0
  0
LINE
  5
4451
330
1F
100
AcDbEntity
  8
AM_11
 48
0.5
100
AcDbLine
 10
-123.1971202520394
 20
-12.24999986203195
 30
0.0
 11
-93.57330393675312
 21
-12.24999999999911
 31
0.0
  0
LINE
  5
466B
330
1F
100
AcDbEntity
  8
AM_0
100
AcDbLine
 10
-203.750000000001
 20
-12.49999999999954
 30
0.0
 11
-130.0000000000007
 21
-12.49999999999954
 31
0.0
  0
DIMENSION
  5
466D
330
1F
100
AcDbEntity
  8
AM_5
100
AcDbDimension
  2
*D7
 10
-221.5000010000008
 20
-12.49999999999954
 30
0.0
 11
-224.9000010000008
 21
0.0000000000004225
 31
0.0
 70
    32
  1
%%c<>
 51
359.9999999999998
  3
AM_JIS$0
100
AcDbAlignedDimension
 13
-203.7500000000007
 23
12.50000000000045
 33
0.0
 14
-203.750000000001
 24
-12.49999999999954
 34
0.0
 50
270.0
100
AcDbRotatedDimension
1001
ACAD
1000
DSTYLE
1002
{
1070
   271
1070
     0
1002
}
1001
GENIUS_GENDTOL_13
1000

1000
h7
1000

1040
0.0
  0
LINE
  5
467A
330
1F
100
AcDbEntity
  8
AM_0
 48
0.5
100
AcDbLine
 10
-205.000000000001
 20
-11.24999999999951
 30
0.0
 11
-205.0000000000006
 21
11.25000000000049
 31
0.0
  0
LINE
  5
467B
330
1F
100
AcDbEntity
  8
AM_0
 48
0.5
100
AcDbLine
 10
-203.750000000001
 20
-12.49999999999955
 30
0.0
 11
-203.7500000000006
 21
12.50000000000046
 31
0.0
  0
LINE
  5
467D
330
1F
100
AcDbEntity
  8
AM_0
100
AcDbLine
 10
-130.0000000000008
 20
12.50000000000045
 30
0.0
 11
-203.7500000000007
 21
12.50000000000045
 31
0.0
  0
DIMENSION
  5
4819
330
1F
100
AcDbEntity
  8
AM_5
100
AcDbDimension
  2
*D8
 10
17.05788916828689
 20
-12.24999999999994
 30
0.0
 11
13.65788916828689
 21
0.000000000000034
 31
0.0
 70
    32
  1
%%c<>
 51
359.9999999999998
  3
AM_JIS$0
100
AcDbAlignedDimension
 13
-5.000000000000843
 23
12.25000000000001
 33
0.0
 14
-5.00000004166708
 24
-12.24999999999994
 34
0.0
 50
89.99999999999774
100
AcDbRotatedDimension
1001
ACAD
1000
DSTYLE
1002
{
1070
   271
1070
     1
1002
}
1001
GENIUS_GENDTOL_13
1000

1000
h7
1000

1040
0.0
  0
ELLIPSE
  5
5652
330
1F
100
AcDbEntity
  8
AM_0
 48
0.5
100
AcDbEllipse
 10
11.71148386499836
 20
-12.4297214932617
 30
0.0
 11
-9.133611645707677
 21
-18.17618019105948
 31
0.0
210
0.0
220
0.0
230
-1.0
 40
0.7661203636765102
 41
1.345828882220657
 42
1.646194032212534
  0
LINE
  5
5653
330
1F
100
AcDbEntity
  8
AM_0
 48
0.5
100
AcDbLine
 10
-3.90024042875757
 20
-9.663246287624012
 30
0.0
 11
-5.00000004166708
 21
-12.24999999999994
 31
0.0
  0
LINE
  5
5810
330
1F
100
AcDbEntity
  8
AM_0
 48
0.5
100
AcDbLine
 10
-203.7500000000007
 20
12.50000000000045
 30
0.0
 11
-205.0000000000007
 21
11.25000000000045
 31
0.0
1001
GENIUS_GENFIL_13
1070
     0
1040
1.25
1040
1.25
1040
20.0
1040
0.0
1002
{
1002
}
1001
GENIUS_GENODEF_13
1002
{
1000
HIER
1070
     0
1002
}
1002
{
1000
MANEDIT
1070
     0
1002
}
1002
{
1000
NOSEL
1070
     0
1002
}
1002
{
1000
BEHIND
1070
     0
1002
}
1002
{
1000
REACTOR
1002
}
1001
GENIUS_GENOBJ-N-CHA_13
1002
{
1000
OWNER
1000
GEN
1002
}
  0
LINE
  5
5817
330
1F
100
AcDbEntity
  8
AM_0
100
AcDbLine
 10
-205.000000000001
 20
-11.24999999999954
 30
0.0
 11
-203.750000000001
 21
-12.49999999999954
 31
0.0
1001
GENIUS_GENFIL_13
1070
     0
1040
1.25
1040
1.25
1040
20.0
1040
0.0
1002
{
1002
}
1001
GENIUS_GENODEF_13
1002
{
1000
HIER
1070
     0
1002
}
1002
{
1000
MANEDIT
1070
     0
1002
}
1002
{
1000
NOSEL
1070
     0
1002
}
1002
{
1000
BEHIND
1070
     0
1002
}
1002
{
1000
REACTOR
1002
}
1001
GENIUS_GENOBJ-N-CHA_13
1002
{
1000
OWNER
1000
GEN
1002
}
  0
DIMENSION
  5
587E
330
1F
100
AcDbEntity
  8
AM_5
100
AcDbDimension
  2
*D9
 10
-1.425466239848057
 20
-3.916409345660866
 30
0.0
 11
25.78684427261946
 21
-0.0000285607344588
 31
0.0
 70
    34
  1
<>
 51
359.9999999999998
  3
AM_JIS$2
100
AcDb2LineAngularDimension
 13
-0.000000000000322
 23
0.0000000000000897
 33
0.0
 14
-1.425437746792967
 24
3.916358054693759
 34
0.0
 15
-0.000000000000322
 25
0.0000000000001166
 35
0.0
 16
26.52435722971289
 26
-11.4415141297845
 36
0.0
1001
GENIUS_GENDTOL_13
1000

1000
h7
1000

1040
0.0
1001
ACAD
1000
DSTYLE
1002
{
1070
   271
1070
     1
1070
   179
1070
     1
1002
}
  0
ELLIPSE
  5
5BFD
330
1F
100
AcDbEntity
  8
AM_11
 48
0.5
100
AcDbEllipse
 10
-212.848598213591
 20
45.6754616867817
 30
0.0
 11
-52.72102753321266
 21
0.0000000000003076
 31
0.0
210
0.0
220
0.0
230
1.0
 40
0.9578947368421049
 41
1.720222128742265
 42
2.011520147323574
  0
VIEWPORT
  5
110
330
101
100
AcDbEntity
 67
     1
  8
0
100
AcDbViewport
 10
420.5
 20
297.0
 30
0.0
 40
948.9782706766916
 41
628.452
 68
     1
 69
     1
1001
ACAD
1000
MVIEW
1002
{
1070
    16
1010
0.0
1020
0.0
1030
0.0
1010
0.0
1020
0.0
1030
1.0
1040
0.0
1040
628.452
1040
420.5
1040
297.0
1040
50.0
1040
0.0
1040
0.0
1070
     0
1070
   100
1070
     1
1070
     1
1070
     0
1070
     0
1070
     0
1070
     0
1040
0.0
1040
0.0
1040
0.0
1040
10.0
1040
10.0
1040
10.0
1040
10.0
1070
     0
1002
{
1002
}
1002
}
  0
ENDSEC
  0
SECTION
  2
OBJECTS
  0
DICTIONARY
  5
C
330
0
100
AcDbDictionary
  3
ACAD_GROUP
350
D
  3
ACAD_LAYOUT
350
1A
  3
ACAD_MLINESTYLE
350
17
  3
ACAD_PLOTSETTINGS
350
19
  3
ACAD_PLOTSTYLENAME
350
E
  3
ACDBVARIABLEDICTIONARY
350
34
  3
ACMDICTIONARY
350
43
  3
AMG
350
2B
  3
AMGSNAPSETTINGS
350
6E
  3
DWGPROPS
350
5C90
  3
ACDBHEADERROUNDTRIPXREC
350
5C9D
  0
DICTIONARY
  5
74
330
1F
100
AcDbDictionary
280
     1
  3
ACAD_INDEX
360
5C92
  3
ACAD_LAYOUTSELFREF
360
5CC0
  0
DICTIONARY
  5
5CC5
330
101
100
AcDbDictionary
280
     1
  3
ACAD_LAYOUTSELFREF
360
5CC6
  0
DICTIONARY
  5
D
102
{ACAD_REACTORS
330
C
102
}
330
C
100
AcDbDictionary
  0
DICTIONARY
  5
1A
102
{ACAD_REACTORS
330
C
102
}
330
C
100
AcDbDictionary
  0
DICTIONARY
  5
17
102
{ACAD_REACTORS
330
C
102
}
330
C
100
AcDbDictionary
  3
STANDARD
350
18
  0
DICTIONARY
  5
19
102
{ACAD_REACTORS
330
C
102
}
330
C
100
AcDbDictionary
  0
ACDBDICTIONARYWDFLT
  5
E
102
{ACAD_REACTORS
330
C
102
}
330
C
100
AcDbDictionary
281
     1
  3
Normal
350
F
100
AcDbDictionaryWithDefault
340
F
  0
DICTIONARY
  5
34
102
{ACAD_REACTORS
330
C
102
}
330
C
100
AcDbDictionary
  3
INDEXCTL
350
35
  3
SORTENTS
350
B5E
  0
DICTIONARY
  5
43
102
{ACAD_REACTORS
330
C
102
}
330
C
100
AcDbDictionary
  3
ACMSTDDICTIONARY
350
260
  0
DICTIONARY
  5
2B
102
{ACAD_REACTORS
330
C
102
}
330
C
100
AcDbDictionary
  3
ACMGSETTINGS
350
2C
  0
DICTIONARY
  5
6E
102
{ACAD_REACTORS
330
C
102
}
330
C
100
AcDbDictionary
  0
XRECORD
  5
5C90
102
{ACAD_REACTORS
330
C
102
}
330
C
100
AcDbXrecord
  1
DWGPROPS COOKIE
  2

  3

  4

  6

  7

  8

  9

300
AmdtFileType=82
301
=
302
=
303
=
304
=
305
=
306
=
307
=
308
=
309
=
 40
0.1290284490740741
 41
2452800.443498622
 42
2452946.647186226
  1

 90
        1
  0
DICTIONARY
  5
5C9D
102
{ACAD_REACTORS
330
C
102
}
330
C
100
AcDbDictionary
  3
TSTACKALIGN
350
5C9E
  3
TSTACKSIZE
350
5C9F
  3
HYPERLINKBASE
350
5CA0
  3
STYLESHEET
350
5CA1
  3
LAYOUTDICT
350
5CA2
  3
PLOTSETDICT
350
5CA3
  3
PLOTSTYLNAMDICT
350
5CA4
  3
LWETCUNION
350
5CA5
  3
INSUNITS
350
5CA6
  3
CEPSNTYPE
350
5CA7
  3
FINGERPRINTGUID
350
5CA8
  3
VERSIONGUID
350
5CA9
  3
PSVPSCALE
350
5CAA
  3
DIMSTYLEDATA
350
5CAB
  3
PUCSORTHOREF
350
5CAC
  3
PUCSORTHOVIEW
350
5CAD
  3
PUCSBASE
350
5CAE
  3
PUCSORGTOP
350
5CAF
  3
PUCSORGBOTTOM
350
5CB0
  3
PUCSORGLEFT
350
5CB1
  3
PUCSORGRIGHT
350
5CB2
  3
PUCSORGFRONT
350
5CB3
  3
PUCSORGBACK
350
5CB4
  3
UCSORTHOREF
350
5CB5
  3
UCSORTHOVIEW
350
5CB6
  3
UCSBASE
350
5CB7
  3
UCSORGTOP
350
5CB8
  3
UCSORGBOTTOM
350
5CB9
  3
UCSORGLEFT
350
5CBA
  3
UCSORGRIGHT
350
5CBB
  3
UCSORGFRONT
350
5CBC
  3
UCSORGBACK
350
5CBD
  0
DICTIONARY
  5
5C92
102
{ACAD_REACTORS
330
74
102
}
330
74
100
AcDbDictionary
  3
*A1
350
5C93
  0
XRECORD
  5
5CC0
102
{ACAD_REACTORS
330
74
102
}
330
74
100
AcDbXrecord
340
1F
  0
XRECORD
  5
5CC6
102
{ACAD_REACTORS
330
5CC5
102
}
330
5CC5
100
AcDbXrecord
340
101
  0
MLINESTYLE
  5
18
102
{ACAD_REACTORS
330
17
102
}
330
17
100
AcDbMlineStyle
  2
STANDARD
 70
     0
  3

 62
   256
 51
90.0
 52
90.0
 71
     2
 49
0.5
 62
   256
  6
BYLAYER
 49
-0.5
 62
   256
  6
BYLAYER
  0
ACDBPLACEHOLDER
  5
F
102
{ACAD_REACTORS
330
E
102
}
330
E
100
AcDbPlaceHolder
280
     0
  0
DICTIONARYVAR
  5
35
102
{ACAD_REACTORS
330
34
102
}
330
34
100
DictionaryVariables
280
     0
  1
1
  0
DICTIONARYVAR
  5
B5E
102
{ACAD_REACTORS
330
34
102
}
330
34
100
DictionaryVariables
280
     0
  1
96
  0
DICTIONARY
  5
260
102
{ACAD_REACTORS
330
43
102
}
330
43
100
AcDbDictionary
  0
DICTIONARY
  5
2C
102
{ACAD_REACTORS
330
2B
102
}
330
2B
100
AcDbDictionary
  3
DWGSETTINGS
350
2D
  0
XRECORD
  5
5C9E
102
{ACAD_REACTORS
330
5C9D
102
}
330
5C9D
100
AcDbXrecord
 90
        1
  0
XRECORD
  5
5C9F
102
{ACAD_REACTORS
330
5C9D
102
}
330
5C9D
100
AcDbXrecord
 90
       70
  0
XRECORD
  5
5CA0
102
{ACAD_REACTORS
330
5C9D
102
}
330
5C9D
100
AcDbXrecord
  1

  0
XRECORD
  5
5CA1
102
{ACAD_REACTORS
330
5C9D
102
}
330
5C9D
100
AcDbXrecord
  1
ASAMI.ctb
  0
XRECORD
  5
5CA2
102
{ACAD_REACTORS
330
5C9D
102
}
330
5C9D
100
AcDbXrecord
340
1A
  0
XRECORD
  5
5CA3
102
{ACAD_REACTORS
330
5C9D
102
}
330
5C9D
100
AcDbXrecord
340
19
  0
XRECORD
  5
5CA4
102
{ACAD_REACTORS
330
5C9D
102
}
330
5C9D
100
AcDbXrecord
340
E
  0
XRECORD
  5
5CA5
102
{ACAD_REACTORS
330
5C9D
102
}
330
5C9D
100
AcDbXrecord
 90
    10781
  0
XRECORD
  5
5CA6
102
{ACAD_REACTORS
330
5C9D
102
}
330
5C9D
100
AcDbXrecord
 90
        4
  0
XRECORD
  5
5CA7
102
{ACAD_REACTORS
330
5C9D
102
}
330
5C9D
100
AcDbXrecord
 90
        0
  0
XRECORD
  5
5CA8
102
{ACAD_REACTORS
330
5C9D
102
}
330
5C9D
100
AcDbXrecord
  1
{AFB28963-8C59-40AE-9337-C84526B81ACE}
  0
XRECORD
  5
5CA9
102
{ACAD_REACTORS
330
5C9D
102
}
330
5C9D
100
AcDbXrecord
  1
{181181E4-2717-4F46-B76D-3B079834D773}
  0
XRECORD
  5
5CAA
102
{ACAD_REACTORS
330
5C9D
102
}
330
5C9D
100
AcDbXrecord
 40
0.0
  0
XRECORD
  5
5CAB
102
{ACAD_REACTORS
330
5C9D
102
}
330
5C9D
100
AcDbXrecord
1000
DSTYLE
1002
{
1070
    79
 70
     2
1070
   341
340
59
1070
   342
340
59
1070
   371
 70
    -1
1070
   372
 70
    -1
1002
}
  0
XRECORD
  5
5CAC
102
{ACAD_REACTORS
330
5C9D
102
}
330
5C9D
100
AcDbXrecord
340
0
  0
XRECORD
  5
5CAD
102
{ACAD_REACTORS
330
5C9D
102
}
330
5C9D
100
AcDbXrecord
 70
     0
  0
XRECORD
  5
5CAE
102
{ACAD_REACTORS
330
5C9D
102
}
330
5C9D
100
AcDbXrecord
340
0
  0
XRECORD
  5
5CAF
102
{ACAD_REACTORS
330
5C9D
102
}
330
5C9D
100
AcDbXrecord
 10
0.0
 20
0.0
 30
0.0
  0
XRECORD
  5
5CB0
102
{ACAD_REACTORS
330
5C9D
102
}
330
5C9D
100
AcDbXrecord
 10
0.0
 20
0.0
 30
0.0
  0
XRECORD
  5
5CB1
102
{ACAD_REACTORS
330
5C9D
102
}
330
5C9D
100
AcDbXrecord
 10
0.0
 20
0.0
 30
0.0
  0
XRECORD
  5
5CB2
102
{ACAD_REACTORS
330
5C9D
102
}
330
5C9D
100
AcDbXrecord
 10
0.0
 20
0.0
 30
0.0
  0
XRECORD
  5
5CB3
102
{ACAD_REACTORS
330
5C9D
102
}
330
5C9D
100
AcDbXrecord
 10
0.0
 20
0.0
 30
0.0
  0
XRECORD
  5
5CB4
102
{ACAD_REACTORS
330
5C9D
102
}
330
5C9D
100
AcDbXrecord
 10
0.0
 20
0.0
 30
0.0
  0
XRECORD
  5
5CB5
102
{ACAD_REACTORS
330
5C9D
102
}
330
5C9D
100
AcDbXrecord
340
0
  0
XRECORD
  5
5CB6
102
{ACAD_REACTORS
330
5C9D
102
}
330
5C9D
100
AcDbXrecord
 70
     0
  0
XRECORD
  5
5CB7
102
{ACAD_REACTORS
330
5C9D
102
}
330
5C9D
100
AcDbXrecord
340
0
  0
XRECORD
  5
5CB8
102
{ACAD_REACTORS
330
5C9D
102
}
330
5C9D
100
AcDbXrecord
 10
0.0
 20
0.0
 30
0.0
  0
XRECORD
  5
5CB9
102
{ACAD_REACTORS
330
5C9D
102
}
330
5C9D
100
AcDbXrecord
 10
0.0
 20
0.0
 30
0.0
  0
XRECORD
  5
5CBA
102
{ACAD_REACTORS
330
5C9D
102
}
330
5C9D
100
AcDbXrecord
 10
0.0
 20
0.0
 30
0.0
  0
XRECORD
  5
5CBB
102
{ACAD_REACTORS
330
5C9D
102
}
330
5C9D
100
AcDbXrecord
 10
0.0
 20
0.0
 30
0.0
  0
XRECORD
  5
5CBC
102
{ACAD_REACTORS
330
5C9D
102
}
330
5C9D
100
AcDbXrecord
 10
0.0
 20
0.0
 30
0.0
  0
XRECORD
  5
5CBD
102
{ACAD_REACTORS
330
5C9D
102
}
330
5C9D
100
AcDbXrecord
 10
0.0
 20
0.0
 30
0.0
  0
LAYER_INDEX
  5
5C93
102
{ACAD_REACTORS
330
5C92
102
}
330
5C92
100
AcDbIndex
 40
2453151.568669513
100
AcDbLayerIndex
  8
0
360
5C94
 90
        0
  8
AM_0
360
5C95
 90
       44
  8
AM_7
360
5C96
 90
        1
  8
AM_11
360
5C97
 90
       16
  8
AM_5
360
5C98
 90
        5
  8
Defpoints
360
5C99
 90
        0
  8
AM_6
360
5C9A
 90
        1
  8
AM_CL
360
5C9B
 90
        0
  0
XRECORD
  5
2D
102
{ACAD_REACTORS
330
2C
102
}
330
2C
100
AcDbXrecord
  1
VERSION
140
15.0
  1
PRODUCT
  2
AutoCAD Mechanical 2000
  0
IDBUFFER
  5
5C94
330
0
100
AcDbIdBuffer
  0
IDBUFFER
  5
5C95
330
0
100
AcDbIdBuffer
330
443C
330
443D
330
443E
330
443F
330
4440
330
4441
330
4442
330
4443
330
4444
330
4445
330
4446
330
4447
330
4448
330
4449
330
444A
330
444B
330
444C
330
444E
330
444F
330
4450
330
466B
330
467A
330
467B
330
467D
330
5652
330
5653
330
5810
330
5817
330
C1D
330
C20
330
24A7
330
24BE
330
2C0E
330
2FB7
330
2FB9
330
4431
330
4432
330
4433
330
4434
330
4435
330
4436
330
4437
330
4438
330
443B
  0
IDBUFFER
  5
5C96
330
0
100
AcDbIdBuffer
330
23EF
  0
IDBUFFER
  5
5C97
330
0
100
AcDbIdBuffer
330
24B7
330
24B8
330
24B9
330
24C7
330
24C8
330
24D4
330
24D5
330
24E6
330
24E7
330
2BF3
330
2BF5
330
4439
330
443A
330
444D
330
4451
330
5BFD
  0
IDBUFFER
  5
5C98
330
0
100
AcDbIdBuffer
330
CC6
330
2069
330
466D
330
4819
330
587E
  0
IDBUFFER
  5
5C99
330
0
100
AcDbIdBuffer
  0
IDBUFFER
  5
5C9A
330
0
100
AcDbIdBuffer
330
19BD
  0
IDBUFFER
  5
5C9B
330
0
100
AcDbIdBuffer
  0
ENDSEC
  0
EOF
