  0
SECTION
  2
HEADER
  9
$ACADVER
  1
AC1014
  9
$ACADMAINTVER
 70
     9
  9
$DWGCODEPAGE
  3
ANSI_932
  9
$INSBASE
 10
0.0
 20
0.0
 30
0.0
  9
$EXTMIN
 10
-97.75000000000003
 20
-32.25000000112125
 30
-0.00000001
  9
$EXTMAX
 10
7.5
 20
8.633539854708672
 30
0.00000001
  9
$LIMMIN
 10
-97.94779025134804
 20
-50.85212367407539
  9
$LIMMAX
 10
28.02723416543844
 20
14.04255209510955
  9
$ORTHOMODE
 70
     0
  9
$REGENMODE
 70
     1
  9
$FILLMODE
 70
     1
  9
$QTEXTMODE
 70
     0
  9
$MIRRTEXT
 70
     0
  9
$DRAGMODE
 70
     2
  9
$LTSCALE
 40
1.0
  9
$OSMODE
 70
    55
  9
$ATTMODE
 70
     1
  9
$TEXTSIZE
 40
2.5
  9
$TRACEWID
 40
1.0
  9
$TEXTSTYLE
  7
STANDARD
  9
$CLAYER
  8
AM_0
  9
$CELTYPE
  6
BYLAYER
  9
$CECOLOR
 62
   256
  9
$CELTSCALE
 40
1.0
  9
$DELOBJ
 70
     1
  9
$DISPSILH
 70
     0
  9
$DIMSCALE
 40
0.5
  9
$DIMASZ
 40
2.5
  9
$DIMEXO
 40
1.0
  9
$DIMDLI
 40
12.0
  9
$DIMRND
 40
0.0
  9
$DIMDLE
 40
0.0
  9
$DIMEXE
 40
1.0
  9
$DIMTP
 40
0.1
  9
$DIMTM
 40
0.1
  9
$DIMTXT
 40
3.2
  9
$DIMCEN
 40
0.0
  9
$DIMTSZ
 40
0.0
  9
$DIMTOL
 70
     0
  9
$DIMLIM
 70
     0
  9
$DIMTIH
 70
     0
  9
$DIMTOH
 70
     0
  9
$DIMSE1
 70
     0
  9
$DIMSE2
 70
     0
  9
$DIMTAD
 70
     3
  9
$DIMZIN
 70
     8
  9
$DIMBLK
  1
OPEN30
  9
$DIMASO
 70
     1
  9
$DIMSHO
 70
     1
  9
$DIMPOST
  1

  9
$DIMAPOST
  1
"
  9
$DIMALT
 70
     0
  9
$DIMALTD
 70
     2
  9
$DIMALTF
 40
0.0393701
  9
$DIMLFAC
 40
1.0
  9
$DIMTOFL
 70
     1
  9
$DIMTVP
 40
0.0
  9
$DIMTIX
 70
     0
  9
$DIMSOXD
 70
     0
  9
$DIMSAH
 70
     0
  9
$DIMBLK1
  1

  9
$DIMBLK2
  1

  9
$DIMSTYLE
  2
AM_JIS
  9
$DIMCLRD
 70
   256
  9
$DIMCLRE
 70
   256
  9
$DIMCLRT
 70
     2
  9
$DIMTFAC
 40
0.71
  9
$DIMGAP
 40
1.5
  9
$DIMJUST
 70
     0
  9
$DIMSD1
 70
     0
  9
$DIMSD2
 70
     0
  9
$DIMTOLJ
 70
     0
  9
$DIMTZIN
 70
     0
  9
$DIMALTZ
 70
     0
  9
$DIMALTTZ
 70
     0
  9
$DIMFIT
 70
     3
  9
$DIMUPT
 70
     0
  9
$DIMUNIT
 70
     2
  9
$DIMDEC
 70
     3
  9
$DIMTDEC
 70
     3
  9
$DIMALTU
 70
     2
  9
$DIMALTTD
 70
     2
  9
$DIMTXSTY
  7
ASAMI
  9
$DIMAUNIT
 70
     0
  9
$LUNITS
 70
     2
  9
$LUPREC
 70
     2
  9
$SKETCHINC
 40
1.0
  9
$FILLETRAD
 40
2.5
  9
$AUNITS
 70
     0
  9
$AUPREC
 70
     0
  9
$MENU
  1
.
  9
$ELEVATION
 40
0.0
  9
$PELEVATION
 40
0.0
  9
$THICKNESS
 40
0.0
  9
$LIMCHECK
 70
     0
  9
$BLIPMODE
 70
     0
  9
$CHAMFERA
 40
2.5
  9
$CHAMFERB
 40
2.5
  9
$CHAMFERC
 40
20.0
  9
$CHAMFERD
 40
0.0
  9
$SKPOLY
 70
     0
  9
$TDCREATE
 40
2452802.716478761
  9
$TDUPDATE
 40
2453152.361228645
  9
$TDINDWG
 40
0.0743212731
  9
$TDUSRTIMER
 40
0.0743212731
  9
$USRTIMER
 70
     1
  9
$ANGBASE
 50
0.0
  9
$ANGDIR
 70
     0
  9
$PDMODE
 70
     0
  9
$PDSIZE
 40
0.0
  9
$PLINEWID
 40
0.0
  9
$COORDS
 70
     1
  9
$SPLFRAME
 70
     0
  9
$SPLINETYPE
 70
     6
  9
$SPLINESEGS
 70
     8
  9
$ATTDIA
 70
     1
  9
$ATTREQ
 70
     1
  9
$HANDLING
 70
 12289
  9
$HANDSEED
  5
1FD0
  9
$SURFTAB1
 70
     6
  9
$SURFTAB2
 70
     6
  9
$SURFTYPE
 70
     6
  9
$SURFU
 70
     6
  9
$SURFV
 70
     6
  9
$UCSNAME
  2

  9
$UCSORG
 10
0.0
 20
0.0
 30
0.0
  9
$UCSXDIR
 10
1.0
 20
0.0
 30
0.0
  9
$UCSYDIR
 10
0.0
 20
1.0
 30
0.0
  9
$PUCSNAME
  2

  9
$PUCSORG
 10
0.0
 20
0.0
 30
0.0
  9
$PUCSXDIR
 10
1.0
 20
0.0
 30
0.0
  9
$PUCSYDIR
 10
0.0
 20
1.0
 30
0.0
  9
$USERI1
 70
     0
  9
$USERI2
 70
     0
  9
$USERI3
 70
     0
  9
$USERI4
 70
     0
  9
$USERI5
 70
     0
  9
$USERR1
 40
0.0
  9
$USERR2
 40
0.0
  9
$USERR3
 40
0.0
  9
$USERR4
 40
0.0
  9
$USERR5
 40
0.0
  9
$WORLDVIEW
 70
     1
  9
$SHADEDGE
 70
     3
  9
$SHADEDIF
 70
    70
  9
$TILEMODE
 70
     1
  9
$MAXACTVP
 70
    64
  9
$PINSBASE
 10
0.0
 20
0.0
 30
0.0
  9
$PLIMCHECK
 70
     0
  9
$PEXTMIN
 10
1.000000000000000E+20
 20
1.000000000000000E+20
 30
1.000000000000000E+20
  9
$PEXTMAX
 10
-1.000000000000000E+20
 20
-1.000000000000000E+20
 30
-1.000000000000000E+20
  9
$PLIMMIN
 10
0.0
 20
0.0
  9
$PLIMMAX
 10
841.0
 20
594.0
  9
$UNITMODE
 70
     0
  9
$VISRETAIN
 70
     1
  9
$PLINEGEN
 70
     0
  9
$PSLTSCALE
 70
     0
  9
$TREEDEPTH
 70
  3020
  9
$PICKSTYLE
 70
     0
  9
$CMLSTYLE
  2
STANDARD
  9
$CMLJUST
 70
     0
  9
$CMLSCALE
 40
20.0
  9
$PROXYGRAPHICS
 70
     1
  9
$MEASUREMENT
 70
     1
  0
ENDSEC
  0
SECTION
  2
CLASSES
  0
CLASS
  1
ACDBDICTIONARYWDFLT
  2
AcDbDictionaryWithDefault
  3
AutoCAD 2000
 90
        0
280
     0
281
     0
  0
CLASS
  1
ACDBPLACEHOLDER
  2
AcDbPlaceHolder
  3
AutoCAD 2000
 90
        0
280
     0
281
     0
  0
CLASS
  1
LAYOUT
  2
AcDbLayout
  3
AutoCAD 2000
 90
        0
280
     0
281
     0
  0
CLASS
  1
AMGSETTINGSOBJ
  2
AmgSettingsObj
  3
"AcadM|Product Description: AutoCAD Mechanical 2000|Company: Autodesk"
 90
        0
280
     0
281
     0
  0
CLASS
  1
ACME_DOCUMENT
  2
AcMeDbDoc
  3
AcMeServices
 90
        0
280
     0
281
     0
  0
CLASS
  1
ACMESCOPE
  2
AcMeScope
  3
AcMeServices
 90
        0
280
     0
281
     0
  0
CLASS
  1
ACMECOMMANDHISTORY
  2
AcMeCommandHistory
  3
AcMeServices
 90
        0
280
     0
281
     0
  0
CLASS
  1
DICTIONARYVAR
  2
AcDbDictionaryVar
  3
AutoCAD 2000
 90
        0
280
     0
281
     0
  0
CLASS
  1
ACIMSYSVARMAN
  2
AcImSysVarManager
  3
AcMeServices
 90
        0
280
     0
281
     0
  0
CLASS
  1
ACIMREALSYSVAR
  2
AcImRealSysVar
  3
AcMeServices
 90
        0
280
     0
281
     0
  0
CLASS
  1
ACIMINTSYSVAR
  2
AcImIntSysVar
  3
AcMeServices
 90
        0
280
     0
281
     0
  0
CLASS
  1
ACMEDRAWINGMAN
  2
AcMeDrawingMan
  3
AcMeServices
 90
        0
280
     0
281
     0
  0
CLASS
  1
ACMEVIEW
  2
AcMeView
  3
AcMeServices
 90
        0
280
     0
281
     0
  0
CLASS
  1
ACDBENTITYCACHE
  2
AcMeEntityCache
  3
AcMeServices
 90
        0
280
     0
281
     0
  0
CLASS
  1
GSMANAGER
  2
AcMeGSManager
  3
AcMeServices
 90
        0
280
     0
281
     0
  0
CLASS
  1
AmdtInternalReactor
  2
AmdtInternalReactor
  3
AcMeServices
 90
        0
280
     0
281
     0
  0
CLASS
  1
ACMESTATEMGR
  2
AcMeStateMgr
  3
AcMeServices
 90
        0
280
     0
281
     0
  0
CLASS
  1
ACME_DATABASE
  2
AcMeDbDatabase
  3
AcMeServices
 90
        0
280
     0
281
     0
  0
CLASS
  1
ACRFINSADJUSTERMGR
  2
AcRfInsAdjusterMgr
  3
AcMeServices
 90
        0
280
     0
281
     0
  0
CLASS
  1
ACMDATADICTIONARY
  2
AcmDataDictionary
  3
"AcmSymBB|Product Description: AutoCAD Mechanical 2000|Company: Autodesk"
 90
        0
280
     0
281
     0
  0
CLASS
  1
ACMDATAENTRYBLOCK
  2
AcmDataEntryBlock
  3
"AcmSymBB|Product Description: AutoCAD Mechanical 2000|Company: Autodesk"
 90
        0
280
     0
281
     0
  0
CLASS
  1
AMGOBJPROPCFG
  2
AmgObjPropCfg
  3
"AmgLay|Product Description: AutoCAD Mechanical 2000|Company: Autodesk"
 90
        1
280
     0
281
     0
  0
CLASS
  1
ACAMGFILTERDAT
  2
AcAmgFilterDat
  3
"AcadM|Product Description: AutoCAD Mechanical 2000|Company: Autodesk"
 90
        0
280
     0
281
     0
  0
CLASS
  1
LAYER_INDEX
  2
AcDbLayerIndex
  3
AutoCAD 2000
 90
        0
280
     0
281
     0
  0
CLASS
  1
IDBUFFER
  2
AcDbIdBuffer
  3
AutoCAD 2000
 90
        0
280
     0
281
     0
  0
CLASS
  1
ACIMSTRSYSVAR
  2
AcImStrSysVar
  3
AcMeServices
 90
        0
280
     0
281
     0
  0
CLASS
  1
ACMSTANDARDJIS
  2
AcmStandardJIS
  3
"AcmSymBB|Product Description: AutoCAD Mechanical 2000|Company: Autodesk"
 90
        0
280
     0
281
     0
  0
CLASS
  1
ACMSURFSTANDARDJIS
  2
AcmSurfTextStdJIS
  3
"AcmSymBB|Product Description: AutoCAD Mechanical 2000|Company: Autodesk"
 90
        0
280
     0
281
     0
  0
CLASS
  1
ACMFCFSTANDARDJIS
  2
AcmFCFStdJIS
  3
"AcmSymBB|Product Description: AutoCAD Mechanical 2000|Company: Autodesk"
 90
        0
280
     0
281
     0
  0
CLASS
  1
ACMWELDSTANDARDJIS
  2
AcmWeldingStdJIS
  3
"AcmSymBB|Product Description: AutoCAD Mechanical 2000|Company: Autodesk"
 90
        0
280
     0
281
     0
  0
CLASS
  1
ACMIDSTANDARDJIS
  2
AcmIdStdJIS
  3
"AcmSymBB|Product Description: AutoCAD Mechanical 2000|Company: Autodesk"
 90
        0
280
     0
281
     0
  0
CLASS
  1
ACMDATUMSTANDARDJIS
  2
AcmDatumStdJIS
  3
"AcmSymBB|Product Description: AutoCAD Mechanical 2000|Company: Autodesk"
 90
        0
280
     0
281
     0
  0
CLASS
  1
ACMBOMSTANDARDJIS
  2
AcmBOMStdJIS
  3
"AcmSymBB|Product Description: AutoCAD Mechanical 2000|Company: Autodesk"
 90
        0
280
     0
281
     0
  0
CLASS
  1
ACMSTANDARDANSI
  2
AcmStandardANSI
  3
"AcmSymBB|Product Description: AutoCAD Mechanical 2000|Company: Autodesk"
 90
        0
280
     0
281
     0
  0
CLASS
  1
ACMSURFSTANDARDANSI
  2
AcmSurfTextStdANSI
  3
"AcmSymBB|Product Description: AutoCAD Mechanical 2000|Company: Autodesk"
 90
        0
280
     0
281
     0
  0
CLASS
  1
ACMFCFSTANDARDANSI
  2
AcmFCFStdANSI
  3
"AcmSymBB|Product Description: AutoCAD Mechanical 2000|Company: Autodesk"
 90
        0
280
     0
281
     0
  0
CLASS
  1
ACMWELDSTANDARDANSI
  2
AcmWeldingStdANSI
  3
"AcmSymBB|Product Description: AutoCAD Mechanical 2000|Company: Autodesk"
 90
        0
280
     0
281
     0
  0
CLASS
  1
ACMIDSTANDARDANSI
  2
AcmIdStdANSI
  3
"AcmSymBB|Product Description: AutoCAD Mechanical 2000|Company: Autodesk"
 90
        0
280
     0
281
     0
  0
CLASS
  1
ACMDATUMSTANDARDANSI
  2
AcmDatumStdANSI
  3
"AcmSymBB|Product Description: AutoCAD Mechanical 2000|Company: Autodesk"
 90
        0
280
     0
281
     0
  0
CLASS
  1
ACMBOMSTANDARDANSI
  2
AcmBOMStdANSI
  3
"AcmSymBB|Product Description: AutoCAD Mechanical 2000|Company: Autodesk"
 90
        0
280
     0
281
     0
  0
CLASS
  1
ACMSTANDARDBSI
  2
AcmStandardBSI
  3
"AcmSymBB|Product Description: AutoCAD Mechanical 2000|Company: Autodesk"
 90
        0
280
     0
281
     0
  0
CLASS
  1
ACMSURFSTANDARDBSI
  2
AcmSurfTextStdBSI
  3
"AcmSymBB|Product Description: AutoCAD Mechanical 2000|Company: Autodesk"
 90
        0
280
     0
281
     0
  0
CLASS
  1
ACMFCFSTANDARDBSI
  2
AcmFCFStdBSI
  3
"AcmSymBB|Product Description: AutoCAD Mechanical 2000|Company: Autodesk"
 90
        0
280
     0
281
     0
  0
CLASS
  1
ACMWELDSTANDARDBSI
  2
AcmWeldingStdBSI
  3
"AcmSymBB|Product Description: AutoCAD Mechanical 2000|Company: Autodesk"
 90
        0
280
     0
281
     0
  0
CLASS
  1
ACMIDSTANDARDBSI
  2
AcmIdStdBSI
  3
"AcmSymBB|Product Description: AutoCAD Mechanical 2000|Company: Autodesk"
 90
        0
280
     0
281
     0
  0
CLASS
  1
ACMDATUMSTANDARDBSI
  2
AcmDatumStdBSI
  3
"AcmSymBB|Product Description: AutoCAD Mechanical 2000|Company: Autodesk"
 90
        0
280
     0
281
     0
  0
CLASS
  1
ACMBOMSTANDARDBSI
  2
AcmBOMStdBSI
  3
"AcmSymBB|Product Description: AutoCAD Mechanical 2000|Company: Autodesk"
 90
        0
280
     0
281
     0
  0
CLASS
  1
LONG_TRANSACTION
  2
AcDbLongTransaction
  3
AutoCAD 2000
 90
        0
280
     0
281
     0
  0
CLASS
  1
LWPOLYLINE
  2
AcDbPolyline
  3
AutoCAD 2000
 90
        0
280
     0
281
     1
  0
CLASS
  1
HATCH
  2
AcDbHatch
  3
AutoCAD 2000
 90
        0
280
     0
281
     1
  0
CLASS
  1
XRECORD
  2
AcDbXrecord
  3
AutoCAD 2000
 90
        0
280
     0
281
     0
  0
ENDSEC
  0
SECTION
  2
TABLES
  0
TABLE
  2
VPORT
  5
8
330
0
100
AcDbSymbolTable
 70
     3
  0
VPORT
  5
1FA5
330
8
100
AcDbSymbolTableRecord
100
AcDbViewportTableRecord
  2
*ACTIVE
 70
     0
 10
0.0
 20
0.0
 11
1.0
 21
1.0
 12
-45.12885501924774
 22
-11.80748373080265
 13
0.0
 23
0.0
 14
2.5
 24
2.5
 15
10.0
 25
10.0
 16
0.0
 26
0.0
 36
1.0
 17
0.0
 27
0.0
 37
0.0
 40
67.49330179701996
 41
1.56570841889117
 42
50.0
 43
0.0
 44
0.0
 50
0.0
 51
0.0
 71
     0
 72
   100
 73
     1
 74
     3
 75
     0
 76
     0
 77
     0
 78
     0
  0
ENDTAB
  0
TABLE
  2
LTYPE
  5
5
330
0
100
AcDbSymbolTable
 70
    10
  0
LTYPE
  5
14
330
5
100
AcDbSymbolTableRecord
100
AcDbLinetypeTableRecord
  2
BYBLOCK
 70
     0
  3

 72
    65
 73
     0
 40
0.0
  0
LTYPE
  5
15
330
5
100
AcDbSymbolTableRecord
100
AcDbLinetypeTableRecord
  2
BYLAYER
 70
     0
  3

 72
    65
 73
     0
 40
0.0
  0
LTYPE
  5
16
330
5
100
AcDbSymbolTableRecord
100
AcDbLinetypeTableRecord
  2
CONTINUOUS
 70
     0
  3
Solid line
 72
    65
 73
     0
 40
0.0
  0
LTYPE
  5
4B
330
5
100
AcDbSymbolTableRecord
100
AcDbLinetypeTableRecord
  2
AM_ISO02W050
 70
     0
  3
__ __ __ __ __ __ __ __ __ __ __ __ __ __ __
 72
    65
 73
     2
 40
7.5
 49
6.0
 74
     0
 49
-1.5
 74
     0
  0
LTYPE
  5
4C
330
5
100
AcDbSymbolTableRecord
100
AcDbLinetypeTableRecord
  2
AM_ISO08W050
 70
     0
  3
____ . ____ . ____ . ____ . ____ . ____ . ____
 72
    65
 73
     4
 40
18.0
 49
12.0
 74
     0
 49
-1.5
 74
     0
 49
3.0
 74
     0
 49
-1.5
 74
     0
  0
LTYPE
  5
4D
330
5
100
AcDbSymbolTableRecord
100
AcDbLinetypeTableRecord
  2
AM_ISO09W050
 70
     0
  3
_____ . . _____ . . _____ . . ____ .. ____
 72
    65
 73
     6
 40
22.5
 49
12.0
 74
     0
 49
-1.5
 74
     0
 49
3.0
 74
     0
 49
-1.5
 74
     0
 49
3.0
 74
     0
 49
-1.5
 74
     0
  0
LTYPE
  5
4E
330
5
100
AcDbSymbolTableRecord
100
AcDbLinetypeTableRecord
  2
AMCONSTR
 70
     0
  3
_______________________
 72
    65
 73
     2
 40
9999.0
 49
9999.0
 74
     0
 49
0.0
 74
     0
  0
LTYPE
  5
4F
330
5
100
AcDbSymbolTableRecord
100
AcDbLinetypeTableRecord
  2
AM_ISO02W050X2
 70
     0
  3
 _ _ _ _ _ _ _ _ _ _ _ _
 72
    65
 73
     2
 40
3.75
 49
3.0
 74
     0
 49
-0.75
 74
     0
  0
LTYPE
  5
50
330
5
100
AcDbSymbolTableRecord
100
AcDbLinetypeTableRecord
  2
AM_ISO08W050X2
 70
     0
  3
__ . __ . __ . __ . __ . __
 72
    65
 73
     4
 40
9.0
 49
6.0
 74
     0
 49
-0.75
 74
     0
 49
1.5
 74
     0
 49
-0.75
 74
     0
  0
LTYPE
  5
53
330
5
100
AcDbSymbolTableRecord
100
AcDbLinetypeTableRecord
  2
AMZIGZAG
 70
     0
  3
/\/-/\/-/\/-/\/-/\/-/\/
 72
    65
 73
     2
 40
11.00009999999999
 49
0.0001
 74
     4
 75
   135
340
52
 46
0.04
 50
0.0
 44
0.0
 45
0.0
 49
-11.0
 74
     0
  0
LTYPE
  5
166
330
5
100
AcDbSymbolTableRecord
100
AcDbLinetypeTableRecord
  2
ACJISTGL
 70
     0
  3
_ _ _ _ _
 72
    65
 73
     2
 40
3.0
 49
2.0
 74
     0
 49
-1.0
 74
     0
  0
LTYPE
  5
26A
330
5
100
AcDbSymbolTableRecord
100
AcDbLinetypeTableRecord
  2
ACJISTGB
 70
     0
  3
__ . . __ . .
 72
    65
 73
     6
 40
9.0
 49
4.0
 74
     0
 49
-1.0
 74
     0
 49
1.0
 74
     0
 49
-1.0
 74
     0
 49
1.0
 74
     0
 49
-1.0
 74
     0
  0
ENDTAB
  0
TABLE
  2
LAYER
  5
2
330
0
100
AcDbSymbolTable
 70
     7
  0
LAYER
  5
10
330
2
100
AcDbSymbolTableRecord
100
AcDbLayerTableRecord
  2
0
 70
     0
 62
     7
  6
CONTINUOUS
  0
LAYER
  5
3F9
330
2
100
AcDbSymbolTableRecord
100
AcDbLayerTableRecord
  2
AM_0
 70
     0
 62
     7
  6
CONTINUOUS
  0
LAYER
  5
BA4
330
2
100
AcDbSymbolTableRecord
100
AcDbLayerTableRecord
  2
AM_5
 70
     0
 62
     3
  6
CONTINUOUS
  0
LAYER
  5
BA5
330
2
100
AcDbSymbolTableRecord
100
AcDbLayerTableRecord
  2
AM_11
 70
     0
 62
     3
  6
AM_ISO09W050
  0
LAYER
  5
BA6
330
2
100
AcDbSymbolTableRecord
100
AcDbLayerTableRecord
  2
AM_7
 70
     0
 62
     4
  6
AM_ISO08W050
  0
LAYER
  5
E64
330
2
100
AcDbSymbolTableRecord
100
AcDbLayerTableRecord
  2
AM_6
 70
     0
 62
     2
  6
CONTINUOUS
  0
LAYER
  5
F4D
330
2
100
AcDbSymbolTableRecord
100
AcDbLayerTableRecord
  2
DEFPOINTS
 70
     0
 62
     7
  6
CONTINUOUS
  0
ENDTAB
  0
TABLE
  2
STYLE
  5
3
330
0
100
AcDbSymbolTable
 70
     5
  0
STYLE
  5
11
330
3
100
AcDbSymbolTableRecord
100
AcDbTextStyleTableRecord
  2
STANDARD
 70
     0
 40
0.0
 41
1.0
 50
0.0
 71
     0
 42
2.5
  3
simplex.shx
  4
EXTFONT.SHX
  0
STYLE
  5
52
330
3
100
AcDbSymbolTableRecord
100
AcDbTextStyleTableRecord
  2

 70
     1
 40
0.0
 41
1.0
 50
0.0
 71
     0
 42
2.5
  3
ltypeshp.shx
  4

  0
STYLE
  5
6B
330
3
100
AcDbSymbolTableRecord
100
AcDbTextStyleTableRecord
  2
ASAMI
 70
     0
 40
0.0
 41
1.0
 50
0.0
 71
     0
 42
2.5
  3
simplex.shx
  4
EXTFONT.SHX
  0
STYLE
  5
262
330
3
100
AcDbSymbolTableRecord
100
AcDbTextStyleTableRecord
  2
ACJISTS
 70
     0
 40
1.0
 41
1.0
 50
0.0
 71
     0
 42
2.5
  3
simplex.shx
  4
bigfont.shx
  0
STYLE
  5
269
330
3
100
AcDbSymbolTableRecord
100
AcDbTextStyleTableRecord
  2
ACJISGDT
 70
     0
 40
0.0
 41
1.0
 50
0.0
 71
     0
 42
2.5
  3
amgdtans.shx
  4

  0
ENDTAB
  0
TABLE
  2
VIEW
  5
6
330
0
100
AcDbSymbolTable
 70
     0
  0
ENDTAB
  0
TABLE
  2
UCS
  5
7
330
0
100
AcDbSymbolTable
 70
     0
  0
ENDTAB
  0
TABLE
  2
APPID
  5
9
330
0
100
AcDbSymbolTable
 70
    12
  0
APPID
  5
12
330
9
100
AcDbSymbolTableRecord
100
AcDbRegAppTableRecord
  2
ACAD
 70
     0
  0
APPID
  5
30
330
9
100
AcDbSymbolTableRecord
100
AcDbRegAppTableRecord
  2
MCAD_NO_VIS
 70
     0
  0
APPID
  5
31
330
9
100
AcDbSymbolTableRecord
100
AcDbRegAppTableRecord
  2
ACAD_TEMP_GRAPHIC
 70
     0
  0
APPID
  5
2C2
330
9
100
AcDbSymbolTableRecord
100
AcDbRegAppTableRecord
  2
GENIUS_GENDTOL_13
 70
     0
  0
APPID
  5
339
330
9
100
AcDbSymbolTableRecord
100
AcDbRegAppTableRecord
  2
GENIUS_GENODEF_13
 70
     0
  0
APPID
  5
33A
330
9
100
AcDbSymbolTableRecord
100
AcDbRegAppTableRecord
  2
GENIUS_GENOBJ-N-RSBK_13
 70
     0
  0
APPID
  5
33B
330
9
100
AcDbSymbolTableRecord
100
AcDbRegAppTableRecord
  2
GENIUS_GENOBJ-N-LIB_13
 70
     0
  0
APPID
  5
33C
330
9
100
AcDbSymbolTableRecord
100
AcDbRegAppTableRecord
  2
GENIUS_GENSCALE_13
 70
     0
  0
APPID
  5
378
330
9
100
AcDbSymbolTableRecord
100
AcDbRegAppTableRecord
  2
GENIUS_GENDIMSH_14
 70
     0
  0
APPID
  5
BB0
330
9
100
AcDbSymbolTableRecord
100
AcDbRegAppTableRecord
  2
GENIUS_GENOBJ-N-CEN_13
 70
     0
  0
APPID
  5
BB1
330
9
100
AcDbSymbolTableRecord
100
AcDbRegAppTableRecord
  2
GENIUS_GENFIL_13
 70
     0
  0
APPID
  5
BB2
330
9
100
AcDbSymbolTableRecord
100
AcDbRegAppTableRecord
  2
GENIUS_GENOBJ-N-CHA_13
 70
     0
  0
ENDTAB
  0
TABLE
  2
DIMSTYLE
  5
A
330
0
100
AcDbSymbolTable
 70
     8
  0
DIMSTYLE
105
58
102
{ACAD_REACTORS
330
1D3B
330
1D5A
330
1E04
330
1ED4
102
}
330
A
100
AcDbSymbolTableRecord
100
AcDbDimStyleTableRecord
  2
AM_JIS
 70
     0
  3

  4
"
  5
OPEN30
  6

  7

 40
0.5
 41
2.5
 42
1.0
 43
12.0
 44
1.0
 45
0.0
 46
0.0
 47
0.1
 48
0.1
140
3.2
141
0.0
142
0.0
143
0.0393701
144
1.0
145
0.0
146
0.71
147
1.5
 71
     0
 72
     0
 73
     0
 74
     0
 75
     0
 76
     0
 77
     3
 78
     8
170
     0
171
     2
172
     1
173
     0
174
     0
175
     0
176
   256
177
   256
178
     2
270
     2
271
     3
272
     3
273
     2
274
     2
340
6B
275
     0
280
     0
281
     0
282
     0
283
     0
284
     0
285
     0
286
     0
287
     3
288
     0
  0
DIMSTYLE
105
5F
330
A
100
AcDbSymbolTableRecord
100
AcDbDimStyleTableRecord
  2
AM_JIS$3
 70
     0
  3

  4
"
  5
OPEN30
  6

  7

 40
0.5
 41
2.5
 42
1.0
 43
10.0
 44
1.0
 45
0.0
 46
0.0
 47
0.1
 48
0.1
140
3.2
141
0.0
142
0.0
143
0.0393701
144
1.0
145
0.0
146
0.71
147
1.5
 71
     0
 72
     0
 73
     0
 74
     1
 75
     0
 76
     0
 77
     3
 78
     8
170
     0
171
     2
172
     0
173
     0
174
     0
175
     0
176
   256
177
   256
178
     2
270
     2
271
     2
272
     3
273
     2
274
     2
340
6B
275
     0
280
     0
281
     0
282
     0
283
     0
284
     0
285
     0
286
     0
287
     0
288
     1
  0
DIMSTYLE
105
60
330
A
100
AcDbSymbolTableRecord
100
AcDbDimStyleTableRecord
  2
AM_JIS$4
 70
     0
  3

  4
"
  5
OPEN30
  6

  7

 40
0.5
 41
2.5
 42
1.0
 43
10.0
 44
1.0
 45
0.0
 46
0.0
 47
0.1
 48
0.1
140
3.2
141
0.0
142
0.0
143
0.0393701
144
1.0
145
0.0
146
0.71
147
1.5
 71
     0
 72
     0
 73
     0
 74
     1
 75
     0
 76
     0
 77
     3
 78
     8
170
     0
171
     2
172
     0
173
     0
174
     0
175
     0
176
   256
177
   256
178
     2
270
     2
271
     2
272
     3
273
     2
274
     2
340
6B
275
     0
280
     0
281
     0
282
     0
283
     0
284
     0
285
     0
286
     0
287
     0
288
     1
  0
DIMSTYLE
105
61
330
A
100
AcDbSymbolTableRecord
100
AcDbDimStyleTableRecord
  2
AM_JIS$6
 70
     0
  3

  4
"
  5
OPEN30
  6

  7

 40
0.5
 41
2.5
 42
1.0
 43
10.0
 44
1.0
 45
0.0
 46
0.0
 47
0.1
 48
0.1
140
3.2
141
0.0
142
0.0
143
0.0393701
144
1.0
145
0.0
146
0.71
147
1.5
 71
     0
 72
     0
 73
     0
 74
     0
 75
     0
 76
     0
 77
     0
 78
     8
170
     0
171
     2
172
     1
173
     0
174
     0
175
     0
176
   256
177
   256
178
     2
270
     2
271
     2
272
     2
273
     2
274
     2
340
6B
275
     0
280
     0
281
     0
282
     0
283
     0
284
     0
285
     0
286
     0
287
     3
288
     0
  0
DIMSTYLE
105
62
330
A
100
AcDbSymbolTableRecord
100
AcDbDimStyleTableRecord
  2
AM_JIS$7
 70
     0
  3

  4
"
  5
OPEN30
  6

  7

 40
0.5
 41
2.5
 42
1.0
 43
10.0
 44
1.0
 45
0.0
 46
0.0
 47
0.1
 48
0.1
140
3.2
141
0.0
142
0.0
143
0.0393701
144
1.0
145
0.0
146
0.71
147
1.5
 71
     0
 72
     0
 73
     0
 74
     0
 75
     0
 76
     0
 77
     3
 78
     8
170
     0
171
     2
172
     1
173
     0
174
     0
175
     0
176
   256
177
   256
178
     2
270
     2
271
     2
272
     3
273
     2
274
     2
340
6B
275
     0
280
     0
281
     0
282
     0
283
     0
284
     0
285
     0
286
     0
287
     3
288
     0
  0
DIMSTYLE
105
63
330
A
100
AcDbSymbolTableRecord
100
AcDbDimStyleTableRecord
  2
AM_JIS$SF
 70
     0
  3

  4
"
  5
OPEN30
  6

  7

 40
0.5
 41
2.5
 42
1.0
 43
10.0
 44
1.0
 45
0.0
 46
0.0
 47
0.1
 48
0.1
140
3.2
141
0.0
142
0.0
143
0.0393701
144
1.0
145
0.0
146
0.71
147
1.5
 71
     0
 72
     0
 73
     0
 74
     0
 75
     1
 76
     1
 77
     3
 78
     8
170
     0
171
     2
172
     1
173
     0
174
     0
175
     0
176
   256
177
   256
178
     2
270
     2
271
     2
272
     2
273
     2
274
     2
340
6B
275
     0
280
     0
281
     0
282
     0
283
     0
284
     0
285
     0
286
     0
287
     3
288
     0
  0
DIMSTYLE
105
68
330
A
100
AcDbSymbolTableRecord
100
AcDbDimStyleTableRecord
  2
AM_JIS$SH
 70
     0
  3

  4
"
  5

  6
GENAXEH
  7
OPEN30
 40
0.5
 41
2.5
 42
1.0
 43
10.0
 44
1.0
 45
0.0
 46
0.0
 47
0.1
 48
0.1
140
3.2
141
0.0
142
0.0
143
0.0393701
144
2.0
145
0.0
146
0.71
147
1.5
 71
     0
 72
     0
 73
     0
 74
     0
 75
     1
 76
     1
 77
     3
 78
     8
170
     0
171
     2
172
     1
173
     1
174
     0
175
     0
176
   256
177
   256
178
     2
270
     2
271
     2
272
     2
273
     2
274
     2
340
6B
275
     0
280
     0
281
     0
282
     0
283
     0
284
     0
285
     0
286
     0
287
     3
288
     0
  0
DIMSTYLE
105
B34
330
A
100
AcDbSymbolTableRecord
100
AcDbDimStyleTableRecord
  2
AM_JIS$2
 70
     0
  3

  4
"
  5
OPEN30
  6

  7

 40
0.5
 41
2.5
 42
1.0
 43
12.0
 44
1.0
 45
0.0
 46
0.0
 47
0.1
 48
0.1
140
3.2
141
0.0
142
0.0
143
0.0393701
144
1.0
145
0.0
146
0.71
147
1.5
 71
     0
 72
     0
 73
     0
 74
     0
 75
     0
 76
     0
 77
     3
 78
     8
170
     0
171
     2
172
     1
173
     0
174
     0
175
     0
176
   256
177
   256
178
     2
270
     2
271
     3
272
     3
273
     2
274
     2
340
6B
275
     0
280
     0
281
     0
282
     0
283
     0
284
     0
285
     0
286
     0
287
     3
288
     0
  0
ENDTAB
  0
TABLE
  2
BLOCK_RECORD
  5
1
330
0
100
AcDbSymbolTable
 70
     9
  0
BLOCK_RECORD
  5
1F
102
{ACAD_XDICTIONARY
360
74
102
}
330
1
100
AcDbSymbolTableRecord
100
AcDbBlockTableRecord
  2
*MODEL_SPACE
  0
BLOCK_RECORD
  5
101
102
{ACAD_XDICTIONARY
360
1FCE
102
}
330
1
100
AcDbSymbolTableRecord
100
AcDbBlockTableRecord
  2
*PAPER_SPACE
  0
BLOCK_RECORD
  5
59
330
1
100
AcDbSymbolTableRecord
100
AcDbBlockTableRecord
  2
_OPEN30
  0
BLOCK_RECORD
  5
64
330
1
100
AcDbSymbolTableRecord
100
AcDbBlockTableRecord
  2
GENAXEH
  0
BLOCK_RECORD
  5
1D68
330
1
100
AcDbSymbolTableRecord
100
AcDbBlockTableRecord
  2
*D5
  0
BLOCK_RECORD
  5
1D74
330
1
100
AcDbSymbolTableRecord
100
AcDbBlockTableRecord
  2
*D6
  0
BLOCK_RECORD
  5
1E05
330
1
100
AcDbSymbolTableRecord
100
AcDbBlockTableRecord
  2
*D7
  0
BLOCK_RECORD
  5
1ED5
330
1
100
AcDbSymbolTableRecord
100
AcDbBlockTableRecord
  2
*D8
  0
ENDTAB
  0
ENDSEC
  0
SECTION
  2
BLOCKS
  0
BLOCK
  5
20
330
1F
100
AcDbEntity
  8
0
100
AcDbBlockBegin
  2
*MODEL_SPACE
 70
     0
 10
0.0
 20
0.0
 30
0.0
  3
*MODEL_SPACE
  1

  0
ENDBLK
  5
21
330
1F
100
AcDbEntity
  8
0
100
AcDbBlockEnd
  0
BLOCK
  5
103
330
101
100
AcDbEntity
 67
     1
  8
0
100
AcDbBlockBegin
  2
*PAPER_SPACE
 70
     0
 10
0.0
 20
0.0
 30
0.0
  3
*PAPER_SPACE
  1

  0
ENDBLK
  5
104
330
101
100
AcDbEntity
 67
     1
  8
0
100
AcDbBlockEnd
  0
BLOCK
  5
5D
330
59
100
AcDbEntity
  8
0
100
AcDbBlockBegin
  2
_OPEN30
 70
     0
 10
0.0
 20
0.0
 30
0.0
  3
_OPEN30
  1

  0
LINE
  5
5A
330
59
100
AcDbEntity
  8
0
 62
     0
100
AcDbLine
 10
-1.0
 20
0.26794919
 30
0.0
 11
0.0
 21
0.0
 31
0.0
  0
LINE
  5
5B
330
59
100
AcDbEntity
  8
0
 62
     0
100
AcDbLine
 10
0.0
 20
0.0
 30
0.0
 11
-1.0
 21
-0.26794919
 31
0.0
  0
LINE
  5
5C
330
59
100
AcDbEntity
  8
0
 62
     0
100
AcDbLine
 10
0.0
 20
0.0
 30
0.0
 11
-1.0
 21
0.0
 31
0.0
  0
ENDBLK
  5
5E
330
59
100
AcDbEntity
  8
0
100
AcDbBlockEnd
  0
BLOCK
  5
66
330
64
100
AcDbEntity
  8
0
100
AcDbBlockBegin
  2
GENAXEH
 70
     0
 10
0.0
 20
0.0
 30
0.0
  3
GENAXEH
  1

  0
LINE
  5
65
330
64
100
AcDbEntity
  8
0
100
AcDbLine
 10
-1.0
 20
0.0
 30
0.0
 11
1.0
 21
0.0
 31
0.0
  0
ENDBLK
  5
67
330
64
100
AcDbEntity
  8
0
100
AcDbBlockEnd
  0
BLOCK
  5
1D72
330
1D68
100
AcDbEntity
  8
0
100
AcDbBlockBegin
  2
*D5
 70
     1
 10
0.0
 20
0.0
 30
0.0
  3
*D5
  1

  0
LINE
  5
1E7D
330
1D68
100
AcDbEntity
  8
AM_5
100
AcDbLine
 10
-90.00000000000003
 20
-6.900000001121178
 30
0.0
 11
-90.00000000000003
 21
-21.50000000112124
 31
0.0
  0
LINE
  5
1E7E
330
1D68
100
AcDbEntity
  8
AM_5
100
AcDbLine
 10
-0.0000000000000285
 20
-8.500000001120106
 30
0.0
 11
-0.0000000000000292
 21
-21.50000000112124
 31
0.0
  0
LINE
  5
1E7F
330
1D68
100
AcDbEntity
  8
AM_5
100
AcDbLine
 10
-88.75000000000003
 20
-21.00000000112124
 30
0.0
 11
-1.250000000000029
 21
-21.00000000112124
 31
0.0
  0
INSERT
  5
1E80
330
1D68
100
AcDbEntity
  8
AM_5
100
AcDbBlockReference
  2
_OPEN30
 10
-90.00000000000003
 20
-21.00000000112124
 30
0.0
 41
1.25
 42
1.25
 43
1.25
 50
180.0
  0
INSERT
  5
1E81
330
1D68
100
AcDbEntity
  8
AM_5
100
AcDbBlockReference
  2
_OPEN30
 10
-0.0000000000000292
 20
-21.00000000112124
 30
0.0
 41
1.25
 42
1.25
 43
1.25
  0
MTEXT
  5
1E82
330
1D68
100
AcDbEntity
  8
AM_5
 62
     2
100
AcDbMText
 10
-45.00000000000002
 20
-19.45000000112124
 30
0.0
 40
1.6
 41
0.0
 71
     5
 72
     1
  1
90
  7
ASAMI
1001
ACAD
1000
MTEXTBEGIN
1070
    73
1070
     1
1070
    44
1040
1.0
1070
    74
1070
     0
1000
MTEXTEND
  0
POINT
  5
1E83
330
1D68
100
AcDbEntity
  8
DEFPOINTS
 62
     0
100
AcDbPoint
 10
-90.00000000000003
 20
-6.400000001121178
 30
0.0
  0
POINT
  5
1E84
330
1D68
100
AcDbEntity
  8
DEFPOINTS
 62
     0
100
AcDbPoint
 10
-0.0000000000000284
 20
-8.000000001120106
 30
0.0
  0
POINT
  5
1E85
330
1D68
100
AcDbEntity
  8
DEFPOINTS
 62
     0
100
AcDbPoint
 10
-0.0000000000000292
 20
-21.00000000112124
 30
0.0
  0
ENDBLK
  5
1D73
330
1D68
100
AcDbEntity
  8
0
100
AcDbBlockEnd
  0
BLOCK
  5
1D7E
330
1D74
100
AcDbEntity
  8
0
100
AcDbBlockBegin
  2
*D6
 70
     1
 10
0.0
 20
0.0
 30
0.0
  3
*D6
  1

  0
LINE
  5
1E8F
330
1D74
100
AcDbEntity
  8
AM_5
100
AcDbLine
 10
0.4999999999999716
 20
-8.000000001120149
 30
0.0
 11
7.499999999999996
 21
-8.000000001120151
 31
0.0
  0
LINE
  5
1E90
330
1D74
100
AcDbEntity
  8
AM_5
100
AcDbLine
 10
0.5000000000000285
 20
8.000000001120035
 30
0.0
 11
7.5
 21
8.000000001120033
 31
0.0
  0
LINE
  5
1E91
330
1D74
100
AcDbEntity
  8
AM_5
100
AcDbLine
 10
6.999999999999996
 20
-6.750000001120151
 30
0.0
 11
7.0
 21
6.750000001120033
 31
0.0
  0
INSERT
  5
1E92
330
1D74
100
AcDbEntity
  8
AM_5
100
AcDbBlockReference
  2
_OPEN30
 10
6.999999999999996
 20
-8.000000001120151
 30
0.0
 41
1.25
 42
1.25
 43
1.25
 50
270.0
  0
INSERT
  5
1E93
330
1D74
100
AcDbEntity
  8
AM_5
100
AcDbBlockReference
  2
_OPEN30
 10
7.0
 20
8.000000001120033
 30
0.0
 41
1.25
 42
1.25
 43
1.25
 50
90.0
  0
MTEXT
  5
1E94
330
1D74
100
AcDbEntity
  8
AM_5
 62
     2
100
AcDbMText
 10
5.449999999999997
 20
-0.0000000000000571
 30
0.0
 40
1.6
 41
0.0
 71
     5
 72
     1
  1
%%c16
  7
ASAMI
 11
0.0000000000000001
 21
1.0
 31
0.0
1001
ACAD
1000
MTEXTBEGIN
1070
    73
1070
     1
1070
    44
1040
1.0
1070
    74
1070
     0
1000
MTEXTEND
  0
POINT
  5
1E95
330
1D74
100
AcDbEntity
  8
DEFPOINTS
 62
     0
100
AcDbPoint
 10
-0.0000000000000284
 20
-8.000000001120149
 30
0.0
  0
POINT
  5
1E96
330
1D74
100
AcDbEntity
  8
DEFPOINTS
 62
     0
100
AcDbPoint
 10
0.0000000000000284
 20
8.000000001120035
 30
0.0
  0
POINT
  5
1E97
330
1D74
100
AcDbEntity
  8
DEFPOINTS
 62
     0
100
AcDbPoint
 10
7.0
 20
8.000000001120033
 30
0.0
  0
ENDBLK
  5
1D7F
330
1D74
100
AcDbEntity
  8
0
100
AcDbBlockEnd
  0
BLOCK
  5
1E0F
330
1E05
100
AcDbEntity
  8
0
100
AcDbBlockBegin
  2
*D7
 70
     1
 10
0.0
 20
0.0
 30
0.0
  3
*D7
  1

  0
LINE
  5
1F81
330
1E05
100
AcDbEntity
  8
AM_5
100
AcDbLine
 10
-32.00000000000002
 20
-8.500000001120069
 30
0.0
 11
-32.00000000000002
 21
-15.50000000112124
 31
0.0
  0
LINE
  5
1F82
330
1E05
100
AcDbEntity
  8
AM_5
100
AcDbLine
 10
-0.0000000000000285
 20
-8.500000001120106
 30
0.0
 11
-0.0000000000000289
 21
-15.50000000112124
 31
0.0
  0
LINE
  5
1F83
330
1E05
100
AcDbEntity
  8
AM_5
100
AcDbLine
 10
-30.75000000000002
 20
-15.00000000112124
 30
0.0
 11
-1.250000000000028
 21
-15.00000000112124
 31
0.0
  0
INSERT
  5
1F84
330
1E05
100
AcDbEntity
  8
AM_5
100
AcDbBlockReference
  2
_OPEN30
 10
-32.00000000000002
 20
-15.00000000112124
 30
0.0
 41
1.25
 42
1.25
 43
1.25
 50
180.0
  0
INSERT
  5
1F85
330
1E05
100
AcDbEntity
  8
AM_5
100
AcDbBlockReference
  2
_OPEN30
 10
-0.0000000000000289
 20
-15.00000000112124
 30
0.0
 41
1.25
 42
1.25
 43
1.25
  0
MTEXT
  5
1F86
330
1E05
100
AcDbEntity
  8
AM_5
 62
     2
100
AcDbMText
 10
-16.00000000000002
 20
-13.45000000112124
 30
0.0
 40
1.6
 41
0.0
 71
     5
 72
     1
  1
32
  7
ASAMI
1001
ACAD
1000
MTEXTBEGIN
1070
    73
1070
     1
1070
    44
1040
1.0
1070
    74
1070
     0
1000
MTEXTEND
  0
POINT
  5
1F87
330
1E05
100
AcDbEntity
  8
DEFPOINTS
 62
     0
100
AcDbPoint
 10
-32.00000000000002
 20
-8.000000001120069
 30
0.0
  0
POINT
  5
1F88
330
1E05
100
AcDbEntity
  8
DEFPOINTS
 62
     0
100
AcDbPoint
 10
-0.0000000000000284
 20
-8.000000001120106
 30
0.0
  0
POINT
  5
1F89
330
1E05
100
AcDbEntity
  8
DEFPOINTS
 62
     0
100
AcDbPoint
 10
-0.0000000000000289
 20
-15.00000000112124
 30
0.0
  0
ENDBLK
  5
1E10
330
1E05
100
AcDbEntity
  8
0
100
AcDbBlockEnd
  0
BLOCK
  5
1EDF
330
1ED5
100
AcDbEntity
  8
0
100
AcDbBlockBegin
  2
*D8
 70
     1
 10
0.0
 20
0.0
 30
0.0
  3
*D8
  1

  0
LINE
  5
1F4E
330
1ED5
100
AcDbEntity
  8
AM_5
100
AcDbLine
 10
-88.90000000000004
 20
-8.000000001121229
 30
0.0
 11
-95.90000000000003
 21
-8.000000001121227
 31
0.0
  0
LINE
  5
1F4F
330
1ED5
100
AcDbEntity
  8
AM_5
100
AcDbLine
 10
-88.90000000000004
 20
8.000000001120035
 30
0.0
 11
-95.90000000000003
 21
8.000000001120037
 31
0.0
  0
LINE
  5
1F50
330
1ED5
100
AcDbEntity
  8
AM_5
100
AcDbLine
 10
-95.40000000000004
 20
-6.750000001121227
 30
0.0
 11
-95.40000000000004
 21
6.750000001120037
 31
0.0
  0
INSERT
  5
1F51
330
1ED5
100
AcDbEntity
  8
AM_5
100
AcDbBlockReference
  2
_OPEN30
 10
-95.40000000000004
 20
-8.000000001121227
 30
0.0
 41
1.25
 42
1.25
 43
1.25
 50
270.0
  0
INSERT
  5
1F52
330
1ED5
100
AcDbEntity
  8
AM_5
100
AcDbBlockReference
  2
_OPEN30
 10
-95.40000000000004
 20
8.000000001120037
 30
0.0
 41
1.25
 42
1.25
 43
1.25
 50
90.0
  0
MTEXT
  5
1F53
330
1ED5
100
AcDbEntity
  8
AM_5
 62
     2
100
AcDbMText
 10
-96.95000000000003
 20
-0.0000000000006104
 30
0.0
 40
1.6
 41
0.0
 71
     5
 72
     1
  1
%%c16
  7
ASAMI
 11
0.0000000000000001
 21
1.0
 31
0.0
1001
ACAD
1000
MTEXTBEGIN
1070
    73
1070
     1
1070
    44
1040
1.0
1070
    74
1070
     0
1000
MTEXTEND
  0
POINT
  5
1F54
330
1ED5
100
AcDbEntity
  8
DEFPOINTS
 62
     0
100
AcDbPoint
 10
-88.40000000000003
 20
-8.000000001121229
 30
0.0
  0
POINT
  5
1F55
330
1ED5
100
AcDbEntity
  8
DEFPOINTS
 62
     0
100
AcDbPoint
 10
-88.40000000000003
 20
8.000000001120035
 30
0.0
  0
POINT
  5
1F56
330
1ED5
100
AcDbEntity
  8
DEFPOINTS
 62
     0
100
AcDbPoint
 10
-95.40000000000004
 20
8.000000001120037
 30
0.0
  0
ENDBLK
  5
1EE0
330
1ED5
100
AcDbEntity
  8
0
100
AcDbBlockEnd
  0
ENDSEC
  0
SECTION
  2
ENTITIES
  0
TEXT
  5
E66
330
1F
100
AcDbEntity
  8
AM_6
100
AcDbText
 10
-55.41666666666667
 20
-32.25000000112124
 30
0.0
 40
2.5
  1
ASM2160DL
 72
     4
 11
-45.00000000000001
 21
-31.00000000112124
 31
0.0
100
AcDbText
  0
DIMENSION
  5
1D3B
330
1F
100
AcDbEntity
  8
AM_5
100
AcDbDimension
  2
*D5
 10
-0.0000000000000292
 20
-21.00000000112124
 30
0.0
 11
-45.00000000000002
 21
-19.45000000112124
 31
0.0
 70
    32
  1
<>
  3
AM_JIS
100
AcDbAlignedDimension
 13
-90.00000000000003
 23
-6.400000001121178
 33
0.0
 14
-0.0000000000000284
 24
-8.000000001120106
 34
0.0
100
AcDbRotatedDimension
1001
GENIUS_GENDTOL_13
1000

1000
h7
1000

1040
0.0
  0
LINE
  5
1D40
330
1F
100
AcDbEntity
  8
AM_0
100
AcDbLine
 10
-36.65779718190235
 20
-8.000000001121243
 30
0.0
 11
-88.40000000000003
 21
-8.000000001121229
 31
0.0
  0
LINE
  5
1D41
330
1F
100
AcDbEntity
  8
AM_0
100
AcDbLine
 10
-36.6577971819003
 20
8.000000001119936
 30
0.0
 11
-88.40000000000012
 21
8.00000000111995
 31
0.0
  0
LINE
  5
1D42
330
1F
100
AcDbEntity
  8
AM_7
 48
0.6
100
AcDbLine
 10
3.333683926379102
 20
-0.0000000000000142
 30
0.0
 11
-92.89212800758836
 21
-0.0000000000000924
 31
0.0
1001
GENIUS_GENODEF_13
1002
{
1000
HIER
1070
     0
1002
}
1002
{
1000
MANEDIT
1070
     0
1002
}
1002
{
1000
NOSEL
1070
     0
1002
}
1002
{
1000
BEHIND
1070
     0
1002
}
1002
{
1000
OTHER
1070
     0
1002
}
1002
{
1000
REACTOR
1002
}
1001
GENIUS_GENOBJ-N-CEN_13
1002
{
1000
OWNER
1000
GEN
1002
}
  0
LINE
  5
1D46
330
1F
100
AcDbEntity
  8
AM_0
100
AcDbLine
 10
-88.40000000000003
 20
-8.000000001121229
 30
0.0
 11
-88.40000000000003
 21
8.00000000111995
 31
0.0
  0
LINE
  5
1D47
330
1F
100
AcDbEntity
  8
AM_0
100
AcDbLine
 10
-90.00000000000012
 20
6.400000001119948
 30
0.0
 11
-90.00000000000003
 21
-6.400000001121227
 31
0.0
  0
LINE
  5
1D48
330
1F
100
AcDbEntity
  8
AM_0
100
AcDbLine
 10
-90.00000000000003
 20
-6.400000001121227
 30
0.0
 11
-88.40000000000003
 21
-8.000000001121229
 31
0.0
1001
GENIUS_GENFIL_13
1070
     0
1040
1.0
1040
1.0
1040
20.0
1040
0.0
1002
{
1002
}
1001
GENIUS_GENODEF_13
1002
{
1000
HIER
1070
     0
1002
}
1002
{
1000
MANEDIT
1070
     0
1002
}
1002
{
1000
NOSEL
1070
     0
1002
}
1002
{
1000
BEHIND
1070
     0
1002
}
1002
{
1000
OTHER
1070
     0
1002
}
1002
{
1000
REACTOR
1002
}
1001
GENIUS_GENOBJ-N-CHA_13
1002
{
1000
OWNER
1000
GEN
1002
}
  0
LINE
  5
1D49
330
1F
100
AcDbEntity
  8
AM_0
100
AcDbLine
 10
-88.40000000000012
 20
8.00000000111995
 30
0.0
 11
-90.00000000000012
 21
6.400000001119948
 31
0.0
1001
GENIUS_GENFIL_13
1070
     0
1040
1.0
1040
1.0
1040
20.0
1040
0.0
1002
{
1002
}
1001
GENIUS_GENOBJ-N-CHA_13
1002
{
1000
OWNER
1000
GEN
1002
}
1001
GENIUS_GENODEF_13
1002
{
1000
HIER
1070
     0
1002
}
1002
{
1000
MANEDIT
1070
     0
1002
}
1002
{
1000
NOSEL
1070
     0
1002
}
1002
{
1000
BEHIND
1070
     0
1002
}
1002
{
1000
OTHER
1070
     0
1002
}
1002
{
1000
REACTOR
1002
}
  0
DIMENSION
  5
1D5A
330
1F
100
AcDbEntity
  8
AM_5
100
AcDbDimension
  2
*D6
 10
7.0
 20
8.000000001120033
 30
0.0
 11
5.449999999999997
 21
-0.0000000000000571
 31
0.0
 70
    32
  1
%%c<>
  3
AM_JIS
100
AcDbAlignedDimension
 13
-0.0000000000000284
 23
-8.000000001120149
 33
0.0
 14
0.0000000000000284
 24
8.000000001120035
 34
0.0
 50
90.0
100
AcDbRotatedDimension
1001
GENIUS_GENDTOL_13
1000

1000
h7
1000

1040
0.0
  0
LINE
  5
1DF4
330
1F
100
AcDbEntity
  8
AM_0
100
AcDbLine
 10
-0.0000000000000213
 20
-0.0000000000000142
 30
0.0
 11
-3.372594609287524
 21
2.582908309568743
 31
0.0
  0
ELLIPSE
  5
1DF5
330
1F
100
AcDbEntity
  8
AM_0
100
AcDbEllipse
 10
-3.282014621497054
 20
4.326315765555214
 30
0.0
 11
-0.0000000000000091
 21
1.746220144013752
 31
0.0
210
0.0
220
0.0
230
1.0
 40
0.9142857142857147
 41
1.97662769380555
 42
3.084827136967426
  0
ELLIPSE
  5
1DF6
330
1F
100
AcDbEntity
  8
AM_0
100
AcDbEllipse
 10
9.982375058437277
 20
-2.005375394509442
 30
0.0
 11
-0.0000000000000459
 21
12.45564576974544
 31
0.0
210
0.0
220
0.0
230
1.0
 40
0.9142857142857135
 41
1.49961612741687
 42
2.064551921779302
  0
LINE
  5
1DF7
330
1F
100
AcDbEntity
  8
AM_0
100
AcDbLine
 10
-0.2007843137536014
 20
-0.1632645771947097
 30
0.0
 11
-0.2007843137536014
 21
-7.498339528516062
 31
0.0
  0
LINE
  5
1DF8
330
1F
100
AcDbEntity
  8
AM_0
100
AcDbLine
 10
-0.0000000000000213
 20
-8.000000001120149
 30
0.0
 11
0.0000000000000213
 21
8.000000001119936
 31
0.0
  0
LINE
  5
1DF9
330
1F
100
AcDbEntity
  8
AM_0
100
AcDbLine
 10
-0.0000000000000213
 20
-0.0000000000000142
 30
0.0
 11
-1.376806722881759
 21
-1.119528529334566
 31
0.0
  0
LINE
  5
1DFA
330
1F
100
AcDbEntity
  8
AM_0
100
AcDbLine
 10
-32.9979806001211
 20
6.838700222781319
 30
0.0
 11
-33.02122350842977
 21
7.235748107984527
 31
0.0
  0
LINE
  5
1DFB
330
1F
100
AcDbEntity
  8
AM_0
100
AcDbLine
 10
-39.74006454628794
 20
-5.368215853531197
 30
0.0
 11
-36.86134703299407
 21
-5.237674022916252
 31
0.0
  0
ELLIPSE
  5
1DFC
330
1F
100
AcDbEntity
  8
AM_0
100
AcDbEllipse
 10
-30.01342783467755
 20
5.767522532154167
 30
0.0
 11
-0.0000000000001251
 21
13.31214210179789
 31
0.0
210
0.0
220
0.0
230
1.0
 40
0.9142857142857137
 41
2.192054873213167
 42
2.544019807642936
  0
LINE
  5
1DFD
330
1F
100
AcDbEntity
  8
AM_0
100
AcDbLine
 10
-33.91323547441414
 20
-1.242925188559652
 30
0.0
 11
-39.91031693856724
 21
-1.980929639677761
 31
0.0
  0
ELLIPSE
  5
1DFE
330
1F
100
AcDbEntity
  8
AM_0
100
AcDbEllipse
 10
-29.08123952852863
 20
10.33738646759482
 30
0.0
 11
-0.0000000000002216
 21
17.08883949126128
 31
0.0
210
0.0
220
0.0
230
1.0
 40
0.914285714285716
 41
2.375809577687864
 42
3.121051712547908
  0
LINE
  5
1DFF
330
1F
100
AcDbEntity
  8
AM_0
100
AcDbLine
 10
-14.84168253447281
 20
-6.191716880769867
 30
0.0
 11
-29.40215030393316
 21
-6.747848001189431
 31
0.0
  0
LINE
  5
1E00
330
1F
100
AcDbEntity
  8
AM_0
100
AcDbLine
 10
-14.84168253447281
 20
6.191716880769476
 30
0.0
 11
-29.40215030393282
 21
6.747848001189218
 31
0.0
  0
LINE
  5
1E01
330
1F
100
AcDbEntity
  8
AM_11
 48
0.35
100
AcDbLine
 10
-32.00000000000001
 20
-8.000000001120069
 30
0.0
 11
-31.99999999999998
 21
8.000000001119936
 31
0.0
  0
LINE
  5
1E02
330
1F
100
AcDbEntity
  8
AM_11
 48
0.35
100
AcDbLine
 10
0.0000000000000213
 20
8.000000001119936
 30
0.0
 11
-31.99999999999998
 21
8.000000001119936
 31
0.0
  0
LINE
  5
1E03
330
1F
100
AcDbEntity
  8
AM_11
 48
0.35
100
AcDbLine
 10
-32.00000000000001
 20
-8.000000001120069
 30
0.0
 11
-0.0000000000000213
 21
-8.000000001120149
 31
0.0
  0
DIMENSION
  5
1E04
330
1F
100
AcDbEntity
  8
AM_5
100
AcDbDimension
  2
*D7
 10
-0.0000000000000289
 20
-15.00000000112124
 30
0.0
 11
-16.00000000000002
 21
-13.45000000112124
 31
0.0
 70
    32
  1
<>
  3
AM_JIS
100
AcDbAlignedDimension
 13
-32.00000000000002
 23
-8.000000001120069
 33
0.0
 14
-0.0000000000000284
 24
-8.000000001120106
 34
0.0
100
AcDbRotatedDimension
1001
GENIUS_GENDTOL_13
1000

1000
h7
1000

1040
0.0
  0
SPLINE
  5
1E11
330
1F
100
AcDbEntity
  8
AM_0
100
AcDbSpline
210
0.0
220
0.0
230
1.0
 70
     8
 71
     3
 72
     9
 73
     5
 74
     0
 42
0.0000000001
 43
0.0000000001
 40
0.0
 40
0.0
 40
0.0
 40
0.0
 40
1.586475605234594
 40
2.671910672027662
 40
2.671910672027662
 40
2.671910672027662
 40
2.671910672027662
 10
-34.29633344746147
 20
-7.324888377115904
 30
0.0
 10
-34.77117327828852
 20
-7.428275726018405
 30
0.0
 10
-35.57088908060181
 20
-7.602398643492698
 30
0.0
 10
-36.34380740040745
 20
-7.885139542123397
 30
0.0
 10
-36.65779718190234
 20
-8.000000001121243
 30
0.0
  0
SPLINE
  5
1E12
330
1F
100
AcDbEntity
  8
AM_0
100
AcDbSpline
210
0.0
220
0.0
230
1.0
 70
     8
 71
     3
 72
     9
 73
     5
 74
     0
 42
0.0000000001
 43
0.0000000001
 40
0.0
 40
0.0
 40
0.0
 40
0.0
 40
0.8496115275563473
 40
2.965257553451548
 40
2.965257553451548
 40
2.965257553451548
 40
2.965257553451548
 10
-36.86134703299382
 20
-5.237674022916344
 30
0.0
 10
-36.60206443553033
 20
-5.250670154493988
 30
0.0
 10
-35.69713358693596
 20
-5.296028387140744
 30
0.0
 10
-34.8284658737288
 20
-5.593076631641437
 30
0.0
 10
-34.20869057187314
 20
-5.805014018748188
 30
0.0
  0
SPLINE
  5
1E13
330
1F
100
AcDbEntity
  8
AM_0
100
AcDbSpline
210
0.0
220
0.0
230
1.0
 70
     8
 71
     3
 72
     8
 73
     4
 74
     0
 42
0.0000000001
 43
0.0000000001
 40
0.0
 40
0.0
 40
0.0
 40
0.0
 40
2.238610194515266
 40
2.238610194515266
 40
2.238610194515266
 40
2.238610194515266
 10
-16.61992306264336
 20
-6.25963605156604
 30
0.0
 10
-14.47955253089298
 20
-6.25963605156604
 30
0.0
 10
-12.37796482029689
 20
-5.958666481267862
 30
0.0
 10
-10.3031333784543
 20
-5.450058001010539
 30
0.0
  0
SPLINE
  5
1E14
330
1F
100
AcDbEntity
  8
AM_0
100
AcDbSpline
210
0.0
220
0.0
230
1.0
 70
     8
 71
     3
 72
     8
 73
     4
 74
     0
 42
0.0000000001
 43
0.0000000001
 40
0.0122628573963528
 40
0.0122628573963528
 40
0.0122628573963528
 40
0.0122628573963528
 40
1.748655602797241
 40
1.748655602797241
 40
1.748655602797241
 40
1.748655602797241
 10
-34.2963334474658
 20
-7.324888377115904
 30
0.0
 10
-32.63657637637044
 20
-7.321980059806286
 30
0.0
 10
-31.00762160040906
 20
-7.113338794623921
 30
0.0
 10
-29.40215030393316
 20
-6.747848001189517
 30
0.0
  0
SPLINE
  5
1E15
330
1F
100
AcDbEntity
  8
AM_0
100
AcDbSpline
210
0.0
220
0.0
230
1.0
 70
     8
 71
     3
 72
     9
 73
     5
 74
     0
 42
0.0000000001
 43
0.0000000001
 40
0.0
 40
0.0
 40
0.0
 40
0.0
 40
1.348901739842804
 40
2.415354518825942
 40
2.415354518825942
 40
2.415354518825942
 40
2.415354518825942
 10
-34.50049983561024
 20
7.492032074374385
 30
0.0
 10
-34.90697607260928
 20
7.562323524148631
 30
0.0
 10
-35.63481575642894
 20
7.688187970632952
 30
0.0
 10
-36.34446525663007
 20
7.904494196808919
 30
0.0
 10
-36.65779718190013
 20
8.000000001119936
 30
0.0
  0
SPLINE
  5
1E16
330
1F
100
AcDbEntity
  8
AM_0
100
AcDbSpline
210
0.0
220
0.0
230
1.0
 70
     8
 71
     3
 72
     8
 73
     4
 74
     0
 42
0.0000000001
 43
0.0000000001
 40
3.269815770496093
 40
3.269815770496093
 40
3.269815770496093
 40
3.269815770496093
 40
14.49327715076166
 40
14.49327715076166
 40
14.49327715076166
 40
14.49327715076166
 10
-35.10857142873875
 20
7.435139755428089
 30
0.0
 10
-29.83755166632042
 20
6.195126893711112
 30
0.0
 10
-24.86876091807134
 20
3.097563446855552
 30
0.0
 10
-19.89997016982228
 20
-0.0000000000001066
 30
0.0
  0
SPLINE
  5
1E17
330
1F
100
AcDbEntity
  8
AM_0
100
AcDbSpline
210
0.0
220
0.0
230
1.0
 70
     8
 71
     3
 72
     8
 73
     4
 74
     0
 42
0.0000000001
 43
0.0000000001
 40
0.3443266157452782
 40
0.3443266157452782
 40
0.3443266157452782
 40
0.3443266157452782
 40
7.320123087841765
 40
7.320123087841765
 40
7.320123087841765
 40
7.320123087841765
 10
-33.34743736750215
 20
7.300989615126844
 30
0.0
 10
-26.72577184007272
 20
6.980366977900921
 30
0.0
 10
-20.57865231905218
 20
3.490183488950314
 30
0.0
 10
-14.43153279803164
 20
-0.0000000000001066
 30
0.0
  0
SPLINE
  5
1E18
330
1F
100
AcDbEntity
  8
AM_0
100
AcDbSpline
210
0.0
220
0.0
230
1.0
 70
     8
 71
     3
 72
     8
 73
     4
 74
     0
 42
0.0000000001
 43
0.0000000001
 40
0.9774076760691542
 40
0.9774076760691542
 40
0.9774076760691542
 40
0.9774076760691542
 40
7.357693791159725
 40
7.357693791159725
 40
7.357693791159725
 40
7.357693791159725
 10
-34.50049983646524
 20
7.49203207449262
 30
0.0
 10
-28.52973835084389
 20
6.665401402122448
 30
0.0
 10
-22.95167113306685
 20
3.332700701061177
 30
0.0
 10
-17.37360391528979
 20
-0.0000000000001066
 30
0.0
  0
SPLINE
  5
1E19
330
1F
100
AcDbEntity
  8
AM_0
100
AcDbSpline
210
0.0
220
0.0
230
1.0
 70
     8
 71
     3
 72
     8
 73
     4
 74
     0
 42
0.0000000001
 43
0.0000000001
 40
0.0
 40
0.0
 40
0.0
 40
0.0
 40
11.86206080997351
 40
11.86206080997351
 40
11.86206080997351
 40
11.86206080997351
 10
-16.61992306264336
 20
-6.25963605156604
 30
0.0
 10
-22.40408985760189
 20
-6.25963605156604
 30
0.0
 10
-27.90502415150074
 20
-4.061643187670064
 30
0.0
 10
-33.91323547441414
 20
-1.24292518855956
 30
0.0
  0
SPLINE
  5
1E1A
330
1F
100
AcDbEntity
  8
AM_0
100
AcDbSpline
210
0.0
220
0.0
230
1.0
 70
     8
 71
     3
 72
     8
 73
     4
 74
     0
 42
0.0000000001
 43
0.0000000001
 40
0.0
 40
0.0
 40
0.0
 40
0.0
 40
6.017634787883127
 40
6.017634787883127
 40
6.017634787883127
 40
6.017634787883127
 10
-4.748878666382864
 20
3.636938200267458
 30
0.0
 10
-6.582371350264587
 20
3.681526762360441
 30
0.0
 10
-3.157711214685214
 20
-0.4168880721790984
 30
0.0
 10
-1.466351545381073
 20
-1.192340480188626
 30
0.0
  0
SPLINE
  5
1E1B
330
1F
100
AcDbEntity
  8
AM_0
100
AcDbSpline
210
0.0
220
0.0
230
1.0
 70
     8
 71
     3
 72
     8
 73
     4
 74
     0
 42
0.0000000001
 43
0.0000000001
 40
0.0
 40
0.0
 40
0.0
 40
0.0
 40
4.449830927125231
 40
4.449830927125231
 40
4.449830927125231
 40
4.449830927125231
 10
-3.37259460930398
 20
2.582908309581206
 30
0.0
 10
-2.032162243872221
 20
2.808002812375789
 30
0.0
 10
-0.6685640303827683
 20
3.781167207608568
 30
0.0
 10
-0.0000000000000284
 20
5.071669380529321
 30
0.0
  0
SPLINE
  5
1E1C
330
1F
100
AcDbEntity
  8
AM_0
100
AcDbSpline
210
0.0
220
0.0
230
1.0
 70
     8
 71
     3
 72
     8
 73
     4
 74
     0
 42
0.0000000001
 43
0.0000000001
 40
0.0
 40
0.0
 40
0.0
 40
0.0
 40
4.256459477032852
 40
4.256459477032852
 40
4.256459477032852
 40
4.256459477032852
 10
-16.61992306264336
 20
6.259636051565927
 30
0.0
 10
-12.55025499066223
 20
6.259636051565927
 30
0.0
 10
-8.620797067206943
 20
5.171551510587498
 30
0.0
 10
-4.748878666382864
 20
3.636938200267543
 30
0.0
  0
SPLINE
  5
1E1D
330
1F
100
AcDbEntity
  8
AM_0
100
AcDbSpline
210
0.0
220
0.0
230
1.0
 70
     8
 71
     3
 72
     8
 73
     4
 74
     0
 42
0.0000000001
 43
0.0000000001
 40
2.181517009851762
 40
2.181517009851762
 40
2.181517009851762
 40
2.181517009851762
 40
7.320123087841765
 40
7.320123087841765
 40
7.320123087841765
 40
7.320123087841765
 10
-0.6573234641409229
 20
-6.44602623676193
 30
0.0
 10
-5.375183215815532
 20
-5.141972866141095
 30
0.0
 10
-9.903358006923411
 20
-2.570986433070551
 30
0.0
 10
-14.43153279803147
 20
-0.0000000000000071
 30
0.0
  0
SPLINE
  5
1E1E
330
1F
100
AcDbEntity
  8
AM_0
100
AcDbSpline
210
0.0
220
0.0
230
1.0
 70
     8
 71
     3
 72
     8
 73
     4
 74
     0
 42
0.0000000001
 43
0.0000000001
 40
0.9753439196676739
 40
0.9753439196676739
 40
0.9753439196676739
 40
0.9753439196676739
 40
7.357693791159725
 40
7.357693791159725
 40
7.357693791159725
 40
7.357693791159725
 10
-0.2409139940417191
 20
-7.492833429430923
 30
0.0
 10
-6.213860935629703
 20
-6.667557381425758
 30
0.0
 10
-11.79373242545958
 20
-3.33377869071284
 30
0.0
 10
-17.37360391528979
 20
-0.0000000000000071
 30
0.0
  0
SPLINE
  5
1E1F
330
1F
100
AcDbEntity
  8
AM_0
100
AcDbSpline
210
0.0
220
0.0
230
1.0
 70
     8
 71
     3
 72
     8
 73
     4
 74
     0
 42
0.0000000001
 43
0.0000000001
 40
0.0
 40
0.0
 40
0.0
 40
0.0
 40
23.18924344121874
 40
23.18924344121874
 40
23.18924344121874
 40
23.18924344121874
 10
-0.0000000000000284
 20
-8.000000001120064
 30
0.0
 10
-7.067198001133355
 20
-8.000000001120064
 30
0.0
 10
-13.4835840854779
 20
-4.000000000560035
 30
0.0
 10
-19.89997016982243
 20
-0.0000000000000071
 30
0.0
  0
SPLINE
  5
1E20
330
1F
100
AcDbEntity
  8
AM_0
100
AcDbSpline
210
0.0
220
0.0
230
1.0
 70
     8
 71
     3
 72
     8
 73
     4
 74
     0
 42
0.0000000001
 43
0.0000000001
 40
0.0
 40
0.0
 40
0.0
 40
0.0
 40
3.736652249739376
 40
3.736652249739376
 40
3.736652249739376
 40
3.736652249739376
 10
0.0000000000000284
 20
8.000000001120035
 30
0.0
 10
-3.572672179522733
 20
8.000000001120035
 30
0.0
 10
-6.979023272057048
 20
6.977762499186958
 30
0.0
 10
-10.30313337840907
 20
5.450058000892646
 30
0.0
  0
SPLINE
  5
1E21
330
1F
100
AcDbEntity
  8
AM_0
100
AcDbSpline
210
0.0
220
0.0
230
1.0
 70
     8
 71
     3
 72
     9
 73
     5
 74
     0
 42
0.0000000001
 43
0.0000000001
 40
0.0
 40
0.0
 40
0.0
 40
0.0
 40
2.086465036820749
 40
4.804193491043347
 40
4.804193491043347
 40
4.804193491043347
 40
4.804193491043347
 10
-35.95137788033298
 20
-7.749763157991331
 30
0.0
 10
-36.54934806096437
 20
-7.502199448091253
 30
0.0
 10
-37.92620528067828
 20
-6.932171222009493
 30
0.0
 10
-39.08470319396692
 20
-5.933284999020379
 30
0.0
 10
-39.74006454628794
 20
-5.368215853531204
 30
0.0
  0
SPLINE
  5
1E22
330
1F
100
AcDbEntity
  8
AM_0
100
AcDbSpline
210
0.0
220
0.0
230
1.0
 70
     8
 71
     3
 72
     8
 73
     4
 74
     0
 42
0.0000000001
 43
0.0000000001
 40
0.0
 40
0.0
 40
0.0
 40
0.0
 40
6.267347652820654
 40
6.267347652820654
 40
6.267347652820654
 40
6.267347652820654
 10
-34.2963334474658
 20
-7.324888377116003
 30
0.0
 10
-36.20638225594447
 20
-7.324888377116003
 30
0.0
 10
-37.9732234011162
 20
-6.346552115323603
 30
0.0
 10
-39.74006454628794
 20
-5.368215853531204
 30
0.0
  0
SPLINE
  5
1E23
330
1F
100
AcDbEntity
  8
AM_0
100
AcDbSpline
210
0.0
220
0.0
230
1.0
 70
     8
 71
     3
 72
    11
 73
     7
 74
     0
 42
0.0000000001
 43
0.0000000001
 40
0.0
 40
0.0
 40
0.0
 40
0.0
 40
2.360779349017844
 40
5.314335699265344
 40
10.00885881959193
 40
15.12194030533922
 40
15.12194030533922
 40
15.12194030533922
 40
15.12194030533922
 10
-35.10857142857253
 20
7.435139755409075
 30
0.0
 10
-35.81409554653081
 20
7.516954490687197
 30
0.0
 10
-37.40229649733896
 20
7.70112713206317
 30
0.0
 10
-40.79228477554018
 20
5.882192888236566
 30
0.0
 10
-38.25275389745373
 20
0.7432434604880101
 30
0.0
 10
-35.63527860405427
 20
-0.5912110560645445
 30
0.0
 10
-34.27068806440372
 20
-1.286913519225727
 30
0.0
  0
DIMENSION
  5
1ED4
330
1F
100
AcDbEntity
  8
AM_5
100
AcDbDimension
  2
*D8
 10
-95.40000000000004
 20
8.000000001120037
 30
0.0
 11
-96.95000000000003
 21
-0.0000000000006104
 31
0.0
 70
    32
  1
%%c<>
  3
AM_JIS
100
AcDbAlignedDimension
 13
-88.40000000000003
 23
-8.000000001121229
 33
0.0
 14
-88.40000000000003
 24
8.000000001120035
 34
0.0
 50
270.0
100
AcDbRotatedDimension
1001
GENIUS_GENDTOL_13
1000

1000
h7
1000

1040
0.0
  0
VIEWPORT
  5
110
330
101
100
AcDbEntity
 67
     1
  8
0
100
AcDbViewport
 10
420.5
 20
297.0
 30
0.0
 40
948.9782706766916
 41
628.452
 68
     1
 69
     1
1001
ACAD
1000
MVIEW
1002
{
1070
    16
1010
0.0
1020
0.0
1030
0.0
1010
0.0
1020
0.0
1030
1.0
1040
0.0
1040
628.452
1040
420.5
1040
297.0
1040
50.0
1040
0.0
1040
0.0
1070
     0
1070
   100
1070
     1
1070
     1
1070
     0
1070
     0
1070
     0
1070
     0
1040
0.0
1040
0.0
1040
0.0
1040
10.0
1040
10.0
1040
10.0
1040
10.0
1070
     0
1002
{
1002
}
1002
}
  0
ENDSEC
  0
SECTION
  2
OBJECTS
  0
DICTIONARY
  5
C
330
0
100
AcDbDictionary
  3
ACAD_GROUP
350
D
  3
ACAD_LAYOUT
350
1A
  3
ACAD_MLINESTYLE
350
17
  3
ACAD_PLOTSETTINGS
350
19
  3
ACAD_PLOTSTYLENAME
350
E
  3
ACDBVARIABLEDICTIONARY
350
34
  3
ACMDICTIONARY
350
43
  3
AMG
350
2B
  3
AMGSNAPSETTINGS
350
6E
  3
DWGPROPS
350
1F9A
  3
ACDBHEADERROUNDTRIPXREC
350
1FA6
  0
DICTIONARY
  5
74
330
1F
100
AcDbDictionary
280
     1
  3
ACAD_INDEX
360
1F9C
  3
ACAD_LAYOUTSELFREF
360
1FC9
  0
DICTIONARY
  5
1FCE
330
101
100
AcDbDictionary
280
     1
  3
ACAD_LAYOUTSELFREF
360
1FCF
  0
DICTIONARY
  5
D
102
{ACAD_REACTORS
330
C
102
}
330
C
100
AcDbDictionary
  0
DICTIONARY
  5
1A
102
{ACAD_REACTORS
330
C
102
}
330
C
100
AcDbDictionary
  0
DICTIONARY
  5
17
102
{ACAD_REACTORS
330
C
102
}
330
C
100
AcDbDictionary
  3
STANDARD
350
18
  0
DICTIONARY
  5
19
102
{ACAD_REACTORS
330
C
102
}
330
C
100
AcDbDictionary
  0
ACDBDICTIONARYWDFLT
  5
E
102
{ACAD_REACTORS
330
C
102
}
330
C
100
AcDbDictionary
281
     1
  3
Normal
350
F
100
AcDbDictionaryWithDefault
340
F
  0
DICTIONARY
  5
34
102
{ACAD_REACTORS
330
C
102
}
330
C
100
AcDbDictionary
  3
INDEXCTL
350
35
  3
SORTENTS
350
B5E
  0
DICTIONARY
  5
43
102
{ACAD_REACTORS
330
C
102
}
330
C
100
AcDbDictionary
  3
ACMSTDDICTIONARY
350
260
  0
DICTIONARY
  5
2B
102
{ACAD_REACTORS
330
C
102
}
330
C
100
AcDbDictionary
  3
ACMGSETTINGS
350
2C
  0
DICTIONARY
  5
6E
102
{ACAD_REACTORS
330
C
102
}
330
C
100
AcDbDictionary
  0
XRECORD
  5
1F9A
102
{ACAD_REACTORS
330
C
102
}
330
C
100
AcDbXrecord
  1
DWGPROPS COOKIE
  2

  3

  4

  6

  7

  8

  9

300
AmdtFileType=82
301
=
302
=
303
=
304
=
305
=
306
=
307
=
308
=
309
=
 40
0.0742715393518519
 41
2452802.716478761
 42
2452900.388899004
  1

 90
        1
  0
DICTIONARY
  5
1FA6
102
{ACAD_REACTORS
330
C
102
}
330
C
100
AcDbDictionary
  3
TSTACKALIGN
350
1FA7
  3
TSTACKSIZE
350
1FA8
  3
HYPERLINKBASE
350
1FA9
  3
STYLESHEET
350
1FAA
  3
LAYOUTDICT
350
1FAB
  3
PLOTSETDICT
350
1FAC
  3
PLOTSTYLNAMDICT
350
1FAD
  3
LWETCUNION
350
1FAE
  3
INSUNITS
350
1FAF
  3
CEPSNTYPE
350
1FB0
  3
FINGERPRINTGUID
350
1FB1
  3
VERSIONGUID
350
1FB2
  3
PSVPSCALE
350
1FB3
  3
DIMSTYLEDATA
350
1FB4
  3
PUCSORTHOREF
350
1FB5
  3
PUCSORTHOVIEW
350
1FB6
  3
PUCSBASE
350
1FB7
  3
PUCSORGTOP
350
1FB8
  3
PUCSORGBOTTOM
350
1FB9
  3
PUCSORGLEFT
350
1FBA
  3
PUCSORGRIGHT
350
1FBB
  3
PUCSORGFRONT
350
1FBC
  3
PUCSORGBACK
350
1FBD
  3
UCSORTHOREF
350
1FBE
  3
UCSORTHOVIEW
350
1FBF
  3
UCSBASE
350
1FC0
  3
UCSORGTOP
350
1FC1
  3
UCSORGBOTTOM
350
1FC2
  3
UCSORGLEFT
350
1FC3
  3
UCSORGRIGHT
350
1FC4
  3
UCSORGFRONT
350
1FC5
  3
UCSORGBACK
350
1FC6
  0
DICTIONARY
  5
1F9C
102
{ACAD_REACTORS
330
74
102
}
330
74
100
AcDbDictionary
  3
*A1
350
1F9D
  0
XRECORD
  5
1FC9
102
{ACAD_REACTORS
330
74
102
}
330
74
100
AcDbXrecord
340
1F
  0
XRECORD
  5
1FCF
102
{ACAD_REACTORS
330
1FCE
102
}
330
1FCE
100
AcDbXrecord
340
101
  0
MLINESTYLE
  5
18
102
{ACAD_REACTORS
330
17
102
}
330
17
100
AcDbMlineStyle
  2
STANDARD
 70
     0
  3

 62
   256
 51
90.0
 52
90.0
 71
     2
 49
0.5
 62
   256
  6
BYLAYER
 49
-0.5
 62
   256
  6
BYLAYER
  0
ACDBPLACEHOLDER
  5
F
102
{ACAD_REACTORS
330
E
102
}
330
E
100
AcDbPlaceHolder
280
     0
  0
DICTIONARYVAR
  5
35
102
{ACAD_REACTORS
330
34
102
}
330
34
100
DictionaryVariables
280
     0
  1
1
  0
DICTIONARYVAR
  5
B5E
102
{ACAD_REACTORS
330
34
102
}
330
34
100
DictionaryVariables
280
     0
  1
96
  0
DICTIONARY
  5
260
102
{ACAD_REACTORS
330
43
102
}
330
43
100
AcDbDictionary
  0
DICTIONARY
  5
2C
102
{ACAD_REACTORS
330
2B
102
}
330
2B
100
AcDbDictionary
  3
DWGSETTINGS
350
2D
  0
XRECORD
  5
1FA7
102
{ACAD_REACTORS
330
1FA6
102
}
330
1FA6
100
AcDbXrecord
 90
        1
  0
XRECORD
  5
1FA8
102
{ACAD_REACTORS
330
1FA6
102
}
330
1FA6
100
AcDbXrecord
 90
       70
  0
XRECORD
  5
1FA9
102
{ACAD_REACTORS
330
1FA6
102
}
330
1FA6
100
AcDbXrecord
  1

  0
XRECORD
  5
1FAA
102
{ACAD_REACTORS
330
1FA6
102
}
330
1FA6
100
AcDbXrecord
  1
ASAMI.ctb
  0
XRECORD
  5
1FAB
102
{ACAD_REACTORS
330
1FA6
102
}
330
1FA6
100
AcDbXrecord
340
1A
  0
XRECORD
  5
1FAC
102
{ACAD_REACTORS
330
1FA6
102
}
330
1FA6
100
AcDbXrecord
340
19
  0
XRECORD
  5
1FAD
102
{ACAD_REACTORS
330
1FA6
102
}
330
1FA6
100
AcDbXrecord
340
E
  0
XRECORD
  5
1FAE
102
{ACAD_REACTORS
330
1FA6
102
}
330
1FA6
100
AcDbXrecord
 90
    10781
  0
XRECORD
  5
1FAF
102
{ACAD_REACTORS
330
1FA6
102
}
330
1FA6
100
AcDbXrecord
 90
        4
  0
XRECORD
  5
1FB0
102
{ACAD_REACTORS
330
1FA6
102
}
330
1FA6
100
AcDbXrecord
 90
        0
  0
XRECORD
  5
1FB1
102
{ACAD_REACTORS
330
1FA6
102
}
330
1FA6
100
AcDbXrecord
  1
{AFB28963-8C59-40AE-9337-C84526B81ACE}
  0
XRECORD
  5
1FB2
102
{ACAD_REACTORS
330
1FA6
102
}
330
1FA6
100
AcDbXrecord
  1
{722ED35D-D5CC-42DC-ADD7-BF25BBC7F239}
  0
XRECORD
  5
1FB3
102
{ACAD_REACTORS
330
1FA6
102
}
330
1FA6
100
AcDbXrecord
 40
0.0
  0
XRECORD
  5
1FB4
102
{ACAD_REACTORS
330
1FA6
102
}
330
1FA6
100
AcDbXrecord
1000
DSTYLE
1002
{
1070
    79
 70
     2
1070
   341
340
59
1070
   342
340
59
1070
   371
 70
    -1
1070
   372
 70
    -1
1002
}
  0
XRECORD
  5
1FB5
102
{ACAD_REACTORS
330
1FA6
102
}
330
1FA6
100
AcDbXrecord
340
0
  0
XRECORD
  5
1FB6
102
{ACAD_REACTORS
330
1FA6
102
}
330
1FA6
100
AcDbXrecord
 70
     0
  0
XRECORD
  5
1FB7
102
{ACAD_REACTORS
330
1FA6
102
}
330
1FA6
100
AcDbXrecord
340
0
  0
XRECORD
  5
1FB8
102
{ACAD_REACTORS
330
1FA6
102
}
330
1FA6
100
AcDbXrecord
 10
0.0
 20
0.0
 30
0.0
  0
XRECORD
  5
1FB9
102
{ACAD_REACTORS
330
1FA6
102
}
330
1FA6
100
AcDbXrecord
 10
0.0
 20
0.0
 30
0.0
  0
XRECORD
  5
1FBA
102
{ACAD_REACTORS
330
1FA6
102
}
330
1FA6
100
AcDbXrecord
 10
0.0
 20
0.0
 30
0.0
  0
XRECORD
  5
1FBB
102
{ACAD_REACTORS
330
1FA6
102
}
330
1FA6
100
AcDbXrecord
 10
0.0
 20
0.0
 30
0.0
  0
XRECORD
  5
1FBC
102
{ACAD_REACTORS
330
1FA6
102
}
330
1FA6
100
AcDbXrecord
 10
0.0
 20
0.0
 30
0.0
  0
XRECORD
  5
1FBD
102
{ACAD_REACTORS
330
1FA6
102
}
330
1FA6
100
AcDbXrecord
 10
0.0
 20
0.0
 30
0.0
  0
XRECORD
  5
1FBE
102
{ACAD_REACTORS
330
1FA6
102
}
330
1FA6
100
AcDbXrecord
340
0
  0
XRECORD
  5
1FBF
102
{ACAD_REACTORS
330
1FA6
102
}
330
1FA6
100
AcDbXrecord
 70
     0
  0
XRECORD
  5
1FC0
102
{ACAD_REACTORS
330
1FA6
102
}
330
1FA6
100
AcDbXrecord
340
0
  0
XRECORD
  5
1FC1
102
{ACAD_REACTORS
330
1FA6
102
}
330
1FA6
100
AcDbXrecord
 10
0.0
 20
0.0
 30
0.0
  0
XRECORD
  5
1FC2
102
{ACAD_REACTORS
330
1FA6
102
}
330
1FA6
100
AcDbXrecord
 10
0.0
 20
0.0
 30
0.0
  0
XRECORD
  5
1FC3
102
{ACAD_REACTORS
330
1FA6
102
}
330
1FA6
100
AcDbXrecord
 10
0.0
 20
0.0
 30
0.0
  0
XRECORD
  5
1FC4
102
{ACAD_REACTORS
330
1FA6
102
}
330
1FA6
100
AcDbXrecord
 10
0.0
 20
0.0
 30
0.0
  0
XRECORD
  5
1FC5
102
{ACAD_REACTORS
330
1FA6
102
}
330
1FA6
100
AcDbXrecord
 10
0.0
 20
0.0
 30
0.0
  0
XRECORD
  5
1FC6
102
{ACAD_REACTORS
330
1FA6
102
}
330
1FA6
100
AcDbXrecord
 10
0.0
 20
0.0
 30
0.0
  0
LAYER_INDEX
  5
1F9D
102
{ACAD_REACTORS
330
1F9C
102
}
330
1F9C
100
AcDbIndex
 40
2453152.361228645
100
AcDbLayerIndex
  8
0
360
1F9E
 90
        0
  8
AM_0
360
1F9F
 90
       38
  8
AM_5
360
1FA0
 90
        4
  8
AM_11
360
1FA1
 90
        3
  8
AM_7
360
1FA2
 90
        1
  8
AM_6
360
1FA3
 90
        1
  8
Defpoints
360
1FA4
 90
        0
  0
XRECORD
  5
2D
102
{ACAD_REACTORS
330
2C
102
}
330
2C
100
AcDbXrecord
  1
VERSION
140
15.0
  1
PRODUCT
  2
AutoCAD Mechanical 2000
  0
IDBUFFER
  5
1F9E
330
0
100
AcDbIdBuffer
  0
IDBUFFER
  5
1F9F
330
0
100
AcDbIdBuffer
330
1DFE
330
1DFF
330
1E00
330
1E11
330
1E12
330
1E13
330
1E14
330
1E15
330
1E16
330
1E17
330
1E18
330
1E19
330
1E1A
330
1E1B
330
1E1C
330
1E1D
330
1E1E
330
1E1F
330
1E20
330
1E21
330
1E22
330
1E23
330
1D40
330
1D41
330
1D46
330
1D47
330
1D48
330
1D49
330
1DF4
330
1DF5
330
1DF6
330
1DF7
330
1DF8
330
1DF9
330
1DFA
330
1DFB
330
1DFC
330
1DFD
  0
IDBUFFER
  5
1FA0
330
0
100
AcDbIdBuffer
330
1D3B
330
1D5A
330
1E04
330
1ED4
  0
IDBUFFER
  5
1FA1
330
0
100
AcDbIdBuffer
330
1E01
330
1E02
330
1E03
  0
IDBUFFER
  5
1FA2
330
0
100
AcDbIdBuffer
330
1D42
  0
IDBUFFER
  5
1FA3
330
0
100
AcDbIdBuffer
330
E66
  0
IDBUFFER
  5
1FA4
330
0
100
AcDbIdBuffer
  0
ENDSEC
  0
EOF
