  0
SECTION
  2
HEADER
  9
$ACADVER
  1
AC1014
  9
$ACADMAINTVER
 70
     9
  9
$DWGCODEPAGE
  3
ANSI_932
  9
$INSBASE
 10
0.0
 20
0.0
 30
0.0
  9
$EXTMIN
 10
-58.75
 20
-27.25000000042051
 30
-0.00000001
  9
$EXTMAX
 10
7.499999999999664
 20
3.643159443750558
 30
0.00000001
  9
$LIMMIN
 10
-65.92114411959713
 20
-37.28172314508673
  9
$LIMMAX
 10
19.17381635295953
 20
8.091970902274994
  9
$ORTHOMODE
 70
     0
  9
$REGENMODE
 70
     1
  9
$FILLMODE
 70
     1
  9
$QTEXTMODE
 70
     0
  9
$MIRRTEXT
 70
     0
  9
$DRAGMODE
 70
     2
  9
$LTSCALE
 40
1.0
  9
$OSMODE
 70
    55
  9
$ATTMODE
 70
     1
  9
$TEXTSIZE
 40
2.5
  9
$TRACEWID
 40
1.0
  9
$TEXTSTYLE
  7
STANDARD
  9
$CLAYER
  8
AM_0
  9
$CELTYPE
  6
BYLAYER
  9
$CECOLOR
 62
   256
  9
$CELTSCALE
 40
1.0
  9
$DELOBJ
 70
     1
  9
$DISPSILH
 70
     0
  9
$DIMSCALE
 40
0.5
  9
$DIMASZ
 40
2.5
  9
$DIMEXO
 40
1.0
  9
$DIMDLI
 40
12.0
  9
$DIMRND
 40
0.0
  9
$DIMDLE
 40
0.0
  9
$DIMEXE
 40
1.0
  9
$DIMTP
 40
0.1
  9
$DIMTM
 40
0.1
  9
$DIMTXT
 40
3.2
  9
$DIMCEN
 40
0.0
  9
$DIMTSZ
 40
0.0
  9
$DIMTOL
 70
     0
  9
$DIMLIM
 70
     0
  9
$DIMTIH
 70
     0
  9
$DIMTOH
 70
     0
  9
$DIMSE1
 70
     0
  9
$DIMSE2
 70
     0
  9
$DIMTAD
 70
     3
  9
$DIMZIN
 70
     8
  9
$DIMBLK
  1
OPEN30
  9
$DIMASO
 70
     1
  9
$DIMSHO
 70
     1
  9
$DIMPOST
  1

  9
$DIMAPOST
  1
"
  9
$DIMALT
 70
     0
  9
$DIMALTD
 70
     2
  9
$DIMALTF
 40
0.0393701
  9
$DIMLFAC
 40
1.0
  9
$DIMTOFL
 70
     1
  9
$DIMTVP
 40
0.0
  9
$DIMTIX
 70
     0
  9
$DIMSOXD
 70
     0
  9
$DIMSAH
 70
     0
  9
$DIMBLK1
  1

  9
$DIMBLK2
  1

  9
$DIMSTYLE
  2
AM_JIS
  9
$DIMCLRD
 70
   256
  9
$DIMCLRE
 70
   256
  9
$DIMCLRT
 70
     2
  9
$DIMTFAC
 40
0.71
  9
$DIMGAP
 40
1.5
  9
$DIMJUST
 70
     0
  9
$DIMSD1
 70
     0
  9
$DIMSD2
 70
     0
  9
$DIMTOLJ
 70
     0
  9
$DIMTZIN
 70
     0
  9
$DIMALTZ
 70
     0
  9
$DIMALTTZ
 70
     0
  9
$DIMFIT
 70
     3
  9
$DIMUPT
 70
     0
  9
$DIMUNIT
 70
     2
  9
$DIMDEC
 70
     3
  9
$DIMTDEC
 70
     3
  9
$DIMALTU
 70
     2
  9
$DIMALTTD
 70
     2
  9
$DIMTXSTY
  7
ASAMI
  9
$DIMAUNIT
 70
     0
  9
$LUNITS
 70
     2
  9
$LUPREC
 70
     2
  9
$SKETCHINC
 40
1.0
  9
$FILLETRAD
 40
2.5
  9
$AUNITS
 70
     0
  9
$AUPREC
 70
     0
  9
$MENU
  1
.
  9
$ELEVATION
 40
0.0
  9
$PELEVATION
 40
0.0
  9
$THICKNESS
 40
0.0
  9
$LIMCHECK
 70
     0
  9
$BLIPMODE
 70
     0
  9
$CHAMFERA
 40
2.5
  9
$CHAMFERB
 40
2.5
  9
$CHAMFERC
 40
20.0
  9
$CHAMFERD
 40
0.0
  9
$SKPOLY
 70
     0
  9
$TDCREATE
 40
2452802.716478761
  9
$TDUPDATE
 40
2453152.360219688
  9
$TDINDWG
 40
0.0854385880
  9
$TDUSRTIMER
 40
0.0854385880
  9
$USRTIMER
 70
     1
  9
$ANGBASE
 50
0.0
  9
$ANGDIR
 70
     0
  9
$PDMODE
 70
     0
  9
$PDSIZE
 40
0.0
  9
$PLINEWID
 40
0.0
  9
$COORDS
 70
     1
  9
$SPLFRAME
 70
     0
  9
$SPLINETYPE
 70
     6
  9
$SPLINESEGS
 70
     8
  9
$ATTDIA
 70
     1
  9
$ATTREQ
 70
     1
  9
$HANDLING
 70
 12289
  9
$HANDSEED
  5
1E6A
  9
$SURFTAB1
 70
     6
  9
$SURFTAB2
 70
     6
  9
$SURFTYPE
 70
     6
  9
$SURFU
 70
     6
  9
$SURFV
 70
     6
  9
$UCSNAME
  2

  9
$UCSORG
 10
0.0
 20
0.0
 30
0.0
  9
$UCSXDIR
 10
1.0
 20
0.0
 30
0.0
  9
$UCSYDIR
 10
0.0
 20
1.0
 30
0.0
  9
$PUCSNAME
  2

  9
$PUCSORG
 10
0.0
 20
0.0
 30
0.0
  9
$PUCSXDIR
 10
1.0
 20
0.0
 30
0.0
  9
$PUCSYDIR
 10
0.0
 20
1.0
 30
0.0
  9
$USERI1
 70
     0
  9
$USERI2
 70
     0
  9
$USERI3
 70
     0
  9
$USERI4
 70
     0
  9
$USERI5
 70
     0
  9
$USERR1
 40
0.0
  9
$USERR2
 40
0.0
  9
$USERR3
 40
0.0
  9
$USERR4
 40
0.0
  9
$USERR5
 40
0.0
  9
$WORLDVIEW
 70
     1
  9
$SHADEDGE
 70
     3
  9
$SHADEDIF
 70
    70
  9
$TILEMODE
 70
     1
  9
$MAXACTVP
 70
    64
  9
$PINSBASE
 10
0.0
 20
0.0
 30
0.0
  9
$PLIMCHECK
 70
     0
  9
$PEXTMIN
 10
1.000000000000000E+20
 20
1.000000000000000E+20
 30
1.000000000000000E+20
  9
$PEXTMAX
 10
-1.000000000000000E+20
 20
-1.000000000000000E+20
 30
-1.000000000000000E+20
  9
$PLIMMIN
 10
0.0
 20
0.0
  9
$PLIMMAX
 10
841.0
 20
594.0
  9
$UNITMODE
 70
     0
  9
$VISRETAIN
 70
     1
  9
$PLINEGEN
 70
     0
  9
$PSLTSCALE
 70
     0
  9
$TREEDEPTH
 70
  3020
  9
$PICKSTYLE
 70
     0
  9
$CMLSTYLE
  2
STANDARD
  9
$CMLJUST
 70
     0
  9
$CMLSCALE
 40
20.0
  9
$PROXYGRAPHICS
 70
     1
  9
$MEASUREMENT
 70
     1
  0
ENDSEC
  0
SECTION
  2
CLASSES
  0
CLASS
  1
ACDBDICTIONARYWDFLT
  2
AcDbDictionaryWithDefault
  3
AutoCAD 2000
 90
        0
280
     0
281
     0
  0
CLASS
  1
ACDBPLACEHOLDER
  2
AcDbPlaceHolder
  3
AutoCAD 2000
 90
        0
280
     0
281
     0
  0
CLASS
  1
LAYOUT
  2
AcDbLayout
  3
AutoCAD 2000
 90
        0
280
     0
281
     0
  0
CLASS
  1
AMGSETTINGSOBJ
  2
AmgSettingsObj
  3
"AcadM|Product Description: AutoCAD Mechanical 2000|Company: Autodesk"
 90
        0
280
     0
281
     0
  0
CLASS
  1
ACME_DOCUMENT
  2
AcMeDbDoc
  3
AcMeServices
 90
        0
280
     0
281
     0
  0
CLASS
  1
ACMESCOPE
  2
AcMeScope
  3
AcMeServices
 90
        0
280
     0
281
     0
  0
CLASS
  1
ACMECOMMANDHISTORY
  2
AcMeCommandHistory
  3
AcMeServices
 90
        0
280
     0
281
     0
  0
CLASS
  1
DICTIONARYVAR
  2
AcDbDictionaryVar
  3
AutoCAD 2000
 90
        0
280
     0
281
     0
  0
CLASS
  1
ACIMSYSVARMAN
  2
AcImSysVarManager
  3
AcMeServices
 90
        0
280
     0
281
     0
  0
CLASS
  1
ACIMREALSYSVAR
  2
AcImRealSysVar
  3
AcMeServices
 90
        0
280
     0
281
     0
  0
CLASS
  1
ACIMINTSYSVAR
  2
AcImIntSysVar
  3
AcMeServices
 90
        0
280
     0
281
     0
  0
CLASS
  1
ACMEDRAWINGMAN
  2
AcMeDrawingMan
  3
AcMeServices
 90
        0
280
     0
281
     0
  0
CLASS
  1
ACMEVIEW
  2
AcMeView
  3
AcMeServices
 90
        0
280
     0
281
     0
  0
CLASS
  1
ACDBENTITYCACHE
  2
AcMeEntityCache
  3
AcMeServices
 90
        0
280
     0
281
     0
  0
CLASS
  1
GSMANAGER
  2
AcMeGSManager
  3
AcMeServices
 90
        0
280
     0
281
     0
  0
CLASS
  1
AmdtInternalReactor
  2
AmdtInternalReactor
  3
AcMeServices
 90
        0
280
     0
281
     0
  0
CLASS
  1
ACMESTATEMGR
  2
AcMeStateMgr
  3
AcMeServices
 90
        0
280
     0
281
     0
  0
CLASS
  1
ACME_DATABASE
  2
AcMeDbDatabase
  3
AcMeServices
 90
        0
280
     0
281
     0
  0
CLASS
  1
ACRFINSADJUSTERMGR
  2
AcRfInsAdjusterMgr
  3
AcMeServices
 90
        0
280
     0
281
     0
  0
CLASS
  1
ACMDATADICTIONARY
  2
AcmDataDictionary
  3
"AcmSymBB|Product Description: AutoCAD Mechanical 2000|Company: Autodesk"
 90
        0
280
     0
281
     0
  0
CLASS
  1
ACMDATAENTRYBLOCK
  2
AcmDataEntryBlock
  3
"AcmSymBB|Product Description: AutoCAD Mechanical 2000|Company: Autodesk"
 90
        0
280
     0
281
     0
  0
CLASS
  1
AMGOBJPROPCFG
  2
AmgObjPropCfg
  3
"AmgLay|Product Description: AutoCAD Mechanical 2000|Company: Autodesk"
 90
        1
280
     0
281
     0
  0
CLASS
  1
ACAMGFILTERDAT
  2
AcAmgFilterDat
  3
"AcadM|Product Description: AutoCAD Mechanical 2000|Company: Autodesk"
 90
        0
280
     0
281
     0
  0
CLASS
  1
LAYER_INDEX
  2
AcDbLayerIndex
  3
AutoCAD 2000
 90
        0
280
     0
281
     0
  0
CLASS
  1
IDBUFFER
  2
AcDbIdBuffer
  3
AutoCAD 2000
 90
        0
280
     0
281
     0
  0
CLASS
  1
ACIMSTRSYSVAR
  2
AcImStrSysVar
  3
AcMeServices
 90
        0
280
     0
281
     0
  0
CLASS
  1
ACMSTANDARDJIS
  2
AcmStandardJIS
  3
"AcmSymBB|Product Description: AutoCAD Mechanical 2000|Company: Autodesk"
 90
        0
280
     0
281
     0
  0
CLASS
  1
ACMSURFSTANDARDJIS
  2
AcmSurfTextStdJIS
  3
"AcmSymBB|Product Description: AutoCAD Mechanical 2000|Company: Autodesk"
 90
        0
280
     0
281
     0
  0
CLASS
  1
ACMFCFSTANDARDJIS
  2
AcmFCFStdJIS
  3
"AcmSymBB|Product Description: AutoCAD Mechanical 2000|Company: Autodesk"
 90
        0
280
     0
281
     0
  0
CLASS
  1
ACMWELDSTANDARDJIS
  2
AcmWeldingStdJIS
  3
"AcmSymBB|Product Description: AutoCAD Mechanical 2000|Company: Autodesk"
 90
        0
280
     0
281
     0
  0
CLASS
  1
ACMIDSTANDARDJIS
  2
AcmIdStdJIS
  3
"AcmSymBB|Product Description: AutoCAD Mechanical 2000|Company: Autodesk"
 90
        0
280
     0
281
     0
  0
CLASS
  1
ACMDATUMSTANDARDJIS
  2
AcmDatumStdJIS
  3
"AcmSymBB|Product Description: AutoCAD Mechanical 2000|Company: Autodesk"
 90
        0
280
     0
281
     0
  0
CLASS
  1
ACMBOMSTANDARDJIS
  2
AcmBOMStdJIS
  3
"AcmSymBB|Product Description: AutoCAD Mechanical 2000|Company: Autodesk"
 90
        0
280
     0
281
     0
  0
CLASS
  1
ACMSTANDARDANSI
  2
AcmStandardANSI
  3
"AcmSymBB|Product Description: AutoCAD Mechanical 2000|Company: Autodesk"
 90
        0
280
     0
281
     0
  0
CLASS
  1
ACMSURFSTANDARDANSI
  2
AcmSurfTextStdANSI
  3
"AcmSymBB|Product Description: AutoCAD Mechanical 2000|Company: Autodesk"
 90
        0
280
     0
281
     0
  0
CLASS
  1
ACMFCFSTANDARDANSI
  2
AcmFCFStdANSI
  3
"AcmSymBB|Product Description: AutoCAD Mechanical 2000|Company: Autodesk"
 90
        0
280
     0
281
     0
  0
CLASS
  1
ACMWELDSTANDARDANSI
  2
AcmWeldingStdANSI
  3
"AcmSymBB|Product Description: AutoCAD Mechanical 2000|Company: Autodesk"
 90
        0
280
     0
281
     0
  0
CLASS
  1
ACMIDSTANDARDANSI
  2
AcmIdStdANSI
  3
"AcmSymBB|Product Description: AutoCAD Mechanical 2000|Company: Autodesk"
 90
        0
280
     0
281
     0
  0
CLASS
  1
ACMDATUMSTANDARDANSI
  2
AcmDatumStdANSI
  3
"AcmSymBB|Product Description: AutoCAD Mechanical 2000|Company: Autodesk"
 90
        0
280
     0
281
     0
  0
CLASS
  1
ACMBOMSTANDARDANSI
  2
AcmBOMStdANSI
  3
"AcmSymBB|Product Description: AutoCAD Mechanical 2000|Company: Autodesk"
 90
        0
280
     0
281
     0
  0
CLASS
  1
ACMSTANDARDBSI
  2
AcmStandardBSI
  3
"AcmSymBB|Product Description: AutoCAD Mechanical 2000|Company: Autodesk"
 90
        0
280
     0
281
     0
  0
CLASS
  1
ACMSURFSTANDARDBSI
  2
AcmSurfTextStdBSI
  3
"AcmSymBB|Product Description: AutoCAD Mechanical 2000|Company: Autodesk"
 90
        0
280
     0
281
     0
  0
CLASS
  1
ACMFCFSTANDARDBSI
  2
AcmFCFStdBSI
  3
"AcmSymBB|Product Description: AutoCAD Mechanical 2000|Company: Autodesk"
 90
        0
280
     0
281
     0
  0
CLASS
  1
ACMWELDSTANDARDBSI
  2
AcmWeldingStdBSI
  3
"AcmSymBB|Product Description: AutoCAD Mechanical 2000|Company: Autodesk"
 90
        0
280
     0
281
     0
  0
CLASS
  1
ACMIDSTANDARDBSI
  2
AcmIdStdBSI
  3
"AcmSymBB|Product Description: AutoCAD Mechanical 2000|Company: Autodesk"
 90
        0
280
     0
281
     0
  0
CLASS
  1
ACMDATUMSTANDARDBSI
  2
AcmDatumStdBSI
  3
"AcmSymBB|Product Description: AutoCAD Mechanical 2000|Company: Autodesk"
 90
        0
280
     0
281
     0
  0
CLASS
  1
ACMBOMSTANDARDBSI
  2
AcmBOMStdBSI
  3
"AcmSymBB|Product Description: AutoCAD Mechanical 2000|Company: Autodesk"
 90
        0
280
     0
281
     0
  0
CLASS
  1
LONG_TRANSACTION
  2
AcDbLongTransaction
  3
AutoCAD 2000
 90
        0
280
     0
281
     0
  0
CLASS
  1
LWPOLYLINE
  2
AcDbPolyline
  3
AutoCAD 2000
 90
        0
280
     0
281
     1
  0
CLASS
  1
HATCH
  2
AcDbHatch
  3
AutoCAD 2000
 90
        0
280
     0
281
     1
  0
CLASS
  1
XRECORD
  2
AcDbXrecord
  3
AutoCAD 2000
 90
        0
280
     0
281
     0
  0
ENDSEC
  0
SECTION
  2
TABLES
  0
TABLE
  2
VPORT
  5
8
330
0
100
AcDbSymbolTable
 70
     3
  0
VPORT
  5
1E3F
330
8
100
AcDbSymbolTableRecord
100
AcDbViewportTableRecord
  2
*ACTIVE
 70
     0
 10
0.0
 20
0.0
 11
1.0
 21
1.0
 12
-16.34347883693342
 22
-4.867595864032761
 13
0.0
 23
0.0
 14
2.5
 24
2.5
 15
10.0
 25
10.0
 16
0.0
 26
0.0
 36
1.0
 17
0.0
 27
0.0
 37
0.0
 40
60.71544528262581
 41
1.56570841889117
 42
50.0
 43
0.0
 44
0.0
 50
0.0
 51
0.0
 71
     0
 72
   100
 73
     1
 74
     3
 75
     0
 76
     0
 77
     0
 78
     0
  0
ENDTAB
  0
TABLE
  2
LTYPE
  5
5
330
0
100
AcDbSymbolTable
 70
    10
  0
LTYPE
  5
14
330
5
100
AcDbSymbolTableRecord
100
AcDbLinetypeTableRecord
  2
BYBLOCK
 70
     0
  3

 72
    65
 73
     0
 40
0.0
  0
LTYPE
  5
15
330
5
100
AcDbSymbolTableRecord
100
AcDbLinetypeTableRecord
  2
BYLAYER
 70
     0
  3

 72
    65
 73
     0
 40
0.0
  0
LTYPE
  5
16
330
5
100
AcDbSymbolTableRecord
100
AcDbLinetypeTableRecord
  2
CONTINUOUS
 70
     0
  3
Solid line
 72
    65
 73
     0
 40
0.0
  0
LTYPE
  5
4B
330
5
100
AcDbSymbolTableRecord
100
AcDbLinetypeTableRecord
  2
AM_ISO02W050
 70
     0
  3
__ __ __ __ __ __ __ __ __ __ __ __ __ __ __
 72
    65
 73
     2
 40
7.5
 49
6.0
 74
     0
 49
-1.5
 74
     0
  0
LTYPE
  5
4C
330
5
100
AcDbSymbolTableRecord
100
AcDbLinetypeTableRecord
  2
AM_ISO08W050
 70
     0
  3
____ . ____ . ____ . ____ . ____ . ____ . ____
 72
    65
 73
     4
 40
18.0
 49
12.0
 74
     0
 49
-1.5
 74
     0
 49
3.0
 74
     0
 49
-1.5
 74
     0
  0
LTYPE
  5
4D
330
5
100
AcDbSymbolTableRecord
100
AcDbLinetypeTableRecord
  2
AM_ISO09W050
 70
     0
  3
_____ . . _____ . . _____ . . ____ .. ____
 72
    65
 73
     6
 40
22.5
 49
12.0
 74
     0
 49
-1.5
 74
     0
 49
3.0
 74
     0
 49
-1.5
 74
     0
 49
3.0
 74
     0
 49
-1.5
 74
     0
  0
LTYPE
  5
4E
330
5
100
AcDbSymbolTableRecord
100
AcDbLinetypeTableRecord
  2
AMCONSTR
 70
     0
  3
_______________________
 72
    65
 73
     2
 40
9999.0
 49
9999.0
 74
     0
 49
0.0
 74
     0
  0
LTYPE
  5
4F
330
5
100
AcDbSymbolTableRecord
100
AcDbLinetypeTableRecord
  2
AM_ISO02W050X2
 70
     0
  3
 _ _ _ _ _ _ _ _ _ _ _ _
 72
    65
 73
     2
 40
3.75
 49
3.0
 74
     0
 49
-0.75
 74
     0
  0
LTYPE
  5
50
330
5
100
AcDbSymbolTableRecord
100
AcDbLinetypeTableRecord
  2
AM_ISO08W050X2
 70
     0
  3
__ . __ . __ . __ . __ . __
 72
    65
 73
     4
 40
9.0
 49
6.0
 74
     0
 49
-0.75
 74
     0
 49
1.5
 74
     0
 49
-0.75
 74
     0
  0
LTYPE
  5
53
330
5
100
AcDbSymbolTableRecord
100
AcDbLinetypeTableRecord
  2
AMZIGZAG
 70
     0
  3
/\/-/\/-/\/-/\/-/\/-/\/
 72
    65
 73
     2
 40
11.00009999999999
 49
0.0001
 74
     4
 75
   135
340
52
 46
0.04
 50
0.0
 44
0.0
 45
0.0
 49
-11.0
 74
     0
  0
LTYPE
  5
166
330
5
100
AcDbSymbolTableRecord
100
AcDbLinetypeTableRecord
  2
ACJISTGL
 70
     0
  3
_ _ _ _ _
 72
    65
 73
     2
 40
3.0
 49
2.0
 74
     0
 49
-1.0
 74
     0
  0
LTYPE
  5
26A
330
5
100
AcDbSymbolTableRecord
100
AcDbLinetypeTableRecord
  2
ACJISTGB
 70
     0
  3
__ . . __ . .
 72
    65
 73
     6
 40
9.0
 49
4.0
 74
     0
 49
-1.0
 74
     0
 49
1.0
 74
     0
 49
-1.0
 74
     0
 49
1.0
 74
     0
 49
-1.0
 74
     0
  0
ENDTAB
  0
TABLE
  2
LAYER
  5
2
330
0
100
AcDbSymbolTable
 70
     7
  0
LAYER
  5
10
330
2
100
AcDbSymbolTableRecord
100
AcDbLayerTableRecord
  2
0
 70
     0
 62
     7
  6
CONTINUOUS
  0
LAYER
  5
3F9
330
2
100
AcDbSymbolTableRecord
100
AcDbLayerTableRecord
  2
AM_0
 70
     0
 62
     7
  6
CONTINUOUS
  0
LAYER
  5
BA4
330
2
100
AcDbSymbolTableRecord
100
AcDbLayerTableRecord
  2
AM_5
 70
     0
 62
     3
  6
CONTINUOUS
  0
LAYER
  5
BA5
330
2
100
AcDbSymbolTableRecord
100
AcDbLayerTableRecord
  2
AM_11
 70
     0
 62
     3
  6
AM_ISO09W050
  0
LAYER
  5
BA6
330
2
100
AcDbSymbolTableRecord
100
AcDbLayerTableRecord
  2
AM_7
 70
     0
 62
     4
  6
AM_ISO08W050
  0
LAYER
  5
E64
330
2
100
AcDbSymbolTableRecord
100
AcDbLayerTableRecord
  2
AM_6
 70
     0
 62
     2
  6
CONTINUOUS
  0
LAYER
  5
F4D
330
2
100
AcDbSymbolTableRecord
100
AcDbLayerTableRecord
  2
DEFPOINTS
 70
     0
 62
     7
  6
CONTINUOUS
  0
ENDTAB
  0
TABLE
  2
STYLE
  5
3
330
0
100
AcDbSymbolTable
 70
     5
  0
STYLE
  5
11
330
3
100
AcDbSymbolTableRecord
100
AcDbTextStyleTableRecord
  2
STANDARD
 70
     0
 40
0.0
 41
1.0
 50
0.0
 71
     0
 42
2.5
  3
simplex.shx
  4
EXTFONT.SHX
  0
STYLE
  5
52
330
3
100
AcDbSymbolTableRecord
100
AcDbTextStyleTableRecord
  2

 70
     1
 40
0.0
 41
1.0
 50
0.0
 71
     0
 42
2.5
  3
ltypeshp.shx
  4

  0
STYLE
  5
6B
330
3
100
AcDbSymbolTableRecord
100
AcDbTextStyleTableRecord
  2
ASAMI
 70
     0
 40
0.0
 41
1.0
 50
0.0
 71
     0
 42
2.5
  3
simplex.shx
  4
EXTFONT.SHX
  0
STYLE
  5
262
330
3
100
AcDbSymbolTableRecord
100
AcDbTextStyleTableRecord
  2
ACJISTS
 70
     0
 40
1.0
 41
1.0
 50
0.0
 71
     0
 42
2.5
  3
simplex.shx
  4
bigfont.shx
  0
STYLE
  5
269
330
3
100
AcDbSymbolTableRecord
100
AcDbTextStyleTableRecord
  2
ACJISGDT
 70
     0
 40
0.0
 41
1.0
 50
0.0
 71
     0
 42
2.5
  3
amgdtans.shx
  4

  0
ENDTAB
  0
TABLE
  2
VIEW
  5
6
330
0
100
AcDbSymbolTable
 70
     0
  0
ENDTAB
  0
TABLE
  2
UCS
  5
7
330
0
100
AcDbSymbolTable
 70
     0
  0
ENDTAB
  0
TABLE
  2
APPID
  5
9
330
0
100
AcDbSymbolTable
 70
    12
  0
APPID
  5
12
330
9
100
AcDbSymbolTableRecord
100
AcDbRegAppTableRecord
  2
ACAD
 70
     0
  0
APPID
  5
30
330
9
100
AcDbSymbolTableRecord
100
AcDbRegAppTableRecord
  2
MCAD_NO_VIS
 70
     0
  0
APPID
  5
31
330
9
100
AcDbSymbolTableRecord
100
AcDbRegAppTableRecord
  2
ACAD_TEMP_GRAPHIC
 70
     0
  0
APPID
  5
2C2
330
9
100
AcDbSymbolTableRecord
100
AcDbRegAppTableRecord
  2
GENIUS_GENDTOL_13
 70
     0
  0
APPID
  5
339
330
9
100
AcDbSymbolTableRecord
100
AcDbRegAppTableRecord
  2
GENIUS_GENODEF_13
 70
     0
  0
APPID
  5
33A
330
9
100
AcDbSymbolTableRecord
100
AcDbRegAppTableRecord
  2
GENIUS_GENOBJ-N-RSBK_13
 70
     0
  0
APPID
  5
33B
330
9
100
AcDbSymbolTableRecord
100
AcDbRegAppTableRecord
  2
GENIUS_GENOBJ-N-LIB_13
 70
     0
  0
APPID
  5
33C
330
9
100
AcDbSymbolTableRecord
100
AcDbRegAppTableRecord
  2
GENIUS_GENSCALE_13
 70
     0
  0
APPID
  5
378
330
9
100
AcDbSymbolTableRecord
100
AcDbRegAppTableRecord
  2
GENIUS_GENDIMSH_14
 70
     0
  0
APPID
  5
BB0
330
9
100
AcDbSymbolTableRecord
100
AcDbRegAppTableRecord
  2
GENIUS_GENOBJ-N-CEN_13
 70
     0
  0
APPID
  5
BB1
330
9
100
AcDbSymbolTableRecord
100
AcDbRegAppTableRecord
  2
GENIUS_GENFIL_13
 70
     0
  0
APPID
  5
BB2
330
9
100
AcDbSymbolTableRecord
100
AcDbRegAppTableRecord
  2
GENIUS_GENOBJ-N-CHA_13
 70
     0
  0
ENDTAB
  0
TABLE
  2
DIMSTYLE
  5
A
330
0
100
AcDbSymbolTable
 70
     8
  0
DIMSTYLE
105
58
102
{ACAD_REACTORS
330
1536
330
15C5
330
1656
330
1D56
102
}
330
A
100
AcDbSymbolTableRecord
100
AcDbDimStyleTableRecord
  2
AM_JIS
 70
     0
  3

  4
"
  5
OPEN30
  6

  7

 40
0.5
 41
2.5
 42
1.0
 43
12.0
 44
1.0
 45
0.0
 46
0.0
 47
0.1
 48
0.1
140
3.2
141
0.0
142
0.0
143
0.0393701
144
1.0
145
0.0
146
0.71
147
1.5
 71
     0
 72
     0
 73
     0
 74
     0
 75
     0
 76
     0
 77
     3
 78
     8
170
     0
171
     2
172
     1
173
     0
174
     0
175
     0
176
   256
177
   256
178
     2
270
     2
271
     3
272
     3
273
     2
274
     2
340
6B
275
     0
280
     0
281
     0
282
     0
283
     0
284
     0
285
     0
286
     0
287
     3
288
     0
  0
DIMSTYLE
105
5F
330
A
100
AcDbSymbolTableRecord
100
AcDbDimStyleTableRecord
  2
AM_JIS$3
 70
     0
  3

  4
"
  5
OPEN30
  6

  7

 40
0.5
 41
2.5
 42
1.0
 43
10.0
 44
1.0
 45
0.0
 46
0.0
 47
0.1
 48
0.1
140
3.2
141
0.0
142
0.0
143
0.0393701
144
1.0
145
0.0
146
0.71
147
1.5
 71
     0
 72
     0
 73
     0
 74
     1
 75
     0
 76
     0
 77
     3
 78
     8
170
     0
171
     2
172
     0
173
     0
174
     0
175
     0
176
   256
177
   256
178
     2
270
     2
271
     2
272
     3
273
     2
274
     2
340
6B
275
     0
280
     0
281
     0
282
     0
283
     0
284
     0
285
     0
286
     0
287
     0
288
     1
  0
DIMSTYLE
105
60
330
A
100
AcDbSymbolTableRecord
100
AcDbDimStyleTableRecord
  2
AM_JIS$4
 70
     0
  3

  4
"
  5
OPEN30
  6

  7

 40
0.5
 41
2.5
 42
1.0
 43
10.0
 44
1.0
 45
0.0
 46
0.0
 47
0.1
 48
0.1
140
3.2
141
0.0
142
0.0
143
0.0393701
144
1.0
145
0.0
146
0.71
147
1.5
 71
     0
 72
     0
 73
     0
 74
     1
 75
     0
 76
     0
 77
     3
 78
     8
170
     0
171
     2
172
     0
173
     0
174
     0
175
     0
176
   256
177
   256
178
     2
270
     2
271
     2
272
     3
273
     2
274
     2
340
6B
275
     0
280
     0
281
     0
282
     0
283
     0
284
     0
285
     0
286
     0
287
     0
288
     1
  0
DIMSTYLE
105
61
330
A
100
AcDbSymbolTableRecord
100
AcDbDimStyleTableRecord
  2
AM_JIS$6
 70
     0
  3

  4
"
  5
OPEN30
  6

  7

 40
0.5
 41
2.5
 42
1.0
 43
10.0
 44
1.0
 45
0.0
 46
0.0
 47
0.1
 48
0.1
140
3.2
141
0.0
142
0.0
143
0.0393701
144
1.0
145
0.0
146
0.71
147
1.5
 71
     0
 72
     0
 73
     0
 74
     0
 75
     0
 76
     0
 77
     0
 78
     8
170
     0
171
     2
172
     1
173
     0
174
     0
175
     0
176
   256
177
   256
178
     2
270
     2
271
     2
272
     2
273
     2
274
     2
340
6B
275
     0
280
     0
281
     0
282
     0
283
     0
284
     0
285
     0
286
     0
287
     3
288
     0
  0
DIMSTYLE
105
62
330
A
100
AcDbSymbolTableRecord
100
AcDbDimStyleTableRecord
  2
AM_JIS$7
 70
     0
  3

  4
"
  5
OPEN30
  6

  7

 40
0.5
 41
2.5
 42
1.0
 43
10.0
 44
1.0
 45
0.0
 46
0.0
 47
0.1
 48
0.1
140
3.2
141
0.0
142
0.0
143
0.0393701
144
1.0
145
0.0
146
0.71
147
1.5
 71
     0
 72
     0
 73
     0
 74
     0
 75
     0
 76
     0
 77
     3
 78
     8
170
     0
171
     2
172
     1
173
     0
174
     0
175
     0
176
   256
177
   256
178
     2
270
     2
271
     2
272
     3
273
     2
274
     2
340
6B
275
     0
280
     0
281
     0
282
     0
283
     0
284
     0
285
     0
286
     0
287
     3
288
     0
  0
DIMSTYLE
105
63
330
A
100
AcDbSymbolTableRecord
100
AcDbDimStyleTableRecord
  2
AM_JIS$SF
 70
     0
  3

  4
"
  5
OPEN30
  6

  7

 40
0.5
 41
2.5
 42
1.0
 43
10.0
 44
1.0
 45
0.0
 46
0.0
 47
0.1
 48
0.1
140
3.2
141
0.0
142
0.0
143
0.0393701
144
1.0
145
0.0
146
0.71
147
1.5
 71
     0
 72
     0
 73
     0
 74
     0
 75
     1
 76
     1
 77
     3
 78
     8
170
     0
171
     2
172
     1
173
     0
174
     0
175
     0
176
   256
177
   256
178
     2
270
     2
271
     2
272
     2
273
     2
274
     2
340
6B
275
     0
280
     0
281
     0
282
     0
283
     0
284
     0
285
     0
286
     0
287
     3
288
     0
  0
DIMSTYLE
105
68
330
A
100
AcDbSymbolTableRecord
100
AcDbDimStyleTableRecord
  2
AM_JIS$SH
 70
     0
  3

  4
"
  5

  6
GENAXEH
  7
OPEN30
 40
0.5
 41
2.5
 42
1.0
 43
10.0
 44
1.0
 45
0.0
 46
0.0
 47
0.1
 48
0.1
140
3.2
141
0.0
142
0.0
143
0.0393701
144
2.0
145
0.0
146
0.71
147
1.5
 71
     0
 72
     0
 73
     0
 74
     0
 75
     1
 76
     1
 77
     3
 78
     8
170
     0
171
     2
172
     1
173
     1
174
     0
175
     0
176
   256
177
   256
178
     2
270
     2
271
     2
272
     2
273
     2
274
     2
340
6B
275
     0
280
     0
281
     0
282
     0
283
     0
284
     0
285
     0
286
     0
287
     3
288
     0
  0
DIMSTYLE
105
B34
330
A
100
AcDbSymbolTableRecord
100
AcDbDimStyleTableRecord
  2
AM_JIS$2
 70
     0
  3

  4
"
  5
OPEN30
  6

  7

 40
0.5
 41
2.5
 42
1.0
 43
12.0
 44
1.0
 45
0.0
 46
0.0
 47
0.1
 48
0.1
140
3.2
141
0.0
142
0.0
143
0.0393701
144
1.0
145
0.0
146
0.71
147
1.5
 71
     0
 72
     0
 73
     0
 74
     0
 75
     0
 76
     0
 77
     3
 78
     8
170
     0
171
     2
172
     1
173
     0
174
     0
175
     0
176
   256
177
   256
178
     2
270
     2
271
     3
272
     3
273
     2
274
     2
340
6B
275
     0
280
     0
281
     0
282
     0
283
     0
284
     0
285
     0
286
     0
287
     3
288
     0
  0
ENDTAB
  0
TABLE
  2
BLOCK_RECORD
  5
1
330
0
100
AcDbSymbolTable
 70
     9
  0
BLOCK_RECORD
  5
1F
102
{ACAD_XDICTIONARY
360
74
102
}
330
1
100
AcDbSymbolTableRecord
100
AcDbBlockTableRecord
  2
*MODEL_SPACE
  0
BLOCK_RECORD
  5
101
102
{ACAD_XDICTIONARY
360
1E68
102
}
330
1
100
AcDbSymbolTableRecord
100
AcDbBlockTableRecord
  2
*PAPER_SPACE
  0
BLOCK_RECORD
  5
59
330
1
100
AcDbSymbolTableRecord
100
AcDbBlockTableRecord
  2
_OPEN30
  0
BLOCK_RECORD
  5
64
330
1
100
AcDbSymbolTableRecord
100
AcDbBlockTableRecord
  2
GENAXEH
  0
BLOCK_RECORD
  5
1537
330
1
100
AcDbSymbolTableRecord
100
AcDbBlockTableRecord
  2
*D5
  0
BLOCK_RECORD
  5
15C6
330
1
100
AcDbSymbolTableRecord
100
AcDbBlockTableRecord
  2
*D6
  0
BLOCK_RECORD
  5
1657
330
1
100
AcDbSymbolTableRecord
100
AcDbBlockTableRecord
  2
*D7
  0
BLOCK_RECORD
  5
1D57
330
1
100
AcDbSymbolTableRecord
100
AcDbBlockTableRecord
  2
*D8
  0
ENDTAB
  0
ENDSEC
  0
SECTION
  2
BLOCKS
  0
BLOCK
  5
20
330
1F
100
AcDbEntity
  8
0
100
AcDbBlockBegin
  2
*MODEL_SPACE
 70
     0
 10
0.0
 20
0.0
 30
0.0
  3
*MODEL_SPACE
  1

  0
ENDBLK
  5
21
330
1F
100
AcDbEntity
  8
0
100
AcDbBlockEnd
  0
BLOCK
  5
103
330
101
100
AcDbEntity
 67
     1
  8
0
100
AcDbBlockBegin
  2
*PAPER_SPACE
 70
     0
 10
0.0
 20
0.0
 30
0.0
  3
*PAPER_SPACE
  1

  0
ENDBLK
  5
104
330
101
100
AcDbEntity
 67
     1
  8
0
100
AcDbBlockEnd
  0
BLOCK
  5
5D
330
59
100
AcDbEntity
  8
0
100
AcDbBlockBegin
  2
_OPEN30
 70
     0
 10
0.0
 20
0.0
 30
0.0
  3
_OPEN30
  1

  0
LINE
  5
5A
330
59
100
AcDbEntity
  8
0
 62
     0
100
AcDbLine
 10
-1.0
 20
0.26794919
 30
0.0
 11
0.0
 21
0.0
 31
0.0
  0
LINE
  5
5B
330
59
100
AcDbEntity
  8
0
 62
     0
100
AcDbLine
 10
0.0
 20
0.0
 30
0.0
 11
-1.0
 21
-0.26794919
 31
0.0
  0
LINE
  5
5C
330
59
100
AcDbEntity
  8
0
 62
     0
100
AcDbLine
 10
0.0
 20
0.0
 30
0.0
 11
-1.0
 21
0.0
 31
0.0
  0
ENDBLK
  5
5E
330
59
100
AcDbEntity
  8
0
100
AcDbBlockEnd
  0
BLOCK
  5
66
330
64
100
AcDbEntity
  8
0
100
AcDbBlockBegin
  2
GENAXEH
 70
     0
 10
0.0
 20
0.0
 30
0.0
  3
GENAXEH
  1

  0
LINE
  5
65
330
64
100
AcDbEntity
  8
0
100
AcDbLine
 10
-1.0
 20
0.0
 30
0.0
 11
1.0
 21
0.0
 31
0.0
  0
ENDBLK
  5
67
330
64
100
AcDbEntity
  8
0
100
AcDbBlockEnd
  0
BLOCK
  5
1541
330
1537
100
AcDbEntity
  8
0
100
AcDbBlockBegin
  2
*D5
 70
     1
 10
0.0
 20
0.0
 30
0.0
  3
*D5
  1

  0
LINE
  5
18BC
330
1537
100
AcDbEntity
  8
AM_5
100
AcDbLine
 10
-50.0
 20
-2.900000000420536
 30
0.0
 11
-49.99999999999996
 21
-16.50000000042055
 31
0.0
  0
LINE
  5
18BD
330
1537
100
AcDbEntity
  8
AM_5
100
AcDbLine
 10
0.000000000000003
 20
-3.500000000420032
 30
0.0
 11
0.0000000000000284
 21
-16.50000000042045
 31
0.0
  0
LINE
  5
18BE
330
1537
100
AcDbEntity
  8
AM_5
100
AcDbLine
 10
-48.74999999999996
 20
-16.00000000042055
 30
0.0
 11
-1.249999999999972
 21
-16.00000000042046
 31
0.0
  0
INSERT
  5
18BF
330
1537
100
AcDbEntity
  8
AM_5
100
AcDbBlockReference
  2
_OPEN30
 10
-49.99999999999996
 20
-16.00000000042055
 30
0.0
 41
1.25
 42
1.25
 43
1.25
 50
180.0000000000001
  0
INSERT
  5
18C0
330
1537
100
AcDbEntity
  8
AM_5
100
AcDbBlockReference
  2
_OPEN30
 10
0.0000000000000275
 20
-16.00000000042045
 30
0.0
 41
1.25
 42
1.25
 43
1.25
 50
0.0000000000001018
  0
MTEXT
  5
18C1
330
1537
100
AcDbEntity
  8
AM_5
 62
     2
100
AcDbMText
 10
-24.99999999999997
 20
-14.4500000004205
 30
0.0
 40
1.6
 41
0.0
 71
     5
 72
     1
  1
50
  7
ASAMI
1001
ACAD
1000
MTEXTBEGIN
1070
    73
1070
     1
1070
    44
1040
1.0
1070
    74
1070
     0
1000
MTEXTEND
  0
POINT
  5
18C2
330
1537
100
AcDbEntity
  8
DEFPOINTS
 62
     0
100
AcDbPoint
 10
-50.0
 20
-2.400000000420435
 30
0.0
  0
POINT
  5
18C3
330
1537
100
AcDbEntity
  8
DEFPOINTS
 62
     0
100
AcDbPoint
 10
-0.0000000000000041
 20
-3.000000000420032
 30
0.0
  0
POINT
  5
18C4
330
1537
100
AcDbEntity
  8
DEFPOINTS
 62
     0
100
AcDbPoint
 10
-0.0000000000000049
 20
-16.00000000042045
 30
0.0
  0
ENDBLK
  5
1542
330
1537
100
AcDbEntity
  8
0
100
AcDbBlockEnd
  0
BLOCK
  5
15D0
330
15C6
100
AcDbEntity
  8
0
100
AcDbBlockBegin
  2
*D6
 70
     1
 10
0.0
 20
0.0
 30
0.0
  3
*D6
  1

  0
LINE
  5
1E15
330
15C6
100
AcDbEntity
  8
AM_5
100
AcDbLine
 10
-14.99999999999998
 20
-3.500000000000037
 30
0.0
 11
-14.99999999999996
 21
-10.50000000042048
 31
0.0
  0
LINE
  5
1E16
330
15C6
100
AcDbEntity
  8
AM_5
100
AcDbLine
 10
0.000000000000003
 20
-3.500000000420032
 30
0.0
 11
0.0000000000000167
 21
-10.50000000042045
 31
0.0
  0
LINE
  5
1E17
330
15C6
100
AcDbEntity
  8
AM_5
100
AcDbLine
 10
-13.74999999999996
 20
-10.00000000042048
 30
0.0
 11
-1.249999999999984
 21
-10.00000000042046
 31
0.0
  0
INSERT
  5
1E18
330
15C6
100
AcDbEntity
  8
AM_5
100
AcDbBlockReference
  2
_OPEN30
 10
-14.99999999999996
 20
-10.00000000042048
 30
0.0
 41
1.25
 42
1.25
 43
1.25
 50
180.0000000000001
  0
INSERT
  5
1E19
330
15C6
100
AcDbEntity
  8
AM_5
100
AcDbBlockReference
  2
_OPEN30
 10
0.0000000000000157
 20
-10.00000000042045
 30
0.0
 41
1.25
 42
1.25
 43
1.25
 50
0.0000000000001018
  0
MTEXT
  5
1E1A
330
15C6
100
AcDbEntity
  8
AM_5
 62
     2
100
AcDbMText
 10
-7.499999999999979
 20
-8.450000000420473
 30
0.0
 40
1.6
 41
0.0
 71
     5
 72
     1
  1
15
  7
ASAMI
1001
ACAD
1000
MTEXTBEGIN
1070
    73
1070
     1
1070
    44
1040
1.0
1070
    74
1070
     0
1000
MTEXTEND
  0
POINT
  5
1E1B
330
15C6
100
AcDbEntity
  8
DEFPOINTS
 62
     0
100
AcDbPoint
 10
-14.99999999999998
 20
-3.000000000000007
 30
0.0
  0
POINT
  5
1E1C
330
15C6
100
AcDbEntity
  8
DEFPOINTS
 62
     0
100
AcDbPoint
 10
-0.0000000000000041
 20
-3.000000000420032
 30
0.0
  0
POINT
  5
1E1D
330
15C6
100
AcDbEntity
  8
DEFPOINTS
 62
     0
100
AcDbPoint
 10
-0.0000000000000045
 20
-10.00000000042045
 30
0.0
  0
ENDBLK
  5
15D1
330
15C6
100
AcDbEntity
  8
0
100
AcDbBlockEnd
  0
BLOCK
  5
1661
330
1657
100
AcDbEntity
  8
0
100
AcDbBlockBegin
  2
*D7
 70
     1
 10
0.0
 20
0.0
 30
0.0
  3
*D7
  1

  0
LINE
  5
18CE
330
1657
100
AcDbEntity
  8
AM_5
100
AcDbLine
 10
0.5000000000000026
 20
-3.000000000420048
 30
0.0
 11
7.499999999999664
 21
-3.000000000420034
 31
0.0
  0
LINE
  5
18CF
330
1657
100
AcDbEntity
  8
AM_5
100
AcDbLine
 10
0.5000000000000063
 20
3.000000000420017
 30
0.0
 11
7.499999999999651
 21
3.000000000420031
 31
0.0
  0
LINE
  5
18D0
330
1657
100
AcDbEntity
  8
AM_5
100
AcDbLine
 10
6.999999999999661
 20
-1.750000000420035
 30
0.0
 11
6.999999999999654
 21
1.75000000042003
 31
0.0
  0
INSERT
  5
18D1
330
1657
100
AcDbEntity
  8
AM_5
100
AcDbBlockReference
  2
_OPEN30
 10
6.999999999999664
 20
-3.000000000420036
 30
0.0
 41
1.25
 42
1.25
 43
1.25
 50
270.0000000000001
  0
INSERT
  5
18D2
330
1657
100
AcDbEntity
  8
AM_5
100
AcDbBlockReference
  2
_OPEN30
 10
6.999999999999651
 20
3.00000000042003
 30
0.0
 41
1.25
 42
1.25
 43
1.25
 50
90.0000000000001
  0
MTEXT
  5
18D3
330
1657
100
AcDbEntity
  8
AM_5
 62
     2
100
AcDbMText
 10
5.449999999999658
 20
-0.0000000000000059
 30
0.0
 40
1.6
 41
0.0
 71
     5
 72
     1
  1
%%c6
  7
ASAMI
 11
-0.000000000000002
 21
1.0
 31
0.0
1001
ACAD
1000
MTEXTBEGIN
1070
    73
1070
     1
1070
    44
1040
1.0
1070
    74
1070
     0
1000
MTEXTEND
  0
POINT
  5
18D4
330
1657
100
AcDbEntity
  8
DEFPOINTS
 62
     0
100
AcDbPoint
 10
-0.0000000000000041
 20
-3.000000000420049
 30
0.0
  0
POINT
  5
18D5
330
1657
100
AcDbEntity
  8
DEFPOINTS
 62
     0
100
AcDbPoint
 10
0.000000000000013
 20
3.000000000420016
 30
0.0
  0
POINT
  5
18D6
330
1657
100
AcDbEntity
  8
DEFPOINTS
 62
     0
100
AcDbPoint
 10
6.999999999999658
 20
3.000000000420015
 30
0.0
  0
ENDBLK
  5
1662
330
1657
100
AcDbEntity
  8
0
100
AcDbBlockEnd
  0
BLOCK
  5
1D61
330
1D57
100
AcDbEntity
  8
0
100
AcDbBlockBegin
  2
*D8
 70
     1
 10
0.0
 20
0.0
 30
0.0
  3
*D8
  1

  0
LINE
  5
1DD0
330
1D57
100
AcDbEntity
  8
AM_5
100
AcDbLine
 10
-49.89999999999999
 20
-3.000000000420452
 30
0.0
 11
-56.89999999999999
 21
-3.00000000042045
 31
0.0
  0
LINE
  5
1DD1
330
1D57
100
AcDbEntity
  8
AM_5
100
AcDbLine
 10
-49.89999999999999
 20
3.000000000419988
 30
0.0
 11
-56.89999999999999
 21
3.00000000041999
 31
0.0
  0
LINE
  5
1DD2
330
1D57
100
AcDbEntity
  8
AM_5
100
AcDbLine
 10
-56.39999999999999
 20
-1.75000000042045
 30
0.0
 11
-56.39999999999999
 21
1.75000000041999
 31
0.0
  0
INSERT
  5
1DD3
330
1D57
100
AcDbEntity
  8
AM_5
100
AcDbBlockReference
  2
_OPEN30
 10
-56.39999999999999
 20
-3.00000000042045
 30
0.0
 41
1.25
 42
1.25
 43
1.25
 50
270.0
  0
INSERT
  5
1DD4
330
1D57
100
AcDbEntity
  8
AM_5
100
AcDbBlockReference
  2
_OPEN30
 10
-56.39999999999999
 20
3.00000000041999
 30
0.0
 41
1.25
 42
1.25
 43
1.25
 50
90.0
  0
MTEXT
  5
1DD5
330
1D57
100
AcDbEntity
  8
AM_5
 62
     2
100
AcDbMText
 10
-57.94999999999999
 20
-0.0000000000002386
 30
0.0
 40
1.6
 41
0.0
 71
     5
 72
     1
  1
%%c6
  7
ASAMI
 11
0.0000000000000001
 21
1.0
 31
0.0
1001
ACAD
1000
MTEXTBEGIN
1070
    73
1070
     1
1070
    44
1040
1.0
1070
    74
1070
     0
1000
MTEXTEND
  0
POINT
  5
1DD6
330
1D57
100
AcDbEntity
  8
DEFPOINTS
 62
     0
100
AcDbPoint
 10
-49.39999999999999
 20
-3.000000000420452
 30
0.0
  0
POINT
  5
1DD7
330
1D57
100
AcDbEntity
  8
DEFPOINTS
 62
     0
100
AcDbPoint
 10
-49.39999999999999
 20
3.000000000419988
 30
0.0
  0
POINT
  5
1DD8
330
1D57
100
AcDbEntity
  8
DEFPOINTS
 62
     0
100
AcDbPoint
 10
-56.39999999999999
 20
3.00000000041999
 30
0.0
  0
ENDBLK
  5
1D62
330
1D57
100
AcDbEntity
  8
0
100
AcDbBlockEnd
  0
ENDSEC
  0
SECTION
  2
ENTITIES
  0
LINE
  5
C5C
330
1F
100
AcDbEntity
  8
AM_7
 48
0.6
100
AcDbLine
 10
1.250131472392168
 20
0.0000000000000007
 30
0.0
 11
-51.08454800284562
 21
-0.0000000000000272
 31
0.0
1001
GENIUS_GENODEF_13
1002
{
1000
HIER
1070
     0
1002
}
1002
{
1000
MANEDIT
1070
     0
1002
}
1002
{
1000
NOSEL
1070
     0
1002
}
1002
{
1000
BEHIND
1070
     0
1002
}
1002
{
1000
OTHER
1070
     0
1002
}
1002
{
1000
REACTOR
1002
}
1001
GENIUS_GENOBJ-N-CEN_13
1002
{
1000
OWNER
1000
GEN
1002
}
  0
LINE
  5
C63
330
1F
100
AcDbEntity
  8
AM_0
100
AcDbLine
 10
-50.00000000000003
 20
2.400000000419988
 30
0.0
 11
-50.0
 21
-2.400000000420452
 31
0.0
  0
LINE
  5
C64
330
1F
100
AcDbEntity
  8
AM_0
100
AcDbLine
 10
-49.4
 20
-3.000000000420452
 30
0.0
 11
-49.4
 21
3.000000000419988
 31
0.0
  0
LINE
  5
C66
330
1F
100
AcDbEntity
  8
AM_0
100
AcDbLine
 10
-17.83134643017307
 20
2.999999999723536
 30
0.0
 11
-49.40000000000003
 21
3.000000000419988
 31
0.0
  0
LINE
  5
C68
330
1F
100
AcDbEntity
  8
AM_0
100
AcDbLine
 10
-49.40000000000003
 20
3.000000000419988
 30
0.0
 11
-50.00000000000003
 21
2.400000000419988
 31
0.0
1001
GENIUS_GENFIL_13
1070
     0
1040
1.0
1040
1.0
1040
20.0
1040
0.0
1002
{
1002
}
1001
GENIUS_GENOBJ-N-CHA_13
1002
{
1000
OWNER
1000
GEN
1002
}
1001
GENIUS_GENODEF_13
1002
{
1000
HIER
1070
     0
1002
}
1002
{
1000
MANEDIT
1070
     0
1002
}
1002
{
1000
NOSEL
1070
     0
1002
}
1002
{
1000
BEHIND
1070
     0
1002
}
1002
{
1000
OTHER
1070
     0
1002
}
1002
{
1000
REACTOR
1002
}
  0
LINE
  5
C69
330
1F
100
AcDbEntity
  8
AM_0
100
AcDbLine
 10
-17.56315428551737
 20
-2.996399217843729
 30
0.0
 11
-49.4
 21
-3.000000000420452
 31
0.0
  0
LINE
  5
C6E
330
1F
100
AcDbEntity
  8
AM_0
100
AcDbLine
 10
-50.0
 20
-2.400000000420452
 30
0.0
 11
-49.4
 21
-3.000000000420452
 31
0.0
1001
GENIUS_GENFIL_13
1070
     0
1040
1.0
1040
1.0
1040
20.0
1040
0.0
1002
{
1002
}
1001
GENIUS_GENODEF_13
1002
{
1000
HIER
1070
     0
1002
}
1002
{
1000
MANEDIT
1070
     0
1002
}
1002
{
1000
NOSEL
1070
     0
1002
}
1002
{
1000
BEHIND
1070
     0
1002
}
1002
{
1000
OTHER
1070
     0
1002
}
1002
{
1000
REACTOR
1002
}
1001
GENIUS_GENOBJ-N-CHA_13
1002
{
1000
OWNER
1000
GEN
1002
}
  0
TEXT
  5
E66
330
1F
100
AcDbEntity
  8
AM_6
100
AcDbText
 10
-35.65476190476187
 20
-27.2500000004205
 30
0.0
 40
2.5
  1
ASM4060DL
 72
     4
 11
-24.99999999999996
 21
-26.0000000004205
 31
0.0
100
AcDbText
  0
DIMENSION
  5
1536
330
1F
100
AcDbEntity
  8
AM_5
100
AcDbDimension
  2
*D5
 10
-0.0000000000000049
 20
-16.00000000042045
 30
0.0
 11
-25.0
 21
-14.45000000042045
 31
0.0
 70
    32
  1
<>
 51
359.9999999999998
  3
AM_JIS
100
AcDbAlignedDimension
 13
-50.0
 23
-2.400000000420435
 33
0.0
 14
-0.0000000000000041
 24
-3.000000000420032
 34
0.0
100
AcDbRotatedDimension
1001
GENIUS_GENDTOL_13
1000

1000
h7
1000

1040
0.0
  0
DIMENSION
  5
15C5
330
1F
100
AcDbEntity
  8
AM_5
100
AcDbDimension
  2
*D6
 10
-0.0000000000000045
 20
-10.00000000042045
 30
0.0
 11
-7.499999999999996
 21
-8.450000000420457
 31
0.0
 70
    32
  1
<>
 51
359.9999999999998
  3
AM_JIS
100
AcDbAlignedDimension
 13
-14.99999999999998
 23
-3.000000000000007
 33
0.0
 14
-0.0000000000000041
 24
-3.000000000420032
 34
0.0
100
AcDbRotatedDimension
1001
GENIUS_GENDTOL_13
1000

1000
h7
1000

1040
0.0
  0
DIMENSION
  5
1656
330
1F
100
AcDbEntity
  8
AM_5
100
AcDbDimension
  2
*D7
 10
6.999999999999658
 20
3.000000000420015
 30
0.0
 11
5.449999999999658
 21
-0.0000000000000169
 31
0.0
 70
    32
  1
%%c<>
 51
359.9999999999998
  3
AM_JIS
100
AcDbAlignedDimension
 13
-0.0000000000000041
 23
-3.000000000420049
 33
0.0
 14
0.000000000000013
 24
3.000000000420016
 34
0.0
 50
90.0
100
AcDbRotatedDimension
1001
GENIUS_GENDTOL_13
1000

1000
h7
1000

1040
0.0
  0
LINE
  5
1CE2
330
1F
100
AcDbEntity
  8
AM_0
100
AcDbLine
 10
-16.07142857132117
 20
-1.272303172022501
 30
0.0
 11
-17.69814085931686
 21
-1.939158626272101
 31
0.0
  0
LINE
  5
1CE3
330
1F
100
AcDbEntity
  8
AM_0
100
AcDbLine
 10
-16.07142857132294
 20
2.69935820049046
 30
0.0
 11
-17.69814085931687
 21
1.822787608281009
 31
0.0
  0
SPLINE
  5
1CE4
330
1F
100
AcDbEntity
  8
AM_0
100
AcDbSpline
210
0.0
220
0.0
230
1.0
 70
     8
 71
     3
 72
     8
 73
     4
 74
     0
 42
0.0000000001
 43
0.0000000001
 40
0.5019518501107764
 40
0.5019518501107764
 40
0.5019518501107764
 40
0.5019518501107764
 40
4.378535384430282
 40
4.378535384430282
 40
4.378535384430282
 40
4.378535384430282
 10
-17.56315429922293
 20
-2.996278038084832
 30
0.0
 10
-16.87454833275799
 20
-2.977208048926999
 30
0.0
 10
-16.19979634195486
 20
-2.885578761328163
 30
0.0
 10
-15.53571428566145
 20
-2.738066384187257
 30
0.0
  0
SPLINE
  5
1CE5
330
1F
100
AcDbEntity
  8
AM_0
100
AcDbSpline
210
0.0
220
0.0
230
1.0
 70
     8
 71
     3
 72
     8
 73
     4
 74
     0
 42
0.0000000001
 43
0.0000000001
 40
0.0
 40
0.0
 40
0.0
 40
0.0
 40
4.378535384430282
 40
4.378535384430282
 40
4.378535384430282
 40
4.378535384430282
 10
-17.83134643017307
 20
2.999999999699893
 30
0.0
 10
-17.04946511160292
 20
2.999999999699897
 30
0.0
 10
-16.28578371042785
 20
2.904679113471692
 30
0.0
 10
-15.53571428566147
 20
2.738066384187105
 30
0.0
  0
SPLINE
  5
1CE6
330
1F
100
AcDbEntity
  8
AM_0
100
AcDbSpline
210
0.0
220
0.0
230
1.0
 70
     8
 71
     3
 72
     8
 73
     4
 74
     0
 42
0.0000000001
 43
0.0000000001
 40
14.93282203845248
 40
14.93282203845248
 40
14.93282203845248
 40
14.93282203845248
 40
17.36922565919391
 40
17.36922565919391
 40
17.36922565919391
 40
17.36922565919391
 10
-15.53571428566058
 20
-0.6270808132950357
 30
0.0
 10
-15.93140316054209
 20
-0.4208138580792578
 30
0.0
 10
-16.32630157716666
 20
-0.2104069290396864
 30
0.0
 10
-16.72119999379092
 20
-0.000000000000115
 30
0.0
  0
ELLIPSE
  5
1CE7
330
1F
100
AcDbEntity
  8
AM_0
100
AcDbEllipse
 10
-17.29326219720062
 20
1.168268555508645
 30
0.0
 11
0.8035714284910511
 21
0.0000000000000006
 31
0.0
210
0.0
220
0.0
230
1.0
 40
0.9333333333333392
 41
2.094395102393737
 42
4.168852990263367
  0
SPLINE
  5
1CE8
330
1F
100
AcDbEntity
  8
AM_0
100
AcDbSpline
210
0.0
220
0.0
230
1.0
 70
     8
 71
     3
 72
     9
 73
     5
 74
     0
 42
0.0000000001
 43
0.0000000001
 40
0.0
 40
0.0
 40
0.0
 40
0.0
 40
0.9752106842988027
 40
1.864322173097654
 40
1.864322173097654
 40
1.864322173097654
 40
1.864322173097654
 10
-17.69814085931686
 20
-1.93915862627203
 30
0.0
 10
-17.88947247035464
 20
-2.017593226743476
 30
0.0
 10
-18.31114503100264
 20
-2.382968644757907
 30
0.0
 10
-17.87826962315001
 20
-2.715104098615972
 30
0.0
 10
-17.69814085931685
 20
-2.773038326835182
 30
0.0
  0
SPLINE
  5
1CE9
330
1F
100
AcDbEntity
  8
AM_0
100
AcDbSpline
210
0.0
220
0.0
230
1.0
 70
     8
 71
     3
 72
     8
 73
     4
 74
     0
 42
0.0000000001
 43
0.0000000001
 40
15.33627168782457
 40
15.33627168782457
 40
15.33627168782457
 40
15.33627168782457
 40
17.36922565919391
 40
17.36922565919391
 40
17.36922565919391
 40
17.36922565919391
 10
-17.71017805966201
 20
0.524290396325315
 30
0.0
 10
-17.38021256258655
 20
0.3511303286147958
 30
0.0
 10
-17.05070627818888
 20
0.1755651643073386
 30
0.0
 10
-16.72119999379092
 20
-0.000000000000115
 30
0.0
  0
SPLINE
  5
1CEA
330
1F
100
AcDbEntity
  8
AM_0
100
AcDbSpline
210
0.0
220
0.0
230
1.0
 70
     8
 71
     3
 72
     8
 73
     4
 74
     0
 42
0.0000000001
 43
0.0000000001
 40
2.18207306934647
 40
2.18207306934647
 40
2.18207306934647
 40
2.18207306934647
 40
4.062334410270949
 40
4.062334410270949
 40
4.062334410270949
 40
4.062334410270949
 10
-16.72119999379091
 20
-2.93195255958245
 30
0.0
 10
-17.04966041020347
 20
-2.893716469309955
 30
0.0
 10
-17.37518625966655
 20
-2.840110775086608
 30
0.0
 10
-17.69814085931685
 20
-2.773038326835182
 30
0.0
  0
ELLIPSE
  5
1CEB
330
1F
100
AcDbEntity
  8
AM_0
100
AcDbEllipse
 10
-3.103084641207149
 20
6.377180073384039
 30
0.0
 11
5.985569997894466
 21
0.0000000000017547
 31
0.0
210
0.0
220
0.0
230
1.0
 40
0.9333333333333108
 41
-1.134008545890809
 42
-1.025785215463635
  0
ELLIPSE
  5
1CEC
330
1F
100
AcDbEntity
  8
AM_0
100
AcDbEllipse
 10
-4.251047297785847
 20
-0.7659259729518375
 30
0.0
 11
-3.835614854245294
 21
0.0000000000000019
 31
0.0
210
0.0
220
0.0
230
1.0
 40
0.9333333333333346
 41
2.733557826704689
 42
3.115678621637542
  0
ELLIPSE
  5
1CED
330
1F
100
AcDbEntity
  8
AM_0
100
AcDbEllipse
 10
-0.4088986932619841
 20
-0.3365406316720758
 30
0.0
 11
-0.3231990898273786
 21
0.0000000000000084
 31
0.0
210
0.0
220
0.0
230
1.0
 40
0.9333333333333339
 41
4.502949470146042
 42
6.933471617979627
  0
SPLINE
  5
1CEE
330
1F
100
AcDbEntity
  8
AM_0
100
AcDbSpline
210
0.0
220
0.0
230
1.0
 70
     8
 71
     3
 72
     8
 73
     4
 74
     0
 42
0.0000000001
 43
0.0000000001
 40
0.0
 40
0.0
 40
0.0
 40
0.0
 40
6.52449073614872
 40
6.52449073614872
 40
6.52449073614872
 40
6.52449073614872
 10
-0.0000000000000084
 20
2.999999999700008
 30
0.0
 10
-1.165087631338671
 20
2.999999999700008
 30
0.0
 10
-2.289763766765457
 20
2.788347412465554
 30
0.0
 10
-3.389208382399282
 20
2.444546377777527
 30
0.0
  0
SPLINE
  5
1CEF
330
1F
100
AcDbEntity
  8
AM_0
100
AcDbSpline
210
0.0
220
0.0
230
1.0
 70
     8
 71
     3
 72
     8
 73
     4
 74
     0
 42
0.0000000001
 43
0.0000000001
 40
0.0
 40
0.0
 40
0.0
 40
0.0
 40
4.843639605544031
 40
4.843639605544031
 40
4.843639605544031
 40
4.843639605544031
 10
-5.932227275220959
 20
-2.739997585927152
 30
0.0
 10
-5.067291631460021
 20
-2.739997585927152
 30
0.0
 10
-4.221407362114721
 20
-2.631309329812388
 30
0.0
 10
-3.389208382399269
 20
-2.444546377777616
 30
0.0
  0
SPLINE
  5
1CF0
330
1F
100
AcDbEntity
  8
AM_0
100
AcDbSpline
210
0.0
220
0.0
230
1.0
 70
     8
 71
     3
 72
     8
 73
     4
 74
     0
 42
0.0000000001
 43
0.0000000001
 40
0.0682929238941095
 40
0.0682929238941095
 40
0.0682929238941095
 40
0.0682929238941095
 40
10.03206597849779
 40
10.03206597849779
 40
10.03206597849779
 40
10.03206597849779
 10
-5.89565312725495
 20
2.739932851343713
 30
0.0
 10
-4.117510871726127
 20
2.733640611216166
 30
0.0
 10
-2.41966614242201
 20
2.269250288215673
 30
0.0
 10
-0.755408543643922
 20
1.613245094540094
 30
0.0
  0
SPLINE
  5
1CF1
330
1F
100
AcDbEntity
  8
AM_0
100
AcDbSpline
210
0.0
220
0.0
230
1.0
 70
     8
 71
     3
 72
     8
 73
     4
 74
     0
 42
0.0000000001
 43
0.0000000001
 40
6.770904418548216
 40
6.770904418548216
 40
6.770904418548216
 40
6.770904418548216
 40
17.19652136594934
 40
17.19652136594934
 40
17.19652136594934
 40
17.19652136594934
 10
-0.7303272646583925
 20
-2.18645555284614
 30
0.0
 10
-2.499968287322087
 20
-1.66115952521908
 30
0.0
 10
-4.216097781271527
 20
-0.8305797626095809
 30
0.0
 10
-5.932227275220967
 20
-0.0000000000000853
 30
0.0
  0
SPLINE
  5
1CF2
330
1F
100
AcDbEntity
  8
AM_0
100
AcDbSpline
210
0.0
220
0.0
230
1.0
 70
     8
 71
     3
 72
     8
 73
     4
 74
     0
 42
0.0000000001
 43
0.0000000001
 40
4.930123281734562
 40
4.930123281734562
 40
4.930123281734562
 40
4.930123281734562
 40
5.98150379192352
 40
5.98150379192352
 40
5.98150379192352
 40
5.98150379192352
 10
-15.53571428566059
 20
2.671752926300845
 30
0.0
 10
-15.35641251119987
 20
2.627524121373275
 30
0.0
 10
-15.17786225600457
 20
2.579359283065751
 30
0.0
 10
-15.0
 20
2.527591093645659
 30
0.0
  0
SPLINE
  5
1CF3
330
1F
100
AcDbEntity
  8
AM_0
100
AcDbSpline
210
0.0
220
0.0
230
1.0
 70
     8
 71
     3
 72
     8
 73
     4
 74
     0
 42
0.0000000001
 43
0.0000000001
 40
11.62226891672235
 40
11.62226891672235
 40
11.62226891672235
 40
11.62226891672235
 40
12.71400530831269
 40
12.71400530831269
 40
12.71400530831269
 40
12.71400530831269
 10
-14.99999999999999
 20
-1.434582273304682
 30
0.0
 10
-15.17892209546256
 20
-1.350621833224726
 30
0.0
 10
-15.3574698177398
 20
-1.264700637883561
 30
0.0
 10
-15.53571428566058
 20
-1.177191167529188
 30
0.0
  0
SPLINE
  5
1CF4
330
1F
100
AcDbEntity
  8
AM_0
100
AcDbSpline
210
0.0
220
0.0
230
1.0
 70
     8
 71
     3
 72
     8
 73
     4
 74
     0
 42
0.0000000001
 43
0.0000000001
 40
0.3741227999429456
 40
0.3741227999429456
 40
0.3741227999429456
 40
0.3741227999429456
 40
4.843639605544031
 40
4.843639605544031
 40
4.843639605544031
 40
4.843639605544031
 10
-15.53571428566145
 20
-2.738066384184255
 30
0.0
 10
-14.74027247850695
 20
-2.722741625474147
 30
0.0
 10
-13.96069972881542
 20
-2.616883756435596
 30
0.0
 10
-13.19277981149037
 20
-2.444546377777642
 30
0.0
  0
SPLINE
  5
1CF5
330
1F
100
AcDbEntity
  8
AM_0
100
AcDbSpline
210
0.0
220
0.0
230
1.0
 70
     8
 71
     3
 72
     8
 73
     4
 74
     0
 42
0.0000000001
 43
0.0000000001
 40
0.0
 40
0.0
 40
0.0
 40
0.0
 40
6.52449073614872
 40
6.52449073614872
 40
6.52449073614872
 40
6.52449073614872
 10
-8.732142856269748
 20
2.999999999699987
 30
0.0
 10
-9.89723048760841
 20
2.999999999699983
 30
0.0
 10
-12.09333519585656
 20
2.788347412465528
 30
0.0
 10
-13.19277981149038
 20
2.444546377777501
 30
0.0
  0
SPLINE
  5
1CF6
330
1F
100
AcDbEntity
  8
AM_0
100
AcDbSpline
210
0.0
220
0.0
230
1.0
 70
     8
 71
     3
 72
     8
 73
     4
 74
     0
 42
0.0000000001
 43
0.0000000001
 40
4.707151308654438
 40
4.707151308654438
 40
4.707151308654438
 40
4.707151308654438
 40
17.36922565919391
 40
17.36922565919391
 40
17.36922565919391
 40
17.36922565919391
 10
-16.07142857132294
 20
2.69935820049046
 30
0.0
 10
-13.9081730391365
 20
2.18698425555384
 30
0.0
 10
-10.78444366129243
 20
1.093492127776876
 30
0.0
 10
-8.732142856269739
 20
-0.0000000000000924
 30
0.0
  0
SPLINE
  5
1CF7
330
1F
100
AcDbEntity
  8
AM_0
100
AcDbSpline
210
0.0
220
0.0
230
1.0
 70
     8
 71
     3
 72
     8
 73
     4
 74
     0
 42
0.0000000001
 43
0.0000000001
 40
4.979980140472286
 40
4.979980140472286
 40
4.979980140472286
 40
4.979980140472286
 40
17.31342149474397
 40
17.31342149474397
 40
17.31342149474397
 40
17.31342149474397
 10
-15.0
 20
2.590805103675242
 30
0.0
 10
-12.89284324064309
 20
2.07884826681242
 30
0.0
 10
-9.812386927324205
 20
1.039424133406239
 30
0.0
 10
-7.803359186826677
 20
-0.0000000000000924
 30
0.0
  0
SPLINE
  5
1CF8
330
1F
100
AcDbEntity
  8
AM_0
100
AcDbSpline
210
0.0
220
0.0
230
1.0
 70
     8
 71
     3
 72
     8
 73
     4
 74
     0
 42
0.0000000001
 43
0.0000000001
 40
0.0
 40
0.0
 40
0.0
 40
0.0
 40
11.99486664936919
 40
11.99486664936919
 40
11.99486664936919
 40
11.99486664936919
 10
-7.803359186826668
 20
-2.918242786671939
 30
0.0
 10
-9.945299659714061
 20
-2.918242786671939
 30
0.0
 10
-13.02837651429775
 20
-2.217890631798647
 30
0.0
 10
-14.99999999999999
 20
-1.302395482347468
 30
0.0
  0
SPLINE
  5
1CF9
330
1F
100
AcDbEntity
  8
AM_0
100
AcDbSpline
210
0.0
220
0.0
230
1.0
 70
     8
 71
     3
 72
     8
 73
     4
 74
     0
 42
0.0000000001
 43
0.0000000001
 40
0.0
 40
0.0
 40
0.0
 40
0.0
 40
12.31576592654833
 40
12.31576592654833
 40
12.31576592654833
 40
12.31576592654833
 10
-8.73214285626973
 20
-2.999999999700103
 30
0.0
 10
-10.93138677150469
 20
-2.99999999970011
 30
0.0
 10
-14.05806852688068
 20
-2.245857881918433
 30
0.0
 10
-16.07142857132117
 20
-1.272303172022501
 30
0.0
  0
SPLINE
  5
1CFA
330
1F
100
AcDbEntity
  8
AM_0
100
AcDbSpline
210
0.0
220
0.0
230
1.0
 70
     8
 71
     3
 72
     8
 73
     4
 74
     0
 42
0.0000000001
 43
0.0000000001
 40
0.0
 40
0.0
 40
0.0
 40
0.0
 40
2.517158218102851
 40
2.517158218102851
 40
2.517158218102851
 40
2.517158218102851
 10
-8.732142856269437
 20
-2.999999999700035
 30
0.0
 10
-8.28265031736752
 20
-2.999999999700033
 30
0.0
 10
-7.839172738111777
 20
-2.968497038907532
 30
0.0
 10
-7.400838427075399
 20
-2.910056544602323
 30
0.0
  0
SPLINE
  5
1CFB
330
1F
100
AcDbEntity
  8
AM_0
100
AcDbSpline
210
0.0
220
0.0
230
1.0
 70
     8
 71
     3
 72
     8
 73
     4
 74
     0
 42
0.0000000001
 43
0.0000000001
 40
0.3741227999429939
 40
0.3741227999429939
 40
0.3741227999429939
 40
0.3741227999429939
 40
17.19652136594934
 40
17.19652136594934
 40
17.19652136594934
 40
17.19652136594934
 10
-15.53571428566147
 20
2.738066384184171
 30
0.0
 10
-12.54182485688762
 20
2.680386950329959
 30
0.0
 10
-8.70131177964361
 20
1.340193475164937
 30
0.0
 10
-5.932227275220967
 20
-0.0000000000000853
 30
0.0
  0
SPLINE
  5
1CFC
330
1F
100
AcDbEntity
  8
AM_0
100
AcDbSpline
210
0.0
220
0.0
230
1.0
 70
     8
 71
     3
 72
     8
 73
     4
 74
     0
 42
0.0000000001
 43
0.0000000001
 40
0.0
 40
0.0
 40
0.0
 40
0.0
 40
16.79135171574957
 40
16.79135171574957
 40
16.79135171574957
 40
16.79135171574957
 10
-5.932227275220959
 20
-2.73999758592722
 30
0.0
 10
-8.930682938447672
 20
-2.73999758592723
 30
0.0
 10
-12.77161014282211
 20
-1.43379573636268
 30
0.0
 10
-15.53571428566058
 20
-0.0968182819408177
 30
0.0
  0
SPLINE
  5
1CFD
330
1F
100
AcDbEntity
  8
AM_0
100
AcDbSpline
210
0.0
220
0.0
230
1.0
 70
     8
 71
     3
 72
     8
 73
     4
 74
     0
 42
0.0000000001
 43
0.0000000001
 40
0.0
 40
0.0
 40
0.0
 40
0.0
 40
3.622973205791074
 40
3.622973205791074
 40
3.622973205791074
 40
3.622973205791074
 10
-7.803359186826668
 20
-2.918242786671868
 30
0.0
 10
-7.156399685857087
 20
-2.918242786671864
 30
0.0
 10
-6.521326788592194
 20
-2.854349406365376
 30
0.0
 10
-5.895653127255227
 20
-2.739932851343745
 30
0.0
  0
SPLINE
  5
1CFE
330
1F
100
AcDbEntity
  8
AM_0
100
AcDbSpline
210
0.0
220
0.0
230
1.0
 70
     8
 71
     3
 72
     8
 73
     4
 74
     0
 42
0.0000000001
 43
0.0000000001
 40
0.7542149290734848
 40
0.7542149290734848
 40
0.7542149290734848
 40
0.7542149290734848
 40
15.25407255263387
 40
15.25407255263387
 40
15.25407255263387
 40
15.25407255263387
 10
-7.400838427858882
 20
2.910056544633935
 30
0.0
 10
-4.830953614755708
 20
2.805908654857869
 30
0.0
 10
-2.443169510681177
 20
1.722925250299859
 30
0.0
 10
-0.0780319567908741
 20
0.5182111412017321
 30
0.0
  0
SPLINE
  5
1CFF
330
1F
100
AcDbEntity
  8
AM_0
100
AcDbSpline
210
0.0
220
0.0
230
1.0
 70
     8
 71
     3
 72
     8
 73
     4
 74
     0
 42
0.0000000001
 43
0.0000000001
 40
0.0
 40
0.0
 40
0.0
 40
0.0
 40
14.4743547145472
 40
14.4743547145472
 40
14.4743547145472
 40
14.4743547145472
 10
-8.732142856269456
 20
2.999999999699916
 30
0.0
 10
-5.630495417437913
 20
2.999999999699927
 30
0.0
 10
-2.815247708718957
 20
1.499999999849929
 30
0.0
 10
0.0
 20
-0.0000000000000711
 30
0.0
  0
SPLINE
  5
1D00
330
1F
100
AcDbEntity
  8
AM_0
100
AcDbSpline
210
0.0
220
0.0
230
1.0
 70
     8
 71
     3
 72
     8
 73
     4
 74
     0
 42
0.0000000001
 43
0.0000000001
 40
0.0
 40
0.0
 40
0.0
 40
0.0
 40
14.4743547145472
 40
14.4743547145472
 40
14.4743547145472
 40
14.4743547145472
 10
0.0000000000000087
 20
-2.999999999700079
 30
0.0
 10
-3.101647438831534
 20
-2.999999999700087
 30
0.0
 10
-5.916895147550491
 20
-1.499999999850089
 30
0.0
 10
-8.732142856269446
 20
-0.0000000000000924
 30
0.0
  0
SPLINE
  5
1D01
330
1F
100
AcDbEntity
  8
AM_0
100
AcDbSpline
210
0.0
220
0.0
230
1.0
 70
     8
 71
     3
 72
     8
 73
     4
 74
     0
 42
0.0000000001
 43
0.0000000001
 40
1.896971601180474
 40
1.896971601180474
 40
1.896971601180474
 40
1.896971601180474
 40
17.313421494744
 40
17.313421494744
 40
17.313421494744
 40
17.313421494744
 10
-0.0780319567894021
 20
-2.867612515164829
 30
0.0
 10
-2.780904446660793
 20
-2.598501036414965
 30
0.0
 10
-5.292131816743737
 20
-1.299250518207461
 30
0.0
 10
-7.803359186826677
 20
-0.0000000000000924
 30
0.0
  0
LINE
  5
1D02
330
1F
100
AcDbEntity
  8
AM_11
100
AcDbLine
 10
-15.00000000000001
 20
2.99999999999999
 30
0.0
 11
-14.99999999999998
 21
-3.000000000000007
 31
0.0
  0
LINE
  5
1D03
330
1F
100
AcDbEntity
  8
AM_0
100
AcDbLine
 10
-14.99999999999999
 20
-1.764734701299337
 30
0.0
 11
-14.99999999999999
 21
-1.302395482347468
 31
0.0
  0
LINE
  5
1D04
330
1F
100
AcDbEntity
  8
AM_0
100
AcDbLine
 10
-15.53571428566058
 20
-0.0968182819408177
 30
0.0
 11
-15.53571428566058
 21
-1.177191167529121
 31
0.0
  0
LINE
  5
1D05
330
1F
100
AcDbEntity
  8
AM_0
100
AcDbLine
 10
-15.53571428566059
 20
2.671752926300913
 30
0.0
 11
-15.53571428566059
 21
2.738066384184103
 31
0.0
  0
LINE
  5
1D06
330
1F
100
AcDbEntity
  8
AM_0
100
AcDbLine
 10
-15.0
 20
2.397910205964385
 30
0.0
 11
-15.0
 21
2.590805103675722
 31
0.0
  0
LINE
  5
1D07
330
1F
100
AcDbEntity
  8
AM_0
100
AcDbLine
 10
0.0000000000000087
 20
-2.999999999700079
 30
0.0
 11
-0.0000000000000084
 21
2.999999999699941
 31
0.0
  0
LINE
  5
1D08
330
1F
100
AcDbEntity
  8
AM_0
100
AcDbLine
 10
-0.0780319567894021
 20
-2.867612515164829
 30
0.0
 11
-0.0780319567894088
 21
-0.5335358995184621
 31
0.0
  0
LINE
  5
1D09
330
1F
100
AcDbEntity
  8
AM_0
100
AcDbLine
 10
-0.0780319567894021
 20
-2.867612515164829
 30
0.0
 11
-0.7303272646583925
 21
-2.186455552846073
 31
0.0
  0
LINE
  5
1D0A
330
1F
100
AcDbEntity
  8
AM_0
100
AcDbLine
 10
-0.0780319567894021
 20
-2.867612515164829
 30
0.0
 11
-0.0000000000002838
 21
-2.999999999700079
 31
0.0
  0
LINE
  5
1D0B
330
1F
100
AcDbEntity
  8
AM_0
100
AcDbLine
 10
-0.0780319567894123
 20
0.5182111412039135
 30
0.0
 11
-0.7554085436436293
 21
1.613245094540502
 31
0.0
  0
LINE
  5
1D0C
330
1F
100
AcDbEntity
  8
AM_0
100
AcDbLine
 10
-0.4088986932619847
 20
-0.0348881478332039
 30
0.0
 11
0.0
 21
-0.074999999992567
 31
0.0
  0
LINE
  5
1D0D
330
1F
100
AcDbEntity
  8
AM_0
100
AcDbLine
 10
-0.6753026782901719
 20
-0.507334430825523
 30
0.0
 11
-0.4088986932619823
 21
-0.851176522791416
 31
0.0
  0
LINE
  5
1D0E
330
1F
100
AcDbEntity
  8
AM_0
100
AcDbLine
 10
-0.4167202502165156
 20
-0.8586854197343249
 30
0.0
 11
0.0000000000000018
 21
-0.4586232030833131
 31
0.0
  0
LINE
  5
1D0F
330
1F
100
AcDbEntity
  8
AM_0
100
AcDbLine
 10
0.0
 20
0.0
 30
0.0
 11
-0.0780319567894123
 21
0.5182111412039135
 31
0.0
  0
DIMENSION
  5
1D56
330
1F
100
AcDbEntity
  8
AM_5
100
AcDbDimension
  2
*D8
 10
-56.39999999999999
 20
3.00000000041999
 30
0.0
 11
-57.94999999999999
 21
-0.0000000000002386
 31
0.0
 70
    32
  1
%%c<>
  3
AM_JIS
100
AcDbAlignedDimension
 13
-49.39999999999999
 23
-3.000000000420452
 33
0.0
 14
-49.39999999999999
 24
3.000000000419988
 34
0.0
 50
270.0
100
AcDbRotatedDimension
1001
GENIUS_GENDTOL_13
1000

1000
h7
1000

1040
0.0
  0
LINE
  5
1E07
330
1F
100
AcDbEntity
  8
AM_11
 48
0.6
100
AcDbLine
 10
-0.0000000000001344
 20
-2.999999999999999
 30
0.0
 11
-14.99999999999998
 21
-3.000000000000007
 31
0.0
1001
GENIUS_GENODEF_13
1002
{
1000
HIER
1070
     0
1002
}
1002
{
1000
MANEDIT
1070
     0
1002
}
1002
{
1000
NOSEL
1070
     0
1002
}
1002
{
1000
BEHIND
1070
     0
1002
}
1002
{
1000
OTHER
1070
     0
1002
}
1002
{
1000
REACTOR
1002
}
1001
GENIUS_GENOBJ-N-CEN_13
1002
{
1000
OWNER
1000
GEN
1002
}
  0
LINE
  5
1E0B
330
1F
100
AcDbEntity
  8
AM_11
 48
0.6
100
AcDbLine
 10
-0.0000000000001333
 20
3.0
 30
0.0
 11
-15.00000000000001
 21
2.999999999999991
 31
0.0
1001
GENIUS_GENODEF_13
1002
{
1000
HIER
1070
     0
1002
}
1002
{
1000
MANEDIT
1070
     0
1002
}
1002
{
1000
NOSEL
1070
     0
1002
}
1002
{
1000
BEHIND
1070
     0
1002
}
1002
{
1000
OTHER
1070
     0
1002
}
1002
{
1000
REACTOR
1002
}
1001
GENIUS_GENOBJ-N-CEN_13
1002
{
1000
OWNER
1000
GEN
1002
}
  0
LINE
  5
1E0E
330
1F
100
AcDbEntity
  8
AM_11
100
AcDbLine
 10
-0.0000000000001333
 20
3.0
 30
0.0
 11
-0.0000000000001344
 21
-2.999999999999999
 31
0.0
  0
VIEWPORT
  5
110
330
101
100
AcDbEntity
 67
     1
  8
0
100
AcDbViewport
 10
420.5
 20
297.0
 30
0.0
 40
948.9782706766916
 41
628.452
 68
     1
 69
     1
1001
ACAD
1000
MVIEW
1002
{
1070
    16
1010
0.0
1020
0.0
1030
0.0
1010
0.0
1020
0.0
1030
1.0
1040
0.0
1040
628.452
1040
420.5
1040
297.0
1040
50.0
1040
0.0
1040
0.0
1070
     0
1070
   100
1070
     1
1070
     1
1070
     0
1070
     0
1070
     0
1070
     0
1040
0.0
1040
0.0
1040
0.0
1040
10.0
1040
10.0
1040
10.0
1040
10.0
1070
     0
1002
{
1002
}
1002
}
  0
ENDSEC
  0
SECTION
  2
OBJECTS
  0
DICTIONARY
  5
C
330
0
100
AcDbDictionary
  3
ACAD_GROUP
350
D
  3
ACAD_LAYOUT
350
1A
  3
ACAD_MLINESTYLE
350
17
  3
ACAD_PLOTSETTINGS
350
19
  3
ACAD_PLOTSTYLENAME
350
E
  3
ACDBVARIABLEDICTIONARY
350
34
  3
ACMDICTIONARY
350
43
  3
AMG
350
2B
  3
AMGSNAPSETTINGS
350
6E
  3
DWGPROPS
350
1E34
  3
ACDBHEADERROUNDTRIPXREC
350
1E40
  0
DICTIONARY
  5
74
330
1F
100
AcDbDictionary
280
     1
  3
ACAD_INDEX
360
1E36
  3
ACAD_LAYOUTSELFREF
360
1E63
  0
DICTIONARY
  5
1E68
330
101
100
AcDbDictionary
280
     1
  3
ACAD_LAYOUTSELFREF
360
1E69
  0
DICTIONARY
  5
D
102
{ACAD_REACTORS
330
C
102
}
330
C
100
AcDbDictionary
  0
DICTIONARY
  5
1A
102
{ACAD_REACTORS
330
C
102
}
330
C
100
AcDbDictionary
  0
DICTIONARY
  5
17
102
{ACAD_REACTORS
330
C
102
}
330
C
100
AcDbDictionary
  3
STANDARD
350
18
  0
DICTIONARY
  5
19
102
{ACAD_REACTORS
330
C
102
}
330
C
100
AcDbDictionary
  0
ACDBDICTIONARYWDFLT
  5
E
102
{ACAD_REACTORS
330
C
102
}
330
C
100
AcDbDictionary
281
     1
  3
Normal
350
F
100
AcDbDictionaryWithDefault
340
F
  0
DICTIONARY
  5
34
102
{ACAD_REACTORS
330
C
102
}
330
C
100
AcDbDictionary
  3
INDEXCTL
350
35
  3
SORTENTS
350
B5E
  0
DICTIONARY
  5
43
102
{ACAD_REACTORS
330
C
102
}
330
C
100
AcDbDictionary
  3
ACMSTDDICTIONARY
350
260
  0
DICTIONARY
  5
2B
102
{ACAD_REACTORS
330
C
102
}
330
C
100
AcDbDictionary
  3
ACMGSETTINGS
350
2C
  0
DICTIONARY
  5
6E
102
{ACAD_REACTORS
330
C
102
}
330
C
100
AcDbDictionary
  0
XRECORD
  5
1E34
102
{ACAD_REACTORS
330
C
102
}
330
C
100
AcDbXrecord
  1
DWGPROPS COOKIE
  2

  3

  4

  6

  7

  8

  9

300
AmdtFileType=82
301
=
302
=
303
=
304
=
305
=
306
=
307
=
308
=
309
=
 40
0.0853906712962963
 41
2452802.716478761
 42
2453043.67152574
  1

 90
        1
  0
DICTIONARY
  5
1E40
102
{ACAD_REACTORS
330
C
102
}
330
C
100
AcDbDictionary
  3
TSTACKALIGN
350
1E41
  3
TSTACKSIZE
350
1E42
  3
HYPERLINKBASE
350
1E43
  3
STYLESHEET
350
1E44
  3
LAYOUTDICT
350
1E45
  3
PLOTSETDICT
350
1E46
  3
PLOTSTYLNAMDICT
350
1E47
  3
LWETCUNION
350
1E48
  3
INSUNITS
350
1E49
  3
CEPSNTYPE
350
1E4A
  3
FINGERPRINTGUID
350
1E4B
  3
VERSIONGUID
350
1E4C
  3
PSVPSCALE
350
1E4D
  3
DIMSTYLEDATA
350
1E4E
  3
PUCSORTHOREF
350
1E4F
  3
PUCSORTHOVIEW
350
1E50
  3
PUCSBASE
350
1E51
  3
PUCSORGTOP
350
1E52
  3
PUCSORGBOTTOM
350
1E53
  3
PUCSORGLEFT
350
1E54
  3
PUCSORGRIGHT
350
1E55
  3
PUCSORGFRONT
350
1E56
  3
PUCSORGBACK
350
1E57
  3
UCSORTHOREF
350
1E58
  3
UCSORTHOVIEW
350
1E59
  3
UCSBASE
350
1E5A
  3
UCSORGTOP
350
1E5B
  3
UCSORGBOTTOM
350
1E5C
  3
UCSORGLEFT
350
1E5D
  3
UCSORGRIGHT
350
1E5E
  3
UCSORGFRONT
350
1E5F
  3
UCSORGBACK
350
1E60
  0
DICTIONARY
  5
1E36
102
{ACAD_REACTORS
330
74
102
}
330
74
100
AcDbDictionary
  3
*A1
350
1E37
  0
XRECORD
  5
1E63
102
{ACAD_REACTORS
330
74
102
}
330
74
100
AcDbXrecord
340
1F
  0
XRECORD
  5
1E69
102
{ACAD_REACTORS
330
1E68
102
}
330
1E68
100
AcDbXrecord
340
101
  0
MLINESTYLE
  5
18
102
{ACAD_REACTORS
330
17
102
}
330
17
100
AcDbMlineStyle
  2
STANDARD
 70
     0
  3

 62
   256
 51
90.0
 52
90.0
 71
     2
 49
0.5
 62
   256
  6
BYLAYER
 49
-0.5
 62
   256
  6
BYLAYER
  0
ACDBPLACEHOLDER
  5
F
102
{ACAD_REACTORS
330
E
102
}
330
E
100
AcDbPlaceHolder
280
     0
  0
DICTIONARYVAR
  5
35
102
{ACAD_REACTORS
330
34
102
}
330
34
100
DictionaryVariables
280
     0
  1
1
  0
DICTIONARYVAR
  5
B5E
102
{ACAD_REACTORS
330
34
102
}
330
34
100
DictionaryVariables
280
     0
  1
96
  0
DICTIONARY
  5
260
102
{ACAD_REACTORS
330
43
102
}
330
43
100
AcDbDictionary
  0
DICTIONARY
  5
2C
102
{ACAD_REACTORS
330
2B
102
}
330
2B
100
AcDbDictionary
  3
DWGSETTINGS
350
2D
  0
XRECORD
  5
1E41
102
{ACAD_REACTORS
330
1E40
102
}
330
1E40
100
AcDbXrecord
 90
        1
  0
XRECORD
  5
1E42
102
{ACAD_REACTORS
330
1E40
102
}
330
1E40
100
AcDbXrecord
 90
       70
  0
XRECORD
  5
1E43
102
{ACAD_REACTORS
330
1E40
102
}
330
1E40
100
AcDbXrecord
  1

  0
XRECORD
  5
1E44
102
{ACAD_REACTORS
330
1E40
102
}
330
1E40
100
AcDbXrecord
  1
ASAMI.ctb
  0
XRECORD
  5
1E45
102
{ACAD_REACTORS
330
1E40
102
}
330
1E40
100
AcDbXrecord
340
1A
  0
XRECORD
  5
1E46
102
{ACAD_REACTORS
330
1E40
102
}
330
1E40
100
AcDbXrecord
340
19
  0
XRECORD
  5
1E47
102
{ACAD_REACTORS
330
1E40
102
}
330
1E40
100
AcDbXrecord
340
E
  0
XRECORD
  5
1E48
102
{ACAD_REACTORS
330
1E40
102
}
330
1E40
100
AcDbXrecord
 90
    10781
  0
XRECORD
  5
1E49
102
{ACAD_REACTORS
330
1E40
102
}
330
1E40
100
AcDbXrecord
 90
        4
  0
XRECORD
  5
1E4A
102
{ACAD_REACTORS
330
1E40
102
}
330
1E40
100
AcDbXrecord
 90
        0
  0
XRECORD
  5
1E4B
102
{ACAD_REACTORS
330
1E40
102
}
330
1E40
100
AcDbXrecord
  1
{AFB28963-8C59-40AE-9337-C84526B81ACE}
  0
XRECORD
  5
1E4C
102
{ACAD_REACTORS
330
1E40
102
}
330
1E40
100
AcDbXrecord
  1
{2AE4C4F4-5116-4251-A9DF-9A9284AAA9D0}
  0
XRECORD
  5
1E4D
102
{ACAD_REACTORS
330
1E40
102
}
330
1E40
100
AcDbXrecord
 40
0.0
  0
XRECORD
  5
1E4E
102
{ACAD_REACTORS
330
1E40
102
}
330
1E40
100
AcDbXrecord
1000
DSTYLE
1002
{
1070
    79
 70
     2
1070
   341
340
59
1070
   342
340
59
1070
   371
 70
    -1
1070
   372
 70
    -1
1002
}
  0
XRECORD
  5
1E4F
102
{ACAD_REACTORS
330
1E40
102
}
330
1E40
100
AcDbXrecord
340
0
  0
XRECORD
  5
1E50
102
{ACAD_REACTORS
330
1E40
102
}
330
1E40
100
AcDbXrecord
 70
     0
  0
XRECORD
  5
1E51
102
{ACAD_REACTORS
330
1E40
102
}
330
1E40
100
AcDbXrecord
340
0
  0
XRECORD
  5
1E52
102
{ACAD_REACTORS
330
1E40
102
}
330
1E40
100
AcDbXrecord
 10
0.0
 20
0.0
 30
0.0
  0
XRECORD
  5
1E53
102
{ACAD_REACTORS
330
1E40
102
}
330
1E40
100
AcDbXrecord
 10
0.0
 20
0.0
 30
0.0
  0
XRECORD
  5
1E54
102
{ACAD_REACTORS
330
1E40
102
}
330
1E40
100
AcDbXrecord
 10
0.0
 20
0.0
 30
0.0
  0
XRECORD
  5
1E55
102
{ACAD_REACTORS
330
1E40
102
}
330
1E40
100
AcDbXrecord
 10
0.0
 20
0.0
 30
0.0
  0
XRECORD
  5
1E56
102
{ACAD_REACTORS
330
1E40
102
}
330
1E40
100
AcDbXrecord
 10
0.0
 20
0.0
 30
0.0
  0
XRECORD
  5
1E57
102
{ACAD_REACTORS
330
1E40
102
}
330
1E40
100
AcDbXrecord
 10
0.0
 20
0.0
 30
0.0
  0
XRECORD
  5
1E58
102
{ACAD_REACTORS
330
1E40
102
}
330
1E40
100
AcDbXrecord
340
0
  0
XRECORD
  5
1E59
102
{ACAD_REACTORS
330
1E40
102
}
330
1E40
100
AcDbXrecord
 70
     0
  0
XRECORD
  5
1E5A
102
{ACAD_REACTORS
330
1E40
102
}
330
1E40
100
AcDbXrecord
340
0
  0
XRECORD
  5
1E5B
102
{ACAD_REACTORS
330
1E40
102
}
330
1E40
100
AcDbXrecord
 10
0.0
 20
0.0
 30
0.0
  0
XRECORD
  5
1E5C
102
{ACAD_REACTORS
330
1E40
102
}
330
1E40
100
AcDbXrecord
 10
0.0
 20
0.0
 30
0.0
  0
XRECORD
  5
1E5D
102
{ACAD_REACTORS
330
1E40
102
}
330
1E40
100
AcDbXrecord
 10
0.0
 20
0.0
 30
0.0
  0
XRECORD
  5
1E5E
102
{ACAD_REACTORS
330
1E40
102
}
330
1E40
100
AcDbXrecord
 10
0.0
 20
0.0
 30
0.0
  0
XRECORD
  5
1E5F
102
{ACAD_REACTORS
330
1E40
102
}
330
1E40
100
AcDbXrecord
 10
0.0
 20
0.0
 30
0.0
  0
XRECORD
  5
1E60
102
{ACAD_REACTORS
330
1E40
102
}
330
1E40
100
AcDbXrecord
 10
0.0
 20
0.0
 30
0.0
  0
LAYER_INDEX
  5
1E37
102
{ACAD_REACTORS
330
1E36
102
}
330
1E36
100
AcDbIndex
 40
2453152.360219688
100
AcDbLayerIndex
  8
0
360
1E38
 90
        0
  8
AM_0
360
1E39
 90
       51
  8
AM_5
360
1E3A
 90
        4
  8
AM_11
360
1E3B
 90
        4
  8
AM_7
360
1E3C
 90
        1
  8
AM_6
360
1E3D
 90
        1
  8
Defpoints
360
1E3E
 90
        0
  0
XRECORD
  5
2D
102
{ACAD_REACTORS
330
2C
102
}
330
2C
100
AcDbXrecord
  1
VERSION
140
15.0
  1
PRODUCT
  2
AutoCAD Mechanical 2000
  0
IDBUFFER
  5
1E38
330
0
100
AcDbIdBuffer
  0
IDBUFFER
  5
1E39
330
0
100
AcDbIdBuffer
330
1D0D
330
1D0E
330
1D0F
330
C63
330
C64
330
C66
330
C68
330
C69
330
C6E
330
1CE2
330
1CE3
330
1CE4
330
1CE5
330
1CE6
330
1CE7
330
1CE8
330
1CE9
330
1CEA
330
1CEB
330
1CEC
330
1CED
330
1CEE
330
1CEF
330
1CF0
330
1CF1
330
1CF2
330
1CF3
330
1CF4
330
1CF5
330
1CF6
330
1CF7
330
1CF8
330
1CF9
330
1CFA
330
1CFB
330
1CFC
330
1CFD
330
1CFE
330
1CFF
330
1D00
330
1D01
330
1D03
330
1D04
330
1D05
330
1D06
330
1D07
330
1D08
330
1D09
330
1D0A
330
1D0B
330
1D0C
  0
IDBUFFER
  5
1E3A
330
0
100
AcDbIdBuffer
330
1536
330
15C5
330
1656
330
1D56
  0
IDBUFFER
  5
1E3B
330
0
100
AcDbIdBuffer
330
1D02
330
1E07
330
1E0B
330
1E0E
  0
IDBUFFER
  5
1E3C
330
0
100
AcDbIdBuffer
330
C5C
  0
IDBUFFER
  5
1E3D
330
0
100
AcDbIdBuffer
330
E66
  0
IDBUFFER
  5
1E3E
330
0
100
AcDbIdBuffer
  0
ENDSEC
  0
EOF
