  0
SECTION
  2
HEADER
  9
$ACADVER
  1
AC1014
  9
$ACADMAINTVER
 70
     9
  9
$DWGCODEPAGE
  3
ANSI_932
  9
$INSBASE
 10
0.0
 20
0.0
 30
0.0
  9
$EXTMIN
 10
-119.3500000000002
 20
-50.25000000000034
 30
0.0
  9
$EXTMAX
 10
9.204842461199024
 20
18.34999999999986
 30
0.0
  9
$LIMMIN
 10
-116.0947355147977
 20
-60.83735851829238
  9
$LIMMAX
 10
28.53504924423896
 20
24.36039903393794
  9
$ORTHOMODE
 70
     0
  9
$REGENMODE
 70
     1
  9
$FILLMODE
 70
     1
  9
$QTEXTMODE
 70
     0
  9
$MIRRTEXT
 70
     0
  9
$DRAGMODE
 70
     2
  9
$LTSCALE
 40
1.0
  9
$OSMODE
 70
    55
  9
$ATTMODE
 70
     1
  9
$TEXTSIZE
 40
2.5
  9
$TRACEWID
 40
1.0
  9
$TEXTSTYLE
  7
STANDARD
  9
$CLAYER
  8
AM_0
  9
$CELTYPE
  6
BYLAYER
  9
$CECOLOR
 62
   256
  9
$CELTSCALE
 40
1.0
  9
$DELOBJ
 70
     1
  9
$DISPSILH
 70
     0
  9
$DIMSCALE
 40
0.5
  9
$DIMASZ
 40
2.5
  9
$DIMEXO
 40
1.0
  9
$DIMDLI
 40
12.0
  9
$DIMRND
 40
0.0
  9
$DIMDLE
 40
0.0
  9
$DIMEXE
 40
1.0
  9
$DIMTP
 40
0.1
  9
$DIMTM
 40
0.1
  9
$DIMTXT
 40
3.2
  9
$DIMCEN
 40
0.0
  9
$DIMTSZ
 40
0.0
  9
$DIMTOL
 70
     0
  9
$DIMLIM
 70
     0
  9
$DIMTIH
 70
     0
  9
$DIMTOH
 70
     0
  9
$DIMSE1
 70
     0
  9
$DIMSE2
 70
     0
  9
$DIMTAD
 70
     3
  9
$DIMZIN
 70
     8
  9
$DIMBLK
  1
OPEN30
  9
$DIMASO
 70
     1
  9
$DIMSHO
 70
     1
  9
$DIMPOST
  1

  9
$DIMAPOST
  1
"
  9
$DIMALT
 70
     0
  9
$DIMALTD
 70
     2
  9
$DIMALTF
 40
0.0393701
  9
$DIMLFAC
 40
1.0
  9
$DIMTOFL
 70
     1
  9
$DIMTVP
 40
0.0
  9
$DIMTIX
 70
     0
  9
$DIMSOXD
 70
     0
  9
$DIMSAH
 70
     0
  9
$DIMBLK1
  1

  9
$DIMBLK2
  1

  9
$DIMSTYLE
  2
AM_JIS
  9
$DIMCLRD
 70
   256
  9
$DIMCLRE
 70
   256
  9
$DIMCLRT
 70
     2
  9
$DIMTFAC
 40
0.71
  9
$DIMGAP
 40
1.5
  9
$DIMJUST
 70
     0
  9
$DIMSD1
 70
     0
  9
$DIMSD2
 70
     0
  9
$DIMTOLJ
 70
     0
  9
$DIMTZIN
 70
     0
  9
$DIMALTZ
 70
     0
  9
$DIMALTTZ
 70
     0
  9
$DIMFIT
 70
     3
  9
$DIMUPT
 70
     0
  9
$DIMUNIT
 70
     2
  9
$DIMDEC
 70
     3
  9
$DIMTDEC
 70
     3
  9
$DIMALTU
 70
     2
  9
$DIMALTTD
 70
     2
  9
$DIMTXSTY
  7
ASAMI
  9
$DIMAUNIT
 70
     0
  9
$LUNITS
 70
     2
  9
$LUPREC
 70
     2
  9
$SKETCHINC
 40
1.0
  9
$FILLETRAD
 40
0.8
  9
$AUNITS
 70
     0
  9
$AUPREC
 70
     0
  9
$MENU
  1
.
  9
$ELEVATION
 40
0.0
  9
$PELEVATION
 40
0.0
  9
$THICKNESS
 40
0.0
  9
$LIMCHECK
 70
     0
  9
$BLIPMODE
 70
     0
  9
$CHAMFERA
 40
0.4
  9
$CHAMFERB
 40
0.4
  9
$CHAMFERC
 40
20.0
  9
$CHAMFERD
 40
0.0
  9
$SKPOLY
 70
     0
  9
$TDCREATE
 40
2452802.716478761
  9
$TDUPDATE
 40
2453152.424692361
  9
$TDINDWG
 40
0.4240043171
  9
$TDUSRTIMER
 40
0.4240043171
  9
$USRTIMER
 70
     1
  9
$ANGBASE
 50
0.0
  9
$ANGDIR
 70
     0
  9
$PDMODE
 70
     0
  9
$PDSIZE
 40
0.0
  9
$PLINEWID
 40
0.0
  9
$COORDS
 70
     1
  9
$SPLFRAME
 70
     0
  9
$SPLINETYPE
 70
     6
  9
$SPLINESEGS
 70
     8
  9
$ATTDIA
 70
     1
  9
$ATTREQ
 70
     1
  9
$HANDLING
 70
 12289
  9
$HANDSEED
  5
4EB9
  9
$SURFTAB1
 70
     6
  9
$SURFTAB2
 70
     6
  9
$SURFTYPE
 70
     6
  9
$SURFU
 70
     6
  9
$SURFV
 70
     6
  9
$UCSNAME
  2

  9
$UCSORG
 10
-0.0000000000002625
 20
-0.0000000000001255
 30
0.0
  9
$UCSXDIR
 10
1.0
 20
0.000000000000002
 30
0.0
  9
$UCSYDIR
 10
-0.000000000000002
 20
1.0
 30
0.0
  9
$PUCSNAME
  2

  9
$PUCSORG
 10
0.0
 20
0.0
 30
0.0
  9
$PUCSXDIR
 10
1.0
 20
0.0
 30
0.0
  9
$PUCSYDIR
 10
0.0
 20
1.0
 30
0.0
  9
$USERI1
 70
     0
  9
$USERI2
 70
     0
  9
$USERI3
 70
     0
  9
$USERI4
 70
     0
  9
$USERI5
 70
     0
  9
$USERR1
 40
0.0
  9
$USERR2
 40
0.0
  9
$USERR3
 40
0.0
  9
$USERR4
 40
0.0
  9
$USERR5
 40
0.0
  9
$WORLDVIEW
 70
     1
  9
$SHADEDGE
 70
     3
  9
$SHADEDIF
 70
    70
  9
$TILEMODE
 70
     1
  9
$MAXACTVP
 70
    64
  9
$PINSBASE
 10
0.0
 20
0.0
 30
0.0
  9
$PLIMCHECK
 70
     0
  9
$PEXTMIN
 10
1.000000000000000E+20
 20
1.000000000000000E+20
 30
1.000000000000000E+20
  9
$PEXTMAX
 10
-1.000000000000000E+20
 20
-1.000000000000000E+20
 30
-1.000000000000000E+20
  9
$PLIMMIN
 10
0.0
 20
0.0
  9
$PLIMMAX
 10
841.0
 20
594.0
  9
$UNITMODE
 70
     0
  9
$VISRETAIN
 70
     1
  9
$PLINEGEN
 70
     0
  9
$PSLTSCALE
 70
     0
  9
$TREEDEPTH
 70
  3020
  9
$PICKSTYLE
 70
     0
  9
$CMLSTYLE
  2
STANDARD
  9
$CMLJUST
 70
     0
  9
$CMLSCALE
 40
20.0
  9
$PROXYGRAPHICS
 70
     1
  9
$MEASUREMENT
 70
     1
  0
ENDSEC
  0
SECTION
  2
CLASSES
  0
CLASS
  1
ACDBDICTIONARYWDFLT
  2
AcDbDictionaryWithDefault
  3
AutoCAD 2000
 90
        0
280
     0
281
     0
  0
CLASS
  1
ACDBPLACEHOLDER
  2
AcDbPlaceHolder
  3
AutoCAD 2000
 90
        0
280
     0
281
     0
  0
CLASS
  1
LAYOUT
  2
AcDbLayout
  3
AutoCAD 2000
 90
        0
280
     0
281
     0
  0
CLASS
  1
AMGSETTINGSOBJ
  2
AmgSettingsObj
  3
"AcadM|Product Description: AutoCAD Mechanical 2000|Company: Autodesk"
 90
        0
280
     0
281
     0
  0
CLASS
  1
ACME_DOCUMENT
  2
AcMeDbDoc
  3
AcMeServices
 90
        0
280
     0
281
     0
  0
CLASS
  1
ACMESCOPE
  2
AcMeScope
  3
AcMeServices
 90
        0
280
     0
281
     0
  0
CLASS
  1
ACMECOMMANDHISTORY
  2
AcMeCommandHistory
  3
AcMeServices
 90
        0
280
     0
281
     0
  0
CLASS
  1
DICTIONARYVAR
  2
AcDbDictionaryVar
  3
AutoCAD 2000
 90
        0
280
     0
281
     0
  0
CLASS
  1
ACIMSYSVARMAN
  2
AcImSysVarManager
  3
AcMeServices
 90
        0
280
     0
281
     0
  0
CLASS
  1
ACIMREALSYSVAR
  2
AcImRealSysVar
  3
AcMeServices
 90
        0
280
     0
281
     0
  0
CLASS
  1
ACIMINTSYSVAR
  2
AcImIntSysVar
  3
AcMeServices
 90
        0
280
     0
281
     0
  0
CLASS
  1
ACMEDRAWINGMAN
  2
AcMeDrawingMan
  3
AcMeServices
 90
        0
280
     0
281
     0
  0
CLASS
  1
ACMEVIEW
  2
AcMeView
  3
AcMeServices
 90
        0
280
     0
281
     0
  0
CLASS
  1
ACDBENTITYCACHE
  2
AcMeEntityCache
  3
AcMeServices
 90
        0
280
     0
281
     0
  0
CLASS
  1
GSMANAGER
  2
AcMeGSManager
  3
AcMeServices
 90
        0
280
     0
281
     0
  0
CLASS
  1
AmdtInternalReactor
  2
AmdtInternalReactor
  3
AcMeServices
 90
        0
280
     0
281
     0
  0
CLASS
  1
ACMESTATEMGR
  2
AcMeStateMgr
  3
AcMeServices
 90
        0
280
     0
281
     0
  0
CLASS
  1
ACME_DATABASE
  2
AcMeDbDatabase
  3
AcMeServices
 90
        0
280
     0
281
     0
  0
CLASS
  1
ACRFINSADJUSTERMGR
  2
AcRfInsAdjusterMgr
  3
AcMeServices
 90
        0
280
     0
281
     0
  0
CLASS
  1
ACMDATADICTIONARY
  2
AcmDataDictionary
  3
"AcmSymBB|Product Description: AutoCAD Mechanical 2000|Company: Autodesk"
 90
        0
280
     0
281
     0
  0
CLASS
  1
ACMDATAENTRYBLOCK
  2
AcmDataEntryBlock
  3
"AcmSymBB|Product Description: AutoCAD Mechanical 2000|Company: Autodesk"
 90
        0
280
     0
281
     0
  0
CLASS
  1
AMGOBJPROPCFG
  2
AmgObjPropCfg
  3
"AmgLay|Product Description: AutoCAD Mechanical 2000|Company: Autodesk"
 90
        1
280
     0
281
     0
  0
CLASS
  1
ACAMGFILTERDAT
  2
AcAmgFilterDat
  3
"AcadM|Product Description: AutoCAD Mechanical 2000|Company: Autodesk"
 90
        0
280
     0
281
     0
  0
CLASS
  1
LAYER_INDEX
  2
AcDbLayerIndex
  3
AutoCAD 2000
 90
        0
280
     0
281
     0
  0
CLASS
  1
IDBUFFER
  2
AcDbIdBuffer
  3
AutoCAD 2000
 90
        0
280
     0
281
     0
  0
CLASS
  1
ACIMSTRSYSVAR
  2
AcImStrSysVar
  3
AcMeServices
 90
        0
280
     0
281
     0
  0
CLASS
  1
ACMSTANDARDJIS
  2
AcmStandardJIS
  3
"AcmSymBB|Product Description: AutoCAD Mechanical 2000|Company: Autodesk"
 90
        0
280
     0
281
     0
  0
CLASS
  1
ACMSURFSTANDARDJIS
  2
AcmSurfTextStdJIS
  3
"AcmSymBB|Product Description: AutoCAD Mechanical 2000|Company: Autodesk"
 90
        0
280
     0
281
     0
  0
CLASS
  1
ACMFCFSTANDARDJIS
  2
AcmFCFStdJIS
  3
"AcmSymBB|Product Description: AutoCAD Mechanical 2000|Company: Autodesk"
 90
        0
280
     0
281
     0
  0
CLASS
  1
ACMWELDSTANDARDJIS
  2
AcmWeldingStdJIS
  3
"AcmSymBB|Product Description: AutoCAD Mechanical 2000|Company: Autodesk"
 90
        0
280
     0
281
     0
  0
CLASS
  1
ACMIDSTANDARDJIS
  2
AcmIdStdJIS
  3
"AcmSymBB|Product Description: AutoCAD Mechanical 2000|Company: Autodesk"
 90
        0
280
     0
281
     0
  0
CLASS
  1
ACMDATUMSTANDARDJIS
  2
AcmDatumStdJIS
  3
"AcmSymBB|Product Description: AutoCAD Mechanical 2000|Company: Autodesk"
 90
        0
280
     0
281
     0
  0
CLASS
  1
ACMBOMSTANDARDJIS
  2
AcmBOMStdJIS
  3
"AcmSymBB|Product Description: AutoCAD Mechanical 2000|Company: Autodesk"
 90
        0
280
     0
281
     0
  0
CLASS
  1
ACMSTANDARDANSI
  2
AcmStandardANSI
  3
"AcmSymBB|Product Description: AutoCAD Mechanical 2000|Company: Autodesk"
 90
        0
280
     0
281
     0
  0
CLASS
  1
ACMSURFSTANDARDANSI
  2
AcmSurfTextStdANSI
  3
"AcmSymBB|Product Description: AutoCAD Mechanical 2000|Company: Autodesk"
 90
        0
280
     0
281
     0
  0
CLASS
  1
ACMFCFSTANDARDANSI
  2
AcmFCFStdANSI
  3
"AcmSymBB|Product Description: AutoCAD Mechanical 2000|Company: Autodesk"
 90
        0
280
     0
281
     0
  0
CLASS
  1
ACMWELDSTANDARDANSI
  2
AcmWeldingStdANSI
  3
"AcmSymBB|Product Description: AutoCAD Mechanical 2000|Company: Autodesk"
 90
        0
280
     0
281
     0
  0
CLASS
  1
ACMIDSTANDARDANSI
  2
AcmIdStdANSI
  3
"AcmSymBB|Product Description: AutoCAD Mechanical 2000|Company: Autodesk"
 90
        0
280
     0
281
     0
  0
CLASS
  1
ACMDATUMSTANDARDANSI
  2
AcmDatumStdANSI
  3
"AcmSymBB|Product Description: AutoCAD Mechanical 2000|Company: Autodesk"
 90
        0
280
     0
281
     0
  0
CLASS
  1
ACMBOMSTANDARDANSI
  2
AcmBOMStdANSI
  3
"AcmSymBB|Product Description: AutoCAD Mechanical 2000|Company: Autodesk"
 90
        0
280
     0
281
     0
  0
CLASS
  1
ACMSTANDARDBSI
  2
AcmStandardBSI
  3
"AcmSymBB|Product Description: AutoCAD Mechanical 2000|Company: Autodesk"
 90
        0
280
     0
281
     0
  0
CLASS
  1
ACMSURFSTANDARDBSI
  2
AcmSurfTextStdBSI
  3
"AcmSymBB|Product Description: AutoCAD Mechanical 2000|Company: Autodesk"
 90
        0
280
     0
281
     0
  0
CLASS
  1
ACMFCFSTANDARDBSI
  2
AcmFCFStdBSI
  3
"AcmSymBB|Product Description: AutoCAD Mechanical 2000|Company: Autodesk"
 90
        0
280
     0
281
     0
  0
CLASS
  1
ACMWELDSTANDARDBSI
  2
AcmWeldingStdBSI
  3
"AcmSymBB|Product Description: AutoCAD Mechanical 2000|Company: Autodesk"
 90
        0
280
     0
281
     0
  0
CLASS
  1
ACMIDSTANDARDBSI
  2
AcmIdStdBSI
  3
"AcmSymBB|Product Description: AutoCAD Mechanical 2000|Company: Autodesk"
 90
        0
280
     0
281
     0
  0
CLASS
  1
ACMDATUMSTANDARDBSI
  2
AcmDatumStdBSI
  3
"AcmSymBB|Product Description: AutoCAD Mechanical 2000|Company: Autodesk"
 90
        0
280
     0
281
     0
  0
CLASS
  1
ACMBOMSTANDARDBSI
  2
AcmBOMStdBSI
  3
"AcmSymBB|Product Description: AutoCAD Mechanical 2000|Company: Autodesk"
 90
        0
280
     0
281
     0
  0
CLASS
  1
STDPART2D
  2
AmgStdPart
  3
"AmgStdPart|Product Description: AutoCAD Mechanical 2000|Company: Autodesk"
 90
     1023
280
     0
281
     1
  0
CLASS
  1
LONG_TRANSACTION
  2
AcDbLongTransaction
  3
AutoCAD 2000
 90
        0
280
     0
281
     0
  0
CLASS
  1
LWPOLYLINE
  2
AcDbPolyline
  3
AutoCAD 2000
 90
        0
280
     0
281
     1
  0
CLASS
  1
HATCH
  2
AcDbHatch
  3
AutoCAD 2000
 90
        0
280
     0
281
     1
  0
CLASS
  1
XRECORD
  2
AcDbXrecord
  3
AutoCAD 2000
 90
        0
280
     0
281
     0
  0
ENDSEC
  0
SECTION
  2
TABLES
  0
TABLE
  2
VPORT
  5
8
330
0
100
AcDbSymbolTable
 70
     3
  0
VPORT
  5
4E8E
330
8
100
AcDbSymbolTableRecord
100
AcDbViewportTableRecord
  2
*ACTIVE
 70
     0
 10
0.0
 20
0.0
 11
1.0
 21
1.0
 12
-55.07368785918635
 22
-13.5562504930421
 13
0.0
 23
0.0
 14
2.5
 24
2.5
 15
10.0
 25
10.0
 16
0.0
 26
0.0
 36
1.0
 17
0.0
 27
0.0
 37
0.0
 40
82.56711956845409
 41
1.56570841889117
 42
50.0
 43
0.0
 44
0.0
 50
0.0
 51
0.0
 71
     0
 72
   100
 73
     1
 74
     3
 75
     0
 76
     0
 77
     0
 78
     0
  0
ENDTAB
  0
TABLE
  2
LTYPE
  5
5
330
0
100
AcDbSymbolTable
 70
    10
  0
LTYPE
  5
14
330
5
100
AcDbSymbolTableRecord
100
AcDbLinetypeTableRecord
  2
BYBLOCK
 70
     0
  3

 72
    65
 73
     0
 40
0.0
  0
LTYPE
  5
15
330
5
100
AcDbSymbolTableRecord
100
AcDbLinetypeTableRecord
  2
BYLAYER
 70
     0
  3

 72
    65
 73
     0
 40
0.0
  0
LTYPE
  5
16
330
5
100
AcDbSymbolTableRecord
100
AcDbLinetypeTableRecord
  2
CONTINUOUS
 70
     0
  3
Solid line
 72
    65
 73
     0
 40
0.0
  0
LTYPE
  5
4B
330
5
100
AcDbSymbolTableRecord
100
AcDbLinetypeTableRecord
  2
AM_ISO02W050
 70
     0
  3
__ __ __ __ __ __ __ __ __ __ __ __ __ __ __
 72
    65
 73
     2
 40
7.5
 49
6.0
 74
     0
 49
-1.5
 74
     0
  0
LTYPE
  5
4C
330
5
100
AcDbSymbolTableRecord
100
AcDbLinetypeTableRecord
  2
AM_ISO08W050
 70
     0
  3
____ . ____ . ____ . ____ . ____ . ____ . ____
 72
    65
 73
     4
 40
18.0
 49
12.0
 74
     0
 49
-1.5
 74
     0
 49
3.0
 74
     0
 49
-1.5
 74
     0
  0
LTYPE
  5
4D
330
5
100
AcDbSymbolTableRecord
100
AcDbLinetypeTableRecord
  2
AM_ISO09W050
 70
     0
  3
_____ . . _____ . . _____ . . ____ .. ____
 72
    65
 73
     6
 40
22.5
 49
12.0
 74
     0
 49
-1.5
 74
     0
 49
3.0
 74
     0
 49
-1.5
 74
     0
 49
3.0
 74
     0
 49
-1.5
 74
     0
  0
LTYPE
  5
4E
330
5
100
AcDbSymbolTableRecord
100
AcDbLinetypeTableRecord
  2
AMCONSTR
 70
     0
  3
_______________________
 72
    65
 73
     2
 40
9999.0
 49
9999.0
 74
     0
 49
0.0
 74
     0
  0
LTYPE
  5
4F
330
5
100
AcDbSymbolTableRecord
100
AcDbLinetypeTableRecord
  2
AM_ISO02W050X2
 70
     0
  3
 _ _ _ _ _ _ _ _ _ _ _ _
 72
    65
 73
     2
 40
3.75
 49
3.0
 74
     0
 49
-0.75
 74
     0
  0
LTYPE
  5
50
330
5
100
AcDbSymbolTableRecord
100
AcDbLinetypeTableRecord
  2
AM_ISO08W050X2
 70
     0
  3
__ . __ . __ . __ . __ . __
 72
    65
 73
     4
 40
9.0
 49
6.0
 74
     0
 49
-0.75
 74
     0
 49
1.5
 74
     0
 49
-0.75
 74
     0
  0
LTYPE
  5
53
330
5
100
AcDbSymbolTableRecord
100
AcDbLinetypeTableRecord
  2
AMZIGZAG
 70
     0
  3
/\/-/\/-/\/-/\/-/\/-/\/
 72
    65
 73
     2
 40
11.00009999999999
 49
0.0001
 74
     4
 75
   135
340
52
 46
0.04
 50
0.0
 44
0.0
 45
0.0
 49
-11.0
 74
     0
  0
LTYPE
  5
166
330
5
100
AcDbSymbolTableRecord
100
AcDbLinetypeTableRecord
  2
ACJISTGL
 70
     0
  3
_ _ _ _ _
 72
    65
 73
     2
 40
3.0
 49
2.0
 74
     0
 49
-1.0
 74
     0
  0
LTYPE
  5
26A
330
5
100
AcDbSymbolTableRecord
100
AcDbLinetypeTableRecord
  2
ACJISTGB
 70
     0
  3
__ . . __ . .
 72
    65
 73
     6
 40
9.0
 49
4.0
 74
     0
 49
-1.0
 74
     0
 49
1.0
 74
     0
 49
-1.0
 74
     0
 49
1.0
 74
     0
 49
-1.0
 74
     0
  0
ENDTAB
  0
TABLE
  2
LAYER
  5
2
330
0
100
AcDbSymbolTable
 70
     7
  0
LAYER
  5
10
330
2
100
AcDbSymbolTableRecord
100
AcDbLayerTableRecord
  2
0
 70
     0
 62
     7
  6
CONTINUOUS
  0
LAYER
  5
3F9
330
2
100
AcDbSymbolTableRecord
100
AcDbLayerTableRecord
  2
AM_0
 70
     0
 62
     7
  6
CONTINUOUS
  0
LAYER
  5
BA4
330
2
100
AcDbSymbolTableRecord
100
AcDbLayerTableRecord
  2
AM_5
 70
     0
 62
     3
  6
CONTINUOUS
  0
LAYER
  5
BA5
330
2
100
AcDbSymbolTableRecord
100
AcDbLayerTableRecord
  2
AM_11
 70
     0
 62
     3
  6
AM_ISO09W050
  0
LAYER
  5
BA6
330
2
100
AcDbSymbolTableRecord
100
AcDbLayerTableRecord
  2
AM_7
 70
     0
 62
     4
  6
AM_ISO08W050
  0
LAYER
  5
E64
330
2
100
AcDbSymbolTableRecord
100
AcDbLayerTableRecord
  2
AM_6
 70
     0
 62
     2
  6
CONTINUOUS
  0
LAYER
  5
F4D
330
2
100
AcDbSymbolTableRecord
100
AcDbLayerTableRecord
  2
DEFPOINTS
 70
     0
 62
     7
  6
CONTINUOUS
  0
ENDTAB
  0
TABLE
  2
STYLE
  5
3
330
0
100
AcDbSymbolTable
 70
     5
  0
STYLE
  5
11
330
3
100
AcDbSymbolTableRecord
100
AcDbTextStyleTableRecord
  2
STANDARD
 70
     0
 40
0.0
 41
1.0
 50
0.0
 71
     0
 42
2.5
  3
simplex.shx
  4
EXTFONT.SHX
  0
STYLE
  5
52
330
3
100
AcDbSymbolTableRecord
100
AcDbTextStyleTableRecord
  2

 70
     1
 40
0.0
 41
1.0
 50
0.0
 71
     0
 42
2.5
  3
ltypeshp.shx
  4

  0
STYLE
  5
6B
330
3
100
AcDbSymbolTableRecord
100
AcDbTextStyleTableRecord
  2
ASAMI
 70
     0
 40
0.0
 41
1.0
 50
0.0
 71
     0
 42
2.5
  3
simplex.shx
  4
EXTFONT.SHX
  0
STYLE
  5
262
330
3
100
AcDbSymbolTableRecord
100
AcDbTextStyleTableRecord
  2
ACJISTS
 70
     0
 40
1.0
 41
1.0
 50
0.0
 71
     0
 42
2.5
  3
simplex.shx
  4
bigfont.shx
  0
STYLE
  5
269
330
3
100
AcDbSymbolTableRecord
100
AcDbTextStyleTableRecord
  2
ACJISGDT
 70
     0
 40
0.0
 41
1.0
 50
0.0
 71
     0
 42
2.5
  3
amgdtans.shx
  4

  0
ENDTAB
  0
TABLE
  2
VIEW
  5
6
330
0
100
AcDbSymbolTable
 70
     0
  0
ENDTAB
  0
TABLE
  2
UCS
  5
7
330
0
100
AcDbSymbolTable
 70
     0
  0
ENDTAB
  0
TABLE
  2
APPID
  5
9
330
0
100
AcDbSymbolTable
 70
    22
  0
APPID
  5
12
330
9
100
AcDbSymbolTableRecord
100
AcDbRegAppTableRecord
  2
ACAD
 70
     0
  0
APPID
  5
30
330
9
100
AcDbSymbolTableRecord
100
AcDbRegAppTableRecord
  2
MCAD_NO_VIS
 70
     0
  0
APPID
  5
31
330
9
100
AcDbSymbolTableRecord
100
AcDbRegAppTableRecord
  2
ACAD_TEMP_GRAPHIC
 70
     0
  0
APPID
  5
2C2
330
9
100
AcDbSymbolTableRecord
100
AcDbRegAppTableRecord
  2
GENIUS_GENDTOL_13
 70
     0
  0
APPID
  5
339
330
9
100
AcDbSymbolTableRecord
100
AcDbRegAppTableRecord
  2
GENIUS_GENODEF_13
 70
     0
  0
APPID
  5
33A
330
9
100
AcDbSymbolTableRecord
100
AcDbRegAppTableRecord
  2
GENIUS_GENOBJ-N-RSBK_13
 70
     0
  0
APPID
  5
33B
330
9
100
AcDbSymbolTableRecord
100
AcDbRegAppTableRecord
  2
GENIUS_GENOBJ-N-LIB_13
 70
     0
  0
APPID
  5
33C
330
9
100
AcDbSymbolTableRecord
100
AcDbRegAppTableRecord
  2
GENIUS_GENSCALE_13
 70
     0
  0
APPID
  5
378
330
9
100
AcDbSymbolTableRecord
100
AcDbRegAppTableRecord
  2
GENIUS_GENDIMSH_14
 70
     0
  0
APPID
  5
BB0
330
9
100
AcDbSymbolTableRecord
100
AcDbRegAppTableRecord
  2
GENIUS_GENOBJ-N-CEN_13
 70
     0
  0
APPID
  5
BB1
330
9
100
AcDbSymbolTableRecord
100
AcDbRegAppTableRecord
  2
GENIUS_GENFIL_13
 70
     0
  0
APPID
  5
BB2
330
9
100
AcDbSymbolTableRecord
100
AcDbRegAppTableRecord
  2
GENIUS_GENOBJ-N-CHA_13
 70
     0
  0
APPID
  5
1FAF
330
9
100
AcDbSymbolTableRecord
100
AcDbRegAppTableRecord
  2
GENIUS_GENOBJ-N-CRS_13
 70
     0
  0
APPID
  5
1FB0
330
9
100
AcDbSymbolTableRecord
100
AcDbRegAppTableRecord
  2
GENIUS_GENOENT_13
 70
     0
  0
APPID
  5
1FB1
330
9
100
AcDbSymbolTableRecord
100
AcDbRegAppTableRecord
  2
GENIUS_GENOREF_13
 70
     0
  0
APPID
  5
1FB2
330
9
100
AcDbSymbolTableRecord
100
AcDbRegAppTableRecord
  2
GENIUS_GENOLIS_13
 70
     0
  0
APPID
  5
1FB7
330
9
100
AcDbSymbolTableRecord
100
AcDbRegAppTableRecord
  2
GENIUS_GENOBJ-N-FIL_13
 70
     0
  0
APPID
  5
22A8
330
9
100
AcDbSymbolTableRecord
100
AcDbRegAppTableRecord
  2
GEVID1056506048
 70
     0
  0
APPID
  5
22A9
330
9
100
AcDbSymbolTableRecord
100
AcDbRegAppTableRecord
  2
GEVDC
 70
     0
  0
APPID
  5
22AC
330
9
100
AcDbSymbolTableRecord
100
AcDbRegAppTableRecord
  2
GENIUS_GENBH_13
 70
     0
  0
APPID
  5
22B8
330
9
100
AcDbSymbolTableRecord
100
AcDbRegAppTableRecord
  2
GENIUS_GENOBJ-NBEHI-BHF_13
 70
     0
  0
APPID
  5
22BA
330
9
100
AcDbSymbolTableRecord
100
AcDbRegAppTableRecord
  2
GENIUS_GENOBJ-NBEHI-BHB_13
 70
     0
  0
ENDTAB
  0
TABLE
  2
DIMSTYLE
  5
A
330
0
100
AcDbSymbolTable
 70
     8
  0
DIMSTYLE
105
58
102
{ACAD_REACTORS
330
4227
330
4237
330
4244
330
46A8
330
4AFD
330
4D3B
102
}
330
A
100
AcDbSymbolTableRecord
100
AcDbDimStyleTableRecord
  2
AM_JIS
 70
     0
  3

  4
"
  5
OPEN30
  6

  7

 40
0.5
 41
2.5
 42
1.0
 43
12.0
 44
1.0
 45
0.0
 46
0.0
 47
0.1
 48
0.1
140
3.2
141
0.0
142
0.0
143
0.0393701
144
1.0
145
0.0
146
0.71
147
1.5
 71
     0
 72
     0
 73
     0
 74
     0
 75
     0
 76
     0
 77
     3
 78
     8
170
     0
171
     2
172
     1
173
     0
174
     0
175
     0
176
   256
177
   256
178
     2
270
     2
271
     3
272
     3
273
     2
274
     2
340
6B
275
     0
280
     0
281
     0
282
     0
283
     0
284
     0
285
     0
286
     0
287
     3
288
     0
  0
DIMSTYLE
105
5F
330
A
100
AcDbSymbolTableRecord
100
AcDbDimStyleTableRecord
  2
AM_JIS$3
 70
     0
  3

  4
"
  5
OPEN30
  6

  7

 40
0.5
 41
2.5
 42
1.0
 43
10.0
 44
1.0
 45
0.0
 46
0.0
 47
0.1
 48
0.1
140
3.2
141
0.0
142
0.0
143
0.0393701
144
1.0
145
0.0
146
0.71
147
1.5
 71
     0
 72
     0
 73
     0
 74
     1
 75
     0
 76
     0
 77
     3
 78
     8
170
     0
171
     2
172
     0
173
     0
174
     0
175
     0
176
   256
177
   256
178
     2
270
     2
271
     2
272
     3
273
     2
274
     2
340
6B
275
     0
280
     0
281
     0
282
     0
283
     0
284
     0
285
     0
286
     0
287
     0
288
     1
  0
DIMSTYLE
105
60
330
A
100
AcDbSymbolTableRecord
100
AcDbDimStyleTableRecord
  2
AM_JIS$4
 70
     0
  3

  4
"
  5
OPEN30
  6

  7

 40
0.5
 41
2.5
 42
1.0
 43
10.0
 44
1.0
 45
0.0
 46
0.0
 47
0.1
 48
0.1
140
3.2
141
0.0
142
0.0
143
0.0393701
144
1.0
145
0.0
146
0.71
147
1.5
 71
     0
 72
     0
 73
     0
 74
     1
 75
     0
 76
     0
 77
     3
 78
     8
170
     0
171
     2
172
     0
173
     0
174
     0
175
     0
176
   256
177
   256
178
     2
270
     2
271
     2
272
     3
273
     2
274
     2
340
6B
275
     0
280
     0
281
     0
282
     0
283
     0
284
     0
285
     0
286
     0
287
     0
288
     1
  0
DIMSTYLE
105
61
330
A
100
AcDbSymbolTableRecord
100
AcDbDimStyleTableRecord
  2
AM_JIS$6
 70
     0
  3

  4
"
  5
OPEN30
  6

  7

 40
0.5
 41
2.5
 42
1.0
 43
10.0
 44
1.0
 45
0.0
 46
0.0
 47
0.1
 48
0.1
140
3.2
141
0.0
142
0.0
143
0.0393701
144
1.0
145
0.0
146
0.71
147
1.5
 71
     0
 72
     0
 73
     0
 74
     0
 75
     0
 76
     0
 77
     0
 78
     8
170
     0
171
     2
172
     1
173
     0
174
     0
175
     0
176
   256
177
   256
178
     2
270
     2
271
     2
272
     2
273
     2
274
     2
340
6B
275
     0
280
     0
281
     0
282
     0
283
     0
284
     0
285
     0
286
     0
287
     3
288
     0
  0
DIMSTYLE
105
62
330
A
100
AcDbSymbolTableRecord
100
AcDbDimStyleTableRecord
  2
AM_JIS$7
 70
     0
  3

  4
"
  5
OPEN30
  6

  7

 40
0.5
 41
2.5
 42
1.0
 43
10.0
 44
1.0
 45
0.0
 46
0.0
 47
0.1
 48
0.1
140
3.2
141
0.0
142
0.0
143
0.0393701
144
1.0
145
0.0
146
0.71
147
1.5
 71
     0
 72
     0
 73
     0
 74
     0
 75
     0
 76
     0
 77
     3
 78
     8
170
     0
171
     2
172
     1
173
     0
174
     0
175
     0
176
   256
177
   256
178
     2
270
     2
271
     2
272
     3
273
     2
274
     2
340
6B
275
     0
280
     0
281
     0
282
     0
283
     0
284
     0
285
     0
286
     0
287
     3
288
     0
  0
DIMSTYLE
105
63
330
A
100
AcDbSymbolTableRecord
100
AcDbDimStyleTableRecord
  2
AM_JIS$SF
 70
     0
  3

  4
"
  5
OPEN30
  6

  7

 40
0.5
 41
2.5
 42
1.0
 43
10.0
 44
1.0
 45
0.0
 46
0.0
 47
0.1
 48
0.1
140
3.2
141
0.0
142
0.0
143
0.0393701
144
1.0
145
0.0
146
0.71
147
1.5
 71
     0
 72
     0
 73
     0
 74
     0
 75
     1
 76
     1
 77
     3
 78
     8
170
     0
171
     2
172
     1
173
     0
174
     0
175
     0
176
   256
177
   256
178
     2
270
     2
271
     2
272
     2
273
     2
274
     2
340
6B
275
     0
280
     0
281
     0
282
     0
283
     0
284
     0
285
     0
286
     0
287
     3
288
     0
  0
DIMSTYLE
105
68
330
A
100
AcDbSymbolTableRecord
100
AcDbDimStyleTableRecord
  2
AM_JIS$SH
 70
     0
  3

  4
"
  5

  6
GENAXEH
  7
OPEN30
 40
0.5
 41
2.5
 42
1.0
 43
10.0
 44
1.0
 45
0.0
 46
0.0
 47
0.1
 48
0.1
140
3.2
141
0.0
142
0.0
143
0.0393701
144
2.0
145
0.0
146
0.71
147
1.5
 71
     0
 72
     0
 73
     0
 74
     0
 75
     1
 76
     1
 77
     3
 78
     8
170
     0
171
     2
172
     1
173
     1
174
     0
175
     0
176
   256
177
   256
178
     2
270
     2
271
     2
272
     2
273
     2
274
     2
340
6B
275
     0
280
     0
281
     0
282
     0
283
     0
284
     0
285
     0
286
     0
287
     3
288
     0
  0
DIMSTYLE
105
B34
330
A
100
AcDbSymbolTableRecord
100
AcDbDimStyleTableRecord
  2
AM_JIS$2
 70
     0
  3

  4
"
  5
OPEN30
  6

  7

 40
0.5
 41
2.5
 42
1.0
 43
12.0
 44
1.0
 45
0.0
 46
0.0
 47
0.1
 48
0.1
140
3.2
141
0.0
142
0.0
143
0.0393701
144
1.0
145
0.0
146
0.71
147
1.5
 71
     0
 72
     0
 73
     0
 74
     0
 75
     0
 76
     0
 77
     3
 78
     8
170
     0
171
     2
172
     1
173
     0
174
     0
175
     0
176
   256
177
   256
178
     2
270
     2
271
     3
272
     3
273
     2
274
     2
340
6B
275
     0
280
     0
281
     0
282
     0
283
     0
284
     0
285
     0
286
     0
287
     3
288
     0
  0
ENDTAB
  0
TABLE
  2
BLOCK_RECORD
  5
1
330
0
100
AcDbSymbolTable
 70
    13
  0
BLOCK_RECORD
  5
1F
102
{ACAD_XDICTIONARY
360
74
102
}
330
1
100
AcDbSymbolTableRecord
100
AcDbBlockTableRecord
  2
*MODEL_SPACE
  0
BLOCK_RECORD
  5
101
102
{ACAD_XDICTIONARY
360
4EB7
102
}
330
1
100
AcDbSymbolTableRecord
100
AcDbBlockTableRecord
  2
*PAPER_SPACE
  0
BLOCK_RECORD
  5
59
330
1
100
AcDbSymbolTableRecord
100
AcDbBlockTableRecord
  2
_OPEN30
  0
BLOCK_RECORD
  5
64
330
1
100
AcDbSymbolTableRecord
100
AcDbBlockTableRecord
  2
GENAXEH
  0
BLOCK_RECORD
  5
4228
330
1
100
AcDbSymbolTableRecord
100
AcDbBlockTableRecord
  2
*D5
  0
BLOCK_RECORD
  5
4238
330
1
100
AcDbSymbolTableRecord
100
AcDbBlockTableRecord
  2
*D6
  0
BLOCK_RECORD
  5
4245
330
1
100
AcDbSymbolTableRecord
100
AcDbBlockTableRecord
  2
*D7
  0
BLOCK_RECORD
  5
46A9
330
1
100
AcDbSymbolTableRecord
100
AcDbBlockTableRecord
  2
*D8
  0
BLOCK_RECORD
  5
4AFE
330
1
100
AcDbSymbolTableRecord
100
AcDbBlockTableRecord
  2
*D9
  0
BLOCK_RECORD
  5
4D3C
330
1
100
AcDbSymbolTableRecord
100
AcDbBlockTableRecord
  2
*D11
  0
ENDTAB
  0
ENDSEC
  0
SECTION
  2
BLOCKS
  0
BLOCK
  5
20
330
1F
100
AcDbEntity
  8
0
100
AcDbBlockBegin
  2
*MODEL_SPACE
 70
     0
 10
0.0
 20
0.0
 30
0.0
  3
*MODEL_SPACE
  1

  0
ENDBLK
  5
21
330
1F
100
AcDbEntity
  8
0
100
AcDbBlockEnd
  0
BLOCK
  5
103
330
101
100
AcDbEntity
 67
     1
  8
0
100
AcDbBlockBegin
  2
*PAPER_SPACE
 70
     0
 10
0.0
 20
0.0
 30
0.0
  3
*PAPER_SPACE
  1

  0
ENDBLK
  5
104
330
101
100
AcDbEntity
 67
     1
  8
0
100
AcDbBlockEnd
  0
BLOCK
  5
5D
330
59
100
AcDbEntity
  8
0
100
AcDbBlockBegin
  2
_OPEN30
 70
     0
 10
0.0
 20
0.0
 30
0.0
  3
_OPEN30
  1

  0
LINE
  5
5A
330
59
100
AcDbEntity
  8
0
 62
     0
100
AcDbLine
 10
-1.0
 20
0.26794919
 30
0.0
 11
0.0
 21
0.0
 31
0.0
  0
LINE
  5
5B
330
59
100
AcDbEntity
  8
0
 62
     0
100
AcDbLine
 10
0.0
 20
0.0
 30
0.0
 11
-1.0
 21
-0.26794919
 31
0.0
  0
LINE
  5
5C
330
59
100
AcDbEntity
  8
0
 62
     0
100
AcDbLine
 10
0.0
 20
0.0
 30
0.0
 11
-1.0
 21
0.0
 31
0.0
  0
ENDBLK
  5
5E
330
59
100
AcDbEntity
  8
0
100
AcDbBlockEnd
  0
BLOCK
  5
66
330
64
100
AcDbEntity
  8
0
100
AcDbBlockBegin
  2
GENAXEH
 70
     0
 10
0.0
 20
0.0
 30
0.0
  3
GENAXEH
  1

  0
LINE
  5
65
330
64
100
AcDbEntity
  8
0
100
AcDbLine
 10
-1.0
 20
0.0
 30
0.0
 11
1.0
 21
0.0
 31
0.0
  0
ENDBLK
  5
67
330
64
100
AcDbEntity
  8
0
100
AcDbBlockEnd
  0
BLOCK
  5
4232
330
4228
100
AcDbEntity
  8
0
100
AcDbBlockBegin
  2
*D5
 70
     1
 10
0.0
 20
0.0
 30
0.0
  3
*D5
  1

  0
LINE
  5
46FB
330
4228
100
AcDbEntity
  8
AM_5
100
AcDbLine
 10
-109.5000000000001
 20
-10.00000000000043
 30
0.0
 11
-117.5000000000002
 21
-10.00000000000045
 31
0.0
  0
LINE
  5
46FC
330
4228
100
AcDbEntity
  8
AM_5
100
AcDbLine
 10
-109.5000000000002
 20
9.999999999999516
 30
0.0
 11
-117.5000000000002
 21
9.999999999999488
 31
0.0
  0
LINE
  5
46FD
330
4228
100
AcDbEntity
  8
AM_5
100
AcDbLine
 10
-117.0000000000002
 20
-8.750000000000458
 30
0.0
 11
-117.0000000000003
 21
8.74999999999949
 31
0.0
  0
INSERT
  5
46FE
330
4228
100
AcDbEntity
  8
AM_5
100
AcDbBlockReference
  2
_OPEN30
 10
-117.0000000000002
 20
-10.00000000000045
 30
0.0
 41
1.25
 42
1.25
 43
1.25
 50
270.0000000000002
  0
INSERT
  5
46FF
330
4228
100
AcDbEntity
  8
AM_5
100
AcDbBlockReference
  2
_OPEN30
 10
-117.0000000000003
 20
9.99999999999949
 30
0.0
 41
1.25
 42
1.25
 43
1.25
 50
90.00000000000019
  0
MTEXT
  5
4700
330
4228
100
AcDbEntity
  8
AM_5
 62
     2
100
AcDbMText
 10
-118.5500000000002
 20
-0.0000000000005112
 30
0.0
 40
1.6
 41
0.0
 71
     5
 72
     1
  1
%%c20
  7
ASAMI
 11
-0.0000000000000037
 21
1.0
 31
0.0
1001
ACAD
1000
MTEXTBEGIN
1070
    73
1070
     1
1070
    44
1040
1.0
1070
    74
1070
     0
1000
MTEXTEND
  0
POINT
  5
4701
330
4228
100
AcDbEntity
  8
DEFPOINTS
 62
     0
100
AcDbPoint
 10
-109.0000000000002
 20
-10.00000000000001
 30
0.0
  0
POINT
  5
4702
330
4228
100
AcDbEntity
  8
DEFPOINTS
 62
     0
100
AcDbPoint
 10
-109.0000000000002
 20
9.99999999999993
 30
0.0
  0
POINT
  5
4703
330
4228
100
AcDbEntity
  8
DEFPOINTS
 62
     0
100
AcDbPoint
 10
-117.0000000000002
 20
9.999999999999932
 30
0.0
  0
ENDBLK
  5
4233
330
4228
100
AcDbEntity
  8
0
100
AcDbBlockEnd
  0
BLOCK
  5
4242
330
4238
100
AcDbEntity
  8
0
100
AcDbBlockBegin
  2
*D6
 70
     1
 10
0.0
 20
0.0
 30
0.0
  3
*D6
  1

  0
LINE
  5
4C3F
330
4238
100
AcDbEntity
  8
AM_5
100
AcDbLine
 10
-110.0000000000001
 20
-8.833333333333769
 30
0.0
 11
-110.0000000000001
 21
-23.50000000000053
 31
0.0
  0
LINE
  5
4C40
330
4238
100
AcDbEntity
  8
AM_5
100
AcDbLine
 10
-30.00000000000024
 20
-8.500000000000099
 30
0.0
 11
-30.00000000000018
 21
-23.50000000000022
 31
0.0
  0
LINE
  5
4C41
330
4238
100
AcDbEntity
  8
AM_5
100
AcDbLine
 10
-108.7500000000001
 20
-23.00000000000052
 30
0.0
 11
-31.25000000000018
 21
-23.00000000000023
 31
0.0
  0
INSERT
  5
4C42
330
4238
100
AcDbEntity
  8
AM_5
100
AcDbBlockReference
  2
_OPEN30
 10
-110.0000000000001
 20
-23.00000000000053
 30
0.0
 41
1.25
 42
1.25
 43
1.25
 50
180.0000000000002
  0
INSERT
  5
4C43
330
4238
100
AcDbEntity
  8
AM_5
100
AcDbBlockReference
  2
_OPEN30
 10
-30.00000000000018
 20
-23.00000000000022
 30
0.0
 41
1.25
 42
1.25
 43
1.25
 50
0.0000000000002036
  0
MTEXT
  5
4C44
330
4238
100
AcDbEntity
  8
AM_5
 62
     2
100
AcDbMText
 10
-70.00000000000015
 20
-21.45000000000038
 30
0.0
 40
1.6
 41
0.0
 71
     5
 72
     1
  1
80
  7
ASAMI
1001
ACAD
1000
MTEXTBEGIN
1070
    73
1070
     1
1070
    44
1040
1.0
1070
    74
1070
     0
1000
MTEXTEND
  0
POINT
  5
4C45
330
4238
100
AcDbEntity
  8
DEFPOINTS
 62
     0
100
AcDbPoint
 10
-110.0000000000002
 20
-8.333333333333351
 30
0.0
  0
POINT
  5
4C46
330
4238
100
AcDbEntity
  8
DEFPOINTS
 62
     0
100
AcDbPoint
 10
-30.00000000000027
 20
-7.999999999999986
 30
0.0
  0
POINT
  5
4C47
330
4238
100
AcDbEntity
  8
DEFPOINTS
 62
     0
100
AcDbPoint
 10
-30.00000000000027
 20
-23.00000000000011
 30
0.0
  0
ENDBLK
  5
4243
330
4238
100
AcDbEntity
  8
0
100
AcDbBlockEnd
  0
BLOCK
  5
424F
330
4245
100
AcDbEntity
  8
0
100
AcDbBlockBegin
  2
*D7
 70
     1
 10
0.0
 20
0.0
 30
0.0
  3
*D7
  1

  0
LINE
  5
4C1B
330
4245
100
AcDbEntity
  8
AM_5
100
AcDbLine
 10
-110.0000000000002
 20
-8.833333333333674
 30
0.0
 11
-110.0000000000001
 21
-29.50000000000052
 31
0.0
  0
LINE
  5
4C1C
330
4245
100
AcDbEntity
  8
AM_5
100
AcDbLine
 10
-0.0000000000002141
 20
-9.500000000000119
 30
0.0
 11
-0.0000000000001393
 21
-29.50000000000011
 31
0.0
  0
LINE
  5
4C1D
330
4245
100
AcDbEntity
  8
AM_5
100
AcDbLine
 10
-108.7500000000001
 20
-29.00000000000052
 30
0.0
 11
-1.250000000000141
 21
-29.00000000000011
 31
0.0
  0
INSERT
  5
4C1E
330
4245
100
AcDbEntity
  8
AM_5
100
AcDbBlockReference
  2
_OPEN30
 10
-110.0000000000001
 20
-29.00000000000053
 30
0.0
 41
1.25
 42
1.25
 43
1.25
 50
180.0000000000002
  0
INSERT
  5
4C1F
330
4245
100
AcDbEntity
  8
AM_5
100
AcDbBlockReference
  2
_OPEN30
 10
-0.0000000000001412
 20
-29.00000000000011
 30
0.0
 41
1.25
 42
1.25
 43
1.25
 50
0.0000000000002036
  0
MTEXT
  5
4C20
330
4245
100
AcDbEntity
  8
AM_5
 62
     2
100
AcDbMText
 10
-55.00000000000015
 20
-27.45000000000032
 30
0.0
 40
1.6
 41
0.0
 71
     5
 72
     1
  1
110
  7
ASAMI
1001
ACAD
1000
MTEXTBEGIN
1070
    73
1070
     1
1070
    44
1040
1.0
1070
    74
1070
     0
1000
MTEXTEND
  0
POINT
  5
4C21
330
4245
100
AcDbEntity
  8
DEFPOINTS
 62
     0
100
AcDbPoint
 10
-110.0000000000002
 20
-8.333333333333257
 30
0.0
  0
POINT
  5
4C22
330
4245
100
AcDbEntity
  8
DEFPOINTS
 62
     0
100
AcDbPoint
 10
-0.0000000000002501
 20
-9.000000000000119
 30
0.0
  0
POINT
  5
4C23
330
4245
100
AcDbEntity
  8
DEFPOINTS
 62
     0
100
AcDbPoint
 10
-0.0000000000002513
 20
-29.00000000000011
 30
0.0
  0
ENDBLK
  5
4250
330
4245
100
AcDbEntity
  8
0
100
AcDbBlockEnd
  0
BLOCK
  5
46B3
330
46A9
100
AcDbEntity
  8
0
100
AcDbBlockBegin
  2
*D8
 70
     1
 10
0.0
 20
0.0
 30
0.0
  3
*D8
  1

  0
LINE
  5
4751
330
46A9
100
AcDbEntity
  8
AM_5
100
AcDbLine
 10
0.4999999999997329
 20
8.999999999999879
 30
0.0
 11
9.204842461198989
 21
8.999999999999895
 31
0.0
  0
LINE
  5
4752
330
46A9
100
AcDbEntity
  8
AM_5
100
AcDbLine
 10
0.4999999999997422
 20
-9.000000000000117
 30
0.0
 11
9.204842461199024
 21
-9.000000000000101
 31
0.0
  0
LINE
  5
4753
330
46A9
100
AcDbEntity
  8
AM_5
100
AcDbLine
 10
8.704842461198991
 20
7.749999999999895
 30
0.0
 11
8.704842461199023
 21
-7.750000000000101
 31
0.0
  0
INSERT
  5
4754
330
46A9
100
AcDbEntity
  8
AM_5
100
AcDbBlockReference
  2
_OPEN30
 10
8.704842461198989
 20
8.999999999999895
 30
0.0
 41
1.25
 42
1.25
 43
1.25
 50
90.0000000000001
  0
INSERT
  5
4755
330
46A9
100
AcDbEntity
  8
AM_5
100
AcDbBlockReference
  2
_OPEN30
 10
8.704842461199024
 20
-9.000000000000101
 30
0.0
 41
1.25
 42
1.25
 43
1.25
 50
270.0000000000001
  0
MTEXT
  5
4756
330
46A9
100
AcDbEntity
  8
AM_5
 62
     2
100
AcDbMText
 10
7.154842461199006
 20
-0.0000000000001067
 30
0.0
 40
1.6
 41
0.0
 71
     5
 72
     1
  1
%%c18
  7
ASAMI
 11
-0.000000000000002
 21
1.0
 31
0.0
1001
ACAD
1000
MTEXTBEGIN
1070
    73
1070
     1
1070
    44
1040
1.0
1070
    74
1070
     0
1000
MTEXTEND
  0
POINT
  5
4757
330
46A9
100
AcDbEntity
  8
DEFPOINTS
 62
     0
100
AcDbPoint
 10
-0.0000000000002471
 20
8.999999999999877
 30
0.0
  0
POINT
  5
4758
330
46A9
100
AcDbEntity
  8
DEFPOINTS
 62
     0
100
AcDbPoint
 10
-0.0000000000002778
 20
-9.000000000000119
 30
0.0
  0
POINT
  5
4759
330
46A9
100
AcDbEntity
  8
DEFPOINTS
 62
     0
100
AcDbPoint
 10
8.704842461199005
 20
-9.00000000000012
 30
0.0
  0
ENDBLK
  5
46B4
330
46A9
100
AcDbEntity
  8
0
100
AcDbBlockEnd
  0
BLOCK
  5
4B08
330
4AFE
100
AcDbEntity
  8
0
100
AcDbBlockBegin
  2
*D9
 70
     1
 10
0.0
 20
0.0
 30
0.0
  3
*D9
  1

  0
LINE
  5
4DCA
330
4AFE
100
AcDbEntity
  8
AM_5
100
AcDbLine
 10
-30.00000000000025
 20
-8.500000000000047
 30
0.0
 11
-30.00000000000022
 21
-23.50000000000027
 31
0.0
  0
LINE
  5
4DCB
330
4AFE
100
AcDbEntity
  8
AM_5
100
AcDbLine
 10
-0.0000000000002633
 20
-9.500000000000119
 30
0.0
 11
-0.0000000000002358
 21
-23.50000000000021
 31
0.0
  0
LINE
  5
4DCC
330
4AFE
100
AcDbEntity
  8
AM_5
100
AcDbLine
 10
-28.75000000000022
 20
-23.00000000000027
 30
0.0
 11
-1.250000000000236
 21
-23.00000000000022
 31
0.0
  0
INSERT
  5
4DCD
330
4AFE
100
AcDbEntity
  8
AM_5
100
AcDbBlockReference
  2
_OPEN30
 10
-30.00000000000022
 20
-23.00000000000027
 30
0.0
 41
1.25
 42
1.25
 43
1.25
 50
180.0000000000001
  0
INSERT
  5
4DCE
330
4AFE
100
AcDbEntity
  8
AM_5
100
AcDbBlockReference
  2
_OPEN30
 10
-0.0000000000002368
 20
-23.00000000000021
 30
0.0
 41
1.25
 42
1.25
 43
1.25
 50
0.0000000000001018
  0
MTEXT
  5
4DCF
330
4AFE
100
AcDbEntity
  8
AM_5
 62
     2
100
AcDbMText
 10
-15.00000000000023
 20
-21.45000000000024
 30
0.0
 40
1.6
 41
0.0
 71
     5
 72
     1
  1
30
  7
ASAMI
1001
ACAD
1000
MTEXTBEGIN
1070
    73
1070
     1
1070
    44
1040
1.0
1070
    74
1070
     0
1000
MTEXTEND
  0
POINT
  5
4DD0
330
4AFE
100
AcDbEntity
  8
DEFPOINTS
 62
     0
100
AcDbPoint
 10
-30.00000000000027
 20
-7.999999999999987
 30
0.0
  0
POINT
  5
4DD1
330
4AFE
100
AcDbEntity
  8
DEFPOINTS
 62
     0
100
AcDbPoint
 10
-0.0000000000002824
 20
-9.000000000000119
 30
0.0
  0
POINT
  5
4DD2
330
4AFE
100
AcDbEntity
  8
DEFPOINTS
 62
     0
100
AcDbPoint
 10
-0.0000000000002833
 20
-23.00000000000021
 30
0.0
  0
ENDBLK
  5
4B09
330
4AFE
100
AcDbEntity
  8
0
100
AcDbBlockEnd
  0
BLOCK
  5
4D46
330
4D3C
100
AcDbEntity
  8
0
100
AcDbBlockBegin
  2
*D11
 70
     1
 10
0.0
 20
0.0
 30
0.0
  3
*D11
  1

  0
LINE
  5
4DB4
330
4D3C
100
AcDbEntity
  8
AM_5
100
AcDbLine
 10
-8.000000000000266
 20
9.499999999999817
 30
0.0
 11
-8.00000000000028
 21
16.49999999999986
 31
0.0
  0
LINE
  5
4DB5
330
4D3C
100
AcDbEntity
  8
AM_5
100
AcDbLine
 10
-0.0000000000002661
 20
9.499999999999879
 30
0.0
 11
-0.0000000000002798
 21
16.49999999999987
 31
0.0
  0
LINE
  5
4DB6
330
4D3C
100
AcDbEntity
  8
AM_5
100
AcDbLine
 10
-6.750000000000278
 20
15.99999999999986
 30
0.0
 11
-1.250000000000278
 21
15.99999999999987
 31
0.0
  0
INSERT
  5
4DB7
330
4D3C
100
AcDbEntity
  8
AM_5
100
AcDbBlockReference
  2
_OPEN30
 10
-8.000000000000278
 20
15.99999999999986
 30
0.0
 41
1.25
 42
1.25
 43
1.25
 50
180.0000000000001
  0
INSERT
  5
4DB8
330
4D3C
100
AcDbEntity
  8
AM_5
100
AcDbBlockReference
  2
_OPEN30
 10
-0.0000000000002788
 20
15.99999999999987
 30
0.0
 41
1.25
 42
1.25
 43
1.25
 50
0.0000000000001018
  0
MTEXT
  5
4DB9
330
4D3C
100
AcDbEntity
  8
AM_5
 62
     2
100
AcDbMText
 10
-4.000000000000282
 20
17.54999999999987
 30
0.0
 40
1.6
 41
0.0
 71
     5
 72
     1
  1
8
  7
ASAMI
1001
ACAD
1000
MTEXTBEGIN
1070
    73
1070
     1
1070
    44
1040
1.0
1070
    74
1070
     0
1000
MTEXTEND
  0
POINT
  5
4DBA
330
4D3C
100
AcDbEntity
  8
DEFPOINTS
 62
     0
100
AcDbPoint
 10
-8.000000000000246
 20
8.999999999999833
 30
0.0
  0
POINT
  5
4DBB
330
4D3C
100
AcDbEntity
  8
DEFPOINTS
 62
     0
100
AcDbPoint
 10
-0.0000000000002469
 20
8.999999999999879
 30
0.0
  0
POINT
  5
4DBC
330
4D3C
100
AcDbEntity
  8
DEFPOINTS
 62
     0
100
AcDbPoint
 10
-0.0000000000002465
 20
15.99999999999987
 30
0.0
  0
ENDBLK
  5
4D47
330
4D3C
100
AcDbEntity
  8
0
100
AcDbBlockEnd
  0
ENDSEC
  0
SECTION
  2
ENTITIES
  0
TEXT
  5
E65
330
1F
100
AcDbEntity
  8
AM_6
100
AcDbText
 10
-64.04761904761912
 20
-50.25000000000032
 30
0.0
 40
2.5
  1
CHE2018R
 72
     4
 11
-55.00000000000007
 21
-49.00000000000032
 31
0.0
100
AcDbText
  0
POINT
  5
22B9
330
1F
100
AcDbEntity
  8
0
 60
     1
100
AcDbPoint
 10
0.0
 20
0.0
 30
0.0
1001
GENIUS_GENOBJ-NBEHI-BHB_13
1002
{
1000
OWNER
1000
GENBEHI
1002
}
1001
GENIUS_GENOENT_13
1002
{
1000
MYREF
1005
22B9
1002
}
1002
{
1000
GRP
1005
0
1002
}
1001
GENIUS_GENOLIS_13
1002
{
1000
ENT
1005
202B
1005
22A0
1002
}
1001
GENIUS_GENBH_13
1002
{
1000
FGO
1005
22B7
1002
}
1001
GENIUS_GENODEF_13
1002
{
1000
HIER
1070
     1
1002
}
1002
{
1000
MANEDIT
1070
     1
1002
}
1002
{
1000
NOSEL
1070
     1
1002
}
1002
{
1000
BEHIND
1070
     0
1002
}
1002
{
1000
REACTOR
1002
}
1002
{
1000
OTHER
1070
     1
1002
}
  0
POINT
  5
22EE
330
1F
100
AcDbEntity
  8
0
 60
     1
100
AcDbPoint
 10
48.69120841332719
 20
0.0000000000000995
 30
0.0
1001
GENIUS_GENOBJ-NBEHI-BHB_13
1002
{
1000
OWNER
1000
GENBEHI
1002
}
1001
GENIUS_GENOENT_13
1002
{
1000
MYREF
1005
22EE
1002
}
1002
{
1000
GRP
1005
0
1002
}
1001
GENIUS_GENOLIS_13
1002
{
1000
ENT
1005
22DF
1005
22A0
1002
}
1001
GENIUS_GENBH_13
1002
{
1000
FGO
1005
22ED
1002
}
1001
GENIUS_GENODEF_13
1002
{
1000
HIER
1070
     1
1002
}
1002
{
1000
MANEDIT
1070
     1
1002
}
1002
{
1000
NOSEL
1070
     1
1002
}
1002
{
1000
BEHIND
1070
     0
1002
}
1002
{
1000
REACTOR
1002
}
1002
{
1000
OTHER
1070
     1
1002
}
  0
LINE
  5
2F9C
330
1F
100
AcDbEntity
  8
AM_0
100
AcDbLine
 10
-0.4000000000002764
 20
7.007820323027404
 30
0.0
 11
-0.4000000000002446
 21
-8.157568901520649
 31
0.0
  0
POINT
  5
2FC5
330
1F
100
AcDbEntity
  8
0
 60
     1
100
AcDbPoint
 10
66.68948384583128
 20
-34.14755652543707
 30
0.0
1001
GENIUS_GENOBJ-N-CRS_13
1002
{
1000
OWNER
1000
GEN
1002
}
1001
GENIUS_GENOENT_13
1002
{
1000
MYREF
1005
2FC5
1002
}
1002
{
1000
GRP
1005
0
1002
}
1001
GENIUS_GENOLIS_13
1002
{
1000
ENT
1005
2FC2
1005
2FB5
1005
2F9B
1005
2FB9
1002
}
1001
GENIUS_GENODEF_13
1002
{
1000
HIER
1070
    10
1002
}
1002
{
1000
MANEDIT
1070
     1
1002
}
1002
{
1000
NOSEL
1070
     0
1002
}
1002
{
1000
BEHIND
1070
     0
1002
}
1002
{
1000
REACTOR
1002
}
  0
LINE
  5
4213
330
1F
100
AcDbEntity
  8
AM_0
100
AcDbLine
 10
-30.00000000000024
 20
7.999999999999801
 30
0.0
 11
-30.00000000000027
 21
-7.999999999999991
 31
0.0
  0
LINE
  5
4222
330
1F
100
AcDbEntity
  8
AM_0
100
AcDbLine
 10
-0.4000000000002446
 20
-8.157568901520649
 30
0.0
 11
-6.933974596215841
 21
-8.500000000000111
 31
0.0
  0
LINE
  5
4223
330
1F
100
AcDbEntity
  8
AM_0
100
AcDbLine
 10
-110.0000000000002
 20
8.333333333333293
 30
0.0
 11
-109.0000000000002
 21
9.999999999999957
 31
0.0
1001
GENIUS_GENFIL_13
1070
     0
1040
1.0
1040
1.0
1040
20.0
1040
0.0
1002
{
1002
}
1001
GENIUS_GENODEF_13
1002
{
1000
HIER
1070
     0
1002
}
1002
{
1000
MANEDIT
1070
     0
1002
}
1002
{
1000
NOSEL
1070
     0
1002
}
1002
{
1000
BEHIND
1070
     0
1002
}
1002
{
1000
REACTOR
1002
}
1001
GENIUS_GENOBJ-N-CHA_13
1002
{
1000
OWNER
1000
GEN
1002
}
  0
LINE
  5
4224
330
1F
100
AcDbEntity
  8
AM_0
100
AcDbLine
 10
-109.0000000000002
 20
-10.00000000000001
 30
0.0
 11
-110.0000000000002
 21
-8.333333333333351
 31
0.0
1001
GENIUS_GENFIL_13
1070
     0
1040
1.0
1040
1.0
1040
20.0
1040
0.0
1002
{
1002
}
1001
GENIUS_GENODEF_13
1002
{
1000
HIER
1070
     0
1002
}
1002
{
1000
MANEDIT
1070
     0
1002
}
1002
{
1000
NOSEL
1070
     0
1002
}
1002
{
1000
BEHIND
1070
     0
1002
}
1002
{
1000
REACTOR
1002
}
1001
GENIUS_GENOBJ-N-CHA_13
1002
{
1000
OWNER
1000
GEN
1002
}
  0
LINE
  5
4225
330
1F
100
AcDbEntity
  8
AM_0
100
AcDbLine
 10
-110.0000000000002
 20
-8.333333333333262
 30
0.0
 11
-110.0000000000002
 21
8.333333333333268
 31
0.0
  0
LINE
  5
4226
330
1F
100
AcDbEntity
  8
AM_0
100
AcDbLine
 10
-109.0000000000002
 20
-10.00000000000001
 30
0.0
 11
-109.0000000000002
 21
9.999999999999982
 31
0.0
  0
DIMENSION
  5
4227
330
1F
100
AcDbEntity
  8
AM_5
100
AcDbDimension
  2
*D5
 10
-117.0000000000002
 20
9.999999999999932
 30
0.0
 11
-118.5500000000002
 21
-0.000000000000061
 31
0.0
 70
    32
  1
%%c<>
 51
359.9999999999997
  3
AM_JIS
100
AcDbAlignedDimension
 13
-109.0000000000002
 23
-10.00000000000001
 33
0.0
 14
-109.0000000000002
 24
9.99999999999993
 34
0.0
 50
269.9999999999998
100
AcDbRotatedDimension
1001
GENIUS_GENDTOL_13
1000

1000
h7
1000

1040
0.0
  0
LINE
  5
4234
330
1F
100
AcDbEntity
  8
AM_0
100
AcDbLine
 10
-33.46410161513818
 20
-10.00000000000008
 30
0.0
 11
-109.0000000000001
 21
-10.00000000000001
 31
0.0
  0
LINE
  5
4235
330
1F
100
AcDbEntity
  8
AM_0
100
AcDbLine
 10
-109.0000000000002
 20
9.99999999999993
 30
0.0
 11
-33.46410161513846
 21
10.00000000000005
 31
0.0
  0
LINE
  5
4236
330
1F
100
AcDbEntity
  8
AM_7
100
AcDbLine
 10
2.21330240491253
 20
-0.0000000000001208
 30
0.0
 11
-112.0403488105176
 21
-0.0000000000000151
 31
0.0
1001
GENIUS_GENODEF_13
1002
{
1000
HIER
1070
     0
1002
}
1002
{
1000
MANEDIT
1070
     0
1002
}
1002
{
1000
NOSEL
1070
     0
1002
}
1002
{
1000
BEHIND
1070
     0
1002
}
1002
{
1000
REACTOR
1002
}
1001
GENIUS_GENOBJ-N-CEN_13
1002
{
1000
OWNER
1000
GEN
1002
}
  0
DIMENSION
  5
4237
330
1F
100
AcDbEntity
  8
AM_5
100
AcDbDimension
  2
*D6
 10
-30.00000000000027
 20
-23.00000000000011
 30
0.0
 11
-70.00000000000024
 21
-21.45000000000011
 31
0.0
 70
    32
  1
<>
 51
359.9999999999997
  3
AM_JIS
100
AcDbAlignedDimension
 13
-110.0000000000002
 23
-8.333333333333351
 33
0.0
 14
-30.00000000000027
 24
-7.999999999999986
 34
0.0
100
AcDbRotatedDimension
1001
GENIUS_GENDTOL_13
1000

1000
h7
1000

1040
0.0
  0
DIMENSION
  5
4244
330
1F
100
AcDbEntity
  8
AM_5
100
AcDbDimension
  2
*D7
 10
-0.0000000000002513
 20
-29.00000000000011
 30
0.0
 11
-55.00000000000026
 21
-27.45000000000011
 31
0.0
 70
    32
  1
<>
 51
359.9999999999997
  3
AM_JIS
100
AcDbAlignedDimension
 13
-110.0000000000002
 23
-8.333333333333257
 33
0.0
 14
-0.0000000000002501
 24
-9.000000000000119
 34
0.0
100
AcDbRotatedDimension
1001
GENIUS_GENDTOL_13
1000

1000
h7
1000

1040
0.0
  0
LINE
  5
45C6
330
1F
100
AcDbEntity
  8
AM_11
100
AcDbLine
 10
-0.0000000000002778
 20
-9.000000000000119
 30
0.0
 11
-0.0000000000002471
 21
8.99999999999988
 31
0.0
  0
LINE
  5
45D7
330
1F
100
AcDbEntity
  8
AM_11
100
AcDbLine
 10
-0.0000000000002824
 20
-9.000000000000119
 30
0.0
 11
-8.000000000000277
 21
-9.000000000000152
 31
0.0
1001
GENIUS_GENODEF_13
1002
{
1000
HIER
1070
     0
1002
}
1002
{
1000
MANEDIT
1070
     0
1002
}
1002
{
1000
NOSEL
1070
     0
1002
}
1002
{
1000
BEHIND
1070
     0
1002
}
1002
{
1000
REACTOR
1002
}
1001
GENIUS_GENOBJ-N-CEN_13
1002
{
1000
OWNER
1000
GEN
1002
}
  0
LINE
  5
466E
330
1F
100
AcDbEntity
  8
AM_0
100
AcDbLine
 10
-30.00000000000025
 20
7.999999999999803
 30
0.0
 11
-33.46410161513845
 21
10.00000000000005
 31
0.0
  0
LINE
  5
466F
330
1F
100
AcDbEntity
  8
AM_0
100
AcDbLine
 10
-30.00000000000027
 20
-7.999999999999991
 30
0.0
 11
-33.46410161513818
 21
-10.00000000000008
 31
0.0
  0
LINE
  5
4670
330
1F
100
AcDbEntity
  8
AM_0
100
AcDbLine
 10
-33.46410161513846
 20
10.00000000000005
 30
0.0
 11
-33.46410161513801
 21
-10.00000000000011
 31
0.0
  0
LINE
  5
468D
330
1F
100
AcDbEntity
  8
AM_0
100
AcDbLine
 10
-6.933974596215858
 20
-0.0000000000001123
 30
0.0
 11
-6.933974596215843
 21
-8.500000000000111
 31
0.0
  0
LINE
  5
4691
330
1F
100
AcDbEntity
  8
AM_0
100
AcDbLine
 10
-7.800000000000273
 20
-7.999999999999997
 30
0.0
 11
-30.00000000000027
 21
-7.999999999999987
 31
0.0
  0
LINE
  5
4692
330
1F
100
AcDbEntity
  8
AM_0
100
AcDbLine
 10
-9.328643905474148
 20
7.999999999999774
 30
0.0
 11
-30.00000000000025
 21
7.999999999999803
 31
0.0
  0
DIMENSION
  5
46A8
330
1F
100
AcDbEntity
  8
AM_5
100
AcDbDimension
  2
*D8
 10
8.704842461199005
 20
-9.00000000000012
 30
0.0
 11
7.154842461199006
 21
-0.0000000000001211
 31
0.0
 70
    32
  1
%%c<>
 51
359.9999999999998
  3
AM_JIS
100
AcDbAlignedDimension
 13
-0.0000000000002471
 23
8.999999999999877
 33
0.0
 14
-0.0000000000002778
 24
-9.000000000000119
 34
0.0
 50
90.00000000000012
100
AcDbRotatedDimension
  0
LINE
  5
47D0
330
1F
100
AcDbEntity
  8
AM_11
100
AcDbLine
 10
-8.000000000000246
 20
8.999999999999843
 30
0.0
 11
-0.0000000000002469
 21
8.999999999999879
 31
0.0
  0
LINE
  5
47D1
330
1F
100
AcDbEntity
  8
AM_7
100
AcDbLine
 10
-9.855415414009485
 20
5.824999999999827
 30
0.0
 11
-0.5012477789118091
 21
5.824999999999874
 31
0.0
  0
LINE
  5
47D2
330
1F
100
AcDbEntity
  8
AM_0
100
AcDbLine
 10
-3.813117812200401
 20
1.096126860078385
 30
0.0
 11
-0.1071796769727182
 21
7.514999999999872
 31
0.0
  0
LINE
  5
47D3
330
1F
100
AcDbEntity
  8
AM_0
100
AcDbLine
 10
-0.418272991792561
 20
8.618053690129421
 30
0.0
 11
-1.121730585339852
 21
8.999999999999864
 31
0.0
  0
LINE
  5
47D4
330
1F
100
AcDbEntity
  8
AM_7
100
AcDbLine
 10
-12.64907584125727
 20
-1.1417037413002
 30
0.0
 11
-12.64907584125731
 21
8.739955958230385
 31
0.0
  0
LINE
  5
47D5
330
1F
100
AcDbEntity
  8
AM_7
100
AcDbLine
 10
-4.749075841257313
 20
10.10215096730523
 30
0.0
 11
-4.749075841257264
 21
-1.706849829512364
 31
0.0
  0
CIRCLE
  5
47D7
330
1F
100
AcDbEntity
  8
AM_0
100
AcDbCircle
 10
-12.64907584125728
 20
3.874999999999812
 30
0.0
 40
3.0
  0
ARC
  5
47D8
330
1F
100
AcDbEntity
  8
AM_0
100
AcDbCircle
 10
-17.1490758412573
 20
6.107415273213672
 30
0.0
 40
1.0
100
AcDbArc
 50
105.0000000000003
 51
180.0000000000004
  0
LINE
  5
47D9
330
1F
100
AcDbEntity
  8
AM_0
100
AcDbLine
 10
-8.647630939933716
 20
6.227495507014067
 30
0.0
 11
-9.312379126231631
 21
7.378873139921303
 31
0.0
  0
ARC
  5
47DA
330
1F
100
AcDbEntity
  8
AM_0
100
AcDbCircle
 10
-7.845228263963948
 20
9.118196104723306
 30
0.0
 40
3.0
100
AcDbArc
 50
240.0
 51
270.0
  0
CIRCLE
  5
47DB
330
1F
100
AcDbEntity
  8
AM_0
100
AcDbCircle
 10
-12.64907584125728
 20
3.874999999999812
 30
0.0
 40
2.1
  0
LINE
  5
47DC
330
1F
100
AcDbEntity
  8
AM_0
100
AcDbLine
 10
-14.39907584125727
 20
0.1249999999997984
 30
0.0
 11
-11.660302018914
 21
0.1249999999998197
 31
0.0
  0
LINE
  5
47DD
330
1F
100
AcDbEntity
  8
AM_7
100
AcDbLine
 10
-19.00879160104048
 20
3.874999999999784
 30
0.0
 11
-2.731346885109099
 21
3.874999999999855
 31
0.0
  0
ARC
  5
47DE
330
1F
100
AcDbEntity
  8
AM_0
100
AcDbCircle
 10
-14.39907584125728
 20
3.874999999999798
 30
0.0
 40
3.75
100
AcDbArc
 50
180.0000000000004
 51
270.0
  0
LINE
  5
47DF
330
1F
100
AcDbEntity
  8
AM_0
100
AcDbLine
 10
-18.14907584125728
 20
3.874999999999784
 30
0.0
 11
-18.1490758412573
 21
6.107415273213672
 31
0.0
  0
LINE
  5
47E1
330
1F
100
AcDbEntity
  8
AM_0
100
AcDbLine
 10
-10.37772648144275
 20
0.3511526720526605
 30
0.0
 11
-4.149075841257287
 21
2.618196104723328
 31
0.0
  0
LINE
  5
47E2
330
1F
100
AcDbEntity
  8
AM_0
100
AcDbLine
 10
-7.845228263963941
 20
6.118196104723307
 30
0.0
 11
-4.149075841257301
 21
6.118196104723328
 31
0.0
  0
ARC
  5
47E3
330
1F
100
AcDbEntity
  8
AM_0
100
AcDbCircle
 10
-11.66030201891402
 20
3.874999999999819
 30
0.0
 40
3.75
100
AcDbArc
 50
270.0
 51
290.0
  0
ARC
  5
47E4
330
1F
100
AcDbEntity
  8
AM_0
100
AcDbCircle
 10
-4.83683607219398
 20
1.227005178866171
 30
0.0
 40
1.5
100
AcDbArc
 50
154.3806172694526
 51
20.60447787951792
  0
LINE
  5
47E5
330
1F
100
AcDbEntity
  8
AM_0
100
AcDbLine
 10
-5.606440991003884
 20
0.9599999999998516
 30
0.0
 11
-6.144488342270661
 21
1.891925349271772
 31
0.0
  0
LINE
  5
47E6
330
1F
100
AcDbEntity
  8
AM_0
100
AcDbLine
 10
-4.495621816203572
 20
0.677887868516585
 30
0.0
 11
-3.813117812200401
 21
1.096126860078385
 31
0.0
  0
ARC
  5
47E7
330
1F
100
AcDbEntity
  8
AM_0
100
AcDbCircle
 10
-4.91362066797633
 20
1.359999999999857
 30
0.0
 40
0.8
100
AcDbArc
 50
209.9999999999999
 51
301.4999999999998
  0
LINE
  5
47E8
330
1F
100
AcDbEntity
  8
AM_0
100
AcDbLine
 10
-4.14907584125728
 20
2.618196104723328
 30
0.0
 11
-4.149075841257301
 21
6.118196104723328
 31
0.0
  0
LINE
  5
47E9
330
1F
100
AcDbEntity
  8
AM_0
100
AcDbLine
 10
-15.3490758412573
 20
7.624999999999798
 30
0.0
 11
-12.06278432221233
 21
7.624999999999819
 31
0.0
  0
LINE
  5
47EA
330
1F
100
AcDbEntity
  8
AM_0
100
AcDbLine
 10
-15.3490758412573
 20
7.624999999999798
 30
0.0
 11
-17.40789488635982
 21
7.073341099502738
 31
0.0
  0
LINE
  5
47EB
330
1F
100
AcDbEntity
  8
AM_0
100
AcDbLine
 10
-8.533606855795296
 20
8.999999999999829
 30
0.0
 11
-1.121730585339866
 21
8.999999999999864
 31
0.0
  0
LINE
  5
47EC
330
1F
100
AcDbEntity
  8
AM_0
100
AcDbLine
 10
-9.345228263963937
 20
6.520119893369984
 30
0.0
 11
-10.56278432221233
 21
7.223076211353135
 31
0.0
  0
ARC
  5
47ED
330
1F
100
AcDbEntity
  8
AM_0
100
AcDbCircle
 10
-12.06278432221231
 20
4.624999999999819
 30
0.0
 40
3.0
100
AcDbArc
 50
60.00000000000007
 51
90.0
  0
ARC
  5
47EE
330
1F
100
AcDbEntity
  8
AM_0
100
AcDbCircle
 10
-8.533606855795289
 20
8.199999999999853
 30
0.0
 40
0.8
100
AcDbArc
 50
90.0
 51
181.4999999999998
  0
LINE
  5
47EF
330
1F
100
AcDbEntity
  8
AM_0
100
AcDbLine
 10
-9.333332715775737
 20
8.179058441353554
 30
0.0
 11
-9.312379126231617
 21
7.378873139921303
 31
0.0
  0
ARC
  5
47F0
330
1F
100
AcDbEntity
  8
AM_0
100
AcDbCircle
 10
-0.800000000000244
 20
7.914999999999849
 30
0.0
 40
0.8
100
AcDbArc
 50
330.0000000000002
 51
61.49999999999972
  0
LINE
  5
480E
330
1F
100
AcDbEntity
  8
AM_0
100
AcDbLine
 10
-7.800000000000263
 20
-0.0000000000001115
 30
0.0
 11
-7.800000000000273
 21
-7.999999999999996
 31
0.0
  0
DIMENSION
  5
4AFD
330
1F
100
AcDbEntity
  8
AM_5
100
AcDbDimension
  2
*D9
 10
-0.0000000000002833
 20
-23.00000000000021
 30
0.0
 11
-15.00000000000027
 21
-21.45000000000021
 31
0.0
 70
    32
  1
<>
 51
359.9999999999998
  3
AM_JIS
100
AcDbAlignedDimension
 13
-30.00000000000027
 23
-7.999999999999987
 33
0.0
 14
-0.0000000000002824
 24
-9.000000000000119
 34
0.0
 50
0.0000000000000228
100
AcDbRotatedDimension
1001
GENIUS_GENDTOL_13
1000

1000
h7
1000

1040
0.0
  0
LINE
  5
4B8A
330
1F
100
AcDbEntity
  8
AM_11
100
AcDbLine
 10
-8.000000000000277
 20
-9.000000000000152
 30
0.0
 11
-8.000000000000246
 21
8.999999999999843
 31
0.0
  0
DIMENSION
  5
4D3B
330
1F
100
AcDbEntity
  8
AM_5
100
AcDbDimension
  2
*D11
 10
-0.0000000000002465
 20
15.99999999999987
 30
0.0
 11
-4.000000000000246
 21
17.54999999999987
 31
0.0
 70
    32
  1
<>
 51
359.9999999999998
  3
AM_JIS
100
AcDbAlignedDimension
 13
-8.000000000000246
 23
8.999999999999833
 33
0.0
 14
-0.0000000000002469
 24
8.999999999999879
 34
0.0
 50
180.0000000000001
100
AcDbRotatedDimension
1001
GENIUS_GENDTOL_13
1000

1000
h7
1000

1040
0.0
  0
LINE
  5
4DDB
330
1F
100
AcDbEntity
  8
AM_0
100
AcDbLine
 10
-7.800000000000273
 20
-7.999999999999997
 30
0.0
 11
-6.933974596215843
 21
-8.500000000000111
 31
0.0
  0
VIEWPORT
  5
110
330
101
100
AcDbEntity
 67
     1
  8
0
100
AcDbViewport
 10
420.5
 20
297.0
 30
0.0
 40
948.9782706766916
 41
628.452
 68
     1
 69
     1
1001
ACAD
1000
MVIEW
1002
{
1070
    16
1010
0.0
1020
0.0
1030
0.0
1010
0.0
1020
0.0
1030
1.0
1040
0.0
1040
628.452
1040
420.5
1040
297.0
1040
50.0
1040
0.0
1040
0.0
1070
     0
1070
   100
1070
     1
1070
     1
1070
     0
1070
     0
1070
     0
1070
     0
1040
0.0
1040
0.0
1040
0.0
1040
10.0
1040
10.0
1040
10.0
1040
10.0
1070
     0
1002
{
1002
}
1002
}
  0
ENDSEC
  0
SECTION
  2
OBJECTS
  0
DICTIONARY
  5
C
330
0
100
AcDbDictionary
  3
ACAD_GROUP
350
D
  3
ACAD_LAYOUT
350
1A
  3
ACAD_MLINESTYLE
350
17
  3
ACAD_PLOTSETTINGS
350
19
  3
ACAD_PLOTSTYLENAME
350
E
  3
ACDBVARIABLEDICTIONARY
350
34
  3
ACMDICTIONARY
350
43
  3
AMG
350
2B
  3
AMGSNAPSETTINGS
350
6E
  3
DWGPROPS
350
4E83
  3
ACDBHEADERROUNDTRIPXREC
350
4E8F
  0
DICTIONARY
  5
74
330
1F
100
AcDbDictionary
280
     1
  3
ACAD_INDEX
360
4E85
  3
ACAD_LAYOUTSELFREF
360
4EB2
  0
DICTIONARY
  5
4EB7
330
101
100
AcDbDictionary
280
     1
  3
ACAD_LAYOUTSELFREF
360
4EB8
  0
DICTIONARY
  5
D
102
{ACAD_REACTORS
330
C
102
}
330
C
100
AcDbDictionary
  0
DICTIONARY
  5
1A
102
{ACAD_REACTORS
330
C
102
}
330
C
100
AcDbDictionary
  0
DICTIONARY
  5
17
102
{ACAD_REACTORS
330
C
102
}
330
C
100
AcDbDictionary
  3
STANDARD
350
18
  0
DICTIONARY
  5
19
102
{ACAD_REACTORS
330
C
102
}
330
C
100
AcDbDictionary
  0
ACDBDICTIONARYWDFLT
  5
E
102
{ACAD_REACTORS
330
C
102
}
330
C
100
AcDbDictionary
281
     1
  3
Normal
350
F
100
AcDbDictionaryWithDefault
340
F
  0
DICTIONARY
  5
34
102
{ACAD_REACTORS
330
C
102
}
330
C
100
AcDbDictionary
  3
INDEXCTL
350
35
  3
SORTENTS
350
B5E
  0
DICTIONARY
  5
43
102
{ACAD_REACTORS
330
C
102
}
330
C
100
AcDbDictionary
  3
ACMSTDDICTIONARY
350
260
  0
DICTIONARY
  5
2B
102
{ACAD_REACTORS
330
C
102
}
330
C
100
AcDbDictionary
  3
ACMGSETTINGS
350
2C
  0
DICTIONARY
  5
6E
102
{ACAD_REACTORS
330
C
102
}
330
C
100
AcDbDictionary
  0
XRECORD
  5
4E83
102
{ACAD_REACTORS
330
C
102
}
330
C
100
AcDbXrecord
  1
DWGPROPS COOKIE
  2

  3

  4

  6

  7

  8

  9

300
AmdtFileType=82
301
=
302
=
303
=
304
=
305
=
306
=
307
=
308
=
309
=
 40
0.4238945370370371
 41
2452802.716478761
 42
2452871.612931597
  1

 90
        1
  0
DICTIONARY
  5
4E8F
102
{ACAD_REACTORS
330
C
102
}
330
C
100
AcDbDictionary
  3
TSTACKALIGN
350
4E90
  3
TSTACKSIZE
350
4E91
  3
HYPERLINKBASE
350
4E92
  3
STYLESHEET
350
4E93
  3
LAYOUTDICT
350
4E94
  3
PLOTSETDICT
350
4E95
  3
PLOTSTYLNAMDICT
350
4E96
  3
LWETCUNION
350
4E97
  3
INSUNITS
350
4E98
  3
CEPSNTYPE
350
4E99
  3
FINGERPRINTGUID
350
4E9A
  3
VERSIONGUID
350
4E9B
  3
PSVPSCALE
350
4E9C
  3
DIMSTYLEDATA
350
4E9D
  3
PUCSORTHOREF
350
4E9E
  3
PUCSORTHOVIEW
350
4E9F
  3
PUCSBASE
350
4EA0
  3
PUCSORGTOP
350
4EA1
  3
PUCSORGBOTTOM
350
4EA2
  3
PUCSORGLEFT
350
4EA3
  3
PUCSORGRIGHT
350
4EA4
  3
PUCSORGFRONT
350
4EA5
  3
PUCSORGBACK
350
4EA6
  3
UCSORTHOREF
350
4EA7
  3
UCSORTHOVIEW
350
4EA8
  3
UCSBASE
350
4EA9
  3
UCSORGTOP
350
4EAA
  3
UCSORGBOTTOM
350
4EAB
  3
UCSORGLEFT
350
4EAC
  3
UCSORGRIGHT
350
4EAD
  3
UCSORGFRONT
350
4EAE
  3
UCSORGBACK
350
4EAF
  0
DICTIONARY
  5
4E85
102
{ACAD_REACTORS
330
74
102
}
330
74
100
AcDbDictionary
  3
*A1
350
4E86
  0
XRECORD
  5
4EB2
102
{ACAD_REACTORS
330
74
102
}
330
74
100
AcDbXrecord
340
1F
  0
XRECORD
  5
4EB8
102
{ACAD_REACTORS
330
4EB7
102
}
330
4EB7
100
AcDbXrecord
340
101
  0
MLINESTYLE
  5
18
102
{ACAD_REACTORS
330
17
102
}
330
17
100
AcDbMlineStyle
  2
STANDARD
 70
     0
  3

 62
   256
 51
90.0
 52
90.0
 71
     2
 49
0.5
 62
   256
  6
BYLAYER
 49
-0.5
 62
   256
  6
BYLAYER
  0
ACDBPLACEHOLDER
  5
F
102
{ACAD_REACTORS
330
E
102
}
330
E
100
AcDbPlaceHolder
280
     0
  0
DICTIONARYVAR
  5
35
102
{ACAD_REACTORS
330
34
102
}
330
34
100
DictionaryVariables
280
     0
  1
1
  0
DICTIONARYVAR
  5
B5E
102
{ACAD_REACTORS
330
34
102
}
330
34
100
DictionaryVariables
280
     0
  1
96
  0
DICTIONARY
  5
260
102
{ACAD_REACTORS
330
43
102
}
330
43
100
AcDbDictionary
  0
DICTIONARY
  5
2C
102
{ACAD_REACTORS
330
2B
102
}
330
2B
100
AcDbDictionary
  3
DWGSETTINGS
350
2D
  0
XRECORD
  5
4E90
102
{ACAD_REACTORS
330
4E8F
102
}
330
4E8F
100
AcDbXrecord
 90
        1
  0
XRECORD
  5
4E91
102
{ACAD_REACTORS
330
4E8F
102
}
330
4E8F
100
AcDbXrecord
 90
       70
  0
XRECORD
  5
4E92
102
{ACAD_REACTORS
330
4E8F
102
}
330
4E8F
100
AcDbXrecord
  1

  0
XRECORD
  5
4E93
102
{ACAD_REACTORS
330
4E8F
102
}
330
4E8F
100
AcDbXrecord
  1
ASAMI.ctb
  0
XRECORD
  5
4E94
102
{ACAD_REACTORS
330
4E8F
102
}
330
4E8F
100
AcDbXrecord
340
1A
  0
XRECORD
  5
4E95
102
{ACAD_REACTORS
330
4E8F
102
}
330
4E8F
100
AcDbXrecord
340
19
  0
XRECORD
  5
4E96
102
{ACAD_REACTORS
330
4E8F
102
}
330
4E8F
100
AcDbXrecord
340
E
  0
XRECORD
  5
4E97
102
{ACAD_REACTORS
330
4E8F
102
}
330
4E8F
100
AcDbXrecord
 90
    10781
  0
XRECORD
  5
4E98
102
{ACAD_REACTORS
330
4E8F
102
}
330
4E8F
100
AcDbXrecord
 90
        4
  0
XRECORD
  5
4E99
102
{ACAD_REACTORS
330
4E8F
102
}
330
4E8F
100
AcDbXrecord
 90
        0
  0
XRECORD
  5
4E9A
102
{ACAD_REACTORS
330
4E8F
102
}
330
4E8F
100
AcDbXrecord
  1
{AFB28963-8C59-40AE-9337-C84526B81ACE}
  0
XRECORD
  5
4E9B
102
{ACAD_REACTORS
330
4E8F
102
}
330
4E8F
100
AcDbXrecord
  1
{7D0EC898-EE9E-4058-944B-852E5940EF77}
  0
XRECORD
  5
4E9C
102
{ACAD_REACTORS
330
4E8F
102
}
330
4E8F
100
AcDbXrecord
 40
0.0
  0
XRECORD
  5
4E9D
102
{ACAD_REACTORS
330
4E8F
102
}
330
4E8F
100
AcDbXrecord
1000
DSTYLE
1002
{
1070
    79
 70
     2
1070
   341
340
59
1070
   342
340
59
1070
   371
 70
    -1
1070
   372
 70
    -1
1002
}
  0
XRECORD
  5
4E9E
102
{ACAD_REACTORS
330
4E8F
102
}
330
4E8F
100
AcDbXrecord
340
0
  0
XRECORD
  5
4E9F
102
{ACAD_REACTORS
330
4E8F
102
}
330
4E8F
100
AcDbXrecord
 70
     0
  0
XRECORD
  5
4EA0
102
{ACAD_REACTORS
330
4E8F
102
}
330
4E8F
100
AcDbXrecord
340
0
  0
XRECORD
  5
4EA1
102
{ACAD_REACTORS
330
4E8F
102
}
330
4E8F
100
AcDbXrecord
 10
0.0
 20
0.0
 30
0.0
  0
XRECORD
  5
4EA2
102
{ACAD_REACTORS
330
4E8F
102
}
330
4E8F
100
AcDbXrecord
 10
0.0
 20
0.0
 30
0.0
  0
XRECORD
  5
4EA3
102
{ACAD_REACTORS
330
4E8F
102
}
330
4E8F
100
AcDbXrecord
 10
0.0
 20
0.0
 30
0.0
  0
XRECORD
  5
4EA4
102
{ACAD_REACTORS
330
4E8F
102
}
330
4E8F
100
AcDbXrecord
 10
0.0
 20
0.0
 30
0.0
  0
XRECORD
  5
4EA5
102
{ACAD_REACTORS
330
4E8F
102
}
330
4E8F
100
AcDbXrecord
 10
0.0
 20
0.0
 30
0.0
  0
XRECORD
  5
4EA6
102
{ACAD_REACTORS
330
4E8F
102
}
330
4E8F
100
AcDbXrecord
 10
0.0
 20
0.0
 30
0.0
  0
XRECORD
  5
4EA7
102
{ACAD_REACTORS
330
4E8F
102
}
330
4E8F
100
AcDbXrecord
340
0
  0
XRECORD
  5
4EA8
102
{ACAD_REACTORS
330
4E8F
102
}
330
4E8F
100
AcDbXrecord
 70
     0
  0
XRECORD
  5
4EA9
102
{ACAD_REACTORS
330
4E8F
102
}
330
4E8F
100
AcDbXrecord
340
0
  0
XRECORD
  5
4EAA
102
{ACAD_REACTORS
330
4E8F
102
}
330
4E8F
100
AcDbXrecord
 10
0.0
 20
0.0
 30
0.0
  0
XRECORD
  5
4EAB
102
{ACAD_REACTORS
330
4E8F
102
}
330
4E8F
100
AcDbXrecord
 10
0.0
 20
0.0
 30
0.0
  0
XRECORD
  5
4EAC
102
{ACAD_REACTORS
330
4E8F
102
}
330
4E8F
100
AcDbXrecord
 10
0.0
 20
0.0
 30
0.0
  0
XRECORD
  5
4EAD
102
{ACAD_REACTORS
330
4E8F
102
}
330
4E8F
100
AcDbXrecord
 10
0.0
 20
0.0
 30
0.0
  0
XRECORD
  5
4EAE
102
{ACAD_REACTORS
330
4E8F
102
}
330
4E8F
100
AcDbXrecord
 10
0.0
 20
0.0
 30
0.0
  0
XRECORD
  5
4EAF
102
{ACAD_REACTORS
330
4E8F
102
}
330
4E8F
100
AcDbXrecord
 10
0.0
 20
0.0
 30
0.0
  0
LAYER_INDEX
  5
4E86
102
{ACAD_REACTORS
330
4E85
102
}
330
4E85
100
AcDbIndex
 40
2453152.424692361
100
AcDbLayerIndex
  8
0
360
4E87
 90
        3
  8
AM_0
360
4E88
 90
       43
  8
AM_5
360
4E89
 90
        6
  8
AM_11
360
4E8A
 90
        4
  8
AM_7
360
4E8B
 90
        5
  8
AM_6
360
4E8C
 90
        1
  8
Defpoints
360
4E8D
 90
        0
  0
XRECORD
  5
2D
102
{ACAD_REACTORS
330
2C
102
}
330
2C
100
AcDbXrecord
  1
VERSION
140
15.0
  1
PRODUCT
  2
AutoCAD Mechanical 2000
  0
IDBUFFER
  5
4E87
330
0
100
AcDbIdBuffer
330
22B9
330
22EE
330
2FC5
  0
IDBUFFER
  5
4E88
330
0
100
AcDbIdBuffer
330
47D3
330
47D7
330
47D8
330
47D9
330
47DA
330
47DB
330
47DC
330
47DE
330
47DF
330
47E1
330
47E2
330
47E3
330
47E4
330
47E5
330
47E6
330
47E7
330
47E8
330
47E9
330
47EA
330
47EB
330
47EC
330
47ED
330
47EE
330
47EF
330
47F0
330
480E
330
4DDB
330
2F9C
330
4213
330
4222
330
4223
330
4224
330
4225
330
4226
330
4234
330
4235
330
466E
330
466F
330
4670
330
468D
330
4691
330
4692
330
47D2
  0
IDBUFFER
  5
4E89
330
0
100
AcDbIdBuffer
330
4227
330
4237
330
4244
330
46A8
330
4AFD
330
4D3B
  0
IDBUFFER
  5
4E8A
330
0
100
AcDbIdBuffer
330
45C6
330
45D7
330
47D0
330
4B8A
  0
IDBUFFER
  5
4E8B
330
0
100
AcDbIdBuffer
330
4236
330
47D1
330
47D4
330
47D5
330
47DD
  0
IDBUFFER
  5
4E8C
330
0
100
AcDbIdBuffer
330
E65
  0
IDBUFFER
  5
4E8D
330
0
100
AcDbIdBuffer
  0
ENDSEC
  0
EOF
