  0
SECTION
  2
HEADER
  9
$ACADVER
  1
AC1014
  9
$ACADMAINTVER
 70
     9
  9
$DWGCODEPAGE
  3
ANSI_932
  9
$INSBASE
 10
0.0
 20
0.0
 30
0.0
  9
$EXTMIN
 10
-129.3500000000002
 20
-54.25000000000017
 30
0.0
  9
$EXTMAX
 10
7.499999999999796
 20
23.34999999999987
 30
0.0
  9
$LIMMIN
 10
-138.1781940534233
 20
-66.25770068591726
  9
$LIMMAX
 10
19.50210252062174
 20
21.92945164379119
  9
$ORTHOMODE
 70
     0
  9
$REGENMODE
 70
     1
  9
$FILLMODE
 70
     1
  9
$QTEXTMODE
 70
     0
  9
$MIRRTEXT
 70
     0
  9
$DRAGMODE
 70
     2
  9
$LTSCALE
 40
1.0
  9
$OSMODE
 70
    55
  9
$ATTMODE
 70
     1
  9
$TEXTSIZE
 40
2.5
  9
$TRACEWID
 40
1.0
  9
$TEXTSTYLE
  7
STANDARD
  9
$CLAYER
  8
AM_0
  9
$CELTYPE
  6
BYLAYER
  9
$CECOLOR
 62
   256
  9
$CELTSCALE
 40
1.0
  9
$DELOBJ
 70
     1
  9
$DISPSILH
 70
     0
  9
$DIMSCALE
 40
0.5
  9
$DIMASZ
 40
2.5
  9
$DIMEXO
 40
1.0
  9
$DIMDLI
 40
12.0
  9
$DIMRND
 40
0.0
  9
$DIMDLE
 40
0.0
  9
$DIMEXE
 40
1.0
  9
$DIMTP
 40
0.1
  9
$DIMTM
 40
0.1
  9
$DIMTXT
 40
3.2
  9
$DIMCEN
 40
0.0
  9
$DIMTSZ
 40
0.0
  9
$DIMTOL
 70
     0
  9
$DIMLIM
 70
     0
  9
$DIMTIH
 70
     0
  9
$DIMTOH
 70
     0
  9
$DIMSE1
 70
     0
  9
$DIMSE2
 70
     0
  9
$DIMTAD
 70
     3
  9
$DIMZIN
 70
     8
  9
$DIMBLK
  1
OPEN30
  9
$DIMASO
 70
     1
  9
$DIMSHO
 70
     1
  9
$DIMPOST
  1

  9
$DIMAPOST
  1
"
  9
$DIMALT
 70
     0
  9
$DIMALTD
 70
     2
  9
$DIMALTF
 40
0.0393701
  9
$DIMLFAC
 40
1.0
  9
$DIMTOFL
 70
     1
  9
$DIMTVP
 40
0.0
  9
$DIMTIX
 70
     0
  9
$DIMSOXD
 70
     0
  9
$DIMSAH
 70
     0
  9
$DIMBLK1
  1

  9
$DIMBLK2
  1

  9
$DIMSTYLE
  2
AM_JIS
  9
$DIMCLRD
 70
   256
  9
$DIMCLRE
 70
   256
  9
$DIMCLRT
 70
     2
  9
$DIMTFAC
 40
0.71
  9
$DIMGAP
 40
1.5
  9
$DIMJUST
 70
     0
  9
$DIMSD1
 70
     0
  9
$DIMSD2
 70
     0
  9
$DIMTOLJ
 70
     0
  9
$DIMTZIN
 70
     0
  9
$DIMALTZ
 70
     0
  9
$DIMALTTZ
 70
     0
  9
$DIMFIT
 70
     3
  9
$DIMUPT
 70
     0
  9
$DIMUNIT
 70
     2
  9
$DIMDEC
 70
     3
  9
$DIMTDEC
 70
     3
  9
$DIMALTU
 70
     2
  9
$DIMALTTD
 70
     2
  9
$DIMTXSTY
  7
ASAMI
  9
$DIMAUNIT
 70
     0
  9
$LUNITS
 70
     2
  9
$LUPREC
 70
     2
  9
$SKETCHINC
 40
1.0
  9
$FILLETRAD
 40
0.3
  9
$AUNITS
 70
     0
  9
$AUPREC
 70
     0
  9
$MENU
  1
.
  9
$ELEVATION
 40
0.0
  9
$PELEVATION
 40
0.0
  9
$THICKNESS
 40
0.0
  9
$LIMCHECK
 70
     0
  9
$BLIPMODE
 70
     0
  9
$CHAMFERA
 40
0.5
  9
$CHAMFERB
 40
0.5
  9
$CHAMFERC
 40
20.0
  9
$CHAMFERD
 40
0.0
  9
$SKPOLY
 70
     0
  9
$TDCREATE
 40
2452802.716478761
  9
$TDUPDATE
 40
2453152.425260405
  9
$TDINDWG
 40
0.4408010880
  9
$TDUSRTIMER
 40
0.4408010880
  9
$USRTIMER
 70
     1
  9
$ANGBASE
 50
0.0
  9
$ANGDIR
 70
     0
  9
$PDMODE
 70
     0
  9
$PDSIZE
 40
0.0
  9
$PLINEWID
 40
0.0
  9
$COORDS
 70
     1
  9
$SPLFRAME
 70
     0
  9
$SPLINETYPE
 70
     6
  9
$SPLINESEGS
 70
     8
  9
$ATTDIA
 70
     1
  9
$ATTREQ
 70
     1
  9
$HANDLING
 70
 12289
  9
$HANDSEED
  5
4DA5
  9
$SURFTAB1
 70
     6
  9
$SURFTAB2
 70
     6
  9
$SURFTYPE
 70
     6
  9
$SURFU
 70
     6
  9
$SURFV
 70
     6
  9
$UCSNAME
  2

  9
$UCSORG
 10
-0.0000000000002625
 20
-0.0000000000001255
 30
0.0
  9
$UCSXDIR
 10
1.0
 20
0.000000000000002
 30
0.0
  9
$UCSYDIR
 10
-0.000000000000002
 20
1.0
 30
0.0
  9
$PUCSNAME
  2

  9
$PUCSORG
 10
0.0
 20
0.0
 30
0.0
  9
$PUCSXDIR
 10
1.0
 20
0.0
 30
0.0
  9
$PUCSYDIR
 10
0.0
 20
1.0
 30
0.0
  9
$USERI1
 70
     0
  9
$USERI2
 70
     0
  9
$USERI3
 70
     0
  9
$USERI4
 70
     0
  9
$USERI5
 70
     0
  9
$USERR1
 40
0.0
  9
$USERR2
 40
0.0
  9
$USERR3
 40
0.0
  9
$USERR4
 40
0.0
  9
$USERR5
 40
0.0
  9
$WORLDVIEW
 70
     1
  9
$SHADEDGE
 70
     3
  9
$SHADEDIF
 70
    70
  9
$TILEMODE
 70
     1
  9
$MAXACTVP
 70
    64
  9
$PINSBASE
 10
0.0
 20
0.0
 30
0.0
  9
$PLIMCHECK
 70
     0
  9
$PEXTMIN
 10
1.000000000000000E+20
 20
1.000000000000000E+20
 30
1.000000000000000E+20
  9
$PEXTMAX
 10
-1.000000000000000E+20
 20
-1.000000000000000E+20
 30
-1.000000000000000E+20
  9
$PLIMMIN
 10
0.0
 20
0.0
  9
$PLIMMAX
 10
841.0
 20
594.0
  9
$UNITMODE
 70
     0
  9
$VISRETAIN
 70
     1
  9
$PLINEGEN
 70
     0
  9
$PSLTSCALE
 70
     0
  9
$TREEDEPTH
 70
  3020
  9
$PICKSTYLE
 70
     0
  9
$CMLSTYLE
  2
STANDARD
  9
$CMLJUST
 70
     0
  9
$CMLSCALE
 40
20.0
  9
$PROXYGRAPHICS
 70
     1
  9
$MEASUREMENT
 70
     1
  0
ENDSEC
  0
SECTION
  2
CLASSES
  0
CLASS
  1
ACDBDICTIONARYWDFLT
  2
AcDbDictionaryWithDefault
  3
AutoCAD 2000
 90
        0
280
     0
281
     0
  0
CLASS
  1
ACDBPLACEHOLDER
  2
AcDbPlaceHolder
  3
AutoCAD 2000
 90
        0
280
     0
281
     0
  0
CLASS
  1
LAYOUT
  2
AcDbLayout
  3
AutoCAD 2000
 90
        0
280
     0
281
     0
  0
CLASS
  1
AMGSETTINGSOBJ
  2
AmgSettingsObj
  3
"AcadM|Product Description: AutoCAD Mechanical 2000|Company: Autodesk"
 90
        0
280
     0
281
     0
  0
CLASS
  1
ACME_DOCUMENT
  2
AcMeDbDoc
  3
AcMeServices
 90
        0
280
     0
281
     0
  0
CLASS
  1
ACMESCOPE
  2
AcMeScope
  3
AcMeServices
 90
        0
280
     0
281
     0
  0
CLASS
  1
ACMECOMMANDHISTORY
  2
AcMeCommandHistory
  3
AcMeServices
 90
        0
280
     0
281
     0
  0
CLASS
  1
DICTIONARYVAR
  2
AcDbDictionaryVar
  3
AutoCAD 2000
 90
        0
280
     0
281
     0
  0
CLASS
  1
ACIMSYSVARMAN
  2
AcImSysVarManager
  3
AcMeServices
 90
        0
280
     0
281
     0
  0
CLASS
  1
ACIMREALSYSVAR
  2
AcImRealSysVar
  3
AcMeServices
 90
        0
280
     0
281
     0
  0
CLASS
  1
ACIMINTSYSVAR
  2
AcImIntSysVar
  3
AcMeServices
 90
        0
280
     0
281
     0
  0
CLASS
  1
ACMEDRAWINGMAN
  2
AcMeDrawingMan
  3
AcMeServices
 90
        0
280
     0
281
     0
  0
CLASS
  1
ACMEVIEW
  2
AcMeView
  3
AcMeServices
 90
        0
280
     0
281
     0
  0
CLASS
  1
ACDBENTITYCACHE
  2
AcMeEntityCache
  3
AcMeServices
 90
        0
280
     0
281
     0
  0
CLASS
  1
GSMANAGER
  2
AcMeGSManager
  3
AcMeServices
 90
        0
280
     0
281
     0
  0
CLASS
  1
AmdtInternalReactor
  2
AmdtInternalReactor
  3
AcMeServices
 90
        0
280
     0
281
     0
  0
CLASS
  1
ACMESTATEMGR
  2
AcMeStateMgr
  3
AcMeServices
 90
        0
280
     0
281
     0
  0
CLASS
  1
ACME_DATABASE
  2
AcMeDbDatabase
  3
AcMeServices
 90
        0
280
     0
281
     0
  0
CLASS
  1
ACRFINSADJUSTERMGR
  2
AcRfInsAdjusterMgr
  3
AcMeServices
 90
        0
280
     0
281
     0
  0
CLASS
  1
ACMDATADICTIONARY
  2
AcmDataDictionary
  3
"AcmSymBB|Product Description: AutoCAD Mechanical 2000|Company: Autodesk"
 90
        0
280
     0
281
     0
  0
CLASS
  1
ACMDATAENTRYBLOCK
  2
AcmDataEntryBlock
  3
"AcmSymBB|Product Description: AutoCAD Mechanical 2000|Company: Autodesk"
 90
        0
280
     0
281
     0
  0
CLASS
  1
AMGOBJPROPCFG
  2
AmgObjPropCfg
  3
"AmgLay|Product Description: AutoCAD Mechanical 2000|Company: Autodesk"
 90
        1
280
     0
281
     0
  0
CLASS
  1
ACAMGFILTERDAT
  2
AcAmgFilterDat
  3
"AcadM|Product Description: AutoCAD Mechanical 2000|Company: Autodesk"
 90
        0
280
     0
281
     0
  0
CLASS
  1
LAYER_INDEX
  2
AcDbLayerIndex
  3
AutoCAD 2000
 90
        0
280
     0
281
     0
  0
CLASS
  1
IDBUFFER
  2
AcDbIdBuffer
  3
AutoCAD 2000
 90
        0
280
     0
281
     0
  0
CLASS
  1
ACIMSTRSYSVAR
  2
AcImStrSysVar
  3
AcMeServices
 90
        0
280
     0
281
     0
  0
CLASS
  1
ACMSTANDARDJIS
  2
AcmStandardJIS
  3
"AcmSymBB|Product Description: AutoCAD Mechanical 2000|Company: Autodesk"
 90
        0
280
     0
281
     0
  0
CLASS
  1
ACMSURFSTANDARDJIS
  2
AcmSurfTextStdJIS
  3
"AcmSymBB|Product Description: AutoCAD Mechanical 2000|Company: Autodesk"
 90
        0
280
     0
281
     0
  0
CLASS
  1
ACMFCFSTANDARDJIS
  2
AcmFCFStdJIS
  3
"AcmSymBB|Product Description: AutoCAD Mechanical 2000|Company: Autodesk"
 90
        0
280
     0
281
     0
  0
CLASS
  1
ACMWELDSTANDARDJIS
  2
AcmWeldingStdJIS
  3
"AcmSymBB|Product Description: AutoCAD Mechanical 2000|Company: Autodesk"
 90
        0
280
     0
281
     0
  0
CLASS
  1
ACMIDSTANDARDJIS
  2
AcmIdStdJIS
  3
"AcmSymBB|Product Description: AutoCAD Mechanical 2000|Company: Autodesk"
 90
        0
280
     0
281
     0
  0
CLASS
  1
ACMDATUMSTANDARDJIS
  2
AcmDatumStdJIS
  3
"AcmSymBB|Product Description: AutoCAD Mechanical 2000|Company: Autodesk"
 90
        0
280
     0
281
     0
  0
CLASS
  1
ACMBOMSTANDARDJIS
  2
AcmBOMStdJIS
  3
"AcmSymBB|Product Description: AutoCAD Mechanical 2000|Company: Autodesk"
 90
        0
280
     0
281
     0
  0
CLASS
  1
ACMSTANDARDANSI
  2
AcmStandardANSI
  3
"AcmSymBB|Product Description: AutoCAD Mechanical 2000|Company: Autodesk"
 90
        0
280
     0
281
     0
  0
CLASS
  1
ACMSURFSTANDARDANSI
  2
AcmSurfTextStdANSI
  3
"AcmSymBB|Product Description: AutoCAD Mechanical 2000|Company: Autodesk"
 90
        0
280
     0
281
     0
  0
CLASS
  1
ACMFCFSTANDARDANSI
  2
AcmFCFStdANSI
  3
"AcmSymBB|Product Description: AutoCAD Mechanical 2000|Company: Autodesk"
 90
        0
280
     0
281
     0
  0
CLASS
  1
ACMWELDSTANDARDANSI
  2
AcmWeldingStdANSI
  3
"AcmSymBB|Product Description: AutoCAD Mechanical 2000|Company: Autodesk"
 90
        0
280
     0
281
     0
  0
CLASS
  1
ACMIDSTANDARDANSI
  2
AcmIdStdANSI
  3
"AcmSymBB|Product Description: AutoCAD Mechanical 2000|Company: Autodesk"
 90
        0
280
     0
281
     0
  0
CLASS
  1
ACMDATUMSTANDARDANSI
  2
AcmDatumStdANSI
  3
"AcmSymBB|Product Description: AutoCAD Mechanical 2000|Company: Autodesk"
 90
        0
280
     0
281
     0
  0
CLASS
  1
ACMBOMSTANDARDANSI
  2
AcmBOMStdANSI
  3
"AcmSymBB|Product Description: AutoCAD Mechanical 2000|Company: Autodesk"
 90
        0
280
     0
281
     0
  0
CLASS
  1
ACMSTANDARDBSI
  2
AcmStandardBSI
  3
"AcmSymBB|Product Description: AutoCAD Mechanical 2000|Company: Autodesk"
 90
        0
280
     0
281
     0
  0
CLASS
  1
ACMSURFSTANDARDBSI
  2
AcmSurfTextStdBSI
  3
"AcmSymBB|Product Description: AutoCAD Mechanical 2000|Company: Autodesk"
 90
        0
280
     0
281
     0
  0
CLASS
  1
ACMFCFSTANDARDBSI
  2
AcmFCFStdBSI
  3
"AcmSymBB|Product Description: AutoCAD Mechanical 2000|Company: Autodesk"
 90
        0
280
     0
281
     0
  0
CLASS
  1
ACMWELDSTANDARDBSI
  2
AcmWeldingStdBSI
  3
"AcmSymBB|Product Description: AutoCAD Mechanical 2000|Company: Autodesk"
 90
        0
280
     0
281
     0
  0
CLASS
  1
ACMIDSTANDARDBSI
  2
AcmIdStdBSI
  3
"AcmSymBB|Product Description: AutoCAD Mechanical 2000|Company: Autodesk"
 90
        0
280
     0
281
     0
  0
CLASS
  1
ACMDATUMSTANDARDBSI
  2
AcmDatumStdBSI
  3
"AcmSymBB|Product Description: AutoCAD Mechanical 2000|Company: Autodesk"
 90
        0
280
     0
281
     0
  0
CLASS
  1
ACMBOMSTANDARDBSI
  2
AcmBOMStdBSI
  3
"AcmSymBB|Product Description: AutoCAD Mechanical 2000|Company: Autodesk"
 90
        0
280
     0
281
     0
  0
CLASS
  1
STDPART2D
  2
AmgStdPart
  3
"AmgStdPart|Product Description: AutoCAD Mechanical 2000|Company: Autodesk"
 90
     1023
280
     0
281
     1
  0
CLASS
  1
LONG_TRANSACTION
  2
AcDbLongTransaction
  3
AutoCAD 2000
 90
        0
280
     0
281
     0
  0
CLASS
  1
LWPOLYLINE
  2
AcDbPolyline
  3
AutoCAD 2000
 90
        0
280
     0
281
     1
  0
CLASS
  1
HATCH
  2
AcDbHatch
  3
AutoCAD 2000
 90
        0
280
     0
281
     1
  0
CLASS
  1
XRECORD
  2
AcDbXrecord
  3
AutoCAD 2000
 90
        0
280
     0
281
     0
  0
ENDSEC
  0
SECTION
  2
TABLES
  0
TABLE
  2
VPORT
  5
8
330
0
100
AcDbSymbolTable
 70
     3
  0
VPORT
  5
4D7A
330
8
100
AcDbSymbolTableRecord
100
AcDbViewportTableRecord
  2
*ACTIVE
 70
     0
 10
0.0
 20
0.0
 11
1.0
 21
1.0
 12
-60.92601225504703
 22
-12.90192044062501
 13
0.0
 23
0.0
 14
2.5
 24
2.5
 15
10.0
 25
10.0
 16
0.0
 26
0.0
 36
1.0
 17
0.0
 27
0.0
 37
0.0
 40
87.88652508409034
 41
1.56570841889117
 42
50.0
 43
0.0
 44
0.0
 50
0.0
 51
0.0
 71
     0
 72
   100
 73
     1
 74
     3
 75
     0
 76
     0
 77
     0
 78
     0
  0
ENDTAB
  0
TABLE
  2
LTYPE
  5
5
330
0
100
AcDbSymbolTable
 70
    10
  0
LTYPE
  5
14
330
5
100
AcDbSymbolTableRecord
100
AcDbLinetypeTableRecord
  2
BYBLOCK
 70
     0
  3

 72
    65
 73
     0
 40
0.0
  0
LTYPE
  5
15
330
5
100
AcDbSymbolTableRecord
100
AcDbLinetypeTableRecord
  2
BYLAYER
 70
     0
  3

 72
    65
 73
     0
 40
0.0
  0
LTYPE
  5
16
330
5
100
AcDbSymbolTableRecord
100
AcDbLinetypeTableRecord
  2
CONTINUOUS
 70
     0
  3
Solid line
 72
    65
 73
     0
 40
0.0
  0
LTYPE
  5
4B
330
5
100
AcDbSymbolTableRecord
100
AcDbLinetypeTableRecord
  2
AM_ISO02W050
 70
     0
  3
__ __ __ __ __ __ __ __ __ __ __ __ __ __ __
 72
    65
 73
     2
 40
7.5
 49
6.0
 74
     0
 49
-1.5
 74
     0
  0
LTYPE
  5
4C
330
5
100
AcDbSymbolTableRecord
100
AcDbLinetypeTableRecord
  2
AM_ISO08W050
 70
     0
  3
____ . ____ . ____ . ____ . ____ . ____ . ____
 72
    65
 73
     4
 40
18.0
 49
12.0
 74
     0
 49
-1.5
 74
     0
 49
3.0
 74
     0
 49
-1.5
 74
     0
  0
LTYPE
  5
4D
330
5
100
AcDbSymbolTableRecord
100
AcDbLinetypeTableRecord
  2
AM_ISO09W050
 70
     0
  3
_____ . . _____ . . _____ . . ____ .. ____
 72
    65
 73
     6
 40
22.5
 49
12.0
 74
     0
 49
-1.5
 74
     0
 49
3.0
 74
     0
 49
-1.5
 74
     0
 49
3.0
 74
     0
 49
-1.5
 74
     0
  0
LTYPE
  5
4E
330
5
100
AcDbSymbolTableRecord
100
AcDbLinetypeTableRecord
  2
AMCONSTR
 70
     0
  3
_______________________
 72
    65
 73
     2
 40
9999.0
 49
9999.0
 74
     0
 49
0.0
 74
     0
  0
LTYPE
  5
4F
330
5
100
AcDbSymbolTableRecord
100
AcDbLinetypeTableRecord
  2
AM_ISO02W050X2
 70
     0
  3
 _ _ _ _ _ _ _ _ _ _ _ _
 72
    65
 73
     2
 40
3.75
 49
3.0
 74
     0
 49
-0.75
 74
     0
  0
LTYPE
  5
50
330
5
100
AcDbSymbolTableRecord
100
AcDbLinetypeTableRecord
  2
AM_ISO08W050X2
 70
     0
  3
__ . __ . __ . __ . __ . __
 72
    65
 73
     4
 40
9.0
 49
6.0
 74
     0
 49
-0.75
 74
     0
 49
1.5
 74
     0
 49
-0.75
 74
     0
  0
LTYPE
  5
53
330
5
100
AcDbSymbolTableRecord
100
AcDbLinetypeTableRecord
  2
AMZIGZAG
 70
     0
  3
/\/-/\/-/\/-/\/-/\/-/\/
 72
    65
 73
     2
 40
11.00009999999999
 49
0.0001
 74
     4
 75
   135
340
52
 46
0.04
 50
0.0
 44
0.0
 45
0.0
 49
-11.0
 74
     0
  0
LTYPE
  5
166
330
5
100
AcDbSymbolTableRecord
100
AcDbLinetypeTableRecord
  2
ACJISTGL
 70
     0
  3
_ _ _ _ _
 72
    65
 73
     2
 40
3.0
 49
2.0
 74
     0
 49
-1.0
 74
     0
  0
LTYPE
  5
26A
330
5
100
AcDbSymbolTableRecord
100
AcDbLinetypeTableRecord
  2
ACJISTGB
 70
     0
  3
__ . . __ . .
 72
    65
 73
     6
 40
9.0
 49
4.0
 74
     0
 49
-1.0
 74
     0
 49
1.0
 74
     0
 49
-1.0
 74
     0
 49
1.0
 74
     0
 49
-1.0
 74
     0
  0
ENDTAB
  0
TABLE
  2
LAYER
  5
2
330
0
100
AcDbSymbolTable
 70
     9
  0
LAYER
  5
10
330
2
100
AcDbSymbolTableRecord
100
AcDbLayerTableRecord
  2
0
 70
     0
 62
     7
  6
CONTINUOUS
  0
LAYER
  5
3F9
330
2
100
AcDbSymbolTableRecord
100
AcDbLayerTableRecord
  2
AM_0
 70
     0
 62
     7
  6
CONTINUOUS
  0
LAYER
  5
BA4
330
2
100
AcDbSymbolTableRecord
100
AcDbLayerTableRecord
  2
AM_5
 70
     0
 62
     3
  6
CONTINUOUS
  0
LAYER
  5
BA5
330
2
100
AcDbSymbolTableRecord
100
AcDbLayerTableRecord
  2
AM_11
 70
     0
 62
     3
  6
AM_ISO09W050
  0
LAYER
  5
BA6
330
2
100
AcDbSymbolTableRecord
100
AcDbLayerTableRecord
  2
AM_7
 70
     0
 62
     4
  6
AM_ISO08W050
  0
LAYER
  5
E64
330
2
100
AcDbSymbolTableRecord
100
AcDbLayerTableRecord
  2
AM_6
 70
     0
 62
     2
  6
CONTINUOUS
  0
LAYER
  5
F4D
330
2
100
AcDbSymbolTableRecord
100
AcDbLayerTableRecord
  2
DEFPOINTS
 70
     0
 62
     7
  6
CONTINUOUS
  0
LAYER
  5
22B5
330
2
100
AcDbSymbolTableRecord
100
AcDbLayerTableRecord
  2
AM_4
 70
     0
 62
     3
  6
CONTINUOUS
  0
LAYER
  5
2382
330
2
100
AcDbSymbolTableRecord
100
AcDbLayerTableRecord
  2
AM_3
 70
     0
 62
     6
  6
ACJISTGL
  0
ENDTAB
  0
TABLE
  2
STYLE
  5
3
330
0
100
AcDbSymbolTable
 70
     5
  0
STYLE
  5
11
330
3
100
AcDbSymbolTableRecord
100
AcDbTextStyleTableRecord
  2
STANDARD
 70
     0
 40
0.0
 41
1.0
 50
0.0
 71
     0
 42
2.5
  3
simplex.shx
  4
EXTFONT.SHX
  0
STYLE
  5
52
330
3
100
AcDbSymbolTableRecord
100
AcDbTextStyleTableRecord
  2

 70
     1
 40
0.0
 41
1.0
 50
0.0
 71
     0
 42
2.5
  3
ltypeshp.shx
  4

  0
STYLE
  5
6B
330
3
100
AcDbSymbolTableRecord
100
AcDbTextStyleTableRecord
  2
ASAMI
 70
     0
 40
0.0
 41
1.0
 50
0.0
 71
     0
 42
2.5
  3
simplex.shx
  4
EXTFONT.SHX
  0
STYLE
  5
262
330
3
100
AcDbSymbolTableRecord
100
AcDbTextStyleTableRecord
  2
ACJISTS
 70
     0
 40
1.0
 41
1.0
 50
0.0
 71
     0
 42
2.5
  3
simplex.shx
  4
bigfont.shx
  0
STYLE
  5
269
330
3
100
AcDbSymbolTableRecord
100
AcDbTextStyleTableRecord
  2
ACJISGDT
 70
     0
 40
0.0
 41
1.0
 50
0.0
 71
     0
 42
2.5
  3
amgdtans.shx
  4

  0
ENDTAB
  0
TABLE
  2
VIEW
  5
6
330
0
100
AcDbSymbolTable
 70
     0
  0
ENDTAB
  0
TABLE
  2
UCS
  5
7
330
0
100
AcDbSymbolTable
 70
     0
  0
ENDTAB
  0
TABLE
  2
APPID
  5
9
330
0
100
AcDbSymbolTable
 70
    22
  0
APPID
  5
12
330
9
100
AcDbSymbolTableRecord
100
AcDbRegAppTableRecord
  2
ACAD
 70
     0
  0
APPID
  5
30
330
9
100
AcDbSymbolTableRecord
100
AcDbRegAppTableRecord
  2
MCAD_NO_VIS
 70
     0
  0
APPID
  5
31
330
9
100
AcDbSymbolTableRecord
100
AcDbRegAppTableRecord
  2
ACAD_TEMP_GRAPHIC
 70
     0
  0
APPID
  5
2C2
330
9
100
AcDbSymbolTableRecord
100
AcDbRegAppTableRecord
  2
GENIUS_GENDTOL_13
 70
     0
  0
APPID
  5
339
330
9
100
AcDbSymbolTableRecord
100
AcDbRegAppTableRecord
  2
GENIUS_GENODEF_13
 70
     0
  0
APPID
  5
33A
330
9
100
AcDbSymbolTableRecord
100
AcDbRegAppTableRecord
  2
GENIUS_GENOBJ-N-RSBK_13
 70
     0
  0
APPID
  5
33B
330
9
100
AcDbSymbolTableRecord
100
AcDbRegAppTableRecord
  2
GENIUS_GENOBJ-N-LIB_13
 70
     0
  0
APPID
  5
33C
330
9
100
AcDbSymbolTableRecord
100
AcDbRegAppTableRecord
  2
GENIUS_GENSCALE_13
 70
     0
  0
APPID
  5
378
330
9
100
AcDbSymbolTableRecord
100
AcDbRegAppTableRecord
  2
GENIUS_GENDIMSH_14
 70
     0
  0
APPID
  5
BB0
330
9
100
AcDbSymbolTableRecord
100
AcDbRegAppTableRecord
  2
GENIUS_GENOBJ-N-CEN_13
 70
     0
  0
APPID
  5
BB1
330
9
100
AcDbSymbolTableRecord
100
AcDbRegAppTableRecord
  2
GENIUS_GENFIL_13
 70
     0
  0
APPID
  5
BB2
330
9
100
AcDbSymbolTableRecord
100
AcDbRegAppTableRecord
  2
GENIUS_GENOBJ-N-CHA_13
 70
     0
  0
APPID
  5
1FAF
330
9
100
AcDbSymbolTableRecord
100
AcDbRegAppTableRecord
  2
GENIUS_GENOBJ-N-CRS_13
 70
     0
  0
APPID
  5
1FB0
330
9
100
AcDbSymbolTableRecord
100
AcDbRegAppTableRecord
  2
GENIUS_GENOENT_13
 70
     0
  0
APPID
  5
1FB1
330
9
100
AcDbSymbolTableRecord
100
AcDbRegAppTableRecord
  2
GENIUS_GENOREF_13
 70
     0
  0
APPID
  5
1FB2
330
9
100
AcDbSymbolTableRecord
100
AcDbRegAppTableRecord
  2
GENIUS_GENOLIS_13
 70
     0
  0
APPID
  5
1FB7
330
9
100
AcDbSymbolTableRecord
100
AcDbRegAppTableRecord
  2
GENIUS_GENOBJ-N-FIL_13
 70
     0
  0
APPID
  5
22A8
330
9
100
AcDbSymbolTableRecord
100
AcDbRegAppTableRecord
  2
GEVID1056506048
 70
     0
  0
APPID
  5
22A9
330
9
100
AcDbSymbolTableRecord
100
AcDbRegAppTableRecord
  2
GEVDC
 70
     0
  0
APPID
  5
22AC
330
9
100
AcDbSymbolTableRecord
100
AcDbRegAppTableRecord
  2
GENIUS_GENBH_13
 70
     0
  0
APPID
  5
22B8
330
9
100
AcDbSymbolTableRecord
100
AcDbRegAppTableRecord
  2
GENIUS_GENOBJ-NBEHI-BHF_13
 70
     0
  0
APPID
  5
22BA
330
9
100
AcDbSymbolTableRecord
100
AcDbRegAppTableRecord
  2
GENIUS_GENOBJ-NBEHI-BHB_13
 70
     0
  0
ENDTAB
  0
TABLE
  2
DIMSTYLE
  5
A
330
0
100
AcDbSymbolTable
 70
     8
  0
DIMSTYLE
105
58
102
{ACAD_REACTORS
330
4227
330
4237
330
4244
330
46A8
330
492C
330
4B8D
102
}
330
A
100
AcDbSymbolTableRecord
100
AcDbDimStyleTableRecord
  2
AM_JIS
 70
     0
  3

  4
"
  5
OPEN30
  6

  7

 40
0.5
 41
2.5
 42
1.0
 43
12.0
 44
1.0
 45
0.0
 46
0.0
 47
0.1
 48
0.1
140
3.2
141
0.0
142
0.0
143
0.0393701
144
1.0
145
0.0
146
0.71
147
1.5
 71
     0
 72
     0
 73
     0
 74
     0
 75
     0
 76
     0
 77
     3
 78
     8
170
     0
171
     2
172
     1
173
     0
174
     0
175
     0
176
   256
177
   256
178
     2
270
     2
271
     3
272
     3
273
     2
274
     2
340
6B
275
     0
280
     0
281
     0
282
     0
283
     0
284
     0
285
     0
286
     0
287
     3
288
     0
  0
DIMSTYLE
105
5F
330
A
100
AcDbSymbolTableRecord
100
AcDbDimStyleTableRecord
  2
AM_JIS$3
 70
     0
  3

  4
"
  5
OPEN30
  6

  7

 40
0.5
 41
2.5
 42
1.0
 43
10.0
 44
1.0
 45
0.0
 46
0.0
 47
0.1
 48
0.1
140
3.2
141
0.0
142
0.0
143
0.0393701
144
1.0
145
0.0
146
0.71
147
1.5
 71
     0
 72
     0
 73
     0
 74
     1
 75
     0
 76
     0
 77
     3
 78
     8
170
     0
171
     2
172
     0
173
     0
174
     0
175
     0
176
   256
177
   256
178
     2
270
     2
271
     2
272
     3
273
     2
274
     2
340
6B
275
     0
280
     0
281
     0
282
     0
283
     0
284
     0
285
     0
286
     0
287
     0
288
     1
  0
DIMSTYLE
105
60
330
A
100
AcDbSymbolTableRecord
100
AcDbDimStyleTableRecord
  2
AM_JIS$4
 70
     0
  3

  4
"
  5
OPEN30
  6

  7

 40
0.5
 41
2.5
 42
1.0
 43
10.0
 44
1.0
 45
0.0
 46
0.0
 47
0.1
 48
0.1
140
3.2
141
0.0
142
0.0
143
0.0393701
144
1.0
145
0.0
146
0.71
147
1.5
 71
     0
 72
     0
 73
     0
 74
     1
 75
     0
 76
     0
 77
     3
 78
     8
170
     0
171
     2
172
     0
173
     0
174
     0
175
     0
176
   256
177
   256
178
     2
270
     2
271
     2
272
     3
273
     2
274
     2
340
6B
275
     0
280
     0
281
     0
282
     0
283
     0
284
     0
285
     0
286
     0
287
     0
288
     1
  0
DIMSTYLE
105
61
330
A
100
AcDbSymbolTableRecord
100
AcDbDimStyleTableRecord
  2
AM_JIS$6
 70
     0
  3

  4
"
  5
OPEN30
  6

  7

 40
0.5
 41
2.5
 42
1.0
 43
10.0
 44
1.0
 45
0.0
 46
0.0
 47
0.1
 48
0.1
140
3.2
141
0.0
142
0.0
143
0.0393701
144
1.0
145
0.0
146
0.71
147
1.5
 71
     0
 72
     0
 73
     0
 74
     0
 75
     0
 76
     0
 77
     0
 78
     8
170
     0
171
     2
172
     1
173
     0
174
     0
175
     0
176
   256
177
   256
178
     2
270
     2
271
     2
272
     2
273
     2
274
     2
340
6B
275
     0
280
     0
281
     0
282
     0
283
     0
284
     0
285
     0
286
     0
287
     3
288
     0
  0
DIMSTYLE
105
62
330
A
100
AcDbSymbolTableRecord
100
AcDbDimStyleTableRecord
  2
AM_JIS$7
 70
     0
  3

  4
"
  5
OPEN30
  6

  7

 40
0.5
 41
2.5
 42
1.0
 43
10.0
 44
1.0
 45
0.0
 46
0.0
 47
0.1
 48
0.1
140
3.2
141
0.0
142
0.0
143
0.0393701
144
1.0
145
0.0
146
0.71
147
1.5
 71
     0
 72
     0
 73
     0
 74
     0
 75
     0
 76
     0
 77
     3
 78
     8
170
     0
171
     2
172
     1
173
     0
174
     0
175
     0
176
   256
177
   256
178
     2
270
     2
271
     2
272
     3
273
     2
274
     2
340
6B
275
     0
280
     0
281
     0
282
     0
283
     0
284
     0
285
     0
286
     0
287
     3
288
     0
  0
DIMSTYLE
105
63
330
A
100
AcDbSymbolTableRecord
100
AcDbDimStyleTableRecord
  2
AM_JIS$SF
 70
     0
  3

  4
"
  5
OPEN30
  6

  7

 40
0.5
 41
2.5
 42
1.0
 43
10.0
 44
1.0
 45
0.0
 46
0.0
 47
0.1
 48
0.1
140
3.2
141
0.0
142
0.0
143
0.0393701
144
1.0
145
0.0
146
0.71
147
1.5
 71
     0
 72
     0
 73
     0
 74
     0
 75
     1
 76
     1
 77
     3
 78
     8
170
     0
171
     2
172
     1
173
     0
174
     0
175
     0
176
   256
177
   256
178
     2
270
     2
271
     2
272
     2
273
     2
274
     2
340
6B
275
     0
280
     0
281
     0
282
     0
283
     0
284
     0
285
     0
286
     0
287
     3
288
     0
  0
DIMSTYLE
105
68
330
A
100
AcDbSymbolTableRecord
100
AcDbDimStyleTableRecord
  2
AM_JIS$SH
 70
     0
  3

  4
"
  5

  6
GENAXEH
  7
OPEN30
 40
0.5
 41
2.5
 42
1.0
 43
10.0
 44
1.0
 45
0.0
 46
0.0
 47
0.1
 48
0.1
140
3.2
141
0.0
142
0.0
143
0.0393701
144
2.0
145
0.0
146
0.71
147
1.5
 71
     0
 72
     0
 73
     0
 74
     0
 75
     1
 76
     1
 77
     3
 78
     8
170
     0
171
     2
172
     1
173
     1
174
     0
175
     0
176
   256
177
   256
178
     2
270
     2
271
     2
272
     2
273
     2
274
     2
340
6B
275
     0
280
     0
281
     0
282
     0
283
     0
284
     0
285
     0
286
     0
287
     3
288
     0
  0
DIMSTYLE
105
B34
330
A
100
AcDbSymbolTableRecord
100
AcDbDimStyleTableRecord
  2
AM_JIS$2
 70
     0
  3

  4
"
  5
OPEN30
  6

  7

 40
0.5
 41
2.5
 42
1.0
 43
12.0
 44
1.0
 45
0.0
 46
0.0
 47
0.1
 48
0.1
140
3.2
141
0.0
142
0.0
143
0.0393701
144
1.0
145
0.0
146
0.71
147
1.5
 71
     0
 72
     0
 73
     0
 74
     0
 75
     0
 76
     0
 77
     3
 78
     8
170
     0
171
     2
172
     1
173
     0
174
     0
175
     0
176
   256
177
   256
178
     2
270
     2
271
     3
272
     3
273
     2
274
     2
340
6B
275
     0
280
     0
281
     0
282
     0
283
     0
284
     0
285
     0
286
     0
287
     3
288
     0
  0
ENDTAB
  0
TABLE
  2
BLOCK_RECORD
  5
1
330
0
100
AcDbSymbolTable
 70
    13
  0
BLOCK_RECORD
  5
1F
102
{ACAD_XDICTIONARY
360
74
102
}
330
1
100
AcDbSymbolTableRecord
100
AcDbBlockTableRecord
  2
*MODEL_SPACE
  0
BLOCK_RECORD
  5
101
102
{ACAD_XDICTIONARY
360
4DA3
102
}
330
1
100
AcDbSymbolTableRecord
100
AcDbBlockTableRecord
  2
*PAPER_SPACE
  0
BLOCK_RECORD
  5
59
330
1
100
AcDbSymbolTableRecord
100
AcDbBlockTableRecord
  2
_OPEN30
  0
BLOCK_RECORD
  5
64
330
1
100
AcDbSymbolTableRecord
100
AcDbBlockTableRecord
  2
GENAXEH
  0
BLOCK_RECORD
  5
4228
330
1
100
AcDbSymbolTableRecord
100
AcDbBlockTableRecord
  2
*D5
  0
BLOCK_RECORD
  5
4238
330
1
100
AcDbSymbolTableRecord
100
AcDbBlockTableRecord
  2
*D6
  0
BLOCK_RECORD
  5
4245
330
1
100
AcDbSymbolTableRecord
100
AcDbBlockTableRecord
  2
*D7
  0
BLOCK_RECORD
  5
46A9
330
1
100
AcDbSymbolTableRecord
100
AcDbBlockTableRecord
  2
*D8
  0
BLOCK_RECORD
  5
492D
330
1
100
AcDbSymbolTableRecord
100
AcDbBlockTableRecord
  2
*D9
  0
BLOCK_RECORD
  5
4B8E
330
1
100
AcDbSymbolTableRecord
100
AcDbBlockTableRecord
  2
*D11
  0
ENDTAB
  0
ENDSEC
  0
SECTION
  2
BLOCKS
  0
BLOCK
  5
20
330
1F
100
AcDbEntity
  8
0
100
AcDbBlockBegin
  2
*MODEL_SPACE
 70
     0
 10
0.0
 20
0.0
 30
0.0
  3
*MODEL_SPACE
  1

  0
ENDBLK
  5
21
330
1F
100
AcDbEntity
  8
0
100
AcDbBlockEnd
  0
BLOCK
  5
103
330
101
100
AcDbEntity
 67
     1
  8
0
100
AcDbBlockBegin
  2
*PAPER_SPACE
 70
     0
 10
0.0
 20
0.0
 30
0.0
  3
*PAPER_SPACE
  1

  0
ENDBLK
  5
104
330
101
100
AcDbEntity
 67
     1
  8
0
100
AcDbBlockEnd
  0
BLOCK
  5
5D
330
59
100
AcDbEntity
  8
0
100
AcDbBlockBegin
  2
_OPEN30
 70
     0
 10
0.0
 20
0.0
 30
0.0
  3
_OPEN30
  1

  0
LINE
  5
5A
330
59
100
AcDbEntity
  8
0
 62
     0
100
AcDbLine
 10
-1.0
 20
0.26794919
 30
0.0
 11
0.0
 21
0.0
 31
0.0
  0
LINE
  5
5B
330
59
100
AcDbEntity
  8
0
 62
     0
100
AcDbLine
 10
0.0
 20
0.0
 30
0.0
 11
-1.0
 21
-0.26794919
 31
0.0
  0
LINE
  5
5C
330
59
100
AcDbEntity
  8
0
 62
     0
100
AcDbLine
 10
0.0
 20
0.0
 30
0.0
 11
-1.0
 21
0.0
 31
0.0
  0
ENDBLK
  5
5E
330
59
100
AcDbEntity
  8
0
100
AcDbBlockEnd
  0
BLOCK
  5
66
330
64
100
AcDbEntity
  8
0
100
AcDbBlockBegin
  2
GENAXEH
 70
     0
 10
0.0
 20
0.0
 30
0.0
  3
GENAXEH
  1

  0
LINE
  5
65
330
64
100
AcDbEntity
  8
0
100
AcDbLine
 10
-1.0
 20
0.0
 30
0.0
 11
1.0
 21
0.0
 31
0.0
  0
ENDBLK
  5
67
330
64
100
AcDbEntity
  8
0
100
AcDbBlockEnd
  0
BLOCK
  5
4232
330
4228
100
AcDbEntity
  8
0
100
AcDbBlockBegin
  2
*D5
 70
     1
 10
0.0
 20
0.0
 30
0.0
  3
*D5
  1

  0
LINE
  5
484E
330
4228
100
AcDbEntity
  8
AM_5
100
AcDbLine
 10
-119.5000000000002
 20
-12.50000000000048
 30
0.0
 11
-127.5000000000002
 21
-12.50000000000051
 31
0.0
  0
LINE
  5
484F
330
4228
100
AcDbEntity
  8
AM_5
100
AcDbLine
 10
-119.5000000000002
 20
12.49999999999951
 30
0.0
 11
-127.5000000000003
 21
12.49999999999948
 31
0.0
  0
LINE
  5
4850
330
4228
100
AcDbEntity
  8
AM_5
100
AcDbLine
 10
-127.0000000000002
 20
-11.25000000000051
 30
0.0
 11
-127.0000000000003
 21
11.24999999999949
 31
0.0
  0
INSERT
  5
4851
330
4228
100
AcDbEntity
  8
AM_5
100
AcDbBlockReference
  2
_OPEN30
 10
-127.0000000000002
 20
-12.50000000000051
 30
0.0
 41
1.25
 42
1.25
 43
1.25
 50
270.0000000000002
  0
INSERT
  5
4852
330
4228
100
AcDbEntity
  8
AM_5
100
AcDbBlockReference
  2
_OPEN30
 10
-127.0000000000003
 20
12.49999999999949
 30
0.0
 41
1.25
 42
1.25
 43
1.25
 50
90.00000000000019
  0
MTEXT
  5
4853
330
4228
100
AcDbEntity
  8
AM_5
 62
     2
100
AcDbMText
 10
-128.5500000000002
 20
-0.0000000000005397
 30
0.0
 40
1.6
 41
0.0
 71
     5
 72
     1
  1
%%c25
  7
ASAMI
 11
-0.0000000000000037
 21
1.0
 31
0.0
1001
ACAD
1000
MTEXTBEGIN
1070
    73
1070
     1
1070
    44
1040
1.0
1070
    74
1070
     0
1000
MTEXTEND
  0
POINT
  5
4854
330
4228
100
AcDbEntity
  8
DEFPOINTS
 62
     0
100
AcDbPoint
 10
-119.0000000000002
 20
-12.50000000000003
 30
0.0
  0
POINT
  5
4855
330
4228
100
AcDbEntity
  8
DEFPOINTS
 62
     0
100
AcDbPoint
 10
-119.0000000000002
 20
12.49999999999996
 30
0.0
  0
POINT
  5
4856
330
4228
100
AcDbEntity
  8
DEFPOINTS
 62
     0
100
AcDbPoint
 10
-127.0000000000002
 20
12.49999999999997
 30
0.0
  0
ENDBLK
  5
4233
330
4228
100
AcDbEntity
  8
0
100
AcDbBlockEnd
  0
BLOCK
  5
4242
330
4238
100
AcDbEntity
  8
0
100
AcDbBlockBegin
  2
*D6
 70
     1
 10
0.0
 20
0.0
 30
0.0
  3
*D6
  1

  0
LINE
  5
4A77
330
4238
100
AcDbEntity
  8
AM_5
100
AcDbLine
 10
-120.0000000000002
 20
-11.33333333333382
 30
0.0
 11
-120.0000000000001
 21
-27.50000000000052
 31
0.0
  0
LINE
  5
4A78
330
4238
100
AcDbEntity
  8
AM_5
100
AcDbLine
 10
-35.00000000000024
 20
-12.80000000000023
 30
0.0
 11
-35.00000000000019
 21
-27.50000000000019
 31
0.0
  0
LINE
  5
4A79
330
4238
100
AcDbEntity
  8
AM_5
100
AcDbLine
 10
-118.7500000000001
 20
-27.00000000000052
 30
0.0
 11
-36.25000000000019
 21
-27.0000000000002
 31
0.0
  0
INSERT
  5
4A7A
330
4238
100
AcDbEntity
  8
AM_5
100
AcDbBlockReference
  2
_OPEN30
 10
-120.0000000000001
 20
-27.00000000000052
 30
0.0
 41
1.25
 42
1.25
 43
1.25
 50
180.0000000000002
  0
INSERT
  5
4A7B
330
4238
100
AcDbEntity
  8
AM_5
100
AcDbBlockReference
  2
_OPEN30
 10
-35.00000000000019
 20
-27.0000000000002
 30
0.0
 41
1.25
 42
1.25
 43
1.25
 50
0.0000000000002036
  0
MTEXT
  5
4A7C
330
4238
100
AcDbEntity
  8
AM_5
 62
     2
100
AcDbMText
 10
-77.50000000000018
 20
-25.45000000000036
 30
0.0
 40
1.6
 41
0.0
 71
     5
 72
     1
  1
85
  7
ASAMI
1001
ACAD
1000
MTEXTBEGIN
1070
    73
1070
     1
1070
    44
1040
1.0
1070
    74
1070
     0
1000
MTEXTEND
  0
POINT
  5
4A7D
330
4238
100
AcDbEntity
  8
DEFPOINTS
 62
     0
100
AcDbPoint
 10
-120.0000000000002
 20
-10.83333333333336
 30
0.0
  0
POINT
  5
4A7E
330
4238
100
AcDbEntity
  8
DEFPOINTS
 62
     0
100
AcDbPoint
 10
-35.0000000000003
 20
-12.30000000000009
 30
0.0
  0
POINT
  5
4A7F
330
4238
100
AcDbEntity
  8
DEFPOINTS
 62
     0
100
AcDbPoint
 10
-35.0000000000003
 20
-27.00000000000006
 30
0.0
  0
ENDBLK
  5
4243
330
4238
100
AcDbEntity
  8
0
100
AcDbBlockEnd
  0
BLOCK
  5
424F
330
4245
100
AcDbEntity
  8
0
100
AcDbBlockBegin
  2
*D7
 70
     1
 10
0.0
 20
0.0
 30
0.0
  3
*D7
  1

  0
LINE
  5
4A65
330
4245
100
AcDbEntity
  8
AM_5
100
AcDbLine
 10
-120.0000000000002
 20
-11.33333333333379
 30
0.0
 11
-120.0000000000001
 21
-33.50000000000038
 31
0.0
  0
LINE
  5
4A66
330
4245
100
AcDbEntity
  8
AM_5
100
AcDbLine
 10
-0.0000000000000568
 20
-14.50000000000011
 30
0.0
 11
0.0000000000000142
 21
-33.49999999999992
 31
0.0
  0
LINE
  5
4A67
330
4245
100
AcDbEntity
  8
AM_5
100
AcDbLine
 10
-118.7500000000001
 20
-33.00000000000038
 30
0.0
 11
-1.249999999999987
 21
-32.99999999999993
 31
0.0
  0
INSERT
  5
4A68
330
4245
100
AcDbEntity
  8
AM_5
100
AcDbBlockReference
  2
_OPEN30
 10
-120.0000000000001
 20
-33.00000000000038
 30
0.0
 41
1.25
 42
1.25
 43
1.25
 50
180.0000000000002
  0
INSERT
  5
4A69
330
4245
100
AcDbEntity
  8
AM_5
100
AcDbBlockReference
  2
_OPEN30
 10
0.0000000000000124
 20
-32.99999999999993
 30
0.0
 41
1.25
 42
1.25
 43
1.25
 50
0.0000000000002036
  0
MTEXT
  5
4A6A
330
4245
100
AcDbEntity
  8
AM_5
 62
     2
100
AcDbMText
 10
-60.00000000000007
 20
-31.45000000000015
 30
0.0
 40
1.6
 41
0.0
 71
     5
 72
     1
  1
120
  7
ASAMI
1001
ACAD
1000
MTEXTBEGIN
1070
    73
1070
     1
1070
    44
1040
1.0
1070
    74
1070
     0
1000
MTEXTEND
  0
POINT
  5
4A6B
330
4245
100
AcDbEntity
  8
DEFPOINTS
 62
     0
100
AcDbPoint
 10
-120.0000000000002
 20
-10.83333333333333
 30
0.0
  0
POINT
  5
4A6C
330
4245
100
AcDbEntity
  8
DEFPOINTS
 62
     0
100
AcDbPoint
 10
-0.0000000000001118
 20
-14.00000000000011
 30
0.0
  0
POINT
  5
4A6D
330
4245
100
AcDbEntity
  8
DEFPOINTS
 62
     0
100
AcDbPoint
 10
-0.000000000000113
 20
-32.99999999999993
 30
0.0
  0
ENDBLK
  5
4250
330
4245
100
AcDbEntity
  8
0
100
AcDbBlockEnd
  0
BLOCK
  5
46B3
330
46A9
100
AcDbEntity
  8
0
100
AcDbBlockBegin
  2
*D8
 70
     1
 10
0.0
 20
0.0
 30
0.0
  3
*D8
  1

  0
LINE
  5
4A81
330
46A9
100
AcDbEntity
  8
AM_5
100
AcDbLine
 10
0.4999999999997304
 20
13.99999999999988
 30
0.0
 11
7.49999999999974
 21
13.99999999999989
 31
0.0
  0
LINE
  5
4A82
330
46A9
100
AcDbEntity
  8
AM_5
100
AcDbLine
 10
0.4999999999999193
 20
-14.00000000000011
 30
0.0
 11
7.499999999999796
 21
-14.0000000000001
 31
0.0
  0
LINE
  5
4A83
330
46A9
100
AcDbEntity
  8
AM_5
100
AcDbLine
 10
6.999999999999742
 20
12.74999999999989
 30
0.0
 11
6.999999999999793
 21
-12.7500000000001
 31
0.0
  0
INSERT
  5
4A84
330
46A9
100
AcDbEntity
  8
AM_5
100
AcDbBlockReference
  2
_OPEN30
 10
6.99999999999974
 20
13.99999999999989
 30
0.0
 41
1.25
 42
1.25
 43
1.25
 50
90.0000000000001
  0
INSERT
  5
4A85
330
46A9
100
AcDbEntity
  8
AM_5
100
AcDbBlockReference
  2
_OPEN30
 10
6.999999999999796
 20
-14.0000000000001
 30
0.0
 41
1.25
 42
1.25
 43
1.25
 50
270.0000000000001
  0
MTEXT
  5
4A86
330
46A9
100
AcDbEntity
  8
AM_5
 62
     2
100
AcDbMText
 10
5.449999999999768
 20
-0.0000000000001091
 30
0.0
 40
1.6
 41
0.0
 71
     5
 72
     1
  1
%%c28
  7
ASAMI
 11
-0.000000000000002
 21
1.0
 31
0.0
1001
ACAD
1000
MTEXTBEGIN
1070
    73
1070
     1
1070
    44
1040
1.0
1070
    74
1070
     0
1000
MTEXTEND
  0
POINT
  5
4A87
330
46A9
100
AcDbEntity
  8
DEFPOINTS
 62
     0
100
AcDbPoint
 10
-0.0000000000002386
 20
13.99999999999987
 30
0.0
  0
POINT
  5
4A88
330
46A9
100
AcDbEntity
  8
DEFPOINTS
 62
     0
100
AcDbPoint
 10
-0.0000000000001118
 20
-14.00000000000011
 30
0.0
  0
POINT
  5
4A89
330
46A9
100
AcDbEntity
  8
DEFPOINTS
 62
     0
100
AcDbPoint
 10
6.999999999999764
 20
-14.00000000000012
 30
0.0
  0
ENDBLK
  5
46B4
330
46A9
100
AcDbEntity
  8
0
100
AcDbBlockEnd
  0
BLOCK
  5
4937
330
492D
100
AcDbEntity
  8
0
100
AcDbBlockBegin
  2
*D9
 70
     1
 10
0.0
 20
0.0
 30
0.0
  3
*D9
  1

  0
LINE
  5
4C38
330
492D
100
AcDbEntity
  8
AM_5
100
AcDbLine
 10
-35.00000000000027
 20
-12.80000000000017
 30
0.0
 11
-35.00000000000024
 21
-27.50000000000013
 31
0.0
  0
LINE
  5
4C39
330
492D
100
AcDbEntity
  8
AM_5
100
AcDbLine
 10
-0.0000000000002571
 20
-14.50000000000011
 30
0.0
 11
-0.0000000000002316
 21
-27.50000000000006
 31
0.0
  0
LINE
  5
4C3A
330
492D
100
AcDbEntity
  8
AM_5
100
AcDbLine
 10
-33.75000000000024
 20
-27.00000000000013
 30
0.0
 11
-1.250000000000232
 21
-27.00000000000006
 31
0.0
  0
INSERT
  5
4C3B
330
492D
100
AcDbEntity
  8
AM_5
100
AcDbBlockReference
  2
_OPEN30
 10
-35.00000000000024
 20
-27.00000000000013
 30
0.0
 41
1.25
 42
1.25
 43
1.25
 50
180.0000000000001
  0
INSERT
  5
4C3C
330
492D
100
AcDbEntity
  8
AM_5
100
AcDbBlockReference
  2
_OPEN30
 10
-0.0000000000002326
 20
-27.00000000000006
 30
0.0
 41
1.25
 42
1.25
 43
1.25
 50
0.0000000000001018
  0
MTEXT
  5
4C3D
330
492D
100
AcDbEntity
  8
AM_5
 62
     2
100
AcDbMText
 10
-17.50000000000024
 20
-25.45000000000009
 30
0.0
 40
1.6
 41
0.0
 71
     5
 72
     1
  1
35
  7
ASAMI
1001
ACAD
1000
MTEXTBEGIN
1070
    73
1070
     1
1070
    44
1040
1.0
1070
    74
1070
     0
1000
MTEXTEND
  0
POINT
  5
4C3E
330
492D
100
AcDbEntity
  8
DEFPOINTS
 62
     0
100
AcDbPoint
 10
-35.0000000000003
 20
-12.30000000000009
 30
0.0
  0
POINT
  5
4C3F
330
492D
100
AcDbEntity
  8
DEFPOINTS
 62
     0
100
AcDbPoint
 10
-0.0000000000002863
 20
-14.00000000000011
 30
0.0
  0
POINT
  5
4C40
330
492D
100
AcDbEntity
  8
DEFPOINTS
 62
     0
100
AcDbPoint
 10
-0.0000000000002871
 20
-27.00000000000006
 30
0.0
  0
ENDBLK
  5
4938
330
492D
100
AcDbEntity
  8
0
100
AcDbBlockEnd
  0
BLOCK
  5
4B98
330
4B8E
100
AcDbEntity
  8
0
100
AcDbBlockBegin
  2
*D11
 70
     1
 10
0.0
 20
0.0
 30
0.0
  3
*D11
  1

  0
LINE
  5
4C06
330
4B8E
100
AcDbEntity
  8
AM_5
100
AcDbLine
 10
-8.000000000000259
 20
14.49999999999984
 30
0.0
 11
-8.000000000000273
 21
21.49999999999986
 31
0.0
  0
LINE
  5
4C07
330
4B8E
100
AcDbEntity
  8
AM_5
100
AcDbLine
 10
-0.0000000000002679
 20
14.49999999999987
 30
0.0
 11
-0.0000000000002816
 21
21.49999999999987
 31
0.0
  0
LINE
  5
4C08
330
4B8E
100
AcDbEntity
  8
AM_5
100
AcDbLine
 10
-6.750000000000273
 20
20.99999999999986
 30
0.0
 11
-1.25000000000028
 21
20.99999999999987
 31
0.0
  0
INSERT
  5
4C09
330
4B8E
100
AcDbEntity
  8
AM_5
100
AcDbBlockReference
  2
_OPEN30
 10
-8.000000000000273
 20
20.99999999999986
 30
0.0
 41
1.25
 42
1.25
 43
1.25
 50
180.0000000000001
  0
INSERT
  5
4C0A
330
4B8E
100
AcDbEntity
  8
AM_5
100
AcDbBlockReference
  2
_OPEN30
 10
-0.0000000000002806
 20
20.99999999999988
 30
0.0
 41
1.25
 42
1.25
 43
1.25
 50
0.0000000000001018
  0
MTEXT
  5
4C0B
330
4B8E
100
AcDbEntity
  8
AM_5
 62
     2
100
AcDbMText
 10
-4.000000000000279
 20
22.54999999999987
 30
0.0
 40
1.6
 41
0.0
 71
     5
 72
     1
  1
8
  7
ASAMI
1001
ACAD
1000
MTEXTBEGIN
1070
    73
1070
     1
1070
    44
1040
1.0
1070
    74
1070
     0
1000
MTEXTEND
  0
POINT
  5
4C0C
330
4B8E
100
AcDbEntity
  8
DEFPOINTS
 62
     0
100
AcDbPoint
 10
-8.00000000000023
 20
13.99999999999986
 30
0.0
  0
POINT
  5
4C0D
330
4B8E
100
AcDbEntity
  8
DEFPOINTS
 62
     0
100
AcDbPoint
 10
-0.0000000000002386
 20
13.99999999999987
 30
0.0
  0
POINT
  5
4C0E
330
4B8E
100
AcDbEntity
  8
DEFPOINTS
 62
     0
100
AcDbPoint
 10
-0.0000000000002382
 20
20.99999999999988
 30
0.0
  0
ENDBLK
  5
4B99
330
4B8E
100
AcDbEntity
  8
0
100
AcDbBlockEnd
  0
ENDSEC
  0
SECTION
  2
ENTITIES
  0
TEXT
  5
E65
330
1F
100
AcDbEntity
  8
AM_6
100
AcDbText
 10
-69.28571428571432
 20
-54.25000000000015
 30
0.0
 40
2.5
  1
CHE2028R
 72
     4
 11
-60.00000000000003
 21
-53.00000000000015
 31
0.0
100
AcDbText
  0
POINT
  5
22B9
330
1F
100
AcDbEntity
  8
0
 60
     1
100
AcDbPoint
 10
0.0
 20
0.0
 30
0.0
1001
GENIUS_GENOBJ-NBEHI-BHB_13
1002
{
1000
OWNER
1000
GENBEHI
1002
}
1001
GENIUS_GENOENT_13
1002
{
1000
MYREF
1005
22B9
1002
}
1002
{
1000
GRP
1005
0
1002
}
1001
GENIUS_GENOLIS_13
1002
{
1000
ENT
1005
202B
1005
22A0
1002
}
1001
GENIUS_GENBH_13
1002
{
1000
FGO
1005
22B7
1002
}
1001
GENIUS_GENODEF_13
1002
{
1000
HIER
1070
     1
1002
}
1002
{
1000
MANEDIT
1070
     1
1002
}
1002
{
1000
NOSEL
1070
     1
1002
}
1002
{
1000
BEHIND
1070
     0
1002
}
1002
{
1000
REACTOR
1002
}
1002
{
1000
OTHER
1070
     1
1002
}
  0
POINT
  5
22EE
330
1F
100
AcDbEntity
  8
0
 60
     1
100
AcDbPoint
 10
48.69120841332719
 20
0.0000000000000995
 30
0.0
1001
GENIUS_GENOBJ-NBEHI-BHB_13
1002
{
1000
OWNER
1000
GENBEHI
1002
}
1001
GENIUS_GENOENT_13
1002
{
1000
MYREF
1005
22EE
1002
}
1002
{
1000
GRP
1005
0
1002
}
1001
GENIUS_GENOLIS_13
1002
{
1000
ENT
1005
22DF
1005
22A0
1002
}
1001
GENIUS_GENBH_13
1002
{
1000
FGO
1005
22ED
1002
}
1001
GENIUS_GENODEF_13
1002
{
1000
HIER
1070
     1
1002
}
1002
{
1000
MANEDIT
1070
     1
1002
}
1002
{
1000
NOSEL
1070
     1
1002
}
1002
{
1000
BEHIND
1070
     0
1002
}
1002
{
1000
REACTOR
1002
}
1002
{
1000
OTHER
1070
     1
1002
}
  0
LINE
  5
2F9C
330
1F
100
AcDbEntity
  8
AM_0
100
AcDbLine
 10
-0.4000000000002865
 20
12.00782032302737
 30
0.0
 11
-0.4000000000002365
 21
-12.93527372176519
 31
0.0
  0
POINT
  5
2FC5
330
1F
100
AcDbEntity
  8
0
 60
     1
100
AcDbPoint
 10
66.68948384583128
 20
-34.14755652543707
 30
0.0
1001
GENIUS_GENOBJ-N-CRS_13
1002
{
1000
OWNER
1000
GEN
1002
}
1001
GENIUS_GENOENT_13
1002
{
1000
MYREF
1005
2FC5
1002
}
1002
{
1000
GRP
1005
0
1002
}
1001
GENIUS_GENOLIS_13
1002
{
1000
ENT
1005
2FC2
1005
2FB5
1005
2F9B
1005
2FB9
1002
}
1001
GENIUS_GENODEF_13
1002
{
1000
HIER
1070
    10
1002
}
1002
{
1000
MANEDIT
1070
     1
1002
}
1002
{
1000
NOSEL
1070
     0
1002
}
1002
{
1000
BEHIND
1070
     0
1002
}
1002
{
1000
REACTOR
1002
}
  0
LINE
  5
4223
330
1F
100
AcDbEntity
  8
AM_0
100
AcDbLine
 10
-120.0000000000002
 20
10.83333333333333
 30
0.0
 11
-119.0000000000002
 21
12.49999999999999
 31
0.0
1001
GENIUS_GENFIL_13
1070
     0
1040
1.0
1040
1.0
1040
20.0
1040
0.0
1002
{
1002
}
1001
GENIUS_GENODEF_13
1002
{
1000
HIER
1070
     0
1002
}
1002
{
1000
MANEDIT
1070
     0
1002
}
1002
{
1000
NOSEL
1070
     0
1002
}
1002
{
1000
BEHIND
1070
     0
1002
}
1002
{
1000
REACTOR
1002
}
1001
GENIUS_GENOBJ-N-CHA_13
1002
{
1000
OWNER
1000
GEN
1002
}
  0
LINE
  5
4224
330
1F
100
AcDbEntity
  8
AM_0
100
AcDbLine
 10
-119.0000000000002
 20
-12.50000000000003
 30
0.0
 11
-120.0000000000002
 21
-10.83333333333336
 31
0.0
1001
GENIUS_GENFIL_13
1070
     0
1040
1.0
1040
1.0
1040
20.0
1040
0.0
1002
{
1002
}
1001
GENIUS_GENODEF_13
1002
{
1000
HIER
1070
     0
1002
}
1002
{
1000
MANEDIT
1070
     0
1002
}
1002
{
1000
NOSEL
1070
     0
1002
}
1002
{
1000
BEHIND
1070
     0
1002
}
1002
{
1000
REACTOR
1002
}
1001
GENIUS_GENOBJ-N-CHA_13
1002
{
1000
OWNER
1000
GEN
1002
}
  0
LINE
  5
4225
330
1F
100
AcDbEntity
  8
AM_0
100
AcDbLine
 10
-120.0000000000002
 20
-10.83333333333333
 30
0.0
 11
-120.0000000000002
 21
10.83333333333332
 31
0.0
  0
LINE
  5
4226
330
1F
100
AcDbEntity
  8
AM_0
100
AcDbLine
 10
-119.0000000000002
 20
-12.50000000000003
 30
0.0
 11
-119.0000000000002
 21
12.49999999999996
 31
0.0
  0
DIMENSION
  5
4227
330
1F
100
AcDbEntity
  8
AM_5
100
AcDbDimension
  2
*D5
 10
-127.0000000000002
 20
12.49999999999997
 30
0.0
 11
-128.5500000000002
 21
-0.0000000000000515
 31
0.0
 70
    32
  1
%%c<>
 51
359.9999999999997
  3
AM_JIS
100
AcDbAlignedDimension
 13
-119.0000000000002
 23
-12.50000000000003
 33
0.0
 14
-119.0000000000002
 24
12.49999999999996
 34
0.0
 50
269.9999999999998
100
AcDbRotatedDimension
1001
GENIUS_GENDTOL_13
1000

1000
h7
1000

1040
0.0
  0
LINE
  5
4234
330
1F
100
AcDbEntity
  8
AM_0
100
AcDbLine
 10
-38.00000000000029
 20
-12.50000000000008
 30
0.0
 11
-119.0000000000002
 21
-12.50000000000001
 31
0.0
  0
LINE
  5
4235
330
1F
100
AcDbEntity
  8
AM_0
100
AcDbLine
 10
-119.0000000000002
 20
12.49999999999996
 30
0.0
 11
-38.00000000000024
 21
12.50000000000009
 31
0.0
  0
LINE
  5
4236
330
1F
100
AcDbEntity
  8
AM_7
100
AcDbLine
 10
2.21330240491253
 20
-0.0000000000001208
 30
0.0
 11
-123.242041116892
 21
-0.0000000000000048
 31
0.0
1001
GENIUS_GENODEF_13
1002
{
1000
HIER
1070
     0
1002
}
1002
{
1000
MANEDIT
1070
     0
1002
}
1002
{
1000
NOSEL
1070
     0
1002
}
1002
{
1000
BEHIND
1070
     0
1002
}
1002
{
1000
REACTOR
1002
}
1001
GENIUS_GENOBJ-N-CEN_13
1002
{
1000
OWNER
1000
GEN
1002
}
  0
DIMENSION
  5
4237
330
1F
100
AcDbEntity
  8
AM_5
100
AcDbDimension
  2
*D6
 10
-35.0000000000003
 20
-27.00000000000006
 30
0.0
 11
-77.50000000000028
 21
-25.45000000000007
 31
0.0
 70
    32
  1
<>
 51
359.9999999999997
  3
AM_JIS
100
AcDbAlignedDimension
 13
-120.0000000000002
 23
-10.83333333333336
 33
0.0
 14
-35.0000000000003
 24
-12.30000000000009
 34
0.0
100
AcDbRotatedDimension
1001
GENIUS_GENDTOL_13
1000

1000
h7
1000

1040
0.0
  0
DIMENSION
  5
4244
330
1F
100
AcDbEntity
  8
AM_5
100
AcDbDimension
  2
*D7
 10
-0.000000000000113
 20
-32.99999999999993
 30
0.0
 11
-60.0000000000002
 21
-31.44999999999992
 31
0.0
 70
    32
  1
<>
 51
359.9999999999997
  3
AM_JIS
100
AcDbAlignedDimension
 13
-120.0000000000002
 23
-10.83333333333333
 33
0.0
 14
-0.0000000000001118
 24
-14.00000000000011
 34
0.0
100
AcDbRotatedDimension
1001
GENIUS_GENDTOL_13
1000

1000
h7
1000

1040
0.0
  0
LINE
  5
45C6
330
1F
100
AcDbEntity
  8
AM_11
100
AcDbLine
 10
-0.0000000000002863
 20
-14.00000000000011
 30
0.0
 11
-0.0000000000002386
 21
13.99999999999987
 31
0.0
  0
LINE
  5
468D
330
1F
100
AcDbEntity
  8
AM_0
100
AcDbLine
 10
-6.487564434702312
 20
-0.0000000000001127
 30
0.0
 11
-6.487564434702285
 21
-13.49999999999998
 31
0.0
  0
LINE
  5
4691
330
1F
100
AcDbEntity
  8
AM_0
100
AcDbLine
 10
-7.700000000000298
 20
-12.8000000000001
 30
0.0
 11
-34.50000000000029
 21
-12.80000000000008
 31
0.0
  0
LINE
  5
4692
330
1F
100
AcDbEntity
  8
AM_0
100
AcDbLine
 10
-9.323406721160306
 20
12.79999999999987
 30
0.0
 11
-34.50000000000024
 21
12.7999999999999
 31
0.0
  0
DIMENSION
  5
46A8
330
1F
100
AcDbEntity
  8
AM_5
100
AcDbDimension
  2
*D8
 10
6.999999999999764
 20
-14.00000000000012
 30
0.0
 11
5.449999999999768
 21
-0.0000000000001201
 31
0.0
 70
    32
  1
%%c<>
 51
359.9999999999998
  3
AM_JIS
100
AcDbAlignedDimension
 13
-0.0000000000002386
 23
13.99999999999987
 33
0.0
 14
-0.0000000000001118
 24
-14.00000000000011
 34
0.0
 50
90.00000000000012
100
AcDbRotatedDimension
  0
LINE
  5
4836
330
1F
100
AcDbEntity
  8
AM_0
100
AcDbLine
 10
-38.00000000000024
 20
12.50000000000011
 30
0.0
 11
-38.00000000000024
 21
12.50000000000011
 31
0.0
  0
LINE
  5
4837
330
1F
100
AcDbEntity
  8
AM_0
100
AcDbLine
 10
-34.50000000000024
 20
12.79999999999991
 30
0.0
 11
-34.50000000000029
 21
-12.80000000000009
 31
0.0
  0
LINE
  5
4838
330
1F
100
AcDbEntity
  8
AM_0
100
AcDbLine
 10
-35.0000000000003
 20
-12.30000000000008
 30
0.0
 11
-34.5000000000003
 21
-12.80000000000008
 31
0.0
  0
LINE
  5
4839
330
1F
100
AcDbEntity
  8
AM_0
100
AcDbLine
 10
-34.50000000000025
 20
12.7999999999999
 30
0.0
 11
-35.00000000000024
 21
12.2999999999999
 31
0.0
  0
LINE
  5
483A
330
1F
100
AcDbEntity
  8
AM_0
100
AcDbLine
 10
-35.30000000000029
 20
-12.00000000000008
 30
0.0
 11
-37.50000000000029
 21
-12.00000000000008
 31
0.0
  0
LINE
  5
483B
330
1F
100
AcDbEntity
  8
AM_0
100
AcDbLine
 10
-37.50000000000024
 20
12.00000000000011
 30
0.0
 11
-35.30000000000024
 21
12.00000000000011
 31
0.0
  0
LINE
  5
483C
330
1F
100
AcDbEntity
  8
AM_0
100
AcDbLine
 10
-38.00000000000024
 20
12.50000000000011
 30
0.0
 11
-38.00000000000029
 21
-12.50000000000008
 31
0.0
  0
LINE
  5
483D
330
1F
100
AcDbEntity
  8
AM_0
100
AcDbLine
 10
-35.00000000000024
 20
12.2999999999999
 30
0.0
 11
-35.00000000000024
 21
12.30000000000011
 31
0.0
  0
ARC
  5
483E
330
1F
100
AcDbEntity
  8
AM_0
100
AcDbCircle
 10
-37.50000000000024
 20
12.50000000000011
 30
0.0
 40
0.5
100
AcDbArc
 50
180.0
 51
270.0
  0
LINE
  5
4849
330
1F
100
AcDbEntity
  8
AM_0
100
AcDbLine
 10
-38.00000000000029
 20
-12.50000000000007
 30
0.0
 11
-38.00000000000029
 21
-12.50000000000008
 31
0.0
  0
ARC
  5
484B
330
1F
100
AcDbEntity
  8
AM_0
100
AcDbCircle
 10
-37.50000000000029
 20
-12.50000000000008
 30
0.0
 40
0.5
100
AcDbArc
 50
89.99999999999992
 51
179.9999999999991
  0
LINE
  5
489E
330
1F
100
AcDbEntity
  8
AM_11
100
AcDbLine
 10
-8.000000000000236
 20
13.99999999999986
 30
0.0
 11
-0.0000000000002386
 21
13.99999999999987
 31
0.0
  0
LINE
  5
489F
330
1F
100
AcDbEntity
  8
AM_0
100
AcDbLine
 10
-8.533606855795289
 20
13.99999999999985
 30
0.0
 11
-1.121730585339858
 21
13.99999999999987
 31
0.0
  0
LINE
  5
48A0
330
1F
100
AcDbEntity
  8
AM_0
100
AcDbLine
 10
-3.813117812200407
 20
6.096126860078395
 30
0.0
 11
-0.1071796769727119
 21
12.51499999999987
 31
0.0
  0
LINE
  5
48A2
330
1F
100
AcDbEntity
  8
AM_7
100
AcDbLine
 10
-4.749075841257299
 20
15.10215096730525
 30
0.0
 11
-4.749075841257272
 21
3.293150170487646
 31
0.0
  0
LINE
  5
48A3
330
1F
100
AcDbEntity
  8
AM_0
100
AcDbLine
 10
-4.249075841257278
 20
7.618196104723357
 30
0.0
 11
-4.24907584125729
 21
11.11819610472335
 31
0.0
  0
ARC
  5
48A4
330
1F
100
AcDbEntity
  8
AM_0
100
AcDbCircle
 10
-14.49907584125728
 20
8.874999999999847
 30
0.0
 40
3.75
100
AcDbArc
 50
180.0000000000001
 51
270.0000000000001
  0
CIRCLE
  5
48A5
330
1F
100
AcDbEntity
  8
AM_0
100
AcDbCircle
 10
-12.74907584125728
 20
8.874999999999854
 30
0.0
 40
2.1
  0
CIRCLE
  5
48A6
330
1F
100
AcDbEntity
  8
AM_0
100
AcDbCircle
 10
-12.74907584125728
 20
8.874999999999854
 30
0.0
 40
3.0
  0
LINE
  5
48A7
330
1F
100
AcDbEntity
  8
AM_7
100
AcDbLine
 10
-12.74907584125727
 20
3.858296258699842
 30
0.0
 11
-12.74907584125729
 21
13.73995595823042
 31
0.0
  0
LINE
  5
48A8
330
1F
100
AcDbEntity
  8
AM_0
100
AcDbLine
 10
-14.49907584125727
 20
5.124999999999848
 30
0.0
 11
-11.760302018914
 21
5.124999999999862
 31
0.0
  0
LINE
  5
48A9
330
1F
100
AcDbEntity
  8
AM_0
100
AcDbLine
 10
-10.47772648144275
 20
5.351152672052703
 30
0.0
 11
-4.249075841257281
 21
7.618196104723357
 31
0.0
  0
ARC
  5
48AA
330
1F
100
AcDbEntity
  8
AM_0
100
AcDbCircle
 10
-11.76030201891401
 20
8.874999999999861
 30
0.0
 40
3.75
100
AcDbArc
 50
270.0000000000001
 51
290.0000000000001
  0
ARC
  5
48AB
330
1F
100
AcDbEntity
  8
AM_0
100
AcDbCircle
 10
-4.836836072193985
 20
6.227005178866185
 30
0.0
 40
1.5
100
AcDbArc
 50
152.4802074258048
 51
20.60447787951774
  0
LINE
  5
48AD
330
1F
100
AcDbEntity
  8
AM_0
100
AcDbLine
 10
-5.606440991003894
 20
5.959999999999865
 30
0.0
 11
-6.16185316003737
 21
6.922002095907882
 31
0.0
  0
LINE
  5
48AF
330
1F
100
AcDbEntity
  8
AM_0
100
AcDbLine
 10
-15.44907584125729
 20
12.62499999999984
 30
0.0
 11
-12.16278432221232
 21
12.62499999999986
 31
0.0
  0
LINE
  5
48B0
330
1F
100
AcDbEntity
  8
AM_7
100
AcDbLine
 10
-19.60879160104047
 20
8.87499999999984
 30
0.0
 11
-3.331346885109091
 21
8.874999999999875
 31
0.0
  0
ARC
  5
48B1
330
1F
100
AcDbEntity
  8
AM_0
100
AcDbCircle
 10
-17.24907584125729
 20
11.10741527321372
 30
0.0
 40
1.0
100
AcDbArc
 50
105.0000000000002
 51
180.0000000000002
  0
LINE
  5
48B2
330
1F
100
AcDbEntity
  8
AM_0
100
AcDbLine
 10
-18.24907584125728
 20
8.87499999999984
 30
0.0
 11
-18.24907584125729
 21
11.10741527321372
 31
0.0
  0
LINE
  5
48B3
330
1F
100
AcDbEntity
  8
AM_0
100
AcDbLine
 10
-15.44907584125729
 20
12.62499999999984
 30
0.0
 11
-17.50789488635981
 21
12.07334109950279
 31
0.0
  0
LINE
  5
48B4
330
1F
100
AcDbEntity
  8
AM_0
100
AcDbLine
 10
-7.94522826396393
 20
11.11819610472334
 30
0.0
 11
-4.24907584125729
 21
11.11819610472335
 31
0.0
  0
LINE
  5
48B5
330
1F
100
AcDbEntity
  8
AM_0
100
AcDbLine
 10
-8.630290947269507
 20
11.19746175871681
 30
0.0
 11
-9.312379126231624
 21
12.37887313992132
 31
0.0
  0
LINE
  5
48B6
330
1F
100
AcDbEntity
  8
AM_0
100
AcDbLine
 10
-9.44522826396393
 20
11.52011989337001
 30
0.0
 11
-10.66278432221231
 21
12.22307621135317
 31
0.0
  0
ARC
  5
48B7
330
1F
100
AcDbEntity
  8
AM_0
100
AcDbCircle
 10
-7.945228263963937
 20
14.11819610472334
 30
0.0
 40
3.0
100
AcDbArc
 50
240.0000000000002
 51
270.0000000000002
  0
ARC
  5
48B8
330
1F
100
AcDbEntity
  8
AM_0
100
AcDbCircle
 10
-12.16278432221231
 20
9.624999999999861
 30
0.0
 40
3.0
100
AcDbArc
 50
60.0000000000001
 51
90.00000000000017
  0
ARC
  5
48BE
330
1F
100
AcDbEntity
  8
AM_0
100
AcDbCircle
 10
-4.913620667976341
 20
6.359999999999867
 30
0.0
 40
0.8
100
AcDbArc
 50
210.0
 51
301.4999999999998
  0
LINE
  5
48C0
330
1F
100
AcDbEntity
  8
AM_0
100
AcDbLine
 10
-4.49562181620358
 20
5.677887868516595
 30
0.0
 11
-3.813117812200407
 21
6.096126860078395
 31
0.0
  0
ARC
  5
48C1
330
1F
100
AcDbEntity
  8
AM_0
100
AcDbCircle
 10
-0.8000000000002406
 20
12.91499999999985
 30
0.0
 40
0.8
100
AcDbArc
 50
330.0
 51
61.49999999999987
  0
LINE
  5
48C2
330
1F
100
AcDbEntity
  8
AM_0
100
AcDbLine
 10
-0.4182729917925575
 20
13.61805369012943
 30
0.0
 11
-1.121730585339848
 21
13.99999999999987
 31
0.0
  0
ARC
  5
48C3
330
1F
100
AcDbEntity
  8
AM_0
100
AcDbCircle
 10
-8.533606855795287
 20
13.19999999999987
 30
0.0
 40
0.8
100
AcDbArc
 50
90.00000000000003
 51
181.4999999999998
  0
LINE
  5
48C4
330
1F
100
AcDbEntity
  8
AM_0
100
AcDbLine
 10
-9.33333271577573
 20
13.17905844135357
 30
0.0
 11
-9.312379126231613
 21
12.37887313992132
 31
0.0
  0
LINE
  5
48C7
330
1F
100
AcDbEntity
  8
AM_7
100
AcDbLine
 10
-10.06266843144459
 20
10.82499999999986
 30
0.0
 11
-0.5012477789118028
 21
10.82499999999987
 31
0.0
  0
LINE
  5
48CA
330
1F
100
AcDbEntity
  8
AM_11
100
AcDbLine
 10
-8.000000000000285
 20
-14.00000000000008
 30
0.0
 11
-0.0000000000002645
 21
-14.00000000000011
 31
0.0
  0
LINE
  5
48CB
330
1F
100
AcDbEntity
  8
AM_0
100
AcDbLine
 10
-0.4182729917925827
 20
-13.61805369012966
 30
0.0
 11
-1.121730585339874
 21
-14.00000000000011
 31
0.0
  0
LINE
  5
48CC
330
1F
100
AcDbEntity
  8
AM_0
100
AcDbLine
 10
-8.533606855795316
 20
-14.00000000000007
 30
0.0
 11
-1.121730585339884
 21
-14.00000000000011
 31
0.0
  0
ARC
  5
48CD
330
1F
100
AcDbEntity
  8
AM_0
100
AcDbCircle
 10
-8.533606855795312
 20
-13.20000000000009
 30
0.0
 40
0.8
100
AcDbArc
 50
178.5
 51
269.9999999999998
  0
LINE
  5
48CE
330
1F
100
AcDbEntity
  8
AM_0
100
AcDbLine
 10
-9.333332715775755
 20
-13.17905844135379
 30
0.0
 11
-9.323406721160328
 21
-12.8000000000001
 31
0.0
  0
ARC
  5
48CF
330
1F
100
AcDbEntity
  8
AM_0
100
AcDbCircle
 10
-0.8000000000002644
 20
-12.91500000000009
 30
0.0
 40
0.8
100
AcDbArc
 50
298.5
 51
29.99999999999987
  0
LINE
  5
48D0
330
1F
100
AcDbEntity
  8
AM_3
100
AcDbLine
 10
-3.813117812200419
 20
-6.096126860078626
 30
0.0
 11
-0.4000000000002382
 21
-12.00782032302773
 31
0.0
  0
LINE
  5
48D1
330
1F
100
AcDbEntity
  8
AM_3
100
AcDbLine
 10
-4.49562181620359
 20
-5.677887868516824
 30
0.0
 11
-3.813117812200419
 21
-6.096126860078626
 31
0.0
  0
ARC
  5
48D2
330
1F
100
AcDbEntity
  8
AM_3
100
AcDbCircle
 10
-4.913620667976353
 20
-6.360000000000096
 30
0.0
 40
0.8
100
AcDbArc
 50
58.50000000000004
 51
149.9999999999998
  0
LINE
  5
48D3
330
1F
100
AcDbEntity
  8
AM_3
100
AcDbLine
 10
-5.606440991003898
 20
-5.960000000000095
 30
0.0
 11
-9.312379126231647
 21
-12.37887313992154
 31
0.0
  0
LINE
  5
48D4
330
1F
100
AcDbEntity
  8
AM_0
100
AcDbLine
 10
-0.4000000000002372
 20
-12.00782032302774
 30
0.0
 11
-0.1071796769727351
 21
-12.51500000000011
 31
0.0
  0
LINE
  5
48D5
330
1F
100
AcDbEntity
  8
AM_3
100
AcDbLine
 10
-9.323406721160331
 20
-12.8000000000001
 30
0.0
 11
-9.312379126231636
 21
-12.37887313992154
 31
0.0
  0
LINE
  5
48D7
330
1F
100
AcDbEntity
  8
AM_0
100
AcDbLine
 10
-6.487564434702282
 20
-13.49999999999998
 30
0.0
 11
-0.4000000000002365
 21
-12.93527372176519
 31
0.0
  0
LINE
  5
4904
330
1F
100
AcDbEntity
  8
AM_0
100
AcDbLine
 10
-35.00000000000024
 20
12.29999999999991
 30
0.0
 11
-35.0000000000003
 21
-12.30000000000009
 31
0.0
  0
ARC
  5
4905
330
1F
100
AcDbEntity
  8
AM_0
100
AcDbCircle
 10
-35.30000000000024
 20
12.30000000000011
 30
0.0
 40
0.3
100
AcDbArc
 50
270.0000000000001
 51
0.0
  0
LINE
  5
4906
330
1F
100
AcDbEntity
  8
AM_0
100
AcDbLine
 10
-35.0000000000003
 20
-12.30000000000008
 30
0.0
 11
-35.0000000000003
 21
-12.30000000000009
 31
0.0
  0
ARC
  5
4907
330
1F
100
AcDbEntity
  8
AM_0
100
AcDbCircle
 10
-35.30000000000029
 20
-12.30000000000008
 30
0.0
 40
0.3
100
AcDbArc
 50
0.0
 51
89.99999999999991
  0
LINE
  5
4911
330
1F
100
AcDbEntity
  8
AM_0
100
AcDbLine
 10
-7.700000000000268
 20
-0.0000000000001116
 30
0.0
 11
-7.700000000000298
 21
-12.8000000000001
 31
0.0
  0
LINE
  5
4912
330
1F
100
AcDbEntity
  8
AM_0
100
AcDbLine
 10
-7.700000000000298
 20
-12.8000000000001
 30
0.0
 11
-6.487564434702286
 21
-13.49999999999998
 31
0.0
  0
DIMENSION
  5
492C
330
1F
100
AcDbEntity
  8
AM_5
100
AcDbDimension
  2
*D9
 10
-0.0000000000002871
 20
-27.00000000000006
 30
0.0
 11
-17.50000000000029
 21
-25.45000000000006
 31
0.0
 70
    32
  1
<>
 51
359.9999999999998
  3
AM_JIS
100
AcDbAlignedDimension
 13
-35.0000000000003
 23
-12.30000000000009
 33
0.0
 14
-0.0000000000002863
 24
-14.00000000000011
 34
0.0
 50
0.0000000000002264
100
AcDbRotatedDimension
1001
GENIUS_GENDTOL_13
1000

1000
h7
1000

1040
0.0
  0
LINE
  5
49B9
330
1F
100
AcDbEntity
  8
AM_11
100
AcDbLine
 10
-8.000000000000285
 20
-14.00000000000008
 30
0.0
 11
-8.000000000000236
 21
13.99999999999986
 31
0.0
  0
DIMENSION
  5
4B8D
330
1F
100
AcDbEntity
  8
AM_5
100
AcDbDimension
  2
*D11
 10
-0.0000000000002382
 20
20.99999999999988
 30
0.0
 11
-4.000000000000234
 21
22.54999999999987
 31
0.0
 70
    32
  1
<>
 51
359.9999999999998
  3
AM_JIS
100
AcDbAlignedDimension
 13
-8.00000000000023
 23
13.99999999999986
 33
0.0
 14
-0.0000000000002386
 24
13.99999999999987
 34
0.0
 50
180.0000000000001
100
AcDbRotatedDimension
1001
GENIUS_GENDTOL_13
1000

1000
h7
1000

1040
0.0
  0
VIEWPORT
  5
110
330
101
100
AcDbEntity
 67
     1
  8
0
100
AcDbViewport
 10
420.5
 20
297.0
 30
0.0
 40
948.9782706766916
 41
628.452
 68
     1
 69
     1
1001
ACAD
1000
MVIEW
1002
{
1070
    16
1010
0.0
1020
0.0
1030
0.0
1010
0.0
1020
0.0
1030
1.0
1040
0.0
1040
628.452
1040
420.5
1040
297.0
1040
50.0
1040
0.0
1040
0.0
1070
     0
1070
   100
1070
     1
1070
     1
1070
     0
1070
     0
1070
     0
1070
     0
1040
0.0
1040
0.0
1040
0.0
1040
10.0
1040
10.0
1040
10.0
1040
10.0
1070
     0
1002
{
1002
}
1002
}
  0
ENDSEC
  0
SECTION
  2
OBJECTS
  0
DICTIONARY
  5
C
330
0
100
AcDbDictionary
  3
ACAD_GROUP
350
D
  3
ACAD_LAYOUT
350
1A
  3
ACAD_MLINESTYLE
350
17
  3
ACAD_PLOTSETTINGS
350
19
  3
ACAD_PLOTSTYLENAME
350
E
  3
ACDBVARIABLEDICTIONARY
350
34
  3
ACMDICTIONARY
350
43
  3
AMG
350
2B
  3
AMGSNAPSETTINGS
350
6E
  3
DWGPROPS
350
4D6D
  3
ACDBHEADERROUNDTRIPXREC
350
4D7B
  0
DICTIONARY
  5
74
330
1F
100
AcDbDictionary
280
     1
  3
ACAD_INDEX
360
4D6F
  3
ACAD_LAYOUTSELFREF
360
4D9E
  0
DICTIONARY
  5
4DA3
330
101
100
AcDbDictionary
280
     1
  3
ACAD_LAYOUTSELFREF
360
4DA4
  0
DICTIONARY
  5
D
102
{ACAD_REACTORS
330
C
102
}
330
C
100
AcDbDictionary
  0
DICTIONARY
  5
1A
102
{ACAD_REACTORS
330
C
102
}
330
C
100
AcDbDictionary
  0
DICTIONARY
  5
17
102
{ACAD_REACTORS
330
C
102
}
330
C
100
AcDbDictionary
  3
STANDARD
350
18
  0
DICTIONARY
  5
19
102
{ACAD_REACTORS
330
C
102
}
330
C
100
AcDbDictionary
  0
ACDBDICTIONARYWDFLT
  5
E
102
{ACAD_REACTORS
330
C
102
}
330
C
100
AcDbDictionary
281
     1
  3
Normal
350
F
100
AcDbDictionaryWithDefault
340
F
  0
DICTIONARY
  5
34
102
{ACAD_REACTORS
330
C
102
}
330
C
100
AcDbDictionary
  3
INDEXCTL
350
35
  3
SORTENTS
350
B5E
  0
DICTIONARY
  5
43
102
{ACAD_REACTORS
330
C
102
}
330
C
100
AcDbDictionary
  3
ACMSTDDICTIONARY
350
260
  0
DICTIONARY
  5
2B
102
{ACAD_REACTORS
330
C
102
}
330
C
100
AcDbDictionary
  3
ACMGSETTINGS
350
2C
  0
DICTIONARY
  5
6E
102
{ACAD_REACTORS
330
C
102
}
330
C
100
AcDbDictionary
  0
XRECORD
  5
4D6D
102
{ACAD_REACTORS
330
C
102
}
330
C
100
AcDbXrecord
  1
DWGPROPS COOKIE
  2

  3

  4

  6

  7

  8

  9

300
AmdtFileType=82
301
=
302
=
303
=
304
=
305
=
306
=
307
=
308
=
309
=
 40
0.4406898726851852
 41
2452802.716478761
 42
2452871.627116203
  1

 90
        1
  0
DICTIONARY
  5
4D7B
102
{ACAD_REACTORS
330
C
102
}
330
C
100
AcDbDictionary
  3
TSTACKALIGN
350
4D7C
  3
TSTACKSIZE
350
4D7D
  3
HYPERLINKBASE
350
4D7E
  3
STYLESHEET
350
4D7F
  3
LAYOUTDICT
350
4D80
  3
PLOTSETDICT
350
4D81
  3
PLOTSTYLNAMDICT
350
4D82
  3
LWETCUNION
350
4D83
  3
INSUNITS
350
4D84
  3
CEPSNTYPE
350
4D85
  3
FINGERPRINTGUID
350
4D86
  3
VERSIONGUID
350
4D87
  3
PSVPSCALE
350
4D88
  3
DIMSTYLEDATA
350
4D89
  3
PUCSORTHOREF
350
4D8A
  3
PUCSORTHOVIEW
350
4D8B
  3
PUCSBASE
350
4D8C
  3
PUCSORGTOP
350
4D8D
  3
PUCSORGBOTTOM
350
4D8E
  3
PUCSORGLEFT
350
4D8F
  3
PUCSORGRIGHT
350
4D90
  3
PUCSORGFRONT
350
4D91
  3
PUCSORGBACK
350
4D92
  3
UCSORTHOREF
350
4D93
  3
UCSORTHOVIEW
350
4D94
  3
UCSBASE
350
4D95
  3
UCSORGTOP
350
4D96
  3
UCSORGBOTTOM
350
4D97
  3
UCSORGLEFT
350
4D98
  3
UCSORGRIGHT
350
4D99
  3
UCSORGFRONT
350
4D9A
  3
UCSORGBACK
350
4D9B
  0
DICTIONARY
  5
4D6F
102
{ACAD_REACTORS
330
74
102
}
330
74
100
AcDbDictionary
  3
*A1
350
4D70
  0
XRECORD
  5
4D9E
102
{ACAD_REACTORS
330
74
102
}
330
74
100
AcDbXrecord
340
1F
  0
XRECORD
  5
4DA4
102
{ACAD_REACTORS
330
4DA3
102
}
330
4DA3
100
AcDbXrecord
340
101
  0
MLINESTYLE
  5
18
102
{ACAD_REACTORS
330
17
102
}
330
17
100
AcDbMlineStyle
  2
STANDARD
 70
     0
  3

 62
   256
 51
90.0
 52
90.0
 71
     2
 49
0.5
 62
   256
  6
BYLAYER
 49
-0.5
 62
   256
  6
BYLAYER
  0
ACDBPLACEHOLDER
  5
F
102
{ACAD_REACTORS
330
E
102
}
330
E
100
AcDbPlaceHolder
280
     0
  0
DICTIONARYVAR
  5
35
102
{ACAD_REACTORS
330
34
102
}
330
34
100
DictionaryVariables
280
     0
  1
1
  0
DICTIONARYVAR
  5
B5E
102
{ACAD_REACTORS
330
34
102
}
330
34
100
DictionaryVariables
280
     0
  1
96
  0
DICTIONARY
  5
260
102
{ACAD_REACTORS
330
43
102
}
330
43
100
AcDbDictionary
  0
DICTIONARY
  5
2C
102
{ACAD_REACTORS
330
2B
102
}
330
2B
100
AcDbDictionary
  3
DWGSETTINGS
350
2D
  0
XRECORD
  5
4D7C
102
{ACAD_REACTORS
330
4D7B
102
}
330
4D7B
100
AcDbXrecord
 90
        1
  0
XRECORD
  5
4D7D
102
{ACAD_REACTORS
330
4D7B
102
}
330
4D7B
100
AcDbXrecord
 90
       70
  0
XRECORD
  5
4D7E
102
{ACAD_REACTORS
330
4D7B
102
}
330
4D7B
100
AcDbXrecord
  1

  0
XRECORD
  5
4D7F
102
{ACAD_REACTORS
330
4D7B
102
}
330
4D7B
100
AcDbXrecord
  1
ASAMI.ctb
  0
XRECORD
  5
4D80
102
{ACAD_REACTORS
330
4D7B
102
}
330
4D7B
100
AcDbXrecord
340
1A
  0
XRECORD
  5
4D81
102
{ACAD_REACTORS
330
4D7B
102
}
330
4D7B
100
AcDbXrecord
340
19
  0
XRECORD
  5
4D82
102
{ACAD_REACTORS
330
4D7B
102
}
330
4D7B
100
AcDbXrecord
340
E
  0
XRECORD
  5
4D83
102
{ACAD_REACTORS
330
4D7B
102
}
330
4D7B
100
AcDbXrecord
 90
    10781
  0
XRECORD
  5
4D84
102
{ACAD_REACTORS
330
4D7B
102
}
330
4D7B
100
AcDbXrecord
 90
        4
  0
XRECORD
  5
4D85
102
{ACAD_REACTORS
330
4D7B
102
}
330
4D7B
100
AcDbXrecord
 90
        0
  0
XRECORD
  5
4D86
102
{ACAD_REACTORS
330
4D7B
102
}
330
4D7B
100
AcDbXrecord
  1
{AFB28963-8C59-40AE-9337-C84526B81ACE}
  0
XRECORD
  5
4D87
102
{ACAD_REACTORS
330
4D7B
102
}
330
4D7B
100
AcDbXrecord
  1
{587D8806-F6E7-4EAA-A0D8-6071345623AA}
  0
XRECORD
  5
4D88
102
{ACAD_REACTORS
330
4D7B
102
}
330
4D7B
100
AcDbXrecord
 40
0.0
  0
XRECORD
  5
4D89
102
{ACAD_REACTORS
330
4D7B
102
}
330
4D7B
100
AcDbXrecord
1000
DSTYLE
1002
{
1070
    79
 70
     2
1070
   341
340
59
1070
   342
340
59
1070
   371
 70
    -1
1070
   372
 70
    -1
1002
}
  0
XRECORD
  5
4D8A
102
{ACAD_REACTORS
330
4D7B
102
}
330
4D7B
100
AcDbXrecord
340
0
  0
XRECORD
  5
4D8B
102
{ACAD_REACTORS
330
4D7B
102
}
330
4D7B
100
AcDbXrecord
 70
     0
  0
XRECORD
  5
4D8C
102
{ACAD_REACTORS
330
4D7B
102
}
330
4D7B
100
AcDbXrecord
340
0
  0
XRECORD
  5
4D8D
102
{ACAD_REACTORS
330
4D7B
102
}
330
4D7B
100
AcDbXrecord
 10
0.0
 20
0.0
 30
0.0
  0
XRECORD
  5
4D8E
102
{ACAD_REACTORS
330
4D7B
102
}
330
4D7B
100
AcDbXrecord
 10
0.0
 20
0.0
 30
0.0
  0
XRECORD
  5
4D8F
102
{ACAD_REACTORS
330
4D7B
102
}
330
4D7B
100
AcDbXrecord
 10
0.0
 20
0.0
 30
0.0
  0
XRECORD
  5
4D90
102
{ACAD_REACTORS
330
4D7B
102
}
330
4D7B
100
AcDbXrecord
 10
0.0
 20
0.0
 30
0.0
  0
XRECORD
  5
4D91
102
{ACAD_REACTORS
330
4D7B
102
}
330
4D7B
100
AcDbXrecord
 10
0.0
 20
0.0
 30
0.0
  0
XRECORD
  5
4D92
102
{ACAD_REACTORS
330
4D7B
102
}
330
4D7B
100
AcDbXrecord
 10
0.0
 20
0.0
 30
0.0
  0
XRECORD
  5
4D93
102
{ACAD_REACTORS
330
4D7B
102
}
330
4D7B
100
AcDbXrecord
340
0
  0
XRECORD
  5
4D94
102
{ACAD_REACTORS
330
4D7B
102
}
330
4D7B
100
AcDbXrecord
 70
     0
  0
XRECORD
  5
4D95
102
{ACAD_REACTORS
330
4D7B
102
}
330
4D7B
100
AcDbXrecord
340
0
  0
XRECORD
  5
4D96
102
{ACAD_REACTORS
330
4D7B
102
}
330
4D7B
100
AcDbXrecord
 10
0.0
 20
0.0
 30
0.0
  0
XRECORD
  5
4D97
102
{ACAD_REACTORS
330
4D7B
102
}
330
4D7B
100
AcDbXrecord
 10
0.0
 20
0.0
 30
0.0
  0
XRECORD
  5
4D98
102
{ACAD_REACTORS
330
4D7B
102
}
330
4D7B
100
AcDbXrecord
 10
0.0
 20
0.0
 30
0.0
  0
XRECORD
  5
4D99
102
{ACAD_REACTORS
330
4D7B
102
}
330
4D7B
100
AcDbXrecord
 10
0.0
 20
0.0
 30
0.0
  0
XRECORD
  5
4D9A
102
{ACAD_REACTORS
330
4D7B
102
}
330
4D7B
100
AcDbXrecord
 10
0.0
 20
0.0
 30
0.0
  0
XRECORD
  5
4D9B
102
{ACAD_REACTORS
330
4D7B
102
}
330
4D7B
100
AcDbXrecord
 10
0.0
 20
0.0
 30
0.0
  0
LAYER_INDEX
  5
4D70
102
{ACAD_REACTORS
330
4D6F
102
}
330
4D6F
100
AcDbIndex
 40
2453152.425260405
100
AcDbLayerIndex
  8
0
360
4D71
 90
        3
  8
AM_0
360
4D72
 90
       60
  8
AM_5
360
4D73
 90
        6
  8
AM_11
360
4D74
 90
        4
  8
AM_7
360
4D75
 90
        5
  8
AM_6
360
4D76
 90
        1
  8
Defpoints
360
4D77
 90
        0
  8
AM_4
360
4D78
 90
        0
  8
AM_3
360
4D79
 90
        5
  0
XRECORD
  5
2D
102
{ACAD_REACTORS
330
2C
102
}
330
2C
100
AcDbXrecord
  1
VERSION
140
15.0
  1
PRODUCT
  2
AutoCAD Mechanical 2000
  0
IDBUFFER
  5
4D71
330
0
100
AcDbIdBuffer
330
22B9
330
22EE
330
2FC5
  0
IDBUFFER
  5
4D72
330
0
100
AcDbIdBuffer
330
48CC
330
48CD
330
48CE
330
48CF
330
48D4
330
48D7
330
4904
330
4905
330
4906
330
4907
330
4911
330
4912
330
2F9C
330
4223
330
4224
330
4225
330
4226
330
4234
330
4235
330
468D
330
4691
330
4692
330
4836
330
4837
330
4838
330
4839
330
483A
330
483B
330
483C
330
483D
330
483E
330
4849
330
484B
330
489F
330
48A0
330
48A3
330
48A4
330
48A5
330
48A6
330
48A8
330
48A9
330
48AA
330
48AB
330
48AD
330
48AF
330
48B1
330
48B2
330
48B3
330
48B4
330
48B5
330
48B6
330
48B7
330
48B8
330
48BE
330
48C0
330
48C1
330
48C2
330
48C3
330
48C4
330
48CB
  0
IDBUFFER
  5
4D73
330
0
100
AcDbIdBuffer
330
4227
330
4237
330
4244
330
46A8
330
492C
330
4B8D
  0
IDBUFFER
  5
4D74
330
0
100
AcDbIdBuffer
330
45C6
330
489E
330
48CA
330
49B9
  0
IDBUFFER
  5
4D75
330
0
100
AcDbIdBuffer
330
4236
330
48A2
330
48A7
330
48B0
330
48C7
  0
IDBUFFER
  5
4D76
330
0
100
AcDbIdBuffer
330
E65
  0
IDBUFFER
  5
4D77
330
0
100
AcDbIdBuffer
  0
IDBUFFER
  5
4D78
330
0
100
AcDbIdBuffer
  0
IDBUFFER
  5
4D79
330
0
100
AcDbIdBuffer
330
48D0
330
48D1
330
48D2
330
48D3
330
48D5
  0
ENDSEC
  0
EOF
