  0
SECTION
  2
HEADER
  9
$ACADVER
  1
AC1014
  9
$ACADMAINTVER
 70
     9
  9
$DWGCODEPAGE
  3
ANSI_932
  9
$INSBASE
 10
0.0
 20
0.0
 30
0.0
  9
$EXTMIN
 10
-169.3500000000002
 20
-58.25000000000038
 30
0.0
  9
$EXTMAX
 10
7.499999999999812
 20
27.34999999999986
 30
0.0
  9
$LIMMIN
 10
-184.9605531120787
 20
-71.06819076709507
  9
$LIMMAX
 10
25.18061367529446
 20
32.26306855206047
  9
$ORTHOMODE
 70
     0
  9
$REGENMODE
 70
     1
  9
$FILLMODE
 70
     1
  9
$QTEXTMODE
 70
     0
  9
$MIRRTEXT
 70
     0
  9
$DRAGMODE
 70
     2
  9
$LTSCALE
 40
1.0
  9
$OSMODE
 70
    55
  9
$ATTMODE
 70
     1
  9
$TEXTSIZE
 40
2.5
  9
$TRACEWID
 40
1.0
  9
$TEXTSTYLE
  7
STANDARD
  9
$CLAYER
  8
AM_0
  9
$CELTYPE
  6
BYLAYER
  9
$CECOLOR
 62
   256
  9
$CELTSCALE
 40
1.0
  9
$DELOBJ
 70
     1
  9
$DISPSILH
 70
     0
  9
$DIMSCALE
 40
0.5
  9
$DIMASZ
 40
2.5
  9
$DIMEXO
 40
1.0
  9
$DIMDLI
 40
12.0
  9
$DIMRND
 40
0.0
  9
$DIMDLE
 40
0.0
  9
$DIMEXE
 40
1.0
  9
$DIMTP
 40
0.1
  9
$DIMTM
 40
0.1
  9
$DIMTXT
 40
3.2
  9
$DIMCEN
 40
0.0
  9
$DIMTSZ
 40
0.0
  9
$DIMTOL
 70
     0
  9
$DIMLIM
 70
     0
  9
$DIMTIH
 70
     0
  9
$DIMTOH
 70
     0
  9
$DIMSE1
 70
     0
  9
$DIMSE2
 70
     0
  9
$DIMTAD
 70
     3
  9
$DIMZIN
 70
     8
  9
$DIMBLK
  1
OPEN30
  9
$DIMASO
 70
     1
  9
$DIMSHO
 70
     1
  9
$DIMPOST
  1

  9
$DIMAPOST
  1
"
  9
$DIMALT
 70
     0
  9
$DIMALTD
 70
     2
  9
$DIMALTF
 40
0.0393701
  9
$DIMLFAC
 40
1.0
  9
$DIMTOFL
 70
     1
  9
$DIMTVP
 40
0.0
  9
$DIMTIX
 70
     0
  9
$DIMSOXD
 70
     0
  9
$DIMSAH
 70
     0
  9
$DIMBLK1
  1

  9
$DIMBLK2
  1

  9
$DIMSTYLE
  2
AM_JIS
  9
$DIMCLRD
 70
   256
  9
$DIMCLRE
 70
   256
  9
$DIMCLRT
 70
     2
  9
$DIMTFAC
 40
0.71
  9
$DIMGAP
 40
1.5
  9
$DIMJUST
 70
     0
  9
$DIMSD1
 70
     0
  9
$DIMSD2
 70
     0
  9
$DIMTOLJ
 70
     0
  9
$DIMTZIN
 70
     0
  9
$DIMALTZ
 70
     0
  9
$DIMALTTZ
 70
     0
  9
$DIMFIT
 70
     3
  9
$DIMUPT
 70
     0
  9
$DIMUNIT
 70
     2
  9
$DIMDEC
 70
     3
  9
$DIMTDEC
 70
     3
  9
$DIMALTU
 70
     2
  9
$DIMALTTD
 70
     2
  9
$DIMTXSTY
  7
ASAMI
  9
$DIMAUNIT
 70
     0
  9
$LUNITS
 70
     2
  9
$LUPREC
 70
     2
  9
$SKETCHINC
 40
1.0
  9
$FILLETRAD
 40
0.5
  9
$AUNITS
 70
     0
  9
$AUPREC
 70
     0
  9
$MENU
  1
.
  9
$ELEVATION
 40
0.0
  9
$PELEVATION
 40
0.0
  9
$THICKNESS
 40
0.0
  9
$LIMCHECK
 70
     0
  9
$BLIPMODE
 70
     0
  9
$CHAMFERA
 40
0.5
  9
$CHAMFERB
 40
0.5
  9
$CHAMFERC
 40
20.0
  9
$CHAMFERD
 40
0.0
  9
$SKPOLY
 70
     0
  9
$TDCREATE
 40
2452802.716478761
  9
$TDUPDATE
 40
2453152.424410231
  9
$TDINDWG
 40
0.4654574074
  9
$TDUSRTIMER
 40
0.4654574074
  9
$USRTIMER
 70
     1
  9
$ANGBASE
 50
0.0
  9
$ANGDIR
 70
     0
  9
$PDMODE
 70
     0
  9
$PDSIZE
 40
0.0
  9
$PLINEWID
 40
0.0
  9
$COORDS
 70
     1
  9
$SPLFRAME
 70
     0
  9
$SPLINETYPE
 70
     6
  9
$SPLINESEGS
 70
     8
  9
$ATTDIA
 70
     1
  9
$ATTREQ
 70
     1
  9
$HANDLING
 70
 12289
  9
$HANDSEED
  5
4FA5
  9
$SURFTAB1
 70
     6
  9
$SURFTAB2
 70
     6
  9
$SURFTYPE
 70
     6
  9
$SURFU
 70
     6
  9
$SURFV
 70
     6
  9
$UCSNAME
  2

  9
$UCSORG
 10
-0.0000000000002625
 20
-0.0000000000001255
 30
0.0
  9
$UCSXDIR
 10
1.0
 20
0.000000000000002
 30
0.0
  9
$UCSYDIR
 10
-0.000000000000002
 20
1.0
 30
0.0
  9
$PUCSNAME
  2

  9
$PUCSORG
 10
0.0
 20
0.0
 30
0.0
  9
$PUCSXDIR
 10
1.0
 20
0.0
 30
0.0
  9
$PUCSYDIR
 10
0.0
 20
1.0
 30
0.0
  9
$USERI1
 70
     0
  9
$USERI2
 70
     0
  9
$USERI3
 70
     0
  9
$USERI4
 70
     0
  9
$USERI5
 70
     0
  9
$USERR1
 40
0.0
  9
$USERR2
 40
0.0
  9
$USERR3
 40
0.0
  9
$USERR4
 40
0.0
  9
$USERR5
 40
0.0
  9
$WORLDVIEW
 70
     1
  9
$SHADEDGE
 70
     3
  9
$SHADEDIF
 70
    70
  9
$TILEMODE
 70
     1
  9
$MAXACTVP
 70
    64
  9
$PINSBASE
 10
0.0
 20
0.0
 30
0.0
  9
$PLIMCHECK
 70
     0
  9
$PEXTMIN
 10
1.000000000000000E+20
 20
1.000000000000000E+20
 30
1.000000000000000E+20
  9
$PEXTMAX
 10
-1.000000000000000E+20
 20
-1.000000000000000E+20
 30
-1.000000000000000E+20
  9
$PLIMMIN
 10
0.0
 20
0.0
  9
$PLIMMAX
 10
841.0
 20
594.0
  9
$UNITMODE
 70
     0
  9
$VISRETAIN
 70
     1
  9
$PLINEGEN
 70
     0
  9
$PSLTSCALE
 70
     0
  9
$TREEDEPTH
 70
  3020
  9
$PICKSTYLE
 70
     0
  9
$CMLSTYLE
  2
STANDARD
  9
$CMLJUST
 70
     0
  9
$CMLSCALE
 40
20.0
  9
$PROXYGRAPHICS
 70
     1
  9
$MEASUREMENT
 70
     1
  0
ENDSEC
  0
SECTION
  2
CLASSES
  0
CLASS
  1
ACDBDICTIONARYWDFLT
  2
AcDbDictionaryWithDefault
  3
AutoCAD 2000
 90
        0
280
     0
281
     0
  0
CLASS
  1
ACDBPLACEHOLDER
  2
AcDbPlaceHolder
  3
AutoCAD 2000
 90
        0
280
     0
281
     0
  0
CLASS
  1
LAYOUT
  2
AcDbLayout
  3
AutoCAD 2000
 90
        0
280
     0
281
     0
  0
CLASS
  1
AMGSETTINGSOBJ
  2
AmgSettingsObj
  3
"AcadM|Product Description: AutoCAD Mechanical 2000|Company: Autodesk"
 90
        0
280
     0
281
     0
  0
CLASS
  1
ACME_DOCUMENT
  2
AcMeDbDoc
  3
AcMeServices
 90
        0
280
     0
281
     0
  0
CLASS
  1
ACMESCOPE
  2
AcMeScope
  3
AcMeServices
 90
        0
280
     0
281
     0
  0
CLASS
  1
ACMECOMMANDHISTORY
  2
AcMeCommandHistory
  3
AcMeServices
 90
        0
280
     0
281
     0
  0
CLASS
  1
DICTIONARYVAR
  2
AcDbDictionaryVar
  3
AutoCAD 2000
 90
        0
280
     0
281
     0
  0
CLASS
  1
ACIMSYSVARMAN
  2
AcImSysVarManager
  3
AcMeServices
 90
        0
280
     0
281
     0
  0
CLASS
  1
ACIMREALSYSVAR
  2
AcImRealSysVar
  3
AcMeServices
 90
        0
280
     0
281
     0
  0
CLASS
  1
ACIMINTSYSVAR
  2
AcImIntSysVar
  3
AcMeServices
 90
        0
280
     0
281
     0
  0
CLASS
  1
ACMEDRAWINGMAN
  2
AcMeDrawingMan
  3
AcMeServices
 90
        0
280
     0
281
     0
  0
CLASS
  1
ACMEVIEW
  2
AcMeView
  3
AcMeServices
 90
        0
280
     0
281
     0
  0
CLASS
  1
ACDBENTITYCACHE
  2
AcMeEntityCache
  3
AcMeServices
 90
        0
280
     0
281
     0
  0
CLASS
  1
GSMANAGER
  2
AcMeGSManager
  3
AcMeServices
 90
        0
280
     0
281
     0
  0
CLASS
  1
AmdtInternalReactor
  2
AmdtInternalReactor
  3
AcMeServices
 90
        0
280
     0
281
     0
  0
CLASS
  1
ACMESTATEMGR
  2
AcMeStateMgr
  3
AcMeServices
 90
        0
280
     0
281
     0
  0
CLASS
  1
ACME_DATABASE
  2
AcMeDbDatabase
  3
AcMeServices
 90
        0
280
     0
281
     0
  0
CLASS
  1
ACRFINSADJUSTERMGR
  2
AcRfInsAdjusterMgr
  3
AcMeServices
 90
        0
280
     0
281
     0
  0
CLASS
  1
ACMDATADICTIONARY
  2
AcmDataDictionary
  3
"AcmSymBB|Product Description: AutoCAD Mechanical 2000|Company: Autodesk"
 90
        0
280
     0
281
     0
  0
CLASS
  1
ACMDATAENTRYBLOCK
  2
AcmDataEntryBlock
  3
"AcmSymBB|Product Description: AutoCAD Mechanical 2000|Company: Autodesk"
 90
        0
280
     0
281
     0
  0
CLASS
  1
AMGOBJPROPCFG
  2
AmgObjPropCfg
  3
"AmgLay|Product Description: AutoCAD Mechanical 2000|Company: Autodesk"
 90
        1
280
     0
281
     0
  0
CLASS
  1
ACAMGFILTERDAT
  2
AcAmgFilterDat
  3
"AcadM|Product Description: AutoCAD Mechanical 2000|Company: Autodesk"
 90
        0
280
     0
281
     0
  0
CLASS
  1
LAYER_INDEX
  2
AcDbLayerIndex
  3
AutoCAD 2000
 90
        0
280
     0
281
     0
  0
CLASS
  1
IDBUFFER
  2
AcDbIdBuffer
  3
AutoCAD 2000
 90
        0
280
     0
281
     0
  0
CLASS
  1
ACIMSTRSYSVAR
  2
AcImStrSysVar
  3
AcMeServices
 90
        0
280
     0
281
     0
  0
CLASS
  1
ACMSTANDARDJIS
  2
AcmStandardJIS
  3
"AcmSymBB|Product Description: AutoCAD Mechanical 2000|Company: Autodesk"
 90
        0
280
     0
281
     0
  0
CLASS
  1
ACMSURFSTANDARDJIS
  2
AcmSurfTextStdJIS
  3
"AcmSymBB|Product Description: AutoCAD Mechanical 2000|Company: Autodesk"
 90
        0
280
     0
281
     0
  0
CLASS
  1
ACMFCFSTANDARDJIS
  2
AcmFCFStdJIS
  3
"AcmSymBB|Product Description: AutoCAD Mechanical 2000|Company: Autodesk"
 90
        0
280
     0
281
     0
  0
CLASS
  1
ACMWELDSTANDARDJIS
  2
AcmWeldingStdJIS
  3
"AcmSymBB|Product Description: AutoCAD Mechanical 2000|Company: Autodesk"
 90
        0
280
     0
281
     0
  0
CLASS
  1
ACMIDSTANDARDJIS
  2
AcmIdStdJIS
  3
"AcmSymBB|Product Description: AutoCAD Mechanical 2000|Company: Autodesk"
 90
        0
280
     0
281
     0
  0
CLASS
  1
ACMDATUMSTANDARDJIS
  2
AcmDatumStdJIS
  3
"AcmSymBB|Product Description: AutoCAD Mechanical 2000|Company: Autodesk"
 90
        0
280
     0
281
     0
  0
CLASS
  1
ACMBOMSTANDARDJIS
  2
AcmBOMStdJIS
  3
"AcmSymBB|Product Description: AutoCAD Mechanical 2000|Company: Autodesk"
 90
        0
280
     0
281
     0
  0
CLASS
  1
ACMSTANDARDANSI
  2
AcmStandardANSI
  3
"AcmSymBB|Product Description: AutoCAD Mechanical 2000|Company: Autodesk"
 90
        0
280
     0
281
     0
  0
CLASS
  1
ACMSURFSTANDARDANSI
  2
AcmSurfTextStdANSI
  3
"AcmSymBB|Product Description: AutoCAD Mechanical 2000|Company: Autodesk"
 90
        0
280
     0
281
     0
  0
CLASS
  1
ACMFCFSTANDARDANSI
  2
AcmFCFStdANSI
  3
"AcmSymBB|Product Description: AutoCAD Mechanical 2000|Company: Autodesk"
 90
        0
280
     0
281
     0
  0
CLASS
  1
ACMWELDSTANDARDANSI
  2
AcmWeldingStdANSI
  3
"AcmSymBB|Product Description: AutoCAD Mechanical 2000|Company: Autodesk"
 90
        0
280
     0
281
     0
  0
CLASS
  1
ACMIDSTANDARDANSI
  2
AcmIdStdANSI
  3
"AcmSymBB|Product Description: AutoCAD Mechanical 2000|Company: Autodesk"
 90
        0
280
     0
281
     0
  0
CLASS
  1
ACMDATUMSTANDARDANSI
  2
AcmDatumStdANSI
  3
"AcmSymBB|Product Description: AutoCAD Mechanical 2000|Company: Autodesk"
 90
        0
280
     0
281
     0
  0
CLASS
  1
ACMBOMSTANDARDANSI
  2
AcmBOMStdANSI
  3
"AcmSymBB|Product Description: AutoCAD Mechanical 2000|Company: Autodesk"
 90
        0
280
     0
281
     0
  0
CLASS
  1
ACMSTANDARDBSI
  2
AcmStandardBSI
  3
"AcmSymBB|Product Description: AutoCAD Mechanical 2000|Company: Autodesk"
 90
        0
280
     0
281
     0
  0
CLASS
  1
ACMSURFSTANDARDBSI
  2
AcmSurfTextStdBSI
  3
"AcmSymBB|Product Description: AutoCAD Mechanical 2000|Company: Autodesk"
 90
        0
280
     0
281
     0
  0
CLASS
  1
ACMFCFSTANDARDBSI
  2
AcmFCFStdBSI
  3
"AcmSymBB|Product Description: AutoCAD Mechanical 2000|Company: Autodesk"
 90
        0
280
     0
281
     0
  0
CLASS
  1
ACMWELDSTANDARDBSI
  2
AcmWeldingStdBSI
  3
"AcmSymBB|Product Description: AutoCAD Mechanical 2000|Company: Autodesk"
 90
        0
280
     0
281
     0
  0
CLASS
  1
ACMIDSTANDARDBSI
  2
AcmIdStdBSI
  3
"AcmSymBB|Product Description: AutoCAD Mechanical 2000|Company: Autodesk"
 90
        0
280
     0
281
     0
  0
CLASS
  1
ACMDATUMSTANDARDBSI
  2
AcmDatumStdBSI
  3
"AcmSymBB|Product Description: AutoCAD Mechanical 2000|Company: Autodesk"
 90
        0
280
     0
281
     0
  0
CLASS
  1
ACMBOMSTANDARDBSI
  2
AcmBOMStdBSI
  3
"AcmSymBB|Product Description: AutoCAD Mechanical 2000|Company: Autodesk"
 90
        0
280
     0
281
     0
  0
CLASS
  1
STDPART2D
  2
AmgStdPart
  3
"AmgStdPart|Product Description: AutoCAD Mechanical 2000|Company: Autodesk"
 90
     1023
280
     0
281
     1
  0
CLASS
  1
LONG_TRANSACTION
  2
AcDbLongTransaction
  3
AutoCAD 2000
 90
        0
280
     0
281
     0
  0
CLASS
  1
LWPOLYLINE
  2
AcDbPolyline
  3
AutoCAD 2000
 90
        0
280
     0
281
     1
  0
CLASS
  1
HATCH
  2
AcDbHatch
  3
AutoCAD 2000
 90
        0
280
     0
281
     1
  0
CLASS
  1
XRECORD
  2
AcDbXrecord
  3
AutoCAD 2000
 90
        0
280
     0
281
     0
  0
ENDSEC
  0
SECTION
  2
TABLES
  0
TABLE
  2
VPORT
  5
8
330
0
100
AcDbSymbolTable
 70
     3
  0
VPORT
  5
4F7A
330
8
100
AcDbSymbolTableRecord
100
AcDbViewportTableRecord
  2
*ACTIVE
 70
     0
 10
0.0
 20
0.0
 11
1.0
 21
1.0
 12
-80.92406539562038
 22
-12.15563117570986
 13
0.0
 23
0.0
 14
2.5
 24
2.5
 15
10.0
 25
10.0
 16
0.0
 26
0.0
 36
1.0
 17
0.0
 27
0.0
 37
0.0
 40
113.5746234884491
 41
1.56570841889117
 42
50.0
 43
0.0
 44
0.0
 50
0.0
 51
0.0
 71
     0
 72
   100
 73
     1
 74
     3
 75
     0
 76
     0
 77
     0
 78
     0
  0
ENDTAB
  0
TABLE
  2
LTYPE
  5
5
330
0
100
AcDbSymbolTable
 70
    10
  0
LTYPE
  5
14
330
5
100
AcDbSymbolTableRecord
100
AcDbLinetypeTableRecord
  2
BYBLOCK
 70
     0
  3

 72
    65
 73
     0
 40
0.0
  0
LTYPE
  5
15
330
5
100
AcDbSymbolTableRecord
100
AcDbLinetypeTableRecord
  2
BYLAYER
 70
     0
  3

 72
    65
 73
     0
 40
0.0
  0
LTYPE
  5
16
330
5
100
AcDbSymbolTableRecord
100
AcDbLinetypeTableRecord
  2
CONTINUOUS
 70
     0
  3
Solid line
 72
    65
 73
     0
 40
0.0
  0
LTYPE
  5
4B
330
5
100
AcDbSymbolTableRecord
100
AcDbLinetypeTableRecord
  2
AM_ISO02W050
 70
     0
  3
__ __ __ __ __ __ __ __ __ __ __ __ __ __ __
 72
    65
 73
     2
 40
7.5
 49
6.0
 74
     0
 49
-1.5
 74
     0
  0
LTYPE
  5
4C
330
5
100
AcDbSymbolTableRecord
100
AcDbLinetypeTableRecord
  2
AM_ISO08W050
 70
     0
  3
____ . ____ . ____ . ____ . ____ . ____ . ____
 72
    65
 73
     4
 40
18.0
 49
12.0
 74
     0
 49
-1.5
 74
     0
 49
3.0
 74
     0
 49
-1.5
 74
     0
  0
LTYPE
  5
4D
330
5
100
AcDbSymbolTableRecord
100
AcDbLinetypeTableRecord
  2
AM_ISO09W050
 70
     0
  3
_____ . . _____ . . _____ . . ____ .. ____
 72
    65
 73
     6
 40
22.5
 49
12.0
 74
     0
 49
-1.5
 74
     0
 49
3.0
 74
     0
 49
-1.5
 74
     0
 49
3.0
 74
     0
 49
-1.5
 74
     0
  0
LTYPE
  5
4E
330
5
100
AcDbSymbolTableRecord
100
AcDbLinetypeTableRecord
  2
AMCONSTR
 70
     0
  3
_______________________
 72
    65
 73
     2
 40
9999.0
 49
9999.0
 74
     0
 49
0.0
 74
     0
  0
LTYPE
  5
4F
330
5
100
AcDbSymbolTableRecord
100
AcDbLinetypeTableRecord
  2
AM_ISO02W050X2
 70
     0
  3
 _ _ _ _ _ _ _ _ _ _ _ _
 72
    65
 73
     2
 40
3.75
 49
3.0
 74
     0
 49
-0.75
 74
     0
  0
LTYPE
  5
50
330
5
100
AcDbSymbolTableRecord
100
AcDbLinetypeTableRecord
  2
AM_ISO08W050X2
 70
     0
  3
__ . __ . __ . __ . __ . __
 72
    65
 73
     4
 40
9.0
 49
6.0
 74
     0
 49
-0.75
 74
     0
 49
1.5
 74
     0
 49
-0.75
 74
     0
  0
LTYPE
  5
53
330
5
100
AcDbSymbolTableRecord
100
AcDbLinetypeTableRecord
  2
AMZIGZAG
 70
     0
  3
/\/-/\/-/\/-/\/-/\/-/\/
 72
    65
 73
     2
 40
11.00009999999999
 49
0.0001
 74
     4
 75
   135
340
52
 46
0.04
 50
0.0
 44
0.0
 45
0.0
 49
-11.0
 74
     0
  0
LTYPE
  5
166
330
5
100
AcDbSymbolTableRecord
100
AcDbLinetypeTableRecord
  2
ACJISTGL
 70
     0
  3
_ _ _ _ _
 72
    65
 73
     2
 40
3.0
 49
2.0
 74
     0
 49
-1.0
 74
     0
  0
LTYPE
  5
26A
330
5
100
AcDbSymbolTableRecord
100
AcDbLinetypeTableRecord
  2
ACJISTGB
 70
     0
  3
__ . . __ . .
 72
    65
 73
     6
 40
9.0
 49
4.0
 74
     0
 49
-1.0
 74
     0
 49
1.0
 74
     0
 49
-1.0
 74
     0
 49
1.0
 74
     0
 49
-1.0
 74
     0
  0
ENDTAB
  0
TABLE
  2
LAYER
  5
2
330
0
100
AcDbSymbolTable
 70
     8
  0
LAYER
  5
10
330
2
100
AcDbSymbolTableRecord
100
AcDbLayerTableRecord
  2
0
 70
     0
 62
     7
  6
CONTINUOUS
  0
LAYER
  5
3F9
330
2
100
AcDbSymbolTableRecord
100
AcDbLayerTableRecord
  2
AM_0
 70
     0
 62
     7
  6
CONTINUOUS
  0
LAYER
  5
BA4
330
2
100
AcDbSymbolTableRecord
100
AcDbLayerTableRecord
  2
AM_5
 70
     0
 62
     3
  6
CONTINUOUS
  0
LAYER
  5
BA5
330
2
100
AcDbSymbolTableRecord
100
AcDbLayerTableRecord
  2
AM_11
 70
     0
 62
     3
  6
AM_ISO09W050
  0
LAYER
  5
BA6
330
2
100
AcDbSymbolTableRecord
100
AcDbLayerTableRecord
  2
AM_7
 70
     0
 62
     4
  6
AM_ISO08W050
  0
LAYER
  5
E64
330
2
100
AcDbSymbolTableRecord
100
AcDbLayerTableRecord
  2
AM_6
 70
     0
 62
     2
  6
CONTINUOUS
  0
LAYER
  5
F4D
330
2
100
AcDbSymbolTableRecord
100
AcDbLayerTableRecord
  2
DEFPOINTS
 70
     0
 62
     7
  6
CONTINUOUS
  0
LAYER
  5
2382
330
2
100
AcDbSymbolTableRecord
100
AcDbLayerTableRecord
  2
AM_3
 70
     0
 62
     6
  6
ACJISTGL
  0
ENDTAB
  0
TABLE
  2
STYLE
  5
3
330
0
100
AcDbSymbolTable
 70
     5
  0
STYLE
  5
11
330
3
100
AcDbSymbolTableRecord
100
AcDbTextStyleTableRecord
  2
STANDARD
 70
     0
 40
0.0
 41
1.0
 50
0.0
 71
     0
 42
2.5
  3
simplex.shx
  4
EXTFONT.SHX
  0
STYLE
  5
52
330
3
100
AcDbSymbolTableRecord
100
AcDbTextStyleTableRecord
  2

 70
     1
 40
0.0
 41
1.0
 50
0.0
 71
     0
 42
2.5
  3
ltypeshp.shx
  4

  0
STYLE
  5
6B
330
3
100
AcDbSymbolTableRecord
100
AcDbTextStyleTableRecord
  2
ASAMI
 70
     0
 40
0.0
 41
1.0
 50
0.0
 71
     0
 42
2.5
  3
simplex.shx
  4
EXTFONT.SHX
  0
STYLE
  5
262
330
3
100
AcDbSymbolTableRecord
100
AcDbTextStyleTableRecord
  2
ACJISTS
 70
     0
 40
1.0
 41
1.0
 50
0.0
 71
     0
 42
2.5
  3
simplex.shx
  4
bigfont.shx
  0
STYLE
  5
269
330
3
100
AcDbSymbolTableRecord
100
AcDbTextStyleTableRecord
  2
ACJISGDT
 70
     0
 40
0.0
 41
1.0
 50
0.0
 71
     0
 42
2.5
  3
amgdtans.shx
  4

  0
ENDTAB
  0
TABLE
  2
VIEW
  5
6
330
0
100
AcDbSymbolTable
 70
     0
  0
ENDTAB
  0
TABLE
  2
UCS
  5
7
330
0
100
AcDbSymbolTable
 70
     0
  0
ENDTAB
  0
TABLE
  2
APPID
  5
9
330
0
100
AcDbSymbolTable
 70
    22
  0
APPID
  5
12
330
9
100
AcDbSymbolTableRecord
100
AcDbRegAppTableRecord
  2
ACAD
 70
     0
  0
APPID
  5
30
330
9
100
AcDbSymbolTableRecord
100
AcDbRegAppTableRecord
  2
MCAD_NO_VIS
 70
     0
  0
APPID
  5
31
330
9
100
AcDbSymbolTableRecord
100
AcDbRegAppTableRecord
  2
ACAD_TEMP_GRAPHIC
 70
     0
  0
APPID
  5
2C2
330
9
100
AcDbSymbolTableRecord
100
AcDbRegAppTableRecord
  2
GENIUS_GENDTOL_13
 70
     0
  0
APPID
  5
339
330
9
100
AcDbSymbolTableRecord
100
AcDbRegAppTableRecord
  2
GENIUS_GENODEF_13
 70
     0
  0
APPID
  5
33A
330
9
100
AcDbSymbolTableRecord
100
AcDbRegAppTableRecord
  2
GENIUS_GENOBJ-N-RSBK_13
 70
     0
  0
APPID
  5
33B
330
9
100
AcDbSymbolTableRecord
100
AcDbRegAppTableRecord
  2
GENIUS_GENOBJ-N-LIB_13
 70
     0
  0
APPID
  5
33C
330
9
100
AcDbSymbolTableRecord
100
AcDbRegAppTableRecord
  2
GENIUS_GENSCALE_13
 70
     0
  0
APPID
  5
378
330
9
100
AcDbSymbolTableRecord
100
AcDbRegAppTableRecord
  2
GENIUS_GENDIMSH_14
 70
     0
  0
APPID
  5
BB0
330
9
100
AcDbSymbolTableRecord
100
AcDbRegAppTableRecord
  2
GENIUS_GENOBJ-N-CEN_13
 70
     0
  0
APPID
  5
BB1
330
9
100
AcDbSymbolTableRecord
100
AcDbRegAppTableRecord
  2
GENIUS_GENFIL_13
 70
     0
  0
APPID
  5
BB2
330
9
100
AcDbSymbolTableRecord
100
AcDbRegAppTableRecord
  2
GENIUS_GENOBJ-N-CHA_13
 70
     0
  0
APPID
  5
1FAF
330
9
100
AcDbSymbolTableRecord
100
AcDbRegAppTableRecord
  2
GENIUS_GENOBJ-N-CRS_13
 70
     0
  0
APPID
  5
1FB0
330
9
100
AcDbSymbolTableRecord
100
AcDbRegAppTableRecord
  2
GENIUS_GENOENT_13
 70
     0
  0
APPID
  5
1FB1
330
9
100
AcDbSymbolTableRecord
100
AcDbRegAppTableRecord
  2
GENIUS_GENOREF_13
 70
     0
  0
APPID
  5
1FB2
330
9
100
AcDbSymbolTableRecord
100
AcDbRegAppTableRecord
  2
GENIUS_GENOLIS_13
 70
     0
  0
APPID
  5
1FB7
330
9
100
AcDbSymbolTableRecord
100
AcDbRegAppTableRecord
  2
GENIUS_GENOBJ-N-FIL_13
 70
     0
  0
APPID
  5
22A8
330
9
100
AcDbSymbolTableRecord
100
AcDbRegAppTableRecord
  2
GEVID1056506048
 70
     0
  0
APPID
  5
22A9
330
9
100
AcDbSymbolTableRecord
100
AcDbRegAppTableRecord
  2
GEVDC
 70
     0
  0
APPID
  5
22AC
330
9
100
AcDbSymbolTableRecord
100
AcDbRegAppTableRecord
  2
GENIUS_GENBH_13
 70
     0
  0
APPID
  5
22B8
330
9
100
AcDbSymbolTableRecord
100
AcDbRegAppTableRecord
  2
GENIUS_GENOBJ-NBEHI-BHF_13
 70
     0
  0
APPID
  5
22BA
330
9
100
AcDbSymbolTableRecord
100
AcDbRegAppTableRecord
  2
GENIUS_GENOBJ-NBEHI-BHB_13
 70
     0
  0
ENDTAB
  0
TABLE
  2
DIMSTYLE
  5
A
330
0
100
AcDbSymbolTable
 70
     8
  0
DIMSTYLE
105
58
102
{ACAD_REACTORS
330
4227
330
4237
330
4244
330
46A8
330
4AC6
330
4D18
102
}
330
A
100
AcDbSymbolTableRecord
100
AcDbDimStyleTableRecord
  2
AM_JIS
 70
     0
  3

  4
"
  5
OPEN30
  6

  7

 40
0.5
 41
2.5
 42
1.0
 43
12.0
 44
1.0
 45
0.0
 46
0.0
 47
0.1
 48
0.1
140
3.2
141
0.0
142
0.0
143
0.0393701
144
1.0
145
0.0
146
0.71
147
1.5
 71
     0
 72
     0
 73
     0
 74
     0
 75
     0
 76
     0
 77
     3
 78
     8
170
     0
171
     2
172
     1
173
     0
174
     0
175
     0
176
   256
177
   256
178
     2
270
     2
271
     3
272
     3
273
     2
274
     2
340
6B
275
     0
280
     0
281
     0
282
     0
283
     0
284
     0
285
     0
286
     0
287
     3
288
     0
  0
DIMSTYLE
105
5F
330
A
100
AcDbSymbolTableRecord
100
AcDbDimStyleTableRecord
  2
AM_JIS$3
 70
     0
  3

  4
"
  5
OPEN30
  6

  7

 40
0.5
 41
2.5
 42
1.0
 43
10.0
 44
1.0
 45
0.0
 46
0.0
 47
0.1
 48
0.1
140
3.2
141
0.0
142
0.0
143
0.0393701
144
1.0
145
0.0
146
0.71
147
1.5
 71
     0
 72
     0
 73
     0
 74
     1
 75
     0
 76
     0
 77
     3
 78
     8
170
     0
171
     2
172
     0
173
     0
174
     0
175
     0
176
   256
177
   256
178
     2
270
     2
271
     2
272
     3
273
     2
274
     2
340
6B
275
     0
280
     0
281
     0
282
     0
283
     0
284
     0
285
     0
286
     0
287
     0
288
     1
  0
DIMSTYLE
105
60
330
A
100
AcDbSymbolTableRecord
100
AcDbDimStyleTableRecord
  2
AM_JIS$4
 70
     0
  3

  4
"
  5
OPEN30
  6

  7

 40
0.5
 41
2.5
 42
1.0
 43
10.0
 44
1.0
 45
0.0
 46
0.0
 47
0.1
 48
0.1
140
3.2
141
0.0
142
0.0
143
0.0393701
144
1.0
145
0.0
146
0.71
147
1.5
 71
     0
 72
     0
 73
     0
 74
     1
 75
     0
 76
     0
 77
     3
 78
     8
170
     0
171
     2
172
     0
173
     0
174
     0
175
     0
176
   256
177
   256
178
     2
270
     2
271
     2
272
     3
273
     2
274
     2
340
6B
275
     0
280
     0
281
     0
282
     0
283
     0
284
     0
285
     0
286
     0
287
     0
288
     1
  0
DIMSTYLE
105
61
330
A
100
AcDbSymbolTableRecord
100
AcDbDimStyleTableRecord
  2
AM_JIS$6
 70
     0
  3

  4
"
  5
OPEN30
  6

  7

 40
0.5
 41
2.5
 42
1.0
 43
10.0
 44
1.0
 45
0.0
 46
0.0
 47
0.1
 48
0.1
140
3.2
141
0.0
142
0.0
143
0.0393701
144
1.0
145
0.0
146
0.71
147
1.5
 71
     0
 72
     0
 73
     0
 74
     0
 75
     0
 76
     0
 77
     0
 78
     8
170
     0
171
     2
172
     1
173
     0
174
     0
175
     0
176
   256
177
   256
178
     2
270
     2
271
     2
272
     2
273
     2
274
     2
340
6B
275
     0
280
     0
281
     0
282
     0
283
     0
284
     0
285
     0
286
     0
287
     3
288
     0
  0
DIMSTYLE
105
62
330
A
100
AcDbSymbolTableRecord
100
AcDbDimStyleTableRecord
  2
AM_JIS$7
 70
     0
  3

  4
"
  5
OPEN30
  6

  7

 40
0.5
 41
2.5
 42
1.0
 43
10.0
 44
1.0
 45
0.0
 46
0.0
 47
0.1
 48
0.1
140
3.2
141
0.0
142
0.0
143
0.0393701
144
1.0
145
0.0
146
0.71
147
1.5
 71
     0
 72
     0
 73
     0
 74
     0
 75
     0
 76
     0
 77
     3
 78
     8
170
     0
171
     2
172
     1
173
     0
174
     0
175
     0
176
   256
177
   256
178
     2
270
     2
271
     2
272
     3
273
     2
274
     2
340
6B
275
     0
280
     0
281
     0
282
     0
283
     0
284
     0
285
     0
286
     0
287
     3
288
     0
  0
DIMSTYLE
105
63
330
A
100
AcDbSymbolTableRecord
100
AcDbDimStyleTableRecord
  2
AM_JIS$SF
 70
     0
  3

  4
"
  5
OPEN30
  6

  7

 40
0.5
 41
2.5
 42
1.0
 43
10.0
 44
1.0
 45
0.0
 46
0.0
 47
0.1
 48
0.1
140
3.2
141
0.0
142
0.0
143
0.0393701
144
1.0
145
0.0
146
0.71
147
1.5
 71
     0
 72
     0
 73
     0
 74
     0
 75
     1
 76
     1
 77
     3
 78
     8
170
     0
171
     2
172
     1
173
     0
174
     0
175
     0
176
   256
177
   256
178
     2
270
     2
271
     2
272
     2
273
     2
274
     2
340
6B
275
     0
280
     0
281
     0
282
     0
283
     0
284
     0
285
     0
286
     0
287
     3
288
     0
  0
DIMSTYLE
105
68
330
A
100
AcDbSymbolTableRecord
100
AcDbDimStyleTableRecord
  2
AM_JIS$SH
 70
     0
  3

  4
"
  5

  6
GENAXEH
  7
OPEN30
 40
0.5
 41
2.5
 42
1.0
 43
10.0
 44
1.0
 45
0.0
 46
0.0
 47
0.1
 48
0.1
140
3.2
141
0.0
142
0.0
143
0.0393701
144
2.0
145
0.0
146
0.71
147
1.5
 71
     0
 72
     0
 73
     0
 74
     0
 75
     1
 76
     1
 77
     3
 78
     8
170
     0
171
     2
172
     1
173
     1
174
     0
175
     0
176
   256
177
   256
178
     2
270
     2
271
     2
272
     2
273
     2
274
     2
340
6B
275
     0
280
     0
281
     0
282
     0
283
     0
284
     0
285
     0
286
     0
287
     3
288
     0
  0
DIMSTYLE
105
B34
330
A
100
AcDbSymbolTableRecord
100
AcDbDimStyleTableRecord
  2
AM_JIS$2
 70
     0
  3

  4
"
  5
OPEN30
  6

  7

 40
0.5
 41
2.5
 42
1.0
 43
12.0
 44
1.0
 45
0.0
 46
0.0
 47
0.1
 48
0.1
140
3.2
141
0.0
142
0.0
143
0.0393701
144
1.0
145
0.0
146
0.71
147
1.5
 71
     0
 72
     0
 73
     0
 74
     0
 75
     0
 76
     0
 77
     3
 78
     8
170
     0
171
     2
172
     1
173
     0
174
     0
175
     0
176
   256
177
   256
178
     2
270
     2
271
     3
272
     3
273
     2
274
     2
340
6B
275
     0
280
     0
281
     0
282
     0
283
     0
284
     0
285
     0
286
     0
287
     3
288
     0
  0
ENDTAB
  0
TABLE
  2
BLOCK_RECORD
  5
1
330
0
100
AcDbSymbolTable
 70
    12
  0
BLOCK_RECORD
  5
1F
102
{ACAD_XDICTIONARY
360
74
102
}
330
1
100
AcDbSymbolTableRecord
100
AcDbBlockTableRecord
  2
*MODEL_SPACE
  0
BLOCK_RECORD
  5
101
102
{ACAD_XDICTIONARY
360
4FA3
102
}
330
1
100
AcDbSymbolTableRecord
100
AcDbBlockTableRecord
  2
*PAPER_SPACE
  0
BLOCK_RECORD
  5
59
330
1
100
AcDbSymbolTableRecord
100
AcDbBlockTableRecord
  2
_OPEN30
  0
BLOCK_RECORD
  5
64
330
1
100
AcDbSymbolTableRecord
100
AcDbBlockTableRecord
  2
GENAXEH
  0
BLOCK_RECORD
  5
4228
330
1
100
AcDbSymbolTableRecord
100
AcDbBlockTableRecord
  2
*D5
  0
BLOCK_RECORD
  5
4238
330
1
100
AcDbSymbolTableRecord
100
AcDbBlockTableRecord
  2
*D6
  0
BLOCK_RECORD
  5
4245
330
1
100
AcDbSymbolTableRecord
100
AcDbBlockTableRecord
  2
*D7
  0
BLOCK_RECORD
  5
46A9
330
1
100
AcDbSymbolTableRecord
100
AcDbBlockTableRecord
  2
*D8
  0
BLOCK_RECORD
  5
4AC7
330
1
100
AcDbSymbolTableRecord
100
AcDbBlockTableRecord
  2
*D9
  0
BLOCK_RECORD
  5
4D19
330
1
100
AcDbSymbolTableRecord
100
AcDbBlockTableRecord
  2
*D10
  0
ENDTAB
  0
ENDSEC
  0
SECTION
  2
BLOCKS
  0
BLOCK
  5
20
330
1F
100
AcDbEntity
  8
0
100
AcDbBlockBegin
  2
*MODEL_SPACE
 70
     0
 10
0.0
 20
0.0
 30
0.0
  3
*MODEL_SPACE
  1

  0
ENDBLK
  5
21
330
1F
100
AcDbEntity
  8
0
100
AcDbBlockEnd
  0
BLOCK
  5
103
330
101
100
AcDbEntity
 67
     1
  8
0
100
AcDbBlockBegin
  2
*PAPER_SPACE
 70
     0
 10
0.0
 20
0.0
 30
0.0
  3
*PAPER_SPACE
  1

  0
ENDBLK
  5
104
330
101
100
AcDbEntity
 67
     1
  8
0
100
AcDbBlockEnd
  0
BLOCK
  5
5D
330
59
100
AcDbEntity
  8
0
100
AcDbBlockBegin
  2
_OPEN30
 70
     0
 10
0.0
 20
0.0
 30
0.0
  3
_OPEN30
  1

  0
LINE
  5
5A
330
59
100
AcDbEntity
  8
0
 62
     0
100
AcDbLine
 10
-1.0
 20
0.26794919
 30
0.0
 11
0.0
 21
0.0
 31
0.0
  0
LINE
  5
5B
330
59
100
AcDbEntity
  8
0
 62
     0
100
AcDbLine
 10
0.0
 20
0.0
 30
0.0
 11
-1.0
 21
-0.26794919
 31
0.0
  0
LINE
  5
5C
330
59
100
AcDbEntity
  8
0
 62
     0
100
AcDbLine
 10
0.0
 20
0.0
 30
0.0
 11
-1.0
 21
0.0
 31
0.0
  0
ENDBLK
  5
5E
330
59
100
AcDbEntity
  8
0
100
AcDbBlockEnd
  0
BLOCK
  5
66
330
64
100
AcDbEntity
  8
0
100
AcDbBlockBegin
  2
GENAXEH
 70
     0
 10
0.0
 20
0.0
 30
0.0
  3
GENAXEH
  1

  0
LINE
  5
65
330
64
100
AcDbEntity
  8
0
100
AcDbLine
 10
-1.0
 20
0.0
 30
0.0
 11
1.0
 21
0.0
 31
0.0
  0
ENDBLK
  5
67
330
64
100
AcDbEntity
  8
0
100
AcDbBlockEnd
  0
BLOCK
  5
4232
330
4228
100
AcDbEntity
  8
0
100
AcDbBlockBegin
  2
*D5
 70
     1
 10
0.0
 20
0.0
 30
0.0
  3
*D5
  1

  0
LINE
  5
4C49
330
4228
100
AcDbEntity
  8
AM_5
100
AcDbLine
 10
-159.5000000000001
 20
-16.00000000000057
 30
0.0
 11
-167.5000000000001
 21
-16.0000000000006
 31
0.0
  0
LINE
  5
4C4A
330
4228
100
AcDbEntity
  8
AM_5
100
AcDbLine
 10
-159.5000000000002
 20
15.99999999999942
 30
0.0
 11
-167.5000000000002
 21
15.9999999999994
 31
0.0
  0
LINE
  5
4C4B
330
4228
100
AcDbEntity
  8
AM_5
100
AcDbLine
 10
-167.0000000000001
 20
-14.7500000000006
 30
0.0
 11
-167.0000000000002
 21
14.7499999999994
 31
0.0
  0
INSERT
  5
4C4C
330
4228
100
AcDbEntity
  8
AM_5
100
AcDbBlockReference
  2
_OPEN30
 10
-167.0000000000001
 20
-16.0000000000006
 30
0.0
 41
1.25
 42
1.25
 43
1.25
 50
270.0000000000002
  0
INSERT
  5
4C4D
330
4228
100
AcDbEntity
  8
AM_5
100
AcDbBlockReference
  2
_OPEN30
 10
-167.0000000000002
 20
15.9999999999994
 30
0.0
 41
1.25
 42
1.25
 43
1.25
 50
90.00000000000019
  0
MTEXT
  5
4C4E
330
4228
100
AcDbEntity
  8
AM_5
 62
     2
100
AcDbMText
 10
-168.5500000000002
 20
-0.000000000000635
 30
0.0
 40
1.6
 41
0.0
 71
     5
 72
     1
  1
%%c32
  7
ASAMI
 11
-0.0000000000000037
 21
1.0
 31
0.0
1001
ACAD
1000
MTEXTBEGIN
1070
    73
1070
     1
1070
    44
1040
1.0
1070
    74
1070
     0
1000
MTEXTEND
  0
POINT
  5
4C4F
330
4228
100
AcDbEntity
  8
DEFPOINTS
 62
     0
100
AcDbPoint
 10
-159.0000000000002
 20
-15.99999999999997
 30
0.0
  0
POINT
  5
4C50
330
4228
100
AcDbEntity
  8
DEFPOINTS
 62
     0
100
AcDbPoint
 10
-159.0000000000002
 20
16.00000000000003
 30
0.0
  0
POINT
  5
4C51
330
4228
100
AcDbEntity
  8
DEFPOINTS
 62
     0
100
AcDbPoint
 10
-167.0000000000002
 20
16.00000000000003
 30
0.0
  0
ENDBLK
  5
4233
330
4228
100
AcDbEntity
  8
0
100
AcDbBlockEnd
  0
BLOCK
  5
4242
330
4238
100
AcDbEntity
  8
0
100
AcDbBlockBegin
  2
*D6
 70
     1
 10
0.0
 20
0.0
 30
0.0
  3
*D6
  1

  0
LINE
  5
4C3F
330
4238
100
AcDbEntity
  8
AM_5
100
AcDbLine
 10
-160.0000000000001
 20
-14.83333333333391
 30
0.0
 11
-160.0000000000001
 21
-31.50000000000069
 31
0.0
  0
LINE
  5
4C40
330
4238
100
AcDbEntity
  8
AM_5
100
AcDbLine
 10
-45.00000000000017
 20
-17.00000000000015
 30
0.0
 11
-45.00000000000012
 21
-31.50000000000025
 31
0.0
  0
LINE
  5
4C41
330
4238
100
AcDbEntity
  8
AM_5
100
AcDbLine
 10
-158.7500000000001
 20
-31.00000000000068
 30
0.0
 11
-46.25000000000012
 21
-31.00000000000026
 31
0.0
  0
INSERT
  5
4C42
330
4238
100
AcDbEntity
  8
AM_5
100
AcDbBlockReference
  2
_OPEN30
 10
-160.0000000000001
 20
-31.00000000000069
 30
0.0
 41
1.25
 42
1.25
 43
1.25
 50
180.0000000000002
  0
INSERT
  5
4C43
330
4238
100
AcDbEntity
  8
AM_5
100
AcDbBlockReference
  2
_OPEN30
 10
-45.00000000000012
 20
-31.00000000000025
 30
0.0
 41
1.25
 42
1.25
 43
1.25
 50
0.0000000000002036
  0
MTEXT
  5
4C44
330
4238
100
AcDbEntity
  8
AM_5
 62
     2
100
AcDbMText
 10
-102.5000000000001
 20
-29.45000000000047
 30
0.0
 40
1.6
 41
0.0
 71
     5
 72
     1
  1
115
  7
ASAMI
1001
ACAD
1000
MTEXTBEGIN
1070
    73
1070
     1
1070
    44
1040
1.0
1070
    74
1070
     0
1000
MTEXTEND
  0
POINT
  5
4C45
330
4238
100
AcDbEntity
  8
DEFPOINTS
 62
     0
100
AcDbPoint
 10
-160.0000000000002
 20
-14.3333333333333
 30
0.0
  0
POINT
  5
4C46
330
4238
100
AcDbEntity
  8
DEFPOINTS
 62
     0
100
AcDbPoint
 10
-45.00000000000023
 20
-16.49999999999997
 30
0.0
  0
POINT
  5
4C47
330
4238
100
AcDbEntity
  8
DEFPOINTS
 62
     0
100
AcDbPoint
 10
-45.00000000000023
 20
-31.00000000000008
 30
0.0
  0
ENDBLK
  5
4243
330
4238
100
AcDbEntity
  8
0
100
AcDbBlockEnd
  0
BLOCK
  5
424F
330
4245
100
AcDbEntity
  8
0
100
AcDbBlockBegin
  2
*D7
 70
     1
 10
0.0
 20
0.0
 30
0.0
  3
*D7
  1

  0
LINE
  5
4C1B
330
4245
100
AcDbEntity
  8
AM_5
100
AcDbLine
 10
-160.0000000000001
 20
-14.83333333333392
 30
0.0
 11
-160.0
 21
-37.50000000000069
 31
0.0
  0
LINE
  5
4C1C
330
4245
100
AcDbEntity
  8
AM_5
100
AcDbLine
 10
0.0000000000001968
 20
-18.50000000000011
 30
0.0
 11
0.0000000000002678
 21
-37.50000000000008
 31
0.0
  0
LINE
  5
4C1D
330
4245
100
AcDbEntity
  8
AM_5
100
AcDbLine
 10
-158.75
 20
-37.00000000000069
 30
0.0
 11
-1.249999999999733
 21
-37.00000000000009
 31
0.0
  0
INSERT
  5
4C1E
330
4245
100
AcDbEntity
  8
AM_5
100
AcDbBlockReference
  2
_OPEN30
 10
-160.0
 20
-37.00000000000069
 30
0.0
 41
1.25
 42
1.25
 43
1.25
 50
180.0000000000002
  0
INSERT
  5
4C1F
330
4245
100
AcDbEntity
  8
AM_5
100
AcDbBlockReference
  2
_OPEN30
 10
0.000000000000266
 20
-37.00000000000008
 30
0.0
 41
1.25
 42
1.25
 43
1.25
 50
0.0000000000002036
  0
MTEXT
  5
4C20
330
4245
100
AcDbEntity
  8
AM_5
 62
     2
100
AcDbMText
 10
-79.99999999999992
 20
-35.45000000000039
 30
0.0
 40
1.6
 41
0.0
 71
     5
 72
     1
  1
160
  7
ASAMI
1001
ACAD
1000
MTEXTBEGIN
1070
    73
1070
     1
1070
    44
1040
1.0
1070
    74
1070
     0
1000
MTEXTEND
  0
POINT
  5
4C21
330
4245
100
AcDbEntity
  8
DEFPOINTS
 62
     0
100
AcDbPoint
 10
-160.0000000000002
 20
-14.33333333333331
 30
0.0
  0
POINT
  5
4C22
330
4245
100
AcDbEntity
  8
DEFPOINTS
 62
     0
100
AcDbPoint
 10
0.0000000000001266
 20
-18.00000000000011
 30
0.0
  0
POINT
  5
4C23
330
4245
100
AcDbEntity
  8
DEFPOINTS
 62
     0
100
AcDbPoint
 10
0.0000000000001255
 20
-37.00000000000008
 30
0.0
  0
ENDBLK
  5
4250
330
4245
100
AcDbEntity
  8
0
100
AcDbBlockEnd
  0
BLOCK
  5
46B3
330
46A9
100
AcDbEntity
  8
0
100
AcDbBlockBegin
  2
*D8
 70
     1
 10
0.0
 20
0.0
 30
0.0
  3
*D8
  1

  0
LINE
  5
4C5D
330
46A9
100
AcDbEntity
  8
AM_5
100
AcDbLine
 10
0.4999999999997283
 20
17.99999999999988
 30
0.0
 11
7.49999999999974
 21
17.9999999999999
 31
0.0
  0
LINE
  5
4C5E
330
46A9
100
AcDbEntity
  8
AM_5
100
AcDbLine
 10
0.4999999999997468
 20
-18.00000000000012
 30
0.0
 11
7.499999999999812
 21
-18.0000000000001
 31
0.0
  0
LINE
  5
4C5F
330
46A9
100
AcDbEntity
  8
AM_5
100
AcDbLine
 10
6.999999999999742
 20
16.7499999999999
 30
0.0
 11
6.999999999999809
 21
-16.7500000000001
 31
0.0
  0
INSERT
  5
4C60
330
46A9
100
AcDbEntity
  8
AM_5
100
AcDbBlockReference
  2
_OPEN30
 10
6.99999999999974
 20
17.9999999999999
 30
0.0
 41
1.25
 42
1.25
 43
1.25
 50
90.0000000000001
  0
INSERT
  5
4C61
330
46A9
100
AcDbEntity
  8
AM_5
100
AcDbBlockReference
  2
_OPEN30
 10
6.999999999999812
 20
-18.0000000000001
 30
0.0
 41
1.25
 42
1.25
 43
1.25
 50
270.0000000000001
  0
MTEXT
  5
4C62
330
46A9
100
AcDbEntity
  8
AM_5
 62
     2
100
AcDbMText
 10
5.449999999999775
 20
-0.0000000000001065
 30
0.0
 40
1.6
 41
0.0
 71
     5
 72
     1
  1
%%c36
  7
ASAMI
 11
-0.000000000000002
 21
1.0
 31
0.0
1001
ACAD
1000
MTEXTBEGIN
1070
    73
1070
     1
1070
    44
1040
1.0
1070
    74
1070
     0
1000
MTEXTEND
  0
POINT
  5
4C63
330
46A9
100
AcDbEntity
  8
DEFPOINTS
 62
     0
100
AcDbPoint
 10
-0.0000000000002318
 20
17.99999999999988
 30
0.0
  0
POINT
  5
4C64
330
46A9
100
AcDbEntity
  8
DEFPOINTS
 62
     0
100
AcDbPoint
 10
-0.0000000000002932
 20
-18.00000000000012
 30
0.0
  0
POINT
  5
4C65
330
46A9
100
AcDbEntity
  8
DEFPOINTS
 62
     0
100
AcDbPoint
 10
6.999999999999771
 20
-18.00000000000012
 30
0.0
  0
ENDBLK
  5
46B4
330
46A9
100
AcDbEntity
  8
0
100
AcDbBlockEnd
  0
BLOCK
  5
4AD1
330
4AC7
100
AcDbEntity
  8
0
100
AcDbBlockBegin
  2
*D9
 70
     1
 10
0.0
 20
0.0
 30
0.0
  3
*D9
  1

  0
LINE
  5
4DA7
330
4AC7
100
AcDbEntity
  8
AM_5
100
AcDbLine
 10
-45.00000000000021
 20
-17.00000000000006
 30
0.0
 11
-45.00000000000018
 21
-31.50000000000017
 31
0.0
  0
LINE
  5
4DA8
330
4AC7
100
AcDbEntity
  8
AM_5
100
AcDbLine
 10
0.000000000000164
 20
-18.50000000000011
 30
0.0
 11
0.0000000000001895
 21
-31.50000000000007
 31
0.0
  0
LINE
  5
4DA9
330
4AC7
100
AcDbEntity
  8
AM_5
100
AcDbLine
 10
-43.75000000000018
 20
-31.00000000000016
 30
0.0
 11
-1.249999999999811
 21
-31.00000000000008
 31
0.0
  0
INSERT
  5
4DAA
330
4AC7
100
AcDbEntity
  8
AM_5
100
AcDbBlockReference
  2
_OPEN30
 10
-45.00000000000018
 20
-31.00000000000017
 30
0.0
 41
1.25
 42
1.25
 43
1.25
 50
180.0000000000001
  0
INSERT
  5
4DAB
330
4AC7
100
AcDbEntity
  8
AM_5
100
AcDbBlockReference
  2
_OPEN30
 10
0.0000000000001885
 20
-31.00000000000008
 30
0.0
 41
1.25
 42
1.25
 43
1.25
 50
0.0000000000001018
  0
MTEXT
  5
4DAC
330
4AC7
100
AcDbEntity
  8
AM_5
 62
     2
100
AcDbMText
 10
-22.5
 20
-29.45000000000012
 30
0.0
 40
1.6
 41
0.0
 71
     5
 72
     1
  1
45
  7
ASAMI
1001
ACAD
1000
MTEXTBEGIN
1070
    73
1070
     1
1070
    44
1040
1.0
1070
    74
1070
     0
1000
MTEXTEND
  0
POINT
  5
4DAD
330
4AC7
100
AcDbEntity
  8
DEFPOINTS
 62
     0
100
AcDbPoint
 10
-45.00000000000024
 20
-16.49999999999997
 30
0.0
  0
POINT
  5
4DAE
330
4AC7
100
AcDbEntity
  8
DEFPOINTS
 62
     0
100
AcDbPoint
 10
0.0000000000001266
 20
-18.00000000000011
 30
0.0
  0
POINT
  5
4DAF
330
4AC7
100
AcDbEntity
  8
DEFPOINTS
 62
     0
100
AcDbPoint
 10
0.0000000000001258
 20
-31.00000000000008
 30
0.0
  0
ENDBLK
  5
4AD2
330
4AC7
100
AcDbEntity
  8
0
100
AcDbBlockEnd
  0
BLOCK
  5
4D23
330
4D19
100
AcDbEntity
  8
0
100
AcDbBlockBegin
  2
*D10
 70
     1
 10
0.0
 20
0.0
 30
0.0
  3
*D10
  1

  0
LINE
  5
4D91
330
4D19
100
AcDbEntity
  8
AM_5
100
AcDbLine
 10
-13.00000000000026
 20
18.49999999999983
 30
0.0
 11
-13.00000000000028
 21
25.49999999999985
 31
0.0
  0
LINE
  5
4D92
330
4D19
100
AcDbEntity
  8
AM_5
100
AcDbLine
 10
-0.0000000000002691
 20
18.49999999999988
 30
0.0
 11
-0.0000000000002829
 21
25.49999999999988
 31
0.0
  0
LINE
  5
4D93
330
4D19
100
AcDbEntity
  8
AM_5
100
AcDbLine
 10
-11.75000000000028
 20
24.99999999999985
 30
0.0
 11
-1.250000000000281
 21
24.99999999999987
 31
0.0
  0
INSERT
  5
4D94
330
4D19
100
AcDbEntity
  8
AM_5
100
AcDbBlockReference
  2
_OPEN30
 10
-13.00000000000028
 20
24.99999999999985
 30
0.0
 41
1.25
 42
1.25
 43
1.25
 50
180.0000000000001
  0
INSERT
  5
4D95
330
4D19
100
AcDbEntity
  8
AM_5
100
AcDbBlockReference
  2
_OPEN30
 10
-0.0000000000002819
 20
24.99999999999988
 30
0.0
 41
1.25
 42
1.25
 43
1.25
 50
0.0000000000001018
  0
MTEXT
  5
4D96
330
4D19
100
AcDbEntity
  8
AM_5
 62
     2
100
AcDbMText
 10
-6.500000000000283
 20
26.54999999999986
 30
0.0
 40
1.6
 41
0.0
 71
     5
 72
     1
  1
13
  7
ASAMI
1001
ACAD
1000
MTEXTBEGIN
1070
    73
1070
     1
1070
    44
1040
1.0
1070
    74
1070
     0
1000
MTEXTEND
  0
POINT
  5
4D97
330
4D19
100
AcDbEntity
  8
DEFPOINTS
 62
     0
100
AcDbPoint
 10
-13.00000000000022
 20
17.99999999999986
 30
0.0
  0
POINT
  5
4D98
330
4D19
100
AcDbEntity
  8
DEFPOINTS
 62
     0
100
AcDbPoint
 10
-0.0000000000002318
 20
17.99999999999988
 30
0.0
  0
POINT
  5
4D99
330
4D19
100
AcDbEntity
  8
DEFPOINTS
 62
     0
100
AcDbPoint
 10
-0.0000000000002313
 20
24.99999999999988
 30
0.0
  0
ENDBLK
  5
4D24
330
4D19
100
AcDbEntity
  8
0
100
AcDbBlockEnd
  0
ENDSEC
  0
SECTION
  2
ENTITIES
  0
TEXT
  5
E65
330
1F
100
AcDbEntity
  8
AM_6
100
AcDbText
 10
-89.28571428571414
 20
-58.25000000000038
 30
0.0
 40
2.5
  1
CHE3036R
 72
     4
 11
-79.99999999999985
 21
-57.00000000000038
 31
0.0
100
AcDbText
  0
POINT
  5
22B9
330
1F
100
AcDbEntity
  8
0
 60
     1
100
AcDbPoint
 10
0.0
 20
0.0
 30
0.0
1001
GENIUS_GENOBJ-NBEHI-BHB_13
1002
{
1000
OWNER
1000
GENBEHI
1002
}
1001
GENIUS_GENOENT_13
1002
{
1000
MYREF
1005
22B9
1002
}
1002
{
1000
GRP
1005
0
1002
}
1001
GENIUS_GENOLIS_13
1002
{
1000
ENT
1005
202B
1005
22A0
1002
}
1001
GENIUS_GENBH_13
1002
{
1000
FGO
1005
22B7
1002
}
1001
GENIUS_GENODEF_13
1002
{
1000
HIER
1070
     1
1002
}
1002
{
1000
MANEDIT
1070
     1
1002
}
1002
{
1000
NOSEL
1070
     1
1002
}
1002
{
1000
BEHIND
1070
     0
1002
}
1002
{
1000
REACTOR
1002
}
1002
{
1000
OTHER
1070
     1
1002
}
  0
POINT
  5
22EE
330
1F
100
AcDbEntity
  8
0
 60
     1
100
AcDbPoint
 10
48.69120841332719
 20
0.0000000000000995
 30
0.0
1001
GENIUS_GENOBJ-NBEHI-BHB_13
1002
{
1000
OWNER
1000
GENBEHI
1002
}
1001
GENIUS_GENOENT_13
1002
{
1000
MYREF
1005
22EE
1002
}
1002
{
1000
GRP
1005
0
1002
}
1001
GENIUS_GENOLIS_13
1002
{
1000
ENT
1005
22DF
1005
22A0
1002
}
1001
GENIUS_GENBH_13
1002
{
1000
FGO
1005
22ED
1002
}
1001
GENIUS_GENODEF_13
1002
{
1000
HIER
1070
     1
1002
}
1002
{
1000
MANEDIT
1070
     1
1002
}
1002
{
1000
NOSEL
1070
     1
1002
}
1002
{
1000
BEHIND
1070
     0
1002
}
1002
{
1000
REACTOR
1002
}
1002
{
1000
OTHER
1070
     1
1002
}
  0
LINE
  5
2F9C
330
1F
100
AcDbEntity
  8
AM_0
100
AcDbLine
 10
-0.6000000000003939
 20
15.56591016151347
 30
0.0
 11
-0.6000000000003288
 21
-16.77000000000011
 31
0.0
  0
POINT
  5
2FC5
330
1F
100
AcDbEntity
  8
0
 60
     1
100
AcDbPoint
 10
66.68948384583128
 20
-34.14755652543707
 30
0.0
1001
GENIUS_GENOBJ-N-CRS_13
1002
{
1000
OWNER
1000
GEN
1002
}
1001
GENIUS_GENOENT_13
1002
{
1000
MYREF
1005
2FC5
1002
}
1002
{
1000
GRP
1005
0
1002
}
1001
GENIUS_GENOLIS_13
1002
{
1000
ENT
1005
2FC2
1005
2FB5
1005
2F9B
1005
2FB9
1002
}
1001
GENIUS_GENODEF_13
1002
{
1000
HIER
1070
    10
1002
}
1002
{
1000
MANEDIT
1070
     1
1002
}
1002
{
1000
NOSEL
1070
     0
1002
}
1002
{
1000
BEHIND
1070
     0
1002
}
1002
{
1000
REACTOR
1002
}
  0
LINE
  5
4222
330
1F
100
AcDbEntity
  8
AM_0
100
AcDbLine
 10
-0.6000000000003292
 20
-16.77000000000011
 30
0.0
 11
-13.16718317768372
 21
-17.42861816218568
 31
0.0
  0
LINE
  5
4223
330
1F
100
AcDbEntity
  8
AM_0
100
AcDbLine
 10
-160.0000000000002
 20
14.33333333333339
 30
0.0
 11
-159.0000000000002
 21
16.00000000000005
 31
0.0
1001
GENIUS_GENFIL_13
1070
     0
1040
1.0
1040
1.0
1040
20.0
1040
0.0
1002
{
1002
}
1001
GENIUS_GENODEF_13
1002
{
1000
HIER
1070
     0
1002
}
1002
{
1000
MANEDIT
1070
     0
1002
}
1002
{
1000
NOSEL
1070
     0
1002
}
1002
{
1000
BEHIND
1070
     0
1002
}
1002
{
1000
REACTOR
1002
}
1001
GENIUS_GENOBJ-N-CHA_13
1002
{
1000
OWNER
1000
GEN
1002
}
  0
LINE
  5
4224
330
1F
100
AcDbEntity
  8
AM_0
100
AcDbLine
 10
-159.0000000000002
 20
-15.99999999999997
 30
0.0
 11
-160.0000000000002
 21
-14.3333333333333
 31
0.0
1001
GENIUS_GENFIL_13
1070
     0
1040
1.0
1040
1.0
1040
20.0
1040
0.0
1002
{
1002
}
1001
GENIUS_GENODEF_13
1002
{
1000
HIER
1070
     0
1002
}
1002
{
1000
MANEDIT
1070
     0
1002
}
1002
{
1000
NOSEL
1070
     0
1002
}
1002
{
1000
BEHIND
1070
     0
1002
}
1002
{
1000
REACTOR
1002
}
1001
GENIUS_GENOBJ-N-CHA_13
1002
{
1000
OWNER
1000
GEN
1002
}
  0
LINE
  5
4225
330
1F
100
AcDbEntity
  8
AM_0
100
AcDbLine
 10
-160.0000000000002
 20
-14.33333333333331
 30
0.0
 11
-160.0000000000002
 21
14.33333333333339
 31
0.0
  0
LINE
  5
4226
330
1F
100
AcDbEntity
  8
AM_0
100
AcDbLine
 10
-159.0000000000002
 20
-15.99999999999997
 30
0.0
 11
-159.0000000000002
 21
16.00000000000003
 31
0.0
  0
DIMENSION
  5
4227
330
1F
100
AcDbEntity
  8
AM_5
100
AcDbDimension
  2
*D5
 10
-167.0000000000002
 20
16.00000000000003
 30
0.0
 11
-168.5500000000002
 21
0.0000000000000051
 31
0.0
 70
    32
  1
%%c<>
 51
359.9999999999997
  3
AM_JIS
100
AcDbAlignedDimension
 13
-159.0000000000002
 23
-15.99999999999997
 33
0.0
 14
-159.0000000000002
 24
16.00000000000003
 34
0.0
 50
270.0
100
AcDbRotatedDimension
1001
GENIUS_GENDTOL_13
1000

1000
h7
1000

1040
0.0
  0
LINE
  5
4234
330
1F
100
AcDbEntity
  8
AM_0
100
AcDbLine
 10
-48.00000000000023
 20
-16.00000000000005
 30
0.0
 11
-159.0000000000002
 21
-15.99999999999995
 31
0.0
  0
LINE
  5
4235
330
1F
100
AcDbEntity
  8
AM_0
100
AcDbLine
 10
-159.0000000000002
 20
15.99999999999992
 30
0.0
 11
-48.00000000000021
 21
16.00000000000011
 31
0.0
  0
LINE
  5
4236
330
1F
100
AcDbEntity
  8
AM_7
100
AcDbLine
 10
2.21330240491253
 20
-0.0000000000001208
 30
0.0
 11
-163.8505489036456
 21
0.0000000000000328
 31
0.0
1001
GENIUS_GENODEF_13
1002
{
1000
HIER
1070
     0
1002
}
1002
{
1000
MANEDIT
1070
     0
1002
}
1002
{
1000
NOSEL
1070
     0
1002
}
1002
{
1000
BEHIND
1070
     0
1002
}
1002
{
1000
REACTOR
1002
}
1001
GENIUS_GENOBJ-N-CEN_13
1002
{
1000
OWNER
1000
GEN
1002
}
  0
DIMENSION
  5
4237
330
1F
100
AcDbEntity
  8
AM_5
100
AcDbDimension
  2
*D6
 10
-45.00000000000023
 20
-31.00000000000008
 30
0.0
 11
-102.5000000000002
 21
-29.45000000000008
 31
0.0
 70
    32
  1
<>
 51
359.9999999999997
  3
AM_JIS
100
AcDbAlignedDimension
 13
-160.0000000000002
 23
-14.3333333333333
 33
0.0
 14
-45.00000000000023
 24
-16.49999999999997
 34
0.0
100
AcDbRotatedDimension
1001
GENIUS_GENDTOL_13
1000

1000
h7
1000

1040
0.0
  0
DIMENSION
  5
4244
330
1F
100
AcDbEntity
  8
AM_5
100
AcDbDimension
  2
*D7
 10
0.0000000000001255
 20
-37.00000000000008
 30
0.0
 11
-80.00000000000005
 21
-35.45000000000008
 31
0.0
 70
    32
  1
<>
 51
359.9999999999997
  3
AM_JIS
100
AcDbAlignedDimension
 13
-160.0000000000002
 23
-14.33333333333331
 33
0.0
 14
0.0000000000001266
 24
-18.00000000000011
 34
0.0
100
AcDbRotatedDimension
1001
GENIUS_GENDTOL_13
1000

1000
h7
1000

1040
0.0
  0
LINE
  5
45C6
330
1F
100
AcDbEntity
  8
AM_11
100
AcDbLine
 10
-0.0000000000002932
 20
-18.00000000000012
 30
0.0
 11
-0.0000000000002318
 21
17.99999999999988
 31
0.0
  0
LINE
  5
45D7
330
1F
100
AcDbEntity
  8
AM_11
100
AcDbLine
 10
0.0000000000001266
 20
-18.00000000000011
 30
0.0
 11
-13.00000000000029
 21
-18.00000000000017
 31
0.0
1001
GENIUS_GENODEF_13
1002
{
1000
HIER
1070
     0
1002
}
1002
{
1000
MANEDIT
1070
     0
1002
}
1002
{
1000
NOSEL
1070
     0
1002
}
1002
{
1000
BEHIND
1070
     0
1002
}
1002
{
1000
REACTOR
1002
}
1001
GENIUS_GENOBJ-N-CEN_13
1002
{
1000
OWNER
1000
GEN
1002
}
  0
LINE
  5
4662
330
1F
100
AcDbEntity
  8
AM_11
100
AcDbLine
 10
-0.0000000000002515
 20
17.99999999999988
 30
0.0
 11
-13.00000000000022
 21
17.99999999999986
 31
0.0
  0
LINE
  5
468D
330
1F
100
AcDbEntity
  8
AM_0
100
AcDbLine
 10
-13.16718317768377
 20
6.75618595268405
 30
0.0
 11
-13.16718317768372
 21
-17.42861816218576
 31
0.0
  0
LINE
  5
468E
330
1F
100
AcDbEntity
  8
AM_0
100
AcDbLine
 10
-13.66718317768377
 20
6.574367770865864
 30
0.0
 11
-13.66718317768371
 21
-17.13994302759094
 31
0.0
  0
LINE
  5
4691
330
1F
100
AcDbEntity
  8
AM_0
100
AcDbLine
 10
-13.66718317768371
 20
-16.5000000000001
 30
0.0
 11
-44.50000000000024
 21
-16.50000000000007
 31
0.0
  0
LINE
  5
4692
330
1F
100
AcDbEntity
  8
AM_0
100
AcDbLine
 10
-14.66249436738252
 20
16.49999999999988
 30
0.0
 11
-44.50000000000019
 21
16.49999999999993
 31
0.0
  0
DIMENSION
  5
46A8
330
1F
100
AcDbEntity
  8
AM_5
100
AcDbDimension
  2
*D8
 10
6.999999999999771
 20
-18.00000000000012
 30
0.0
 11
5.449999999999775
 21
-0.0000000000001175
 31
0.0
 70
    32
  1
%%c<>
 51
359.9999999999998
  3
AM_JIS
100
AcDbAlignedDimension
 13
-0.0000000000002318
 23
17.99999999999988
 33
0.0
 14
-0.0000000000002932
 24
-18.00000000000012
 34
0.0
 50
90.00000000000012
100
AcDbRotatedDimension
  0
LINE
  5
488D
330
1F
100
AcDbEntity
  8
AM_0
100
AcDbLine
 10
-13.86745731770367
 20
17.99999999999985
 30
0.0
 11
-1.297619704956078
 21
17.99999999999988
 31
0.0
  0
LINE
  5
488E
330
1F
100
AcDbEntity
  8
AM_0
100
AcDbLine
 10
-6.392098483346498
 20
5.533701305915316
 30
0.0
 11
-0.1071796769727708
 21
16.41949999999983
 31
0.0
  0
LINE
  5
4890
330
1F
100
AcDbEntity
  8
AM_7
100
AcDbLine
 10
-7.443569547565302
 20
19.15543472044103
 30
0.0
 11
-7.443569547565263
 21
2.85992564614807
 31
0.0
  0
LINE
  5
4891
330
1F
100
AcDbEntity
  8
AM_0
100
AcDbLine
 10
-6.343569547565287
 20
9.237499999999876
 30
0.0
 11
-6.343569547565305
 21
14.23749999999987
 31
0.0
  0
ARC
  5
4899
330
1F
100
AcDbEntity
  8
AM_0
100
AcDbCircle
 10
-7.575209893970339
 20
6.340507768299344
 30
0.0
 40
2.25
100
AcDbArc
 50
152.2309526355021
 51
20.60447787951793
  0
LINE
  5
489B
330
1F
100
AcDbEntity
  8
AM_0
100
AcDbLine
 10
-8.356071648019513
 20
5.292999999999866
 30
0.0
 11
-9.889068126941822
 21
7.948227789317494
 31
0.0
  0
LINE
  5
48A2
330
1F
100
AcDbEntity
  8
AM_0
100
AcDbLine
 10
-12.77177277784077
 20
14.23749999999984
 30
0.0
 11
-6.343569547565309
 21
14.23749999999987
 31
0.0
  0
LINE
  5
48A3
330
1F
100
AcDbEntity
  8
AM_0
100
AcDbLine
 10
-13.56618429417687
 20
14.31717981630149
 30
0.0
 11
-14.64099045439333
 21
16.1787986940844
 31
0.0
  0
ARC
  5
491B
330
1F
100
AcDbEntity
  8
AM_0
100
AcDbCircle
 10
-7.663251324991962
 20
5.692999999999864
 30
0.0
 40
0.8
100
AcDbArc
 50
209.9999999999999
 51
301.5
  0
LINE
  5
495F
330
1F
100
AcDbEntity
  8
AM_0
100
AcDbLine
 10
-7.245252473219202
 20
5.010887868516592
 30
0.0
 11
-6.392098483346502
 21
5.533701305915313
 31
0.0
  0
ARC
  5
4971
330
1F
100
AcDbEntity
  8
AM_0
100
AcDbCircle
 10
-0.8000000000002495
 20
16.81949999999987
 30
0.0
 40
0.8
100
AcDbArc
 50
329.9999999999999
 51
61.50000000000002
  0
LINE
  5
4972
330
1F
100
AcDbEntity
  8
AM_0
100
AcDbLine
 10
-0.4182729917925683
 20
17.52255369012944
 30
0.0
 11
-1.297619704956078
 21
17.99999999999989
 31
0.0
  0
ARC
  5
4973
330
1F
100
AcDbEntity
  8
AM_0
100
AcDbCircle
 10
-13.86745731770367
 20
17.19999999999989
 30
0.0
 40
0.8
100
AcDbArc
 50
89.99999999999992
 51
181.5
  0
LINE
  5
4974
330
1F
100
AcDbEntity
  8
AM_0
100
AcDbLine
 10
-14.66718317768411
 20
17.17905844135359
 30
0.0
 11
-14.6409904543933
 21
16.17879869408442
 31
0.0
  0
LINE
  5
4976
330
1F
100
AcDbEntity
  8
AM_0
100
AcDbLine
 10
-26.34356954756529
 20
15.2996778264909
 30
0.0
 11
-26.34356954756528
 21
11.23749999999983
 31
0.0
  0
LINE
  5
4977
330
1F
100
AcDbEntity
  8
AM_7
100
AcDbLine
 10
-19.3435695475653
 20
17.14122263189431
 30
0.0
 11
-19.34356954756527
 21
4.825821048314871
 31
0.0
  0
LINE
  5
4978
330
1F
100
AcDbEntity
  8
AM_0
100
AcDbLine
 10
-21.34356954756527
 20
6.237499999999847
 30
0.0
 11
-15.47444443596481
 21
6.237499999999855
 31
0.0
  0
LINE
  5
4979
330
1F
100
AcDbEntity
  8
AM_7
100
AcDbLine
 10
-27.27709954746669
 20
11.23749999999983
 30
0.0
 11
-4.977072233223992
 21
11.23749999999987
 31
0.0
  0
CIRCLE
  5
497A
330
1F
100
AcDbEntity
  8
AM_0
100
AcDbCircle
 10
-19.34356954756528
 20
11.23749999999984
 30
0.0
 40
2.6
  0
CIRCLE
  5
497B
330
1F
100
AcDbEntity
  8
AM_0
100
AcDbCircle
 10
-19.34356954756528
 20
11.23749999999984
 30
0.0
 40
4.0
  0
LINE
  5
497F
330
1F
100
AcDbEntity
  8
AM_0
100
AcDbLine
 10
-6.343569547565287
 20
9.237499999999876
 30
0.0
 11
-13.76572912053129
 21
6.538532882557674
 31
0.0
  0
ARC
  5
4980
330
1F
100
AcDbEntity
  8
AM_0
100
AcDbCircle
 10
-21.34356954756528
 20
11.23749999999984
 30
0.0
 40
5.0
100
AcDbArc
 50
180.0000000000001
 51
270.0000000000001
  0
LINE
  5
4983
330
1F
100
AcDbEntity
  8
AM_0
100
AcDbLine
 10
-22.8435695475653
 20
16.23749999999984
 30
0.0
 11
-26.34356954756529
 21
15.2996778264909
 31
0.0
  0
LINE
  5
4984
330
1F
100
AcDbEntity
  8
AM_0
100
AcDbLine
 10
-22.84356954756528
 20
16.23749999999984
 30
0.0
 11
-18.37946793242758
 21
16.23749999999985
 31
0.0
  0
LINE
  5
4986
330
1F
100
AcDbEntity
  8
AM_0
100
AcDbLine
 10
-14.7717727778408
 20
14.77339838486208
 30
0.0
 11
-16.37946793242758
 21
15.70160161513761
 31
0.0
  0
ARC
  5
4987
330
1F
100
AcDbEntity
  8
AM_0
100
AcDbCircle
 10
-18.37946793242757
 20
12.23749999999985
 30
0.0
 40
4.0
100
AcDbArc
 50
60.0000000000001
 51
90.0000000000001
  0
ARC
  5
4988
330
1F
100
AcDbEntity
  8
AM_0
100
AcDbCircle
 10
-12.7717727778408
 20
18.23749999999984
 30
0.0
 40
4.0
100
AcDbArc
 50
240.0
 51
270.0000000000002
  0
ARC
  5
4989
330
1F
100
AcDbEntity
  8
AM_0
100
AcDbCircle
 10
-15.47444443596483
 20
11.23749999999985
 30
0.0
 40
5.0
100
AcDbArc
 50
270.0000000000001
 51
289.9831065219001
  0
LINE
  5
4A2B
330
1F
100
AcDbEntity
  8
AM_0
100
AcDbLine
 10
-13.86745731770351
 20
-18.00000000000005
 30
0.0
 11
-1.297619704955912
 21
-18.00000000000011
 31
0.0
  0
LINE
  5
4A2C
330
1F
100
AcDbEntity
  8
AM_0
100
AcDbLine
 10
-0.4182729917924012
 20
-17.52255369012967
 30
0.0
 11
-1.297619704955912
 21
-18.00000000000012
 31
0.0
  0
ARC
  5
4A2D
330
1F
100
AcDbEntity
  8
AM_0
100
AcDbCircle
 10
-0.800000000000081
 20
-16.81950000000009
 30
0.0
 40
0.8
100
AcDbArc
 50
298.4999999999998
 51
29.99999999999998
  0
ARC
  5
4A2E
330
1F
100
AcDbEntity
  8
AM_0
100
AcDbCircle
 10
-13.8674573177035
 20
-17.2000000000001
 30
0.0
 40
0.8
100
AcDbArc
 50
178.4999999999998
 51
270.0
  0
LINE
  5
4A2F
330
1F
100
AcDbEntity
  8
AM_0
100
AcDbLine
 10
-14.66718317768394
 20
-17.1790584413538
 30
0.0
 11
-14.66249436738235
 21
-17.0
 31
0.0
  0
LINE
  5
4A30
330
1F
100
AcDbEntity
  8
AM_3
100
AcDbLine
 10
-6.392098483346309
 20
-5.533701305915537
 30
0.0
 11
-0.6000000000002658
 21
-15.56591016151363
 31
0.0
  0
LINE
  5
4A31
330
1F
100
AcDbEntity
  8
AM_3
100
AcDbLine
 10
-7.245252473219012
 20
-5.01088786851681
 30
0.0
 11
-6.392098483346313
 21
-5.533701305915533
 31
0.0
  0
LINE
  5
4A33
330
1F
100
AcDbEntity
  8
AM_3
100
AcDbLine
 10
-8.356071648019323
 20
-5.293000000000082
 30
0.0
 11
-14.64099045439313
 21
-16.1787986940846
 31
0.0
  0
ARC
  5
4A34
330
1F
100
AcDbEntity
  8
AM_3
100
AcDbCircle
 10
-7.663251324991773
 20
-5.693000000000083
 30
0.0
 40
0.8
100
AcDbArc
 50
58.49999999999983
 51
149.9999999999999
  0
LINE
  5
4A35
330
1F
100
AcDbEntity
  8
AM_3
100
AcDbLine
 10
-14.66249436738235
 20
-17.0
 30
0.0
 11
-14.64099045439313
 21
-16.17879869408462
 31
0.0
  0
LINE
  5
4A36
330
1F
100
AcDbEntity
  8
AM_0
100
AcDbLine
 10
-0.6000000000002657
 20
-15.56591016151363
 30
0.0
 11
-0.1071796769726017
 21
-16.41950000000006
 31
0.0
  0
LINE
  5
4A89
330
1F
100
AcDbEntity
  8
AM_0
100
AcDbLine
 10
-48.00000000000024
 20
-16.00000000000005
 30
0.0
 11
-48.00000000000025
 21
-16.00000000000005
 31
0.0
  0
LINE
  5
4A8A
330
1F
100
AcDbEntity
  8
AM_0
100
AcDbLine
 10
-47.5000000000002
 20
15.50000000000011
 30
0.0
 11
-45.50000000000018
 21
15.50000000000012
 31
0.0
  0
LINE
  5
4A8B
330
1F
100
AcDbEntity
  8
AM_0
100
AcDbLine
 10
-45.50000000000024
 20
-15.50000000000006
 30
0.0
 11
-47.50000000000024
 21
-15.50000000000005
 31
0.0
  0
LINE
  5
4A8C
330
1F
100
AcDbEntity
  8
AM_0
100
AcDbLine
 10
-44.50000000000024
 20
-16.50000000000007
 30
0.0
 11
-44.50000000000019
 21
16.49999999999992
 31
0.0
  0
LINE
  5
4A8D
330
1F
100
AcDbEntity
  8
AM_0
100
AcDbLine
 10
-45.00000000000023
 20
-16.00000000000007
 30
0.0
 11
-44.50000000000024
 21
-16.50000000000007
 31
0.0
  0
LINE
  5
4A8E
330
1F
100
AcDbEntity
  8
AM_0
100
AcDbLine
 10
-45.00000000000019
 20
15.99999999999993
 30
0.0
 11
-44.50000000000019
 21
16.49999999999993
 31
0.0
  0
LINE
  5
4A8F
330
1F
100
AcDbEntity
  8
AM_0
100
AcDbLine
 10
-48.0000000000002
 20
16.00000000000011
 30
0.0
 11
-48.0000000000002
 21
16.00000000000011
 31
0.0
  0
ARC
  5
4A91
330
1F
100
AcDbEntity
  8
AM_0
100
AcDbCircle
 10
-47.5000000000002
 20
16.00000000000011
 30
0.0
 40
0.5
100
AcDbArc
 50
180.0
 51
270.0000000000001
  0
ARC
  5
4A92
330
1F
100
AcDbEntity
  8
AM_0
100
AcDbCircle
 10
-45.50000000000018
 20
16.00000000000012
 30
0.0
 40
0.5
100
AcDbArc
 50
270.0000000000001
 51
0.0
  0
LINE
  5
4A9C
330
1F
100
AcDbEntity
  8
AM_0
100
AcDbLine
 10
-48.00000000000022
 20
-16.00000000000005
 30
0.0
 11
-48.00000000000018
 21
16.00000000000011
 31
0.0
  0
LINE
  5
4A9D
330
1F
100
AcDbEntity
  8
AM_0
100
AcDbLine
 10
-45.00000000000023
 20
-16.00000000000008
 30
0.0
 11
-45.00000000000018
 21
15.99999999999994
 31
0.0
  0
ARC
  5
4A9E
330
1F
100
AcDbEntity
  8
AM_0
100
AcDbCircle
 10
-47.50000000000024
 20
-16.00000000000005
 30
0.0
 40
0.5
100
AcDbArc
 50
89.99999999999991
 51
180.0
  0
ARC
  5
4A9F
330
1F
100
AcDbEntity
  8
AM_0
100
AcDbCircle
 10
-45.50000000000024
 20
-16.00000000000006
 30
0.0
 40
0.5
100
AcDbArc
 50
0.0
 51
89.99999999999994
  0
DIMENSION
  5
4AC6
330
1F
100
AcDbEntity
  8
AM_5
100
AcDbDimension
  2
*D9
 10
0.0000000000001258
 20
-31.00000000000008
 30
0.0
 11
-22.50000000000006
 21
-29.45000000000007
 31
0.0
 70
    32
  1
<>
 51
359.9999999999998
  3
AM_JIS
100
AcDbAlignedDimension
 13
-45.00000000000024
 23
-16.49999999999997
 33
0.0
 14
0.0000000000001266
 24
-18.00000000000011
 34
0.0
 50
0.0000000000002264
100
AcDbRotatedDimension
1001
GENIUS_GENDTOL_13
1000

1000
h7
1000

1040
0.0
  0
LINE
  5
4B53
330
1F
100
AcDbEntity
  8
AM_11
100
AcDbLine
 10
-13.00000000000029
 20
-18.00000000000017
 30
0.0
 11
-13.00000000000022
 21
17.99999999999986
 31
0.0
  0
LINE
  5
4C67
330
1F
100
AcDbEntity
  8
AM_7
100
AcDbLine
 10
-15.24161090838509
 20
13.23749999999985
 30
0.0
 11
0.3544718132545144
 21
13.23749999999988
 31
0.0
  0
DIMENSION
  5
4D18
330
1F
100
AcDbEntity
  8
AM_5
100
AcDbDimension
  2
*D10
 10
-0.0000000000002313
 20
24.99999999999988
 30
0.0
 11
-6.50000000000023
 21
26.54999999999988
 31
0.0
 70
    32
  1
<>
 51
359.9999999999998
  3
AM_JIS
100
AcDbAlignedDimension
 13
-13.00000000000022
 23
17.99999999999986
 33
0.0
 14
-0.0000000000002318
 24
17.99999999999988
 34
0.0
 50
180.0000000000001
100
AcDbRotatedDimension
1001
GENIUS_GENDTOL_13
1000

1000
h7
1000

1040
0.0
  0
LINE
  5
4DE9
330
1F
100
AcDbEntity
  8
AM_0
100
AcDbLine
 10
-13.16718317768356
 20
-17.42861816218585
 30
0.0
 11
-13.66718317768371
 21
-17.13994302759095
 31
0.0
  0
VIEWPORT
  5
110
330
101
100
AcDbEntity
 67
     1
  8
0
100
AcDbViewport
 10
420.5
 20
297.0
 30
0.0
 40
948.9782706766916
 41
628.452
 68
     1
 69
     1
1001
ACAD
1000
MVIEW
1002
{
1070
    16
1010
0.0
1020
0.0
1030
0.0
1010
0.0
1020
0.0
1030
1.0
1040
0.0
1040
628.452
1040
420.5
1040
297.0
1040
50.0
1040
0.0
1040
0.0
1070
     0
1070
   100
1070
     1
1070
     1
1070
     0
1070
     0
1070
     0
1070
     0
1040
0.0
1040
0.0
1040
0.0
1040
10.0
1040
10.0
1040
10.0
1040
10.0
1070
     0
1002
{
1002
}
1002
}
  0
ENDSEC
  0
SECTION
  2
OBJECTS
  0
DICTIONARY
  5
C
330
0
100
AcDbDictionary
  3
ACAD_GROUP
350
D
  3
ACAD_LAYOUT
350
1A
  3
ACAD_MLINESTYLE
350
17
  3
ACAD_PLOTSETTINGS
350
19
  3
ACAD_PLOTSTYLENAME
350
E
  3
ACDBVARIABLEDICTIONARY
350
34
  3
ACMDICTIONARY
350
43
  3
AMG
350
2B
  3
AMGSNAPSETTINGS
350
6E
  3
DWGPROPS
350
4F6E
  3
ACDBHEADERROUNDTRIPXREC
350
4F7B
  0
DICTIONARY
  5
74
330
1F
100
AcDbDictionary
280
     1
  3
ACAD_INDEX
360
4F70
  3
ACAD_LAYOUTSELFREF
360
4F9E
  0
DICTIONARY
  5
4FA3
330
101
100
AcDbDictionary
280
     1
  3
ACAD_LAYOUTSELFREF
360
4FA4
  0
DICTIONARY
  5
D
102
{ACAD_REACTORS
330
C
102
}
330
C
100
AcDbDictionary
  0
DICTIONARY
  5
1A
102
{ACAD_REACTORS
330
C
102
}
330
C
100
AcDbDictionary
  0
DICTIONARY
  5
17
102
{ACAD_REACTORS
330
C
102
}
330
C
100
AcDbDictionary
  3
STANDARD
350
18
  0
DICTIONARY
  5
19
102
{ACAD_REACTORS
330
C
102
}
330
C
100
AcDbDictionary
  0
ACDBDICTIONARYWDFLT
  5
E
102
{ACAD_REACTORS
330
C
102
}
330
C
100
AcDbDictionary
281
     1
  3
Normal
350
F
100
AcDbDictionaryWithDefault
340
F
  0
DICTIONARY
  5
34
102
{ACAD_REACTORS
330
C
102
}
330
C
100
AcDbDictionary
  3
INDEXCTL
350
35
  3
SORTENTS
350
B5E
  0
DICTIONARY
  5
43
102
{ACAD_REACTORS
330
C
102
}
330
C
100
AcDbDictionary
  3
ACMSTDDICTIONARY
350
260
  0
DICTIONARY
  5
2B
102
{ACAD_REACTORS
330
C
102
}
330
C
100
AcDbDictionary
  3
ACMGSETTINGS
350
2C
  0
DICTIONARY
  5
6E
102
{ACAD_REACTORS
330
C
102
}
330
C
100
AcDbDictionary
  0
XRECORD
  5
4F6E
102
{ACAD_REACTORS
330
C
102
}
330
C
100
AcDbXrecord
  1
DWGPROPS COOKIE
  2

  3

  4

  6

  7

  8

  9

300
AmdtFileType=82
301
=
302
=
303
=
304
=
305
=
306
=
307
=
308
=
309
=
 40
0.465347638888889
 41
2452802.716478761
 42
2452871.640890162
  1

 90
        1
  0
DICTIONARY
  5
4F7B
102
{ACAD_REACTORS
330
C
102
}
330
C
100
AcDbDictionary
  3
TSTACKALIGN
350
4F7C
  3
TSTACKSIZE
350
4F7D
  3
HYPERLINKBASE
350
4F7E
  3
STYLESHEET
350
4F7F
  3
LAYOUTDICT
350
4F80
  3
PLOTSETDICT
350
4F81
  3
PLOTSTYLNAMDICT
350
4F82
  3
LWETCUNION
350
4F83
  3
INSUNITS
350
4F84
  3
CEPSNTYPE
350
4F85
  3
FINGERPRINTGUID
350
4F86
  3
VERSIONGUID
350
4F87
  3
PSVPSCALE
350
4F88
  3
DIMSTYLEDATA
350
4F89
  3
PUCSORTHOREF
350
4F8A
  3
PUCSORTHOVIEW
350
4F8B
  3
PUCSBASE
350
4F8C
  3
PUCSORGTOP
350
4F8D
  3
PUCSORGBOTTOM
350
4F8E
  3
PUCSORGLEFT
350
4F8F
  3
PUCSORGRIGHT
350
4F90
  3
PUCSORGFRONT
350
4F91
  3
PUCSORGBACK
350
4F92
  3
UCSORTHOREF
350
4F93
  3
UCSORTHOVIEW
350
4F94
  3
UCSBASE
350
4F95
  3
UCSORGTOP
350
4F96
  3
UCSORGBOTTOM
350
4F97
  3
UCSORGLEFT
350
4F98
  3
UCSORGRIGHT
350
4F99
  3
UCSORGFRONT
350
4F9A
  3
UCSORGBACK
350
4F9B
  0
DICTIONARY
  5
4F70
102
{ACAD_REACTORS
330
74
102
}
330
74
100
AcDbDictionary
  3
*A1
350
4F71
  0
XRECORD
  5
4F9E
102
{ACAD_REACTORS
330
74
102
}
330
74
100
AcDbXrecord
340
1F
  0
XRECORD
  5
4FA4
102
{ACAD_REACTORS
330
4FA3
102
}
330
4FA3
100
AcDbXrecord
340
101
  0
MLINESTYLE
  5
18
102
{ACAD_REACTORS
330
17
102
}
330
17
100
AcDbMlineStyle
  2
STANDARD
 70
     0
  3

 62
   256
 51
90.0
 52
90.0
 71
     2
 49
0.5
 62
   256
  6
BYLAYER
 49
-0.5
 62
   256
  6
BYLAYER
  0
ACDBPLACEHOLDER
  5
F
102
{ACAD_REACTORS
330
E
102
}
330
E
100
AcDbPlaceHolder
280
     0
  0
DICTIONARYVAR
  5
35
102
{ACAD_REACTORS
330
34
102
}
330
34
100
DictionaryVariables
280
     0
  1
1
  0
DICTIONARYVAR
  5
B5E
102
{ACAD_REACTORS
330
34
102
}
330
34
100
DictionaryVariables
280
     0
  1
96
  0
DICTIONARY
  5
260
102
{ACAD_REACTORS
330
43
102
}
330
43
100
AcDbDictionary
  0
DICTIONARY
  5
2C
102
{ACAD_REACTORS
330
2B
102
}
330
2B
100
AcDbDictionary
  3
DWGSETTINGS
350
2D
  0
XRECORD
  5
4F7C
102
{ACAD_REACTORS
330
4F7B
102
}
330
4F7B
100
AcDbXrecord
 90
        1
  0
XRECORD
  5
4F7D
102
{ACAD_REACTORS
330
4F7B
102
}
330
4F7B
100
AcDbXrecord
 90
       70
  0
XRECORD
  5
4F7E
102
{ACAD_REACTORS
330
4F7B
102
}
330
4F7B
100
AcDbXrecord
  1

  0
XRECORD
  5
4F7F
102
{ACAD_REACTORS
330
4F7B
102
}
330
4F7B
100
AcDbXrecord
  1
ASAMI.ctb
  0
XRECORD
  5
4F80
102
{ACAD_REACTORS
330
4F7B
102
}
330
4F7B
100
AcDbXrecord
340
1A
  0
XRECORD
  5
4F81
102
{ACAD_REACTORS
330
4F7B
102
}
330
4F7B
100
AcDbXrecord
340
19
  0
XRECORD
  5
4F82
102
{ACAD_REACTORS
330
4F7B
102
}
330
4F7B
100
AcDbXrecord
340
E
  0
XRECORD
  5
4F83
102
{ACAD_REACTORS
330
4F7B
102
}
330
4F7B
100
AcDbXrecord
 90
    10781
  0
XRECORD
  5
4F84
102
{ACAD_REACTORS
330
4F7B
102
}
330
4F7B
100
AcDbXrecord
 90
        4
  0
XRECORD
  5
4F85
102
{ACAD_REACTORS
330
4F7B
102
}
330
4F7B
100
AcDbXrecord
 90
        0
  0
XRECORD
  5
4F86
102
{ACAD_REACTORS
330
4F7B
102
}
330
4F7B
100
AcDbXrecord
  1
{AFB28963-8C59-40AE-9337-C84526B81ACE}
  0
XRECORD
  5
4F87
102
{ACAD_REACTORS
330
4F7B
102
}
330
4F7B
100
AcDbXrecord
  1
{9208F497-EAC0-4308-AA3F-2FEDEA970B86}
  0
XRECORD
  5
4F88
102
{ACAD_REACTORS
330
4F7B
102
}
330
4F7B
100
AcDbXrecord
 40
0.0
  0
XRECORD
  5
4F89
102
{ACAD_REACTORS
330
4F7B
102
}
330
4F7B
100
AcDbXrecord
1000
DSTYLE
1002
{
1070
    79
 70
     2
1070
   179
 70
     2
1070
   341
340
59
1070
   342
340
59
1070
   371
 70
    -1
1070
   372
 70
    -1
1002
}
  0
XRECORD
  5
4F8A
102
{ACAD_REACTORS
330
4F7B
102
}
330
4F7B
100
AcDbXrecord
340
0
  0
XRECORD
  5
4F8B
102
{ACAD_REACTORS
330
4F7B
102
}
330
4F7B
100
AcDbXrecord
 70
     0
  0
XRECORD
  5
4F8C
102
{ACAD_REACTORS
330
4F7B
102
}
330
4F7B
100
AcDbXrecord
340
0
  0
XRECORD
  5
4F8D
102
{ACAD_REACTORS
330
4F7B
102
}
330
4F7B
100
AcDbXrecord
 10
0.0
 20
0.0
 30
0.0
  0
XRECORD
  5
4F8E
102
{ACAD_REACTORS
330
4F7B
102
}
330
4F7B
100
AcDbXrecord
 10
0.0
 20
0.0
 30
0.0
  0
XRECORD
  5
4F8F
102
{ACAD_REACTORS
330
4F7B
102
}
330
4F7B
100
AcDbXrecord
 10
0.0
 20
0.0
 30
0.0
  0
XRECORD
  5
4F90
102
{ACAD_REACTORS
330
4F7B
102
}
330
4F7B
100
AcDbXrecord
 10
0.0
 20
0.0
 30
0.0
  0
XRECORD
  5
4F91
102
{ACAD_REACTORS
330
4F7B
102
}
330
4F7B
100
AcDbXrecord
 10
0.0
 20
0.0
 30
0.0
  0
XRECORD
  5
4F92
102
{ACAD_REACTORS
330
4F7B
102
}
330
4F7B
100
AcDbXrecord
 10
0.0
 20
0.0
 30
0.0
  0
XRECORD
  5
4F93
102
{ACAD_REACTORS
330
4F7B
102
}
330
4F7B
100
AcDbXrecord
340
0
  0
XRECORD
  5
4F94
102
{ACAD_REACTORS
330
4F7B
102
}
330
4F7B
100
AcDbXrecord
 70
     0
  0
XRECORD
  5
4F95
102
{ACAD_REACTORS
330
4F7B
102
}
330
4F7B
100
AcDbXrecord
340
0
  0
XRECORD
  5
4F96
102
{ACAD_REACTORS
330
4F7B
102
}
330
4F7B
100
AcDbXrecord
 10
0.0
 20
0.0
 30
0.0
  0
XRECORD
  5
4F97
102
{ACAD_REACTORS
330
4F7B
102
}
330
4F7B
100
AcDbXrecord
 10
0.0
 20
0.0
 30
0.0
  0
XRECORD
  5
4F98
102
{ACAD_REACTORS
330
4F7B
102
}
330
4F7B
100
AcDbXrecord
 10
0.0
 20
0.0
 30
0.0
  0
XRECORD
  5
4F99
102
{ACAD_REACTORS
330
4F7B
102
}
330
4F7B
100
AcDbXrecord
 10
0.0
 20
0.0
 30
0.0
  0
XRECORD
  5
4F9A
102
{ACAD_REACTORS
330
4F7B
102
}
330
4F7B
100
AcDbXrecord
 10
0.0
 20
0.0
 30
0.0
  0
XRECORD
  5
4F9B
102
{ACAD_REACTORS
330
4F7B
102
}
330
4F7B
100
AcDbXrecord
 10
0.0
 20
0.0
 30
0.0
  0
LAYER_INDEX
  5
4F71
102
{ACAD_REACTORS
330
4F70
102
}
330
4F70
100
AcDbIndex
 40
2453152.424410231
100
AcDbLayerIndex
  8
0
360
4F72
 90
        3
  8
AM_0
360
4F73
 90
       57
  8
AM_5
360
4F74
 90
        6
  8
AM_11
360
4F75
 90
        4
  8
AM_7
360
4F76
 90
        5
  8
AM_6
360
4F77
 90
        1
  8
Defpoints
360
4F78
 90
        0
  8
AM_3
360
4F79
 90
        5
  0
XRECORD
  5
2D
102
{ACAD_REACTORS
330
2C
102
}
330
2C
100
AcDbXrecord
  1
VERSION
140
15.0
  1
PRODUCT
  2
AutoCAD Mechanical 2000
  0
IDBUFFER
  5
4F72
330
0
100
AcDbIdBuffer
330
22B9
330
22EE
330
2FC5
  0
IDBUFFER
  5
4F73
330
0
100
AcDbIdBuffer
330
4A8E
330
4A8F
330
4A91
330
4A92
330
4A9C
330
4A9D
330
4A9E
330
4A9F
330
4DE9
330
2F9C
330
4222
330
4223
330
4224
330
4225
330
4226
330
4234
330
4235
330
468D
330
468E
330
4691
330
4692
330
488D
330
488E
330
4891
330
4899
330
489B
330
48A2
330
48A3
330
491B
330
495F
330
4971
330
4972
330
4973
330
4974
330
4976
330
4978
330
497A
330
497B
330
497F
330
4980
330
4983
330
4984
330
4986
330
4987
330
4988
330
4989
330
4A2B
330
4A2C
330
4A2D
330
4A2E
330
4A2F
330
4A36
330
4A89
330
4A8A
330
4A8B
330
4A8C
330
4A8D
  0
IDBUFFER
  5
4F74
330
0
100
AcDbIdBuffer
330
4227
330
4237
330
4244
330
46A8
330
4AC6
330
4D18
  0
IDBUFFER
  5
4F75
330
0
100
AcDbIdBuffer
330
45C6
330
45D7
330
4662
330
4B53
  0
IDBUFFER
  5
4F76
330
0
100
AcDbIdBuffer
330
4236
330
4890
330
4977
330
4979
330
4C67
  0
IDBUFFER
  5
4F77
330
0
100
AcDbIdBuffer
330
E65
  0
IDBUFFER
  5
4F78
330
0
100
AcDbIdBuffer
  0
IDBUFFER
  5
4F79
330
0
100
AcDbIdBuffer
330
4A30
330
4A31
330
4A33
330
4A34
330
4A35
  0
ENDSEC
  0
EOF
