  0
SECTION
  2
HEADER
  9
$ACADVER
  1
AC1014
  9
$ACADMAINTVER
 70
     9
  9
$DWGCODEPAGE
  3
ANSI_932
  9
$INSBASE
 10
0.0
 20
0.0
 30
0.0
  9
$EXTMIN
 10
-138.7000000000002
 20
-78.00000000000038
 30
0.0
  9
$EXTMAX
 10
14.99999999999985
 20
31.50000000000003
 30
0.0
  9
$LIMMIN
 10
-149.2039810408784
 20
-89.60909651639637
  9
$LIMMAX
 10
30.948066043881
 20
45.8367653487067
  9
$ORTHOMODE
 70
     0
  9
$REGENMODE
 70
     1
  9
$FILLMODE
 70
     1
  9
$QTEXTMODE
 70
     0
  9
$MIRRTEXT
 70
     0
  9
$DRAGMODE
 70
     2
  9
$LTSCALE
 40
1.0
  9
$OSMODE
 70
    55
  9
$ATTMODE
 70
     1
  9
$TEXTSIZE
 40
2.5
  9
$TRACEWID
 40
1.0
  9
$TEXTSTYLE
  7
STANDARD
  9
$CLAYER
  8
AM_0
  9
$CELTYPE
  6
BYLAYER
  9
$CECOLOR
 62
   256
  9
$CELTSCALE
 40
1.0
  9
$DELOBJ
 70
     1
  9
$DISPSILH
 70
     0
  9
$DIMSCALE
 40
1.0
  9
$DIMASZ
 40
2.5
  9
$DIMEXO
 40
1.0
  9
$DIMDLI
 40
12.0
  9
$DIMRND
 40
0.0
  9
$DIMDLE
 40
0.0
  9
$DIMEXE
 40
1.0
  9
$DIMTP
 40
0.1
  9
$DIMTM
 40
0.1
  9
$DIMTXT
 40
3.2
  9
$DIMCEN
 40
0.0
  9
$DIMTSZ
 40
0.0
  9
$DIMTOL
 70
     0
  9
$DIMLIM
 70
     0
  9
$DIMTIH
 70
     0
  9
$DIMTOH
 70
     0
  9
$DIMSE1
 70
     0
  9
$DIMSE2
 70
     0
  9
$DIMTAD
 70
     3
  9
$DIMZIN
 70
     8
  9
$DIMBLK
  1
OPEN30
  9
$DIMASO
 70
     1
  9
$DIMSHO
 70
     1
  9
$DIMPOST
  1

  9
$DIMAPOST
  1
"
  9
$DIMALT
 70
     0
  9
$DIMALTD
 70
     2
  9
$DIMALTF
 40
0.0393701
  9
$DIMLFAC
 40
1.0
  9
$DIMTOFL
 70
     1
  9
$DIMTVP
 40
0.0
  9
$DIMTIX
 70
     0
  9
$DIMSOXD
 70
     0
  9
$DIMSAH
 70
     0
  9
$DIMBLK1
  1

  9
$DIMBLK2
  1

  9
$DIMSTYLE
  2
AM_JIS
  9
$DIMCLRD
 70
   256
  9
$DIMCLRE
 70
   256
  9
$DIMCLRT
 70
     2
  9
$DIMTFAC
 40
0.71
  9
$DIMGAP
 40
1.5
  9
$DIMJUST
 70
     0
  9
$DIMSD1
 70
     0
  9
$DIMSD2
 70
     0
  9
$DIMTOLJ
 70
     0
  9
$DIMTZIN
 70
     0
  9
$DIMALTZ
 70
     0
  9
$DIMALTTZ
 70
     0
  9
$DIMFIT
 70
     3
  9
$DIMUPT
 70
     0
  9
$DIMUNIT
 70
     2
  9
$DIMDEC
 70
     3
  9
$DIMTDEC
 70
     3
  9
$DIMALTU
 70
     2
  9
$DIMALTTD
 70
     2
  9
$DIMTXSTY
  7
ASAMI
  9
$DIMAUNIT
 70
     0
  9
$LUNITS
 70
     2
  9
$LUPREC
 70
     2
  9
$SKETCHINC
 40
1.0
  9
$FILLETRAD
 40
0.35
  9
$AUNITS
 70
     0
  9
$AUPREC
 70
     0
  9
$MENU
  1
.
  9
$ELEVATION
 40
0.0
  9
$PELEVATION
 40
0.0
  9
$THICKNESS
 40
0.0
  9
$LIMCHECK
 70
     0
  9
$BLIPMODE
 70
     0
  9
$CHAMFERA
 40
1.0
  9
$CHAMFERB
 40
1.0
  9
$CHAMFERC
 40
20.0
  9
$CHAMFERD
 40
0.0
  9
$SKPOLY
 70
     0
  9
$TDCREATE
 40
2452802.716478761
  9
$TDUPDATE
 40
2453152.423843275
  9
$TDINDWG
 40
0.7723347569
  9
$TDUSRTIMER
 40
0.7723347569
  9
$USRTIMER
 70
     1
  9
$ANGBASE
 50
0.0
  9
$ANGDIR
 70
     0
  9
$PDMODE
 70
     0
  9
$PDSIZE
 40
0.0
  9
$PLINEWID
 40
0.0
  9
$COORDS
 70
     1
  9
$SPLFRAME
 70
     0
  9
$SPLINETYPE
 70
     6
  9
$SPLINESEGS
 70
     8
  9
$ATTDIA
 70
     1
  9
$ATTREQ
 70
     1
  9
$HANDLING
 70
 12289
  9
$HANDSEED
  5
5199
  9
$SURFTAB1
 70
     6
  9
$SURFTAB2
 70
     6
  9
$SURFTYPE
 70
     6
  9
$SURFU
 70
     6
  9
$SURFV
 70
     6
  9
$UCSNAME
  2

  9
$UCSORG
 10
-0.0000000000002625
 20
-0.0000000000001255
 30
0.0
  9
$UCSXDIR
 10
1.0
 20
0.000000000000002
 30
0.0
  9
$UCSYDIR
 10
-0.000000000000002
 20
1.0
 30
0.0
  9
$PUCSNAME
  2

  9
$PUCSORG
 10
0.0
 20
0.0
 30
0.0
  9
$PUCSXDIR
 10
1.0
 20
0.0
 30
0.0
  9
$PUCSYDIR
 10
0.0
 20
1.0
 30
0.0
  9
$USERI1
 70
     0
  9
$USERI2
 70
     0
  9
$USERI3
 70
     0
  9
$USERI4
 70
     0
  9
$USERI5
 70
     0
  9
$USERR1
 40
0.0
  9
$USERR2
 40
0.0
  9
$USERR3
 40
0.0
  9
$USERR4
 40
0.0
  9
$USERR5
 40
0.0
  9
$WORLDVIEW
 70
     1
  9
$SHADEDGE
 70
     3
  9
$SHADEDIF
 70
    70
  9
$TILEMODE
 70
     1
  9
$MAXACTVP
 70
    64
  9
$PINSBASE
 10
0.0
 20
0.0
 30
0.0
  9
$PLIMCHECK
 70
     0
  9
$PEXTMIN
 10
1.000000000000000E+20
 20
1.000000000000000E+20
 30
1.000000000000000E+20
  9
$PEXTMAX
 10
-1.000000000000000E+20
 20
-1.000000000000000E+20
 30
-1.000000000000000E+20
  9
$PLIMMIN
 10
0.0
 20
0.0
  9
$PLIMMAX
 10
841.0
 20
594.0
  9
$UNITMODE
 70
     0
  9
$VISRETAIN
 70
     1
  9
$PLINEGEN
 70
     0
  9
$PSLTSCALE
 70
     0
  9
$TREEDEPTH
 70
  3020
  9
$PICKSTYLE
 70
     0
  9
$CMLSTYLE
  2
STANDARD
  9
$CMLJUST
 70
     0
  9
$CMLSCALE
 40
20.0
  9
$PROXYGRAPHICS
 70
     1
  9
$MEASUREMENT
 70
     1
  0
ENDSEC
  0
SECTION
  2
CLASSES
  0
CLASS
  1
ACDBDICTIONARYWDFLT
  2
AcDbDictionaryWithDefault
  3
AutoCAD 2000
 90
        0
280
     0
281
     0
  0
CLASS
  1
ACDBPLACEHOLDER
  2
AcDbPlaceHolder
  3
AutoCAD 2000
 90
        0
280
     0
281
     0
  0
CLASS
  1
LAYOUT
  2
AcDbLayout
  3
AutoCAD 2000
 90
        0
280
     0
281
     0
  0
CLASS
  1
AMGSETTINGSOBJ
  2
AmgSettingsObj
  3
"AcadM|Product Description: AutoCAD Mechanical 2000|Company: Autodesk"
 90
        0
280
     0
281
     0
  0
CLASS
  1
ACME_DOCUMENT
  2
AcMeDbDoc
  3
AcMeServices
 90
        0
280
     0
281
     0
  0
CLASS
  1
ACMESCOPE
  2
AcMeScope
  3
AcMeServices
 90
        0
280
     0
281
     0
  0
CLASS
  1
ACMECOMMANDHISTORY
  2
AcMeCommandHistory
  3
AcMeServices
 90
        0
280
     0
281
     0
  0
CLASS
  1
DICTIONARYVAR
  2
AcDbDictionaryVar
  3
AutoCAD 2000
 90
        0
280
     0
281
     0
  0
CLASS
  1
ACIMSYSVARMAN
  2
AcImSysVarManager
  3
AcMeServices
 90
        0
280
     0
281
     0
  0
CLASS
  1
ACIMREALSYSVAR
  2
AcImRealSysVar
  3
AcMeServices
 90
        0
280
     0
281
     0
  0
CLASS
  1
ACIMINTSYSVAR
  2
AcImIntSysVar
  3
AcMeServices
 90
        0
280
     0
281
     0
  0
CLASS
  1
ACMEDRAWINGMAN
  2
AcMeDrawingMan
  3
AcMeServices
 90
        0
280
     0
281
     0
  0
CLASS
  1
ACMEVIEW
  2
AcMeView
  3
AcMeServices
 90
        0
280
     0
281
     0
  0
CLASS
  1
ACDBENTITYCACHE
  2
AcMeEntityCache
  3
AcMeServices
 90
        0
280
     0
281
     0
  0
CLASS
  1
GSMANAGER
  2
AcMeGSManager
  3
AcMeServices
 90
        0
280
     0
281
     0
  0
CLASS
  1
AmdtInternalReactor
  2
AmdtInternalReactor
  3
AcMeServices
 90
        0
280
     0
281
     0
  0
CLASS
  1
ACMESTATEMGR
  2
AcMeStateMgr
  3
AcMeServices
 90
        0
280
     0
281
     0
  0
CLASS
  1
ACME_DATABASE
  2
AcMeDbDatabase
  3
AcMeServices
 90
        0
280
     0
281
     0
  0
CLASS
  1
ACRFINSADJUSTERMGR
  2
AcRfInsAdjusterMgr
  3
AcMeServices
 90
        0
280
     0
281
     0
  0
CLASS
  1
ACMDATADICTIONARY
  2
AcmDataDictionary
  3
"AcmSymBB|Product Description: AutoCAD Mechanical 2000|Company: Autodesk"
 90
        0
280
     0
281
     0
  0
CLASS
  1
ACMDATAENTRYBLOCK
  2
AcmDataEntryBlock
  3
"AcmSymBB|Product Description: AutoCAD Mechanical 2000|Company: Autodesk"
 90
        0
280
     0
281
     0
  0
CLASS
  1
AMGOBJPROPCFG
  2
AmgObjPropCfg
  3
"AmgLay|Product Description: AutoCAD Mechanical 2000|Company: Autodesk"
 90
        1
280
     0
281
     0
  0
CLASS
  1
ACAMGFILTERDAT
  2
AcAmgFilterDat
  3
"AcadM|Product Description: AutoCAD Mechanical 2000|Company: Autodesk"
 90
        0
280
     0
281
     0
  0
CLASS
  1
LAYER_INDEX
  2
AcDbLayerIndex
  3
AutoCAD 2000
 90
        0
280
     0
281
     0
  0
CLASS
  1
IDBUFFER
  2
AcDbIdBuffer
  3
AutoCAD 2000
 90
        0
280
     0
281
     0
  0
CLASS
  1
ACIMSTRSYSVAR
  2
AcImStrSysVar
  3
AcMeServices
 90
        0
280
     0
281
     0
  0
CLASS
  1
ACMSTANDARDJIS
  2
AcmStandardJIS
  3
"AcmSymBB|Product Description: AutoCAD Mechanical 2000|Company: Autodesk"
 90
        0
280
     0
281
     0
  0
CLASS
  1
ACMSURFSTANDARDJIS
  2
AcmSurfTextStdJIS
  3
"AcmSymBB|Product Description: AutoCAD Mechanical 2000|Company: Autodesk"
 90
        0
280
     0
281
     0
  0
CLASS
  1
ACMFCFSTANDARDJIS
  2
AcmFCFStdJIS
  3
"AcmSymBB|Product Description: AutoCAD Mechanical 2000|Company: Autodesk"
 90
        0
280
     0
281
     0
  0
CLASS
  1
ACMWELDSTANDARDJIS
  2
AcmWeldingStdJIS
  3
"AcmSymBB|Product Description: AutoCAD Mechanical 2000|Company: Autodesk"
 90
        0
280
     0
281
     0
  0
CLASS
  1
ACMIDSTANDARDJIS
  2
AcmIdStdJIS
  3
"AcmSymBB|Product Description: AutoCAD Mechanical 2000|Company: Autodesk"
 90
        0
280
     0
281
     0
  0
CLASS
  1
ACMDATUMSTANDARDJIS
  2
AcmDatumStdJIS
  3
"AcmSymBB|Product Description: AutoCAD Mechanical 2000|Company: Autodesk"
 90
        0
280
     0
281
     0
  0
CLASS
  1
ACMBOMSTANDARDJIS
  2
AcmBOMStdJIS
  3
"AcmSymBB|Product Description: AutoCAD Mechanical 2000|Company: Autodesk"
 90
        0
280
     0
281
     0
  0
CLASS
  1
ACMSTANDARDANSI
  2
AcmStandardANSI
  3
"AcmSymBB|Product Description: AutoCAD Mechanical 2000|Company: Autodesk"
 90
        0
280
     0
281
     0
  0
CLASS
  1
ACMSURFSTANDARDANSI
  2
AcmSurfTextStdANSI
  3
"AcmSymBB|Product Description: AutoCAD Mechanical 2000|Company: Autodesk"
 90
        0
280
     0
281
     0
  0
CLASS
  1
ACMFCFSTANDARDANSI
  2
AcmFCFStdANSI
  3
"AcmSymBB|Product Description: AutoCAD Mechanical 2000|Company: Autodesk"
 90
        0
280
     0
281
     0
  0
CLASS
  1
ACMWELDSTANDARDANSI
  2
AcmWeldingStdANSI
  3
"AcmSymBB|Product Description: AutoCAD Mechanical 2000|Company: Autodesk"
 90
        0
280
     0
281
     0
  0
CLASS
  1
ACMIDSTANDARDANSI
  2
AcmIdStdANSI
  3
"AcmSymBB|Product Description: AutoCAD Mechanical 2000|Company: Autodesk"
 90
        0
280
     0
281
     0
  0
CLASS
  1
ACMDATUMSTANDARDANSI
  2
AcmDatumStdANSI
  3
"AcmSymBB|Product Description: AutoCAD Mechanical 2000|Company: Autodesk"
 90
        0
280
     0
281
     0
  0
CLASS
  1
ACMBOMSTANDARDANSI
  2
AcmBOMStdANSI
  3
"AcmSymBB|Product Description: AutoCAD Mechanical 2000|Company: Autodesk"
 90
        0
280
     0
281
     0
  0
CLASS
  1
ACMSTANDARDBSI
  2
AcmStandardBSI
  3
"AcmSymBB|Product Description: AutoCAD Mechanical 2000|Company: Autodesk"
 90
        0
280
     0
281
     0
  0
CLASS
  1
ACMSURFSTANDARDBSI
  2
AcmSurfTextStdBSI
  3
"AcmSymBB|Product Description: AutoCAD Mechanical 2000|Company: Autodesk"
 90
        0
280
     0
281
     0
  0
CLASS
  1
ACMFCFSTANDARDBSI
  2
AcmFCFStdBSI
  3
"AcmSymBB|Product Description: AutoCAD Mechanical 2000|Company: Autodesk"
 90
        0
280
     0
281
     0
  0
CLASS
  1
ACMWELDSTANDARDBSI
  2
AcmWeldingStdBSI
  3
"AcmSymBB|Product Description: AutoCAD Mechanical 2000|Company: Autodesk"
 90
        0
280
     0
281
     0
  0
CLASS
  1
ACMIDSTANDARDBSI
  2
AcmIdStdBSI
  3
"AcmSymBB|Product Description: AutoCAD Mechanical 2000|Company: Autodesk"
 90
        0
280
     0
281
     0
  0
CLASS
  1
ACMDATUMSTANDARDBSI
  2
AcmDatumStdBSI
  3
"AcmSymBB|Product Description: AutoCAD Mechanical 2000|Company: Autodesk"
 90
        0
280
     0
281
     0
  0
CLASS
  1
ACMBOMSTANDARDBSI
  2
AcmBOMStdBSI
  3
"AcmSymBB|Product Description: AutoCAD Mechanical 2000|Company: Autodesk"
 90
        0
280
     0
281
     0
  0
CLASS
  1
STDPART2D
  2
AmgStdPart
  3
"AmgStdPart|Product Description: AutoCAD Mechanical 2000|Company: Autodesk"
 90
     1023
280
     0
281
     1
  0
CLASS
  1
LONG_TRANSACTION
  2
AcDbLongTransaction
  3
AutoCAD 2000
 90
        0
280
     0
281
     0
  0
CLASS
  1
LWPOLYLINE
  2
AcDbPolyline
  3
AutoCAD 2000
 90
        0
280
     0
281
     1
  0
CLASS
  1
HATCH
  2
AcDbHatch
  3
AutoCAD 2000
 90
        0
280
     0
281
     1
  0
CLASS
  1
XRECORD
  2
AcDbXrecord
  3
AutoCAD 2000
 90
        0
280
     0
281
     0
  0
ENDSEC
  0
SECTION
  2
TABLES
  0
TABLE
  2
VPORT
  5
8
330
0
100
AcDbSymbolTable
 70
     3
  0
VPORT
  5
516E
330
8
100
AcDbSymbolTableRecord
100
AcDbViewportTableRecord
  2
*ACTIVE
 70
     0
 10
0.0
 20
0.0
 11
1.0
 21
1.0
 12
-61.84937014700515
 22
-19.76050294679139
 13
0.0
 23
0.0
 14
2.5
 24
2.5
 15
10.0
 25
10.0
 16
0.0
 26
0.0
 36
1.0
 17
0.0
 27
0.0
 37
0.0
 40
117.4961038383362
 41
1.56570841889117
 42
50.0
 43
0.0
 44
0.0
 50
0.0
 51
0.0
 71
     0
 72
   100
 73
     1
 74
     3
 75
     0
 76
     0
 77
     0
 78
     0
  0
ENDTAB
  0
TABLE
  2
LTYPE
  5
5
330
0
100
AcDbSymbolTable
 70
    10
  0
LTYPE
  5
14
330
5
100
AcDbSymbolTableRecord
100
AcDbLinetypeTableRecord
  2
BYBLOCK
 70
     0
  3

 72
    65
 73
     0
 40
0.0
  0
LTYPE
  5
15
330
5
100
AcDbSymbolTableRecord
100
AcDbLinetypeTableRecord
  2
BYLAYER
 70
     0
  3

 72
    65
 73
     0
 40
0.0
  0
LTYPE
  5
16
330
5
100
AcDbSymbolTableRecord
100
AcDbLinetypeTableRecord
  2
CONTINUOUS
 70
     0
  3
Solid line
 72
    65
 73
     0
 40
0.0
  0
LTYPE
  5
4B
330
5
100
AcDbSymbolTableRecord
100
AcDbLinetypeTableRecord
  2
AM_ISO02W050
 70
     0
  3
__ __ __ __ __ __ __ __ __ __ __ __ __ __ __
 72
    65
 73
     2
 40
7.5
 49
6.0
 74
     0
 49
-1.5
 74
     0
  0
LTYPE
  5
4C
330
5
100
AcDbSymbolTableRecord
100
AcDbLinetypeTableRecord
  2
AM_ISO08W050
 70
     0
  3
____ . ____ . ____ . ____ . ____ . ____ . ____
 72
    65
 73
     4
 40
18.0
 49
12.0
 74
     0
 49
-1.5
 74
     0
 49
3.0
 74
     0
 49
-1.5
 74
     0
  0
LTYPE
  5
4D
330
5
100
AcDbSymbolTableRecord
100
AcDbLinetypeTableRecord
  2
AM_ISO09W050
 70
     0
  3
_____ . . _____ . . _____ . . ____ .. ____
 72
    65
 73
     6
 40
22.5
 49
12.0
 74
     0
 49
-1.5
 74
     0
 49
3.0
 74
     0
 49
-1.5
 74
     0
 49
3.0
 74
     0
 49
-1.5
 74
     0
  0
LTYPE
  5
4E
330
5
100
AcDbSymbolTableRecord
100
AcDbLinetypeTableRecord
  2
AMCONSTR
 70
     0
  3
_______________________
 72
    65
 73
     2
 40
9999.0
 49
9999.0
 74
     0
 49
0.0
 74
     0
  0
LTYPE
  5
4F
330
5
100
AcDbSymbolTableRecord
100
AcDbLinetypeTableRecord
  2
AM_ISO02W050X2
 70
     0
  3
 _ _ _ _ _ _ _ _ _ _ _ _
 72
    65
 73
     2
 40
3.75
 49
3.0
 74
     0
 49
-0.75
 74
     0
  0
LTYPE
  5
50
330
5
100
AcDbSymbolTableRecord
100
AcDbLinetypeTableRecord
  2
AM_ISO08W050X2
 70
     0
  3
__ . __ . __ . __ . __ . __
 72
    65
 73
     4
 40
9.0
 49
6.0
 74
     0
 49
-0.75
 74
     0
 49
1.5
 74
     0
 49
-0.75
 74
     0
  0
LTYPE
  5
53
330
5
100
AcDbSymbolTableRecord
100
AcDbLinetypeTableRecord
  2
AMZIGZAG
 70
     0
  3
/\/-/\/-/\/-/\/-/\/-/\/
 72
    65
 73
     2
 40
11.00009999999999
 49
0.0001
 74
     4
 75
   135
340
52
 46
0.04
 50
0.0
 44
0.0
 45
0.0
 49
-11.0
 74
     0
  0
LTYPE
  5
166
330
5
100
AcDbSymbolTableRecord
100
AcDbLinetypeTableRecord
  2
ACJISTGL
 70
     0
  3
_ _ _ _ _
 72
    65
 73
     2
 40
3.0
 49
2.0
 74
     0
 49
-1.0
 74
     0
  0
LTYPE
  5
26A
330
5
100
AcDbSymbolTableRecord
100
AcDbLinetypeTableRecord
  2
ACJISTGB
 70
     0
  3
__ . . __ . .
 72
    65
 73
     6
 40
9.0
 49
4.0
 74
     0
 49
-1.0
 74
     0
 49
1.0
 74
     0
 49
-1.0
 74
     0
 49
1.0
 74
     0
 49
-1.0
 74
     0
  0
ENDTAB
  0
TABLE
  2
LAYER
  5
2
330
0
100
AcDbSymbolTable
 70
     8
  0
LAYER
  5
10
330
2
100
AcDbSymbolTableRecord
100
AcDbLayerTableRecord
  2
0
 70
     0
 62
     7
  6
CONTINUOUS
  0
LAYER
  5
3F9
330
2
100
AcDbSymbolTableRecord
100
AcDbLayerTableRecord
  2
AM_0
 70
     0
 62
     7
  6
CONTINUOUS
  0
LAYER
  5
BA4
330
2
100
AcDbSymbolTableRecord
100
AcDbLayerTableRecord
  2
AM_5
 70
     0
 62
     3
  6
CONTINUOUS
  0
LAYER
  5
BA5
330
2
100
AcDbSymbolTableRecord
100
AcDbLayerTableRecord
  2
AM_11
 70
     0
 62
     3
  6
AM_ISO09W050
  0
LAYER
  5
BA6
330
2
100
AcDbSymbolTableRecord
100
AcDbLayerTableRecord
  2
AM_7
 70
     0
 62
     4
  6
AM_ISO08W050
  0
LAYER
  5
E64
330
2
100
AcDbSymbolTableRecord
100
AcDbLayerTableRecord
  2
AM_6
 70
     0
 62
     2
  6
CONTINUOUS
  0
LAYER
  5
F4D
330
2
100
AcDbSymbolTableRecord
100
AcDbLayerTableRecord
  2
DEFPOINTS
 70
     0
 62
     7
  6
CONTINUOUS
  0
LAYER
  5
2382
330
2
100
AcDbSymbolTableRecord
100
AcDbLayerTableRecord
  2
AM_3
 70
     0
 62
     6
  6
ACJISTGL
  0
ENDTAB
  0
TABLE
  2
STYLE
  5
3
330
0
100
AcDbSymbolTable
 70
     5
  0
STYLE
  5
11
330
3
100
AcDbSymbolTableRecord
100
AcDbTextStyleTableRecord
  2
STANDARD
 70
     0
 40
0.0
 41
1.0
 50
0.0
 71
     0
 42
2.5
  3
simplex.shx
  4
EXTFONT.SHX
  0
STYLE
  5
52
330
3
100
AcDbSymbolTableRecord
100
AcDbTextStyleTableRecord
  2

 70
     1
 40
0.0
 41
1.0
 50
0.0
 71
     0
 42
2.5
  3
ltypeshp.shx
  4

  0
STYLE
  5
6B
330
3
100
AcDbSymbolTableRecord
100
AcDbTextStyleTableRecord
  2
ASAMI
 70
     0
 40
0.0
 41
1.0
 50
0.0
 71
     0
 42
2.5
  3
simplex.shx
  4
EXTFONT.SHX
  0
STYLE
  5
262
330
3
100
AcDbSymbolTableRecord
100
AcDbTextStyleTableRecord
  2
ACJISTS
 70
     0
 40
1.0
 41
1.0
 50
0.0
 71
     0
 42
2.5
  3
simplex.shx
  4
bigfont.shx
  0
STYLE
  5
269
330
3
100
AcDbSymbolTableRecord
100
AcDbTextStyleTableRecord
  2
ACJISGDT
 70
     0
 40
0.0
 41
1.0
 50
0.0
 71
     0
 42
2.5
  3
amgdtans.shx
  4

  0
ENDTAB
  0
TABLE
  2
VIEW
  5
6
330
0
100
AcDbSymbolTable
 70
     0
  0
ENDTAB
  0
TABLE
  2
UCS
  5
7
330
0
100
AcDbSymbolTable
 70
     0
  0
ENDTAB
  0
TABLE
  2
APPID
  5
9
330
0
100
AcDbSymbolTable
 70
    22
  0
APPID
  5
12
330
9
100
AcDbSymbolTableRecord
100
AcDbRegAppTableRecord
  2
ACAD
 70
     0
  0
APPID
  5
30
330
9
100
AcDbSymbolTableRecord
100
AcDbRegAppTableRecord
  2
MCAD_NO_VIS
 70
     0
  0
APPID
  5
31
330
9
100
AcDbSymbolTableRecord
100
AcDbRegAppTableRecord
  2
ACAD_TEMP_GRAPHIC
 70
     0
  0
APPID
  5
2C2
330
9
100
AcDbSymbolTableRecord
100
AcDbRegAppTableRecord
  2
GENIUS_GENDTOL_13
 70
     0
  0
APPID
  5
339
330
9
100
AcDbSymbolTableRecord
100
AcDbRegAppTableRecord
  2
GENIUS_GENODEF_13
 70
     0
  0
APPID
  5
33A
330
9
100
AcDbSymbolTableRecord
100
AcDbRegAppTableRecord
  2
GENIUS_GENOBJ-N-RSBK_13
 70
     0
  0
APPID
  5
33B
330
9
100
AcDbSymbolTableRecord
100
AcDbRegAppTableRecord
  2
GENIUS_GENOBJ-N-LIB_13
 70
     0
  0
APPID
  5
33C
330
9
100
AcDbSymbolTableRecord
100
AcDbRegAppTableRecord
  2
GENIUS_GENSCALE_13
 70
     0
  0
APPID
  5
378
330
9
100
AcDbSymbolTableRecord
100
AcDbRegAppTableRecord
  2
GENIUS_GENDIMSH_14
 70
     0
  0
APPID
  5
BB0
330
9
100
AcDbSymbolTableRecord
100
AcDbRegAppTableRecord
  2
GENIUS_GENOBJ-N-CEN_13
 70
     0
  0
APPID
  5
BB1
330
9
100
AcDbSymbolTableRecord
100
AcDbRegAppTableRecord
  2
GENIUS_GENFIL_13
 70
     0
  0
APPID
  5
BB2
330
9
100
AcDbSymbolTableRecord
100
AcDbRegAppTableRecord
  2
GENIUS_GENOBJ-N-CHA_13
 70
     0
  0
APPID
  5
1FAF
330
9
100
AcDbSymbolTableRecord
100
AcDbRegAppTableRecord
  2
GENIUS_GENOBJ-N-CRS_13
 70
     0
  0
APPID
  5
1FB0
330
9
100
AcDbSymbolTableRecord
100
AcDbRegAppTableRecord
  2
GENIUS_GENOENT_13
 70
     0
  0
APPID
  5
1FB1
330
9
100
AcDbSymbolTableRecord
100
AcDbRegAppTableRecord
  2
GENIUS_GENOREF_13
 70
     0
  0
APPID
  5
1FB2
330
9
100
AcDbSymbolTableRecord
100
AcDbRegAppTableRecord
  2
GENIUS_GENOLIS_13
 70
     0
  0
APPID
  5
1FB7
330
9
100
AcDbSymbolTableRecord
100
AcDbRegAppTableRecord
  2
GENIUS_GENOBJ-N-FIL_13
 70
     0
  0
APPID
  5
22A8
330
9
100
AcDbSymbolTableRecord
100
AcDbRegAppTableRecord
  2
GEVID1056506048
 70
     0
  0
APPID
  5
22A9
330
9
100
AcDbSymbolTableRecord
100
AcDbRegAppTableRecord
  2
GEVDC
 70
     0
  0
APPID
  5
22AC
330
9
100
AcDbSymbolTableRecord
100
AcDbRegAppTableRecord
  2
GENIUS_GENBH_13
 70
     0
  0
APPID
  5
22B8
330
9
100
AcDbSymbolTableRecord
100
AcDbRegAppTableRecord
  2
GENIUS_GENOBJ-NBEHI-BHF_13
 70
     0
  0
APPID
  5
22BA
330
9
100
AcDbSymbolTableRecord
100
AcDbRegAppTableRecord
  2
GENIUS_GENOBJ-NBEHI-BHB_13
 70
     0
  0
ENDTAB
  0
TABLE
  2
DIMSTYLE
  5
A
330
0
100
AcDbSymbolTable
 70
     9
  0
DIMSTYLE
105
58
102
{ACAD_REACTORS
330
4227
330
4237
330
4244
330
46A8
102
}
330
A
100
AcDbSymbolTableRecord
100
AcDbDimStyleTableRecord
  2
AM_JIS
 70
     0
  3

  4
"
  5
OPEN30
  6

  7

 40
1.0
 41
2.5
 42
1.0
 43
12.0
 44
1.0
 45
0.0
 46
0.0
 47
0.1
 48
0.1
140
3.2
141
0.0
142
0.0
143
0.0393701
144
1.0
145
0.0
146
0.71
147
1.5
 71
     0
 72
     0
 73
     0
 74
     0
 75
     0
 76
     0
 77
     3
 78
     8
170
     0
171
     2
172
     1
173
     0
174
     0
175
     0
176
   256
177
   256
178
     2
270
     2
271
     3
272
     3
273
     2
274
     2
340
6B
275
     0
280
     0
281
     0
282
     0
283
     0
284
     0
285
     0
286
     0
287
     3
288
     0
  0
DIMSTYLE
105
5F
330
A
100
AcDbSymbolTableRecord
100
AcDbDimStyleTableRecord
  2
AM_JIS$3
 70
     0
  3

  4
"
  5
OPEN30
  6

  7

 40
1.0
 41
2.5
 42
1.0
 43
10.0
 44
1.0
 45
0.0
 46
0.0
 47
0.1
 48
0.1
140
3.2
141
0.0
142
0.0
143
0.0393701
144
1.0
145
0.0
146
0.71
147
1.5
 71
     0
 72
     0
 73
     0
 74
     1
 75
     0
 76
     0
 77
     3
 78
     8
170
     0
171
     2
172
     0
173
     0
174
     0
175
     0
176
   256
177
   256
178
     2
270
     2
271
     2
272
     3
273
     2
274
     2
340
6B
275
     0
280
     0
281
     0
282
     0
283
     0
284
     0
285
     0
286
     0
287
     0
288
     1
  0
DIMSTYLE
105
60
330
A
100
AcDbSymbolTableRecord
100
AcDbDimStyleTableRecord
  2
AM_JIS$4
 70
     0
  3

  4
"
  5
OPEN30
  6

  7

 40
1.0
 41
2.5
 42
1.0
 43
10.0
 44
1.0
 45
0.0
 46
0.0
 47
0.1
 48
0.1
140
3.2
141
0.0
142
0.0
143
0.0393701
144
1.0
145
0.0
146
0.71
147
1.5
 71
     0
 72
     0
 73
     0
 74
     1
 75
     0
 76
     0
 77
     3
 78
     8
170
     0
171
     2
172
     0
173
     0
174
     0
175
     0
176
   256
177
   256
178
     2
270
     2
271
     2
272
     3
273
     2
274
     2
340
6B
275
     0
280
     0
281
     0
282
     0
283
     0
284
     0
285
     0
286
     0
287
     0
288
     1
  0
DIMSTYLE
105
61
330
A
100
AcDbSymbolTableRecord
100
AcDbDimStyleTableRecord
  2
AM_JIS$6
 70
     0
  3

  4
"
  5
OPEN30
  6

  7

 40
1.0
 41
2.5
 42
1.0
 43
10.0
 44
1.0
 45
0.0
 46
0.0
 47
0.1
 48
0.1
140
3.2
141
0.0
142
0.0
143
0.0393701
144
1.0
145
0.0
146
0.71
147
1.5
 71
     0
 72
     0
 73
     0
 74
     0
 75
     0
 76
     0
 77
     0
 78
     8
170
     0
171
     2
172
     1
173
     0
174
     0
175
     0
176
   256
177
   256
178
     2
270
     2
271
     2
272
     2
273
     2
274
     2
340
6B
275
     0
280
     0
281
     0
282
     0
283
     0
284
     0
285
     0
286
     0
287
     3
288
     0
  0
DIMSTYLE
105
62
330
A
100
AcDbSymbolTableRecord
100
AcDbDimStyleTableRecord
  2
AM_JIS$7
 70
     0
  3

  4
"
  5
OPEN30
  6

  7

 40
1.0
 41
2.5
 42
1.0
 43
10.0
 44
1.0
 45
0.0
 46
0.0
 47
0.1
 48
0.1
140
3.2
141
0.0
142
0.0
143
0.0393701
144
1.0
145
0.0
146
0.71
147
1.5
 71
     0
 72
     0
 73
     0
 74
     0
 75
     0
 76
     0
 77
     3
 78
     8
170
     0
171
     2
172
     1
173
     0
174
     0
175
     0
176
   256
177
   256
178
     2
270
     2
271
     2
272
     3
273
     2
274
     2
340
6B
275
     0
280
     0
281
     0
282
     0
283
     0
284
     0
285
     0
286
     0
287
     3
288
     0
  0
DIMSTYLE
105
63
330
A
100
AcDbSymbolTableRecord
100
AcDbDimStyleTableRecord
  2
AM_JIS$SF
 70
     0
  3

  4
"
  5
OPEN30
  6

  7

 40
1.0
 41
2.5
 42
1.0
 43
10.0
 44
1.0
 45
0.0
 46
0.0
 47
0.1
 48
0.1
140
3.2
141
0.0
142
0.0
143
0.0393701
144
1.0
145
0.0
146
0.71
147
1.5
 71
     0
 72
     0
 73
     0
 74
     0
 75
     1
 76
     1
 77
     3
 78
     8
170
     0
171
     2
172
     1
173
     0
174
     0
175
     0
176
   256
177
   256
178
     2
270
     2
271
     2
272
     2
273
     2
274
     2
340
6B
275
     0
280
     0
281
     0
282
     0
283
     0
284
     0
285
     0
286
     0
287
     3
288
     0
  0
DIMSTYLE
105
68
330
A
100
AcDbSymbolTableRecord
100
AcDbDimStyleTableRecord
  2
AM_JIS$SH
 70
     0
  3

  4
"
  5

  6
GENAXEH
  7
OPEN30
 40
1.0
 41
2.5
 42
1.0
 43
10.0
 44
1.0
 45
0.0
 46
0.0
 47
0.1
 48
0.1
140
3.2
141
0.0
142
0.0
143
0.0393701
144
2.0
145
0.0
146
0.71
147
1.5
 71
     0
 72
     0
 73
     0
 74
     0
 75
     1
 76
     1
 77
     3
 78
     8
170
     0
171
     2
172
     1
173
     1
174
     0
175
     0
176
   256
177
   256
178
     2
270
     2
271
     2
272
     2
273
     2
274
     2
340
6B
275
     0
280
     0
281
     0
282
     0
283
     0
284
     0
285
     0
286
     0
287
     3
288
     0
  0
DIMSTYLE
105
B34
330
A
100
AcDbSymbolTableRecord
100
AcDbDimStyleTableRecord
  2
AM_JIS$2
 70
     0
  3

  4
"
  5
OPEN30
  6

  7

 40
1.0
 41
2.5
 42
1.0
 43
12.0
 44
1.0
 45
0.0
 46
0.0
 47
0.1
 48
0.1
140
3.2
141
0.0
142
0.0
143
0.0393701
144
1.0
145
0.0
146
0.71
147
1.5
 71
     0
 72
     0
 73
     0
 74
     0
 75
     0
 76
     0
 77
     3
 78
     8
170
     0
171
     2
172
     1
173
     0
174
     0
175
     0
176
   256
177
   256
178
     2
270
     2
271
     3
272
     3
273
     2
274
     2
340
6B
275
     0
280
     0
281
     0
282
     0
283
     0
284
     0
285
     0
286
     0
287
     3
288
     0
  0
DIMSTYLE
105
4CE3
102
{ACAD_REACTORS
330
4D1E
102
}
330
A
100
AcDbSymbolTableRecord
100
AcDbDimStyleTableRecord
  2
AM_JIS$0
 70
     0
  3

  4
"
  5
OPEN30
  6

  7

 40
1.0
 41
2.5
 42
0.0
 43
10.0
 44
1.0
 45
0.0
 46
0.0
 47
0.1
 48
0.1000000001
140
3.799999999999999
141
0.0
142
0.0
143
0.0393701
144
1.0
145
0.0
146
0.71
147
1.5
 71
     0
 72
     0
 73
     0
 74
     0
 75
     0
 76
     0
 77
     3
 78
     1
170
     0
171
     2
172
     1
173
     0
174
     0
175
     0
176
     3
177
     3
178
     2
270
     2
271
     2
272
     2
273
     2
274
     2
340
11
275
     1
280
     0
281
     0
282
     0
283
     0
284
     8
285
     0
286
     0
287
     0
288
     0
  0
ENDTAB
  0
TABLE
  2
BLOCK_RECORD
  5
1
330
0
100
AcDbSymbolTable
 70
    11
  0
BLOCK_RECORD
  5
1F
102
{ACAD_XDICTIONARY
360
74
102
}
330
1
100
AcDbSymbolTableRecord
100
AcDbBlockTableRecord
  2
*MODEL_SPACE
  0
BLOCK_RECORD
  5
101
102
{ACAD_XDICTIONARY
360
5197
102
}
330
1
100
AcDbSymbolTableRecord
100
AcDbBlockTableRecord
  2
*PAPER_SPACE
  0
BLOCK_RECORD
  5
59
330
1
100
AcDbSymbolTableRecord
100
AcDbBlockTableRecord
  2
_OPEN30
  0
BLOCK_RECORD
  5
64
330
1
100
AcDbSymbolTableRecord
100
AcDbBlockTableRecord
  2
GENAXEH
  0
BLOCK_RECORD
  5
4228
330
1
100
AcDbSymbolTableRecord
100
AcDbBlockTableRecord
  2
*D5
  0
BLOCK_RECORD
  5
4238
330
1
100
AcDbSymbolTableRecord
100
AcDbBlockTableRecord
  2
*D6
  0
BLOCK_RECORD
  5
4245
330
1
100
AcDbSymbolTableRecord
100
AcDbBlockTableRecord
  2
*D7
  0
BLOCK_RECORD
  5
46A9
330
1
100
AcDbSymbolTableRecord
100
AcDbBlockTableRecord
  2
*D8
  0
BLOCK_RECORD
  5
4D1F
330
1
100
AcDbSymbolTableRecord
100
AcDbBlockTableRecord
  2
*D9
  0
ENDTAB
  0
ENDSEC
  0
SECTION
  2
BLOCKS
  0
BLOCK
  5
20
330
1F
100
AcDbEntity
  8
0
100
AcDbBlockBegin
  2
*MODEL_SPACE
 70
     0
 10
0.0
 20
0.0
 30
0.0
  3
*MODEL_SPACE
  1

  0
ENDBLK
  5
21
330
1F
100
AcDbEntity
  8
0
100
AcDbBlockEnd
  0
BLOCK
  5
103
330
101
100
AcDbEntity
 67
     1
  8
0
100
AcDbBlockBegin
  2
*PAPER_SPACE
 70
     0
 10
0.0
 20
0.0
 30
0.0
  3
*PAPER_SPACE
  1

  0
ENDBLK
  5
104
330
101
100
AcDbEntity
 67
     1
  8
0
100
AcDbBlockEnd
  0
BLOCK
  5
5D
330
59
100
AcDbEntity
  8
0
100
AcDbBlockBegin
  2
_OPEN30
 70
     0
 10
0.0
 20
0.0
 30
0.0
  3
_OPEN30
  1

  0
LINE
  5
5A
330
59
100
AcDbEntity
  8
0
 62
     0
100
AcDbLine
 10
-1.0
 20
0.26794919
 30
0.0
 11
0.0
 21
0.0
 31
0.0
  0
LINE
  5
5B
330
59
100
AcDbEntity
  8
0
 62
     0
100
AcDbLine
 10
0.0
 20
0.0
 30
0.0
 11
-1.0
 21
-0.26794919
 31
0.0
  0
LINE
  5
5C
330
59
100
AcDbEntity
  8
0
 62
     0
100
AcDbLine
 10
0.0
 20
0.0
 30
0.0
 11
-1.0
 21
0.0
 31
0.0
  0
ENDBLK
  5
5E
330
59
100
AcDbEntity
  8
0
100
AcDbBlockEnd
  0
BLOCK
  5
66
330
64
100
AcDbEntity
  8
0
100
AcDbBlockBegin
  2
GENAXEH
 70
     0
 10
0.0
 20
0.0
 30
0.0
  3
GENAXEH
  1

  0
LINE
  5
65
330
64
100
AcDbEntity
  8
0
100
AcDbLine
 10
-1.0
 20
0.0
 30
0.0
 11
1.0
 21
0.0
 31
0.0
  0
ENDBLK
  5
67
330
64
100
AcDbEntity
  8
0
100
AcDbBlockEnd
  0
BLOCK
  5
4232
330
4228
100
AcDbEntity
  8
0
100
AcDbBlockBegin
  2
*D5
 70
     1
 10
0.0
 20
0.0
 30
0.0
  3
*D5
  1

  0
LINE
  5
4E67
330
4228
100
AcDbEntity
  8
AM_5
100
AcDbLine
 10
-120.0000000000002
 20
-16.00000000000046
 30
0.0
 11
-135.0000000000002
 21
-16.00000000000051
 31
0.0
  0
LINE
  5
4E68
330
4228
100
AcDbEntity
  8
AM_5
100
AcDbLine
 10
-120.0000000000003
 20
15.99999999999954
 30
0.0
 11
-135.0000000000003
 21
15.99999999999949
 31
0.0
  0
LINE
  5
4E69
330
4228
100
AcDbEntity
  8
AM_5
100
AcDbLine
 10
-134.0000000000002
 20
-13.50000000000051
 30
0.0
 11
-134.0000000000003
 21
13.49999999999949
 31
0.0
  0
INSERT
  5
4E6A
330
4228
100
AcDbEntity
  8
AM_5
100
AcDbBlockReference
  2
_OPEN30
 10
-134.0000000000002
 20
-16.00000000000051
 30
0.0
 41
2.5
 42
2.5
 43
2.5
 50
270.0000000000002
  0
INSERT
  5
4E6B
330
4228
100
AcDbEntity
  8
AM_5
100
AcDbBlockReference
  2
_OPEN30
 10
-134.0000000000003
 20
15.99999999999949
 30
0.0
 41
2.5
 42
2.5
 43
2.5
 50
90.00000000000019
  0
MTEXT
  5
4E6C
330
4228
100
AcDbEntity
  8
AM_5
 62
     2
100
AcDbMText
 10
-137.1000000000002
 20
-0.0000000000005449
 30
0.0
 40
3.2
 41
0.0
 71
     5
 72
     1
  1
%%c32
  7
ASAMI
 11
-0.0000000000000037
 21
1.0
 31
0.0
1001
ACAD
1000
MTEXTBEGIN
1070
    73
1070
     1
1070
    44
1040
1.0
1070
    74
1070
     0
1000
MTEXTEND
  0
POINT
  5
4E6D
330
4228
100
AcDbEntity
  8
DEFPOINTS
 62
     0
100
AcDbPoint
 10
-119.0000000000002
 20
-16.00000000000001
 30
0.0
  0
POINT
  5
4E6E
330
4228
100
AcDbEntity
  8
DEFPOINTS
 62
     0
100
AcDbPoint
 10
-119.0000000000002
 20
15.99999999999999
 30
0.0
  0
POINT
  5
4E6F
330
4228
100
AcDbEntity
  8
DEFPOINTS
 62
     0
100
AcDbPoint
 10
-134.0000000000002
 20
16.0
 30
0.0
  0
ENDBLK
  5
4233
330
4228
100
AcDbEntity
  8
0
100
AcDbBlockEnd
  0
BLOCK
  5
4242
330
4238
100
AcDbEntity
  8
0
100
AcDbBlockBegin
  2
*D6
 70
     1
 10
0.0
 20
0.0
 30
0.0
  3
*D6
  1

  0
LINE
  5
5140
330
4238
100
AcDbEntity
  8
AM_5
100
AcDbLine
 10
-120.0000000000002
 20
-15.3333333333338
 30
0.0
 11
-120.0000000000001
 21
-46.50000000000054
 31
0.0
  0
LINE
  5
5141
330
4238
100
AcDbEntity
  8
AM_5
100
AcDbLine
 10
-40.00000000000017
 20
-28.00000000000024
 30
0.0
 11
-40.0000000000001
 21
-46.50000000000024
 31
0.0
  0
LINE
  5
5142
330
4238
100
AcDbEntity
  8
AM_5
100
AcDbLine
 10
-117.5
 20
-45.50000000000054
 30
0.0
 11
-42.50000000000011
 21
-45.50000000000025
 31
0.0
  0
INSERT
  5
5143
330
4238
100
AcDbEntity
  8
AM_5
100
AcDbBlockReference
  2
_OPEN30
 10
-120.0000000000001
 20
-45.50000000000054
 30
0.0
 41
2.5
 42
2.5
 43
2.5
 50
180.0000000000002
  0
INSERT
  5
5144
330
4238
100
AcDbEntity
  8
AM_5
100
AcDbBlockReference
  2
_OPEN30
 10
-40.00000000000011
 20
-45.50000000000024
 30
0.0
 41
2.5
 42
2.5
 43
2.5
 50
0.0000000000002036
  0
MTEXT
  5
5145
330
4238
100
AcDbEntity
  8
AM_5
 62
     2
100
AcDbMText
 10
-80.00000000000012
 20
-42.4000000000004
 30
0.0
 40
3.2
 41
0.0
 71
     5
 72
     1
  1
80
  7
ASAMI
1001
ACAD
1000
MTEXTBEGIN
1070
    73
1070
     1
1070
    44
1040
1.0
1070
    74
1070
     0
1000
MTEXTEND
  0
POINT
  5
5146
330
4238
100
AcDbEntity
  8
DEFPOINTS
 62
     0
100
AcDbPoint
 10
-120.0000000000002
 20
-14.33333333333334
 30
0.0
  0
POINT
  5
5147
330
4238
100
AcDbEntity
  8
DEFPOINTS
 62
     0
100
AcDbPoint
 10
-40.00000000000028
 20
-27.00000000000009
 30
0.0
  0
POINT
  5
5148
330
4238
100
AcDbEntity
  8
DEFPOINTS
 62
     0
100
AcDbPoint
 10
-40.00000000000028
 20
-45.50000000000009
 30
0.0
  0
ENDBLK
  5
4243
330
4238
100
AcDbEntity
  8
0
100
AcDbBlockEnd
  0
BLOCK
  5
424F
330
4245
100
AcDbEntity
  8
0
100
AcDbBlockBegin
  2
*D7
 70
     1
 10
0.0
 20
0.0
 30
0.0
  3
*D7
  1

  0
LINE
  5
4E4B
330
4245
100
AcDbEntity
  8
AM_5
100
AcDbLine
 10
-120.0000000000002
 20
-15.3333333333338
 30
0.0
 11
-120.0
 21
-56.50000000000061
 31
0.0
  0
LINE
  5
4E4C
330
4245
100
AcDbEntity
  8
AM_5
100
AcDbLine
 10
-0.0000000000001933
 20
-32.50000000000011
 30
0.0
 11
-0.0000000000001036
 21
-56.50000000000016
 31
0.0
  0
LINE
  5
4E4D
330
4245
100
AcDbEntity
  8
AM_5
100
AcDbLine
 10
-117.5
 20
-55.50000000000061
 30
0.0
 11
-2.500000000000107
 21
-55.50000000000016
 31
0.0
  0
INSERT
  5
4E4E
330
4245
100
AcDbEntity
  8
AM_5
100
AcDbBlockReference
  2
_OPEN30
 10
-120.0
 20
-55.50000000000061
 30
0.0
 41
2.5
 42
2.5
 43
2.5
 50
180.0000000000002
  0
INSERT
  5
4E4F
330
4245
100
AcDbEntity
  8
AM_5
100
AcDbBlockReference
  2
_OPEN30
 10
-0.0000000000001073
 20
-55.50000000000015
 30
0.0
 41
2.5
 42
2.5
 43
2.5
 50
0.0000000000002036
  0
MTEXT
  5
4E50
330
4245
100
AcDbEntity
  8
AM_5
 62
     2
100
AcDbMText
 10
-60.00000000000009
 20
-52.40000000000038
 30
0.0
 40
3.2
 41
0.0
 71
     5
 72
     1
  1
120
  7
ASAMI
1001
ACAD
1000
MTEXTBEGIN
1070
    73
1070
     1
1070
    44
1040
1.0
1070
    74
1070
     0
1000
MTEXTEND
  0
POINT
  5
4E51
330
4245
100
AcDbEntity
  8
DEFPOINTS
 62
     0
100
AcDbPoint
 10
-120.0000000000002
 20
-14.33333333333334
 30
0.0
  0
POINT
  5
4E52
330
4245
100
AcDbEntity
  8
DEFPOINTS
 62
     0
100
AcDbPoint
 10
-0.0000000000003166
 20
-31.50000000000011
 30
0.0
  0
POINT
  5
4E53
330
4245
100
AcDbEntity
  8
DEFPOINTS
 62
     0
100
AcDbPoint
 10
-0.0000000000003181
 20
-55.50000000000015
 30
0.0
  0
ENDBLK
  5
4250
330
4245
100
AcDbEntity
  8
0
100
AcDbBlockEnd
  0
BLOCK
  5
46B3
330
46A9
100
AcDbEntity
  8
0
100
AcDbBlockBegin
  2
*D8
 70
     1
 10
0.0
 20
0.0
 30
0.0
  3
*D8
  1

  0
LINE
  5
4E71
330
46A9
100
AcDbEntity
  8
AM_5
100
AcDbLine
 10
0.9999999999997209
 20
31.49999999999987
 30
0.0
 11
14.99999999999973
 21
31.49999999999989
 31
0.0
  0
LINE
  5
4E72
330
46A9
100
AcDbEntity
  8
AM_5
100
AcDbLine
 10
0.9999999999997532
 20
-31.50000000000011
 30
0.0
 11
14.99999999999985
 21
-31.50000000000009
 31
0.0
  0
LINE
  5
4E73
330
46A9
100
AcDbEntity
  8
AM_5
100
AcDbLine
 10
13.99999999999973
 20
28.99999999999989
 30
0.0
 11
13.99999999999985
 21
-29.00000000000009
 31
0.0
  0
INSERT
  5
4E74
330
46A9
100
AcDbEntity
  8
AM_5
100
AcDbBlockReference
  2
_OPEN30
 10
13.99999999999973
 20
31.49999999999989
 30
0.0
 41
2.5
 42
2.5
 43
2.5
 50
90.0000000000001
  0
INSERT
  5
4E75
330
46A9
100
AcDbEntity
  8
AM_5
100
AcDbBlockReference
  2
_OPEN30
 10
13.99999999999986
 20
-31.50000000000009
 30
0.0
 41
2.5
 42
2.5
 43
2.5
 50
270.0000000000001
  0
MTEXT
  5
4E76
330
46A9
100
AcDbEntity
  8
AM_5
 62
     2
100
AcDbMText
 10
10.89999999999979
 20
-0.0000000000001028
 30
0.0
 40
3.2
 41
0.0
 71
     5
 72
     1
  1
%%c63
  7
ASAMI
 11
-0.000000000000002
 21
1.0
 31
0.0
1001
ACAD
1000
MTEXTBEGIN
1070
    73
1070
     1
1070
    44
1040
1.0
1070
    74
1070
     0
1000
MTEXTEND
  0
POINT
  5
4E77
330
46A9
100
AcDbEntity
  8
DEFPOINTS
 62
     0
100
AcDbPoint
 10
-0.0000000000002092
 20
31.49999999999987
 30
0.0
  0
POINT
  5
4E78
330
46A9
100
AcDbEntity
  8
DEFPOINTS
 62
     0
100
AcDbPoint
 10
-0.0000000000003166
 20
-31.50000000000011
 30
0.0
  0
POINT
  5
4E79
330
46A9
100
AcDbEntity
  8
DEFPOINTS
 62
     0
100
AcDbPoint
 10
13.99999999999979
 20
-31.50000000000012
 30
0.0
  0
ENDBLK
  5
46B4
330
46A9
100
AcDbEntity
  8
0
100
AcDbBlockEnd
  0
BLOCK
  5
4D29
330
4D1F
100
AcDbEntity
  8
0
100
AcDbBlockBegin
  2
*D9
 70
     1
 10
0.0
 20
0.0
 30
0.0
  3
*D9
  1

  0
LINE
  5
4ED0
330
4D1F
100
AcDbEntity
  8
AM_5
 62
     3
100
AcDbLine
 10
-40.00000000000023
 20
-26.95000000000016
 30
0.0
 11
-40.0000000000002
 21
-46.50000000000008
 31
0.0
  0
LINE
  5
4ED1
330
4D1F
100
AcDbEntity
  8
AM_5
 62
     3
100
AcDbLine
 10
-0.0000000000001147
 20
-31.50000000000013
 30
0.0
 11
-0.0000000000000853
 21
-46.5
 31
0.0
  0
LINE
  5
4ED2
330
4D1F
100
AcDbEntity
  8
AM_5
 62
     3
100
AcDbLine
 10
-37.50000000000019
 20
-45.50000000000007
 30
0.0
 11
-2.500000000000087
 21
-45.5
 31
0.0
  0
INSERT
  5
4ED3
330
4D1F
100
AcDbEntity
  8
AM_5
 62
     3
100
AcDbBlockReference
  2
_OPEN30
 10
-40.0000000000002
 20
-45.50000000000007
 30
0.0
 41
2.5
 42
2.5
 43
2.5
 50
180.0000000000001
  0
INSERT
  5
4ED4
330
4D1F
100
AcDbEntity
  8
AM_5
 62
     3
100
AcDbBlockReference
  2
_OPEN30
 10
-0.0000000000000873
 20
-45.49999999999999
 30
0.0
 41
2.5
 42
2.5
 43
2.5
 50
0.0000000000001018
  0
MTEXT
  5
4ED5
330
4D1F
100
AcDbEntity
  8
AM_5
 62
     2
100
AcDbMText
 10
-20.00000000000015
 20
-42.10000000000004
 30
0.0
 40
3.799999999999999
 41
0.0
 71
     5
 72
     1
  1
40
1001
ACAD
1000
MTEXTBEGIN
1070
    73
1070
     1
1070
    44
1040
1.0
1070
    74
1070
     0
1000
MTEXTEND
  0
POINT
  5
4ED6
330
4D1F
100
AcDbEntity
  8
DEFPOINTS
 62
     0
100
AcDbPoint
 10
-40.00000000000029
 20
-26.95000000000007
 30
0.0
  0
POINT
  5
4ED7
330
4D1F
100
AcDbEntity
  8
DEFPOINTS
 62
     0
100
AcDbPoint
 10
-0.0000000000001784
 20
-31.50000000000013
 30
0.0
  0
POINT
  5
4ED8
330
4D1F
100
AcDbEntity
  8
DEFPOINTS
 62
     0
100
AcDbPoint
 10
-0.0000000000001792
 20
-45.49999999999999
 30
0.0
  0
ENDBLK
  5
4D2A
330
4D1F
100
AcDbEntity
  8
0
100
AcDbBlockEnd
  0
ENDSEC
  0
SECTION
  2
ENTITIES
  0
TEXT
  5
E65
330
1F
100
AcDbEntity
  8
AM_6
100
AcDbText
 10
-78.5714285714286
 20
-78.00000000000038
 30
0.0
 40
5.0
  1
CHE4063R
 72
     4
 11
-60.00000000000002
 21
-75.50000000000038
 31
0.0
100
AcDbText
  0
POINT
  5
22B9
330
1F
100
AcDbEntity
  8
0
 60
     1
100
AcDbPoint
 10
0.0
 20
0.0
 30
0.0
1001
GENIUS_GENOBJ-NBEHI-BHB_13
1002
{
1000
OWNER
1000
GENBEHI
1002
}
1001
GENIUS_GENOENT_13
1002
{
1000
MYREF
1005
22B9
1002
}
1002
{
1000
GRP
1005
0
1002
}
1001
GENIUS_GENOLIS_13
1002
{
1000
ENT
1005
202B
1005
22A0
1002
}
1001
GENIUS_GENBH_13
1002
{
1000
FGO
1005
22B7
1002
}
1001
GENIUS_GENODEF_13
1002
{
1000
HIER
1070
     1
1002
}
1002
{
1000
MANEDIT
1070
     1
1002
}
1002
{
1000
NOSEL
1070
     1
1002
}
1002
{
1000
BEHIND
1070
     0
1002
}
1002
{
1000
REACTOR
1002
}
1002
{
1000
OTHER
1070
     1
1002
}
  0
POINT
  5
22EE
330
1F
100
AcDbEntity
  8
0
 60
     1
100
AcDbPoint
 10
48.69120841332719
 20
0.0000000000000995
 30
0.0
1001
GENIUS_GENOBJ-NBEHI-BHB_13
1002
{
1000
OWNER
1000
GENBEHI
1002
}
1001
GENIUS_GENOENT_13
1002
{
1000
MYREF
1005
22EE
1002
}
1002
{
1000
GRP
1005
0
1002
}
1001
GENIUS_GENOLIS_13
1002
{
1000
ENT
1005
22DF
1005
22A0
1002
}
1001
GENIUS_GENBH_13
1002
{
1000
FGO
1005
22ED
1002
}
1001
GENIUS_GENODEF_13
1002
{
1000
HIER
1070
     1
1002
}
1002
{
1000
MANEDIT
1070
     1
1002
}
1002
{
1000
NOSEL
1070
     1
1002
}
1002
{
1000
BEHIND
1070
     0
1002
}
1002
{
1000
REACTOR
1002
}
1002
{
1000
OTHER
1070
     1
1002
}
  0
POINT
  5
2FC5
330
1F
100
AcDbEntity
  8
0
 60
     1
100
AcDbPoint
 10
66.68948384583128
 20
-34.14755652543707
 30
0.0
1001
GENIUS_GENOBJ-N-CRS_13
1002
{
1000
OWNER
1000
GEN
1002
}
1001
GENIUS_GENOENT_13
1002
{
1000
MYREF
1005
2FC5
1002
}
1002
{
1000
GRP
1005
0
1002
}
1001
GENIUS_GENOLIS_13
1002
{
1000
ENT
1005
2FC2
1005
2FB5
1005
2F9B
1005
2FB9
1002
}
1001
GENIUS_GENODEF_13
1002
{
1000
HIER
1070
    10
1002
}
1002
{
1000
MANEDIT
1070
     1
1002
}
1002
{
1000
NOSEL
1070
     0
1002
}
1002
{
1000
BEHIND
1070
     0
1002
}
1002
{
1000
REACTOR
1002
}
  0
LINE
  5
4223
330
1F
100
AcDbEntity
  8
AM_0
100
AcDbLine
 10
-120.0000000000002
 20
14.33333333333336
 30
0.0
 11
-119.0000000000002
 21
16.00000000000002
 31
0.0
1001
GENIUS_GENFIL_13
1070
     0
1040
1.0
1040
1.0
1040
20.0
1040
0.0
1002
{
1002
}
1001
GENIUS_GENODEF_13
1002
{
1000
HIER
1070
     0
1002
}
1002
{
1000
MANEDIT
1070
     0
1002
}
1002
{
1000
NOSEL
1070
     0
1002
}
1002
{
1000
BEHIND
1070
     0
1002
}
1002
{
1000
REACTOR
1002
}
1001
GENIUS_GENOBJ-N-CHA_13
1002
{
1000
OWNER
1000
GEN
1002
}
  0
LINE
  5
4224
330
1F
100
AcDbEntity
  8
AM_0
100
AcDbLine
 10
-119.0000000000002
 20
-16.00000000000001
 30
0.0
 11
-120.0000000000002
 21
-14.33333333333334
 31
0.0
1001
GENIUS_GENFIL_13
1070
     0
1040
1.0
1040
1.0
1040
20.0
1040
0.0
1002
{
1002
}
1001
GENIUS_GENODEF_13
1002
{
1000
HIER
1070
     0
1002
}
1002
{
1000
MANEDIT
1070
     0
1002
}
1002
{
1000
NOSEL
1070
     0
1002
}
1002
{
1000
BEHIND
1070
     0
1002
}
1002
{
1000
REACTOR
1002
}
1001
GENIUS_GENOBJ-N-CHA_13
1002
{
1000
OWNER
1000
GEN
1002
}
  0
LINE
  5
4225
330
1F
100
AcDbEntity
  8
AM_0
100
AcDbLine
 10
-120.0000000000002
 20
-14.33333333333335
 30
0.0
 11
-120.0000000000002
 21
14.33333333333336
 31
0.0
  0
LINE
  5
4226
330
1F
100
AcDbEntity
  8
AM_0
100
AcDbLine
 10
-119.0000000000002
 20
-16.00000000000001
 30
0.0
 11
-119.0000000000002
 21
-0.0000000000000087
 31
0.0
  0
DIMENSION
  5
4227
330
1F
100
AcDbEntity
  8
AM_5
100
AcDbDimension
  2
*D5
 10
-134.0000000000002
 20
16.0
 30
0.0
 11
-137.1000000000002
 21
-0.0000000000000243
 31
0.0
 70
    32
  1
%%c<>
 51
359.9999999999997
  3
AM_JIS
100
AcDbAlignedDimension
 13
-119.0000000000002
 23
-16.00000000000001
 33
0.0
 14
-119.0000000000002
 24
15.99999999999999
 34
0.0
 50
270.0
100
AcDbRotatedDimension
1001
GENIUS_GENDTOL_13
1000

1000
h7
1000

1040
0.0
  0
LINE
  5
4234
330
1F
100
AcDbEntity
  8
AM_0
100
AcDbLine
 10
-43.20000000000019
 20
-16.00000000000006
 30
0.0
 11
-119.0000000000002
 21
-15.99999999999999
 31
0.0
  0
LINE
  5
4235
330
1F
100
AcDbEntity
  8
AM_0
100
AcDbLine
 10
-119.0000000000002
 20
15.99999999999999
 30
0.0
 11
-43.20000000000025
 21
16.00000000000011
 31
0.0
  0
LINE
  5
4236
330
1F
100
AcDbEntity
  8
AM_7
100
AcDbLine
 10
2.808173019111507
 20
-0.0000000000001213
 30
0.0
 11
-123.6808702898439
 21
-0.0000000000000044
 31
0.0
1001
GENIUS_GENODEF_13
1002
{
1000
HIER
1070
     0
1002
}
1002
{
1000
MANEDIT
1070
     0
1002
}
1002
{
1000
NOSEL
1070
     0
1002
}
1002
{
1000
BEHIND
1070
     0
1002
}
1002
{
1000
REACTOR
1002
}
1001
GENIUS_GENOBJ-N-CEN_13
1002
{
1000
OWNER
1000
GEN
1002
}
  0
DIMENSION
  5
4237
330
1F
100
AcDbEntity
  8
AM_5
100
AcDbDimension
  2
*D6
 10
-40.00000000000028
 20
-45.50000000000009
 30
0.0
 11
-80.00000000000028
 21
-42.40000000000009
 31
0.0
 70
    32
  1
<>
 51
359.9999999999997
  3
AM_JIS
100
AcDbAlignedDimension
 13
-120.0000000000002
 23
-14.33333333333334
 33
0.0
 14
-40.00000000000028
 24
-27.00000000000009
 34
0.0
100
AcDbRotatedDimension
1001
GENIUS_GENDTOL_13
1000

1000
h7
1000

1040
0.0
  0
DIMENSION
  5
4244
330
1F
100
AcDbEntity
  8
AM_5
100
AcDbDimension
  2
*D7
 10
-0.0000000000003181
 20
-55.50000000000015
 30
0.0
 11
-60.00000000000029
 21
-52.40000000000016
 31
0.0
 70
    32
  1
<>
 51
359.9999999999997
  3
AM_JIS
100
AcDbAlignedDimension
 13
-120.0000000000002
 23
-14.33333333333334
 33
0.0
 14
-0.0000000000003166
 24
-31.50000000000011
 34
0.0
100
AcDbRotatedDimension
1001
GENIUS_GENDTOL_13
1000

1000
h7
1000

1040
0.0
  0
LINE
  5
45C6
330
1F
100
AcDbEntity
  8
AM_11
100
AcDbLine
 10
-0.0000000000003166
 20
-31.50000000000011
 30
0.0
 11
-0.0000000000002092
 21
31.49999999999988
 31
0.0
  0
DIMENSION
  5
46A8
330
1F
100
AcDbEntity
  8
AM_5
100
AcDbDimension
  2
*D8
 10
13.99999999999979
 20
-31.50000000000012
 30
0.0
 11
10.89999999999979
 21
-0.0000000000001248
 31
0.0
 70
    32
  1
%%c<>
 51
359.9999999999998
  3
AM_JIS
100
AcDbAlignedDimension
 13
-0.0000000000002092
 23
31.49999999999987
 33
0.0
 14
-0.0000000000003166
 24
-31.50000000000011
 34
0.0
 50
90.0000000000001
100
AcDbRotatedDimension
  0
LINE
  5
4A8A
330
1F
100
AcDbEntity
  8
AM_0
100
AcDbLine
 10
-42.85000000000024
 20
15.65000000000011
 30
0.0
 11
-40.35000000000025
 21
15.64999999999992
 31
0.0
  0
LINE
  5
4A8F
330
1F
100
AcDbEntity
  8
AM_0
100
AcDbLine
 10
-43.00000000000024
 20
16.00000000000011
 30
0.0
 11
-43.00000000000024
 21
16.00000000000011
 31
0.0
  0
LINE
  5
4A9C
330
1F
100
AcDbEntity
  8
AM_0
100
AcDbLine
 10
-43.20000000000018
 20
-15.99999999999984
 30
0.0
 11
-43.20000000000017
 21
0.0000000000001315
 31
0.0
  0
LINE
  5
4A9D
330
1F
100
AcDbEntity
  8
AM_0
100
AcDbLine
 10
-40.00000000000029
 20
-26.95000000000007
 30
0.0
 11
-40.00000000000027
 21
-0.0000000000000817
 31
0.0
  0
LINE
  5
4B0D
330
1F
100
AcDbEntity
  8
AM_0
100
AcDbLine
 10
-1.500000000000262
 20
-27.13074338775455
 30
0.0
 11
-1.500000000000262
 21
26.76556443470198
 31
0.0
  0
LINE
  5
4B0F
330
1F
100
AcDbEntity
  8
AM_0
100
AcDbLine
 10
-17.00000000000025
 20
-29.60000000000009
 30
0.0
 11
-17.00000000000025
 21
-0.000000000000103
 31
0.0
  0
LINE
  5
4B12
330
1F
100
AcDbEntity
  8
AM_0
100
AcDbLine
 10
-17.00000000000023
 20
-29.60000000000009
 30
0.0
 11
-24.10000000000029
 21
-29.60000000000008
 31
0.0
1001
GENIUS_GENODEF_13
1002
{
1000
HIER
1070
     0
1002
}
1002
{
1000
MANEDIT
1070
     0
1002
}
1002
{
1000
NOSEL
1070
     0
1002
}
1002
{
1000
BEHIND
1070
     0
1002
}
1002
{
1000
REACTOR
1002
}
1001
GENIUS_GENOBJ-N-CEN_13
1002
{
1000
OWNER
1000
GEN
1002
}
  0
LINE
  5
4B13
330
1F
100
AcDbEntity
  8
AM_0
100
AcDbLine
 10
-29.60000000000028
 20
-28.40000000000009
 30
0.0
 11
-29.60000000000023
 21
-0.0000000000000914
 31
0.0
  0
LINE
  5
4B14
330
1F
100
AcDbEntity
  8
AM_0
100
AcDbLine
 10
-25.60000000000028
 20
-28.10000000000009
 30
0.0
 11
-25.60000000000023
 21
-0.0000000000000951
 31
0.0
  0
LINE
  5
4B15
330
1F
100
AcDbEntity
  8
AM_0
100
AcDbLine
 10
-24.10000000000029
 20
-29.60000000000009
 30
0.0
 11
-24.10000000000024
 21
-0.0000000000000965
 31
0.0
  0
LINE
  5
4B16
330
1F
100
AcDbEntity
  8
AM_0
100
AcDbLine
 10
-25.60000000000028
 20
-28.10000000000009
 30
0.0
 11
-24.10000000000029
 21
-29.60000000000008
 31
0.0
  0
LINE
  5
4B17
330
1F
100
AcDbEntity
  8
AM_0
100
AcDbLine
 10
-30.10000000000028
 20
-28.90000000000009
 30
0.0
 11
-36.70910346561943
 21
-28.90000000000008
 31
0.0
1001
GENIUS_GENODEF_13
1002
{
1000
HIER
1070
     0
1002
}
1002
{
1000
MANEDIT
1070
     0
1002
}
1002
{
1000
NOSEL
1070
     0
1002
}
1002
{
1000
BEHIND
1070
     0
1002
}
1002
{
1000
REACTOR
1002
}
1001
GENIUS_GENOBJ-N-CEN_13
1002
{
1000
OWNER
1000
GEN
1002
}
  0
LINE
  5
4B18
330
1F
100
AcDbEntity
  8
AM_0
100
AcDbLine
 10
-30.10000000000029
 20
-28.90000000000009
 30
0.0
 11
-30.10000000000025
 21
-0.0000000000000909
 31
0.0
  0
LINE
  5
4B19
330
1F
100
AcDbEntity
  8
AM_0
100
AcDbLine
 10
-29.60000000000028
 20
-28.40000000000009
 30
0.0
 11
-30.10000000000028
 21
-28.90000000000009
 31
0.0
  0
LINE
  5
4B1A
330
1F
100
AcDbEntity
  8
AM_0
100
AcDbLine
 10
-25.60000000000028
 20
-24.00000000000009
 30
0.0
 11
-29.60000000000028
 21
-24.00000000000009
 31
0.0
1001
GENIUS_GENODEF_13
1002
{
1000
HIER
1070
     0
1002
}
1002
{
1000
MANEDIT
1070
     0
1002
}
1002
{
1000
NOSEL
1070
     0
1002
}
1002
{
1000
BEHIND
1070
     0
1002
}
1002
{
1000
REACTOR
1002
}
1001
GENIUS_GENOBJ-N-CEN_13
1002
{
1000
OWNER
1000
GEN
1002
}
  0
LINE
  5
4B25
330
1F
100
AcDbEntity
  8
AM_0
100
AcDbLine
 10
-36.70910346561945
 20
-28.90000000000008
 30
0.0
 11
-36.70910346561941
 21
-0.0000000000000848
 31
0.0
  0
LINE
  5
4B26
330
1F
100
AcDbEntity
  8
AM_0
100
AcDbLine
 10
-2.500000000000248
 20
-28.25000000000011
 30
0.0
 11
-2.500000000000248
 21
-0.0000000000001164
 31
0.0
  0
LINE
  5
4B27
330
1F
100
AcDbEntity
  8
AM_0
100
AcDbLine
 10
-2.500000000000248
 20
-28.25000000000011
 30
0.0
 11
-1.500000000000262
 21
-27.13074338775455
 31
0.0
  0
LINE
  5
4B29
330
1F
100
AcDbEntity
  8
AM_0
100
AcDbLine
 10
-30.10000000000027
 20
28.89999999999989
 30
0.0
 11
-36.70910346561942
 21
28.8999999999999
 31
0.0
1001
GENIUS_GENODEF_13
1002
{
1000
HIER
1070
     0
1002
}
1002
{
1000
MANEDIT
1070
     0
1002
}
1002
{
1000
NOSEL
1070
     0
1002
}
1002
{
1000
BEHIND
1070
     0
1002
}
1002
{
1000
REACTOR
1002
}
1001
GENIUS_GENOBJ-N-CEN_13
1002
{
1000
OWNER
1000
GEN
1002
}
  0
LINE
  5
4B2A
330
1F
100
AcDbEntity
  8
AM_0
100
AcDbLine
 10
-29.60000000000027
 20
28.39999999999989
 30
0.0
 11
-30.10000000000027
 21
28.89999999999989
 31
0.0
  0
LINE
  5
4B51
330
1F
100
AcDbEntity
  8
AM_0
100
AcDbLine
 10
-1.500000000000248
 20
16.37999999999987
 30
0.0
 11
-29.60000000000023
 21
16.3799999999999
 31
0.0
1001
GENIUS_GENODEF_13
1002
{
1000
HIER
1070
     0
1002
}
1002
{
1000
MANEDIT
1070
     0
1002
}
1002
{
1000
NOSEL
1070
     0
1002
}
1002
{
1000
BEHIND
1070
     0
1002
}
1002
{
1000
REACTOR
1002
}
1001
GENIUS_GENOBJ-N-CEN_13
1002
{
1000
OWNER
1000
GEN
1002
}
  0
LINE
  5
4B53
330
1F
100
AcDbEntity
  8
AM_0
100
AcDbLine
 10
-29.60000000000026
 20
16.3799999999999
 30
0.0
 11
-29.60000000000024
 21
28.39999999999987
 31
0.0
  0
LINE
  5
4CDB
330
1F
100
AcDbEntity
  8
AM_0
100
AcDbLine
 10
-25.60000000000037
 20
23.9999999999999
 30
0.0
 11
-29.60000000000037
 21
23.99999999999988
 31
0.0
1001
GENIUS_GENODEF_13
1002
{
1000
HIER
1070
     0
1002
}
1002
{
1000
MANEDIT
1070
     0
1002
}
1002
{
1000
NOSEL
1070
     0
1002
}
1002
{
1000
BEHIND
1070
     0
1002
}
1002
{
1000
REACTOR
1002
}
1001
GENIUS_GENOBJ-N-CEN_13
1002
{
1000
OWNER
1000
GEN
1002
}
  0
LINE
  5
4CDE
330
1F
100
AcDbEntity
  8
AM_0
100
AcDbLine
 10
-19.66665209657904
 20
29.59999999999992
 30
0.0
 11
-24.1000000000004
 21
29.5999999999999
 31
0.0
1001
GENIUS_GENODEF_13
1002
{
1000
HIER
1070
     0
1002
}
1002
{
1000
MANEDIT
1070
     0
1002
}
1002
{
1000
NOSEL
1070
     0
1002
}
1002
{
1000
BEHIND
1070
     0
1002
}
1002
{
1000
REACTOR
1002
}
1001
GENIUS_GENOBJ-N-CEN_13
1002
{
1000
OWNER
1000
GEN
1002
}
  0
LINE
  5
4CDF
330
1F
100
AcDbEntity
  8
AM_0
100
AcDbLine
 10
-25.6000000000004
 20
28.09999999999989
 30
0.0
 11
-24.1000000000004
 21
29.5999999999999
 31
0.0
  0
LINE
  5
4CE1
330
1F
100
AcDbEntity
  8
AM_0
100
AcDbLine
 10
-25.6000000000004
 20
28.09999999999989
 30
0.0
 11
-25.60000000000037
 21
23.99999999999991
 31
0.0
  0
LINE
  5
4CF7
330
1F
100
AcDbEntity
  8
AM_11
100
AcDbLine
 10
-0.0000000000003069
 20
31.49999999999987
 30
0.0
 11
-18.0000000000003
 21
31.49999999999984
 31
0.0
  0
LINE
  5
4CF8
330
1F
100
AcDbEntity
  8
AM_0
100
AcDbLine
 10
-0.8000000000003183
 20
31.49999999999987
 30
0.0
 11
-18.18977806419325
 21
31.49999999999984
 31
0.0
  0
LINE
  5
4CF9
330
1F
100
AcDbEntity
  8
AM_0
100
AcDbLine
 10
-2.704223714930756
 20
24.2499999999999
 30
0.0
 11
-20.8545790744229
 21
24.24999999999986
 31
0.0
  0
LINE
  5
4CFA
330
1F
100
AcDbEntity
  8
AM_0
100
AcDbLine
 10
-2.70422371493076
 20
26.3999999999999
 30
0.0
 11
-18.07594277632354
 21
26.39999999999988
 31
0.0
  0
LINE
  5
4CFB
330
1F
100
AcDbEntity
  8
AM_0
100
AcDbLine
 10
-2.704223714930741
 20
16.3999999999999
 30
0.0
 11
-20.85457907442289
 21
16.39999999999987
 31
0.0
  0
ARC
  5
4CFC
330
1F
100
AcDbEntity
  8
AM_0
100
AcDbCircle
 10
-19.05408346096907
 20
30.13899999999985
 30
0.0
 40
0.8
100
AcDbArc
 50
117.8333334
 51
209.9999999999993
  0
LINE
  5
4CFD
330
1F
100
AcDbEntity
  8
AM_0
100
AcDbLine
 10
-19.74690378399642
 20
29.73899999999995
 30
0.0
 11
-17.81913123517226
 21
26.3999999999999
 31
0.0
  0
LINE
  5
4CFE
330
1F
100
AcDbEntity
  8
AM_0
100
AcDbLine
 10
-20.85457907442289
 20
16.37999999999989
 30
0.0
 11
-20.8545790744229
 21
24.24999999999986
 31
0.0
  0
LINE
  5
4CFF
330
1F
100
AcDbEntity
  8
AM_0
100
AcDbLine
 10
-17.23265772751373
 20
24.24999999999987
 30
0.0
 11
-17.23265772751371
 21
16.37999999999989
 31
0.0
  0
LINE
  5
4D00
330
1F
100
AcDbEntity
  8
AM_0
100
AcDbLine
 10
-18.07594277632353
 20
24.24999999999987
 30
0.0
 11
-18.07594277632354
 21
26.39999999999988
 31
0.0
  0
LINE
  5
4D01
330
1F
100
AcDbEntity
  8
AM_0
100
AcDbLine
 10
-18.18977806419331
 20
31.49999999999979
 30
0.0
 11
-19.42760441357941
 21
30.84644759379109
 31
0.0
  0
LINE
  5
4D02
330
1F
100
AcDbEntity
  8
AM_0
100
AcDbLine
 10
-2.70422371493076
 20
26.3999999999999
 30
0.0
 11
-2.704223714930741
 21
16.37999999999987
 31
0.0
  0
LINE
  5
4D03
330
1F
100
AcDbEntity
  8
AM_0
100
AcDbLine
 10
-2.704223714930785
 20
24.67978777676298
 30
0.0
 11
-0.0534921238375901
 21
29.27098956976427
 31
0.0
  0
ARC
  5
4D04
330
1F
100
AcDbEntity
  8
AM_0
100
AcDbCircle
 10
-0.8000000000003167
 20
30.70000000000003
 30
0.0
 40
0.8
100
AcDbArc
 50
357.8333334
 51
89.99999999999934
  0
LINE
  5
4D05
330
1F
100
AcDbEntity
  8
AM_0
100
AcDbLine
 10
-0.0534921238375901
 20
29.2709895697643
 30
0.0
 11
-0.0005719356257357
 21
30.66975483691077
 31
0.0
  0
LINE
  5
4D07
330
1F
100
AcDbEntity
  8
AM_3
100
AcDbLine
 10
-2.704223714930674
 20
-16.40000000000017
 30
0.0
 11
-20.85457907442282
 21
-16.40000000000021
 31
0.0
  0
LINE
  5
4D08
330
1F
100
AcDbEntity
  8
AM_3
100
AcDbLine
 10
-2.704223714930652
 20
-26.40000000000017
 30
0.0
 11
-18.07594277632343
 21
-26.4000000000002
 31
0.0
  0
LINE
  5
4D09
330
1F
100
AcDbEntity
  8
AM_3
100
AcDbLine
 10
-2.704223714930657
 20
-24.25000000000016
 30
0.0
 11
-20.8545790744228
 21
-24.2500000000002
 31
0.0
  0
LINE
  5
4D0A
330
1F
100
AcDbEntity
  8
AM_0
100
AcDbLine
 10
-0.8000000000001898
 20
-31.50000000000014
 30
0.0
 11
-18.18977806419312
 21
-31.50000000000017
 31
0.0
  0
LINE
  5
4D0B
330
1F
100
AcDbEntity
  8
AM_11
100
AcDbLine
 10
-0.0000000000001784
 20
-31.50000000000013
 30
0.0
 11
-18.00000000000017
 21
-31.50000000000017
 31
0.0
  0
LINE
  5
4D0C
330
1F
100
AcDbEntity
  8
AM_3
100
AcDbLine
 10
-18.07594277632343
 20
-24.2500000000002
 30
0.0
 11
-18.07594277632343
 21
-26.4000000000002
 31
0.0
  0
LINE
  5
4D0D
330
1F
100
AcDbEntity
  8
AM_3
100
AcDbLine
 10
-17.23265772751363
 20
-24.2500000000002
 30
0.0
 11
-17.23265772751365
 21
-16.4000000000002
 31
0.0
  0
LINE
  5
4D0E
330
1F
100
AcDbEntity
  8
AM_3
100
AcDbLine
 10
-20.85457907442282
 20
-16.40000000000021
 30
0.0
 11
-20.8545790744228
 21
-24.2500000000002
 31
0.0
  0
LINE
  5
4D0F
330
1F
100
AcDbEntity
  8
AM_0
100
AcDbLine
 10
-19.85400783239414
 20
-29.60000000000009
 30
0.0
 11
-24.10000000000029
 21
-29.60000000000009
 31
0.0
1001
GENIUS_GENODEF_13
1002
{
1000
HIER
1070
     0
1002
}
1002
{
1000
MANEDIT
1070
     0
1002
}
1002
{
1000
NOSEL
1070
     0
1002
}
1002
{
1000
BEHIND
1070
     0
1002
}
1002
{
1000
REACTOR
1002
}
1001
GENIUS_GENOBJ-N-CEN_13
1002
{
1000
OWNER
1000
GEN
1002
}
  0
LINE
  5
4D10
330
1F
100
AcDbEntity
  8
AM_0
100
AcDbLine
 10
-19.74690378399629
 20
-29.73900000000029
 30
0.0
 11
-19.66665209657882
 21
-29.60000000000009
 31
0.0
  0
LINE
  5
4D11
330
1F
100
AcDbEntity
  8
AM_0
100
AcDbLine
 10
-18.18977806419318
 20
-31.50000000000011
 30
0.0
 11
-19.42760441357928
 21
-30.84644759379143
 31
0.0
  0
LINE
  5
4D13
330
1F
100
AcDbEntity
  8
AM_3
100
AcDbLine
 10
-2.704223714930685
 20
-24.67978777676324
 30
0.0
 11
-1.500000000000262
 21
-26.76556443470205
 31
0.0
  0
LINE
  5
4D14
330
1F
100
AcDbEntity
  8
AM_3
100
AcDbLine
 10
-2.704223714930652
 20
-26.40000000000017
 30
0.0
 11
-2.704223714930674
 21
-16.40000000000017
 31
0.0
  0
ARC
  5
4D15
330
1F
100
AcDbEntity
  8
AM_0
100
AcDbCircle
 10
-0.8000000000001914
 20
-30.7000000000003
 30
0.0
 40
0.8
100
AcDbArc
 50
270.0000000000008
 51
2.166666600000249
  0
LINE
  5
4D16
330
1F
100
AcDbEntity
  8
AM_0
100
AcDbLine
 10
-0.0534921238374707
 20
-29.27098956976456
 30
0.0
 11
-0.0005719356256105
 21
-30.66975483691103
 31
0.0
  0
DIMENSION
  5
4D1E
330
1F
100
AcDbEntity
  8
AM_5
100
AcDbDimension
  2
*D9
 10
-0.0000000000001792
 20
-45.49999999999999
 30
0.0
 11
-20.00000000000023
 21
-42.09999999999999
 31
0.0
 70
    32
  1
<>
 51
359.9999999999998
  3
AM_JIS$0
100
AcDbAlignedDimension
 13
-40.00000000000029
 23
-26.95000000000007
 33
0.0
 14
-0.0000000000001784
 24
-31.50000000000013
 34
0.0
 50
0.0000000000002264
100
AcDbRotatedDimension
1001
ACAD
1000
DSTYLE
1002
{
1070
   271
1070
     0
1002
}
1001
GENIUS_GENDTOL_13
1000

1000
h7
1000

1040
0.0
  0
ARC
  5
4E7E
330
1F
100
AcDbEntity
  8
AM_0
100
AcDbCircle
 10
-19.05408346096895
 20
-30.13900000000018
 30
0.0
 40
0.8
100
AcDbArc
 50
150.0000000000005
 51
242.1666666000001
  0
LINE
  5
4E82
330
1F
100
AcDbEntity
  8
AM_0
100
AcDbLine
 10
-1.500000000000262
 20
-26.76556443470205
 30
0.0
 11
-0.0534921238374707
 21
-29.27098956976453
 31
0.0
  0
LINE
  5
4EA4
330
1F
100
AcDbEntity
  8
AM_0
100
AcDbLine
 10
-40.00000000000024
 20
15.99999999999991
 30
0.0
 11
-40.00000000000027
 21
26.94999999999991
 31
0.0
  0
LINE
  5
4ECC
330
1F
100
AcDbEntity
  8
AM_0
100
AcDbLine
 10
-40.00000000000027
 20
26.94999999999991
 30
0.0
 11
-36.70910346561942
 21
28.8999999999999
 31
0.0
  0
LINE
  5
4ECE
330
1F
100
AcDbEntity
  8
AM_0
100
AcDbLine
 10
-40.0000000000003
 20
-26.95000000000008
 30
0.0
 11
-36.70910346561943
 21
-28.90000000000008
 31
0.0
  0
ARC
  5
502C
330
1F
100
AcDbEntity
  8
AM_0
100
AcDbCircle
 10
-40.35000000000025
 20
15.99999999999991
 30
0.0
 40
0.35
100
AcDbArc
 50
269.9999999999999
 51
0.0000000000001145
1001
GENIUS_GENODEF_13
1002
{
1000
HIER
1070
     0
1002
}
1002
{
1000
MANEDIT
1070
     0
1002
}
1002
{
1000
NOSEL
1070
     0
1002
}
1002
{
1000
BEHIND
1070
     0
1002
}
1002
{
1000
REACTOR
1002
}
1001
GENIUS_GENOBJ-N-FIL_13
1002
{
1000
OWNER
1000
GEN
1002
}
  0
ARC
  5
502D
330
1F
100
AcDbEntity
  8
AM_0
100
AcDbCircle
 10
-42.85000000000024
 20
16.00000000000011
 30
0.0
 40
0.35
100
AcDbArc
 50
179.9999999999998
 51
270.0
1001
GENIUS_GENODEF_13
1002
{
1000
HIER
1070
     0
1002
}
1002
{
1000
MANEDIT
1070
     0
1002
}
1002
{
1000
NOSEL
1070
     0
1002
}
1002
{
1000
BEHIND
1070
     0
1002
}
1002
{
1000
REACTOR
1002
}
1001
GENIUS_GENOBJ-N-FIL_13
1002
{
1000
OWNER
1000
GEN
1002
}
  0
LINE
  5
5032
330
1F
100
AcDbEntity
  8
AM_0
100
AcDbLine
 10
-42.85000000000017
 20
-15.65000000000006
 30
0.0
 11
-40.35000000000027
 21
-15.65000000000009
 31
0.0
  0
ARC
  5
5033
330
1F
100
AcDbEntity
  8
AM_0
100
AcDbCircle
 10
-42.85000000000018
 20
-16.00000000000006
 30
0.0
 40
0.35
100
AcDbArc
 50
89.99999999999985
 51
180.0
1001
GENIUS_GENODEF_13
1002
{
1000
HIER
1070
     0
1002
}
1002
{
1000
MANEDIT
1070
     0
1002
}
1002
{
1000
NOSEL
1070
     0
1002
}
1002
{
1000
BEHIND
1070
     0
1002
}
1002
{
1000
REACTOR
1002
}
1001
GENIUS_GENOBJ-N-FIL_13
1002
{
1000
OWNER
1000
GEN
1002
}
  0
ARC
  5
5035
330
1F
100
AcDbEntity
  8
AM_0
100
AcDbCircle
 10
-40.35000000000027
 20
-16.00000000000008
 30
0.0
 40
0.35
100
AcDbArc
 50
359.9999999999997
 51
89.99999999999996
1001
GENIUS_GENODEF_13
1002
{
1000
HIER
1070
     0
1002
}
1002
{
1000
MANEDIT
1070
     0
1002
}
1002
{
1000
NOSEL
1070
     0
1002
}
1002
{
1000
BEHIND
1070
     0
1002
}
1002
{
1000
REACTOR
1002
}
1001
GENIUS_GENOBJ-N-FIL_13
1002
{
1000
OWNER
1000
GEN
1002
}
  0
LINE
  5
5055
330
1F
100
AcDbEntity
  8
AM_3
100
AcDbLine
 10
-19.66665209657882
 20
-29.60000000000008
 30
0.0
 11
-17.81913123517215
 21
-26.40000000000023
 31
0.0
  0
LINE
  5
505E
330
1F
100
AcDbEntity
  8
AM_0
100
AcDbLine
 10
-17.00000000000023
 20
-29.60000000000009
 30
0.0
 11
-2.500000000000248
 21
-28.25000000000011
 31
0.0
  0
VIEWPORT
  5
110
330
101
100
AcDbEntity
 67
     1
  8
0
100
AcDbViewport
 10
420.5
 20
297.0
 30
0.0
 40
948.9782706766916
 41
628.452
 68
     1
 69
     1
1001
ACAD
1000
MVIEW
1002
{
1070
    16
1010
0.0
1020
0.0
1030
0.0
1010
0.0
1020
0.0
1030
1.0
1040
0.0
1040
628.452
1040
420.5
1040
297.0
1040
50.0
1040
0.0
1040
0.0
1070
     0
1070
   100
1070
     1
1070
     1
1070
     0
1070
     0
1070
     0
1070
     0
1040
0.0
1040
0.0
1040
0.0
1040
10.0
1040
10.0
1040
10.0
1040
10.0
1070
     0
1002
{
1002
}
1002
}
  0
ENDSEC
  0
SECTION
  2
OBJECTS
  0
DICTIONARY
  5
C
330
0
100
AcDbDictionary
  3
ACAD_GROUP
350
D
  3
ACAD_LAYOUT
350
1A
  3
ACAD_MLINESTYLE
350
17
  3
ACAD_PLOTSETTINGS
350
19
  3
ACAD_PLOTSTYLENAME
350
E
  3
ACDBVARIABLEDICTIONARY
350
34
  3
ACMDICTIONARY
350
43
  3
AMG
350
2B
  3
AMGSNAPSETTINGS
350
6E
  3
DWGPROPS
350
5162
  3
ACDBHEADERROUNDTRIPXREC
350
516F
  0
DICTIONARY
  5
74
330
1F
100
AcDbDictionary
280
     1
  3
ACAD_INDEX
360
5164
  3
ACAD_LAYOUTSELFREF
360
5192
  0
DICTIONARY
  5
5197
330
101
100
AcDbDictionary
280
     1
  3
ACAD_LAYOUTSELFREF
360
5198
  0
DICTIONARY
  5
D
102
{ACAD_REACTORS
330
C
102
}
330
C
100
AcDbDictionary
  0
DICTIONARY
  5
1A
102
{ACAD_REACTORS
330
C
102
}
330
C
100
AcDbDictionary
  0
DICTIONARY
  5
17
102
{ACAD_REACTORS
330
C
102
}
330
C
100
AcDbDictionary
  3
STANDARD
350
18
  0
DICTIONARY
  5
19
102
{ACAD_REACTORS
330
C
102
}
330
C
100
AcDbDictionary
  0
ACDBDICTIONARYWDFLT
  5
E
102
{ACAD_REACTORS
330
C
102
}
330
C
100
AcDbDictionary
281
     1
  3
Normal
350
F
100
AcDbDictionaryWithDefault
340
F
  0
DICTIONARY
  5
34
102
{ACAD_REACTORS
330
C
102
}
330
C
100
AcDbDictionary
  3
INDEXCTL
350
35
  3
SORTENTS
350
B5E
  0
DICTIONARY
  5
43
102
{ACAD_REACTORS
330
C
102
}
330
C
100
AcDbDictionary
  3
ACMSTDDICTIONARY
350
260
  0
DICTIONARY
  5
2B
102
{ACAD_REACTORS
330
C
102
}
330
C
100
AcDbDictionary
  3
ACMGSETTINGS
350
2C
  0
DICTIONARY
  5
6E
102
{ACAD_REACTORS
330
C
102
}
330
C
100
AcDbDictionary
  0
XRECORD
  5
5162
102
{ACAD_REACTORS
330
C
102
}
330
C
100
AcDbXrecord
  1
DWGPROPS COOKIE
  2

  3

  4

  6

  7

  8

  9

300
AmdtFileType=82
301
=
302
=
303
=
304
=
305
=
306
=
307
=
308
=
309
=
 40
0.7722244444444445
 41
2452802.716478761
 42
2452871.67095868
  1

 90
        1
  0
DICTIONARY
  5
516F
102
{ACAD_REACTORS
330
C
102
}
330
C
100
AcDbDictionary
  3
TSTACKALIGN
350
5170
  3
TSTACKSIZE
350
5171
  3
HYPERLINKBASE
350
5172
  3
STYLESHEET
350
5173
  3
LAYOUTDICT
350
5174
  3
PLOTSETDICT
350
5175
  3
PLOTSTYLNAMDICT
350
5176
  3
LWETCUNION
350
5177
  3
INSUNITS
350
5178
  3
CEPSNTYPE
350
5179
  3
FINGERPRINTGUID
350
517A
  3
VERSIONGUID
350
517B
  3
PSVPSCALE
350
517C
  3
DIMSTYLEDATA
350
517D
  3
PUCSORTHOREF
350
517E
  3
PUCSORTHOVIEW
350
517F
  3
PUCSBASE
350
5180
  3
PUCSORGTOP
350
5181
  3
PUCSORGBOTTOM
350
5182
  3
PUCSORGLEFT
350
5183
  3
PUCSORGRIGHT
350
5184
  3
PUCSORGFRONT
350
5185
  3
PUCSORGBACK
350
5186
  3
UCSORTHOREF
350
5187
  3
UCSORTHOVIEW
350
5188
  3
UCSBASE
350
5189
  3
UCSORGTOP
350
518A
  3
UCSORGBOTTOM
350
518B
  3
UCSORGLEFT
350
518C
  3
UCSORGRIGHT
350
518D
  3
UCSORGFRONT
350
518E
  3
UCSORGBACK
350
518F
  0
DICTIONARY
  5
5164
102
{ACAD_REACTORS
330
74
102
}
330
74
100
AcDbDictionary
  3
*A1
350
5165
  0
XRECORD
  5
5192
102
{ACAD_REACTORS
330
74
102
}
330
74
100
AcDbXrecord
340
1F
  0
XRECORD
  5
5198
102
{ACAD_REACTORS
330
5197
102
}
330
5197
100
AcDbXrecord
340
101
  0
MLINESTYLE
  5
18
102
{ACAD_REACTORS
330
17
102
}
330
17
100
AcDbMlineStyle
  2
STANDARD
 70
     0
  3

 62
   256
 51
90.0
 52
90.0
 71
     2
 49
0.5
 62
   256
  6
BYLAYER
 49
-0.5
 62
   256
  6
BYLAYER
  0
ACDBPLACEHOLDER
  5
F
102
{ACAD_REACTORS
330
E
102
}
330
E
100
AcDbPlaceHolder
280
     0
  0
DICTIONARYVAR
  5
35
102
{ACAD_REACTORS
330
34
102
}
330
34
100
DictionaryVariables
280
     0
  1
1
  0
DICTIONARYVAR
  5
B5E
102
{ACAD_REACTORS
330
34
102
}
330
34
100
DictionaryVariables
280
     0
  1
96
  0
DICTIONARY
  5
260
102
{ACAD_REACTORS
330
43
102
}
330
43
100
AcDbDictionary
  0
DICTIONARY
  5
2C
102
{ACAD_REACTORS
330
2B
102
}
330
2B
100
AcDbDictionary
  3
DWGSETTINGS
350
2D
  0
XRECORD
  5
5170
102
{ACAD_REACTORS
330
516F
102
}
330
516F
100
AcDbXrecord
 90
        1
  0
XRECORD
  5
5171
102
{ACAD_REACTORS
330
516F
102
}
330
516F
100
AcDbXrecord
 90
       70
  0
XRECORD
  5
5172
102
{ACAD_REACTORS
330
516F
102
}
330
516F
100
AcDbXrecord
  1

  0
XRECORD
  5
5173
102
{ACAD_REACTORS
330
516F
102
}
330
516F
100
AcDbXrecord
  1
ASAMI.ctb
  0
XRECORD
  5
5174
102
{ACAD_REACTORS
330
516F
102
}
330
516F
100
AcDbXrecord
340
1A
  0
XRECORD
  5
5175
102
{ACAD_REACTORS
330
516F
102
}
330
516F
100
AcDbXrecord
340
19
  0
XRECORD
  5
5176
102
{ACAD_REACTORS
330
516F
102
}
330
516F
100
AcDbXrecord
340
E
  0
XRECORD
  5
5177
102
{ACAD_REACTORS
330
516F
102
}
330
516F
100
AcDbXrecord
 90
    10781
  0
XRECORD
  5
5178
102
{ACAD_REACTORS
330
516F
102
}
330
516F
100
AcDbXrecord
 90
        4
  0
XRECORD
  5
5179
102
{ACAD_REACTORS
330
516F
102
}
330
516F
100
AcDbXrecord
 90
        0
  0
XRECORD
  5
517A
102
{ACAD_REACTORS
330
516F
102
}
330
516F
100
AcDbXrecord
  1
{AFB28963-8C59-40AE-9337-C84526B81ACE}
  0
XRECORD
  5
517B
102
{ACAD_REACTORS
330
516F
102
}
330
516F
100
AcDbXrecord
  1
{6ECF5912-4FA4-4A68-8347-0336CDBE1583}
  0
XRECORD
  5
517C
102
{ACAD_REACTORS
330
516F
102
}
330
516F
100
AcDbXrecord
 40
0.0
  0
XRECORD
  5
517D
102
{ACAD_REACTORS
330
516F
102
}
330
516F
100
AcDbXrecord
1000
DSTYLE
1002
{
1070
    79
 70
     2
1070
   179
 70
     2
1070
   341
340
59
1070
   342
340
59
1070
   371
 70
    -1
1070
   372
 70
    -1
1002
}
  0
XRECORD
  5
517E
102
{ACAD_REACTORS
330
516F
102
}
330
516F
100
AcDbXrecord
340
0
  0
XRECORD
  5
517F
102
{ACAD_REACTORS
330
516F
102
}
330
516F
100
AcDbXrecord
 70
     0
  0
XRECORD
  5
5180
102
{ACAD_REACTORS
330
516F
102
}
330
516F
100
AcDbXrecord
340
0
  0
XRECORD
  5
5181
102
{ACAD_REACTORS
330
516F
102
}
330
516F
100
AcDbXrecord
 10
0.0
 20
0.0
 30
0.0
  0
XRECORD
  5
5182
102
{ACAD_REACTORS
330
516F
102
}
330
516F
100
AcDbXrecord
 10
0.0
 20
0.0
 30
0.0
  0
XRECORD
  5
5183
102
{ACAD_REACTORS
330
516F
102
}
330
516F
100
AcDbXrecord
 10
0.0
 20
0.0
 30
0.0
  0
XRECORD
  5
5184
102
{ACAD_REACTORS
330
516F
102
}
330
516F
100
AcDbXrecord
 10
0.0
 20
0.0
 30
0.0
  0
XRECORD
  5
5185
102
{ACAD_REACTORS
330
516F
102
}
330
516F
100
AcDbXrecord
 10
0.0
 20
0.0
 30
0.0
  0
XRECORD
  5
5186
102
{ACAD_REACTORS
330
516F
102
}
330
516F
100
AcDbXrecord
 10
0.0
 20
0.0
 30
0.0
  0
XRECORD
  5
5187
102
{ACAD_REACTORS
330
516F
102
}
330
516F
100
AcDbXrecord
340
0
  0
XRECORD
  5
5188
102
{ACAD_REACTORS
330
516F
102
}
330
516F
100
AcDbXrecord
 70
     0
  0
XRECORD
  5
5189
102
{ACAD_REACTORS
330
516F
102
}
330
516F
100
AcDbXrecord
340
0
  0
XRECORD
  5
518A
102
{ACAD_REACTORS
330
516F
102
}
330
516F
100
AcDbXrecord
 10
0.0
 20
0.0
 30
0.0
  0
XRECORD
  5
518B
102
{ACAD_REACTORS
330
516F
102
}
330
516F
100
AcDbXrecord
 10
0.0
 20
0.0
 30
0.0
  0
XRECORD
  5
518C
102
{ACAD_REACTORS
330
516F
102
}
330
516F
100
AcDbXrecord
 10
0.0
 20
0.0
 30
0.0
  0
XRECORD
  5
518D
102
{ACAD_REACTORS
330
516F
102
}
330
516F
100
AcDbXrecord
 10
0.0
 20
0.0
 30
0.0
  0
XRECORD
  5
518E
102
{ACAD_REACTORS
330
516F
102
}
330
516F
100
AcDbXrecord
 10
0.0
 20
0.0
 30
0.0
  0
XRECORD
  5
518F
102
{ACAD_REACTORS
330
516F
102
}
330
516F
100
AcDbXrecord
 10
0.0
 20
0.0
 30
0.0
  0
LAYER_INDEX
  5
5165
102
{ACAD_REACTORS
330
5164
102
}
330
5164
100
AcDbIndex
 40
2453152.423843275
100
AcDbLayerIndex
  8
0
360
5166
 90
        3
  8
AM_0
360
5167
 90
       63
  8
AM_5
360
5168
 90
        5
  8
AM_11
360
5169
 90
        3
  8
AM_7
360
516A
 90
        1
  8
AM_6
360
516B
 90
        1
  8
Defpoints
360
516C
 90
        0
  8
AM_3
360
516D
 90
        9
  0
XRECORD
  5
2D
102
{ACAD_REACTORS
330
2C
102
}
330
2C
100
AcDbXrecord
  1
VERSION
140
15.0
  1
PRODUCT
  2
AutoCAD Mechanical 2000
  0
IDBUFFER
  5
5166
330
0
100
AcDbIdBuffer
330
22B9
330
22EE
330
2FC5
  0
IDBUFFER
  5
5167
330
0
100
AcDbIdBuffer
330
4D10
330
4D11
330
4D15
330
4D16
330
4E7E
330
4E82
330
4EA4
330
4ECC
330
4ECE
330
502C
330
502D
330
5032
330
5033
330
5035
330
505E
330
4223
330
4224
330
4225
330
4226
330
4234
330
4235
330
4A8A
330
4A8F
330
4A9C
330
4A9D
330
4B0D
330
4B0F
330
4B12
330
4B13
330
4B14
330
4B15
330
4B16
330
4B17
330
4B18
330
4B19
330
4B1A
330
4B25
330
4B26
330
4B27
330
4B29
330
4B2A
330
4B51
330
4B53
330
4CDB
330
4CDE
330
4CDF
330
4CE1
330
4CF8
330
4CF9
330
4CFA
330
4CFB
330
4CFC
330
4CFD
330
4CFE
330
4CFF
330
4D00
330
4D01
330
4D02
330
4D03
330
4D04
330
4D05
330
4D0A
330
4D0F
  0
IDBUFFER
  5
5168
330
0
100
AcDbIdBuffer
330
4227
330
4237
330
4244
330
46A8
330
4D1E
  0
IDBUFFER
  5
5169
330
0
100
AcDbIdBuffer
330
45C6
330
4CF7
330
4D0B
  0
IDBUFFER
  5
516A
330
0
100
AcDbIdBuffer
330
4236
  0
IDBUFFER
  5
516B
330
0
100
AcDbIdBuffer
330
E65
  0
IDBUFFER
  5
516C
330
0
100
AcDbIdBuffer
  0
IDBUFFER
  5
516D
330
0
100
AcDbIdBuffer
330
4D07
330
4D08
330
4D09
330
4D0C
330
4D0D
330
4D0E
330
4D13
330
4D14
330
5055
  0
ENDSEC
  0
EOF
