  0
SECTION
  2
HEADER
  9
$ACADVER
  1
AC1014
  9
$ACADMAINTVER
 70
     9
  9
$DWGCODEPAGE
  3
ANSI_932
  9
$INSBASE
 10
0.0
 20
0.0
 30
0.0
  9
$EXTMIN
 10
-97.13823125971977
 20
-28.25125636954066
 30
-0.00000001
  9
$EXTMAX
 10
12.05776903085495
 20
4.845359469992097
 30
0.00000001
  9
$LIMMIN
 10
-102.6905738526245
 20
-46.4866428003958
  9
$LIMMAX
 10
15.97631109517948
 20
22.76521238673808
  9
$ORTHOMODE
 70
     0
  9
$REGENMODE
 70
     1
  9
$FILLMODE
 70
     1
  9
$QTEXTMODE
 70
     0
  9
$MIRRTEXT
 70
     0
  9
$DRAGMODE
 70
     2
  9
$LTSCALE
 40
1.0
  9
$OSMODE
 70
    55
  9
$ATTMODE
 70
     1
  9
$TEXTSIZE
 40
2.5
  9
$TRACEWID
 40
1.0
  9
$TEXTSTYLE
  7
STANDARD
  9
$CLAYER
  8
AM_0
  9
$CELTYPE
  6
BYLAYER
  9
$CECOLOR
 62
   256
  9
$CELTSCALE
 40
1.0
  9
$DELOBJ
 70
     1
  9
$DISPSILH
 70
     0
  9
$DIMSCALE
 40
0.5
  9
$DIMASZ
 40
2.5
  9
$DIMEXO
 40
1.0
  9
$DIMDLI
 40
12.0
  9
$DIMRND
 40
0.0
  9
$DIMDLE
 40
0.0
  9
$DIMEXE
 40
1.0
  9
$DIMTP
 40
0.1
  9
$DIMTM
 40
0.1
  9
$DIMTXT
 40
3.2
  9
$DIMCEN
 40
0.0
  9
$DIMTSZ
 40
0.0
  9
$DIMTOL
 70
     0
  9
$DIMLIM
 70
     0
  9
$DIMTIH
 70
     0
  9
$DIMTOH
 70
     0
  9
$DIMSE1
 70
     0
  9
$DIMSE2
 70
     0
  9
$DIMTAD
 70
     3
  9
$DIMZIN
 70
     8
  9
$DIMBLK
  1
OPEN30
  9
$DIMASO
 70
     1
  9
$DIMSHO
 70
     1
  9
$DIMPOST
  1

  9
$DIMAPOST
  1
"
  9
$DIMALT
 70
     0
  9
$DIMALTD
 70
     2
  9
$DIMALTF
 40
0.0393701
  9
$DIMLFAC
 40
1.0
  9
$DIMTOFL
 70
     1
  9
$DIMTVP
 40
0.0
  9
$DIMTIX
 70
     0
  9
$DIMSOXD
 70
     0
  9
$DIMSAH
 70
     0
  9
$DIMBLK1
  1

  9
$DIMBLK2
  1

  9
$DIMSTYLE
  2
AM_JIS
  9
$DIMCLRD
 70
   256
  9
$DIMCLRE
 70
   256
  9
$DIMCLRT
 70
     2
  9
$DIMTFAC
 40
0.71
  9
$DIMGAP
 40
1.5
  9
$DIMJUST
 70
     0
  9
$DIMSD1
 70
     0
  9
$DIMSD2
 70
     0
  9
$DIMTOLJ
 70
     0
  9
$DIMTZIN
 70
     0
  9
$DIMALTZ
 70
     0
  9
$DIMALTTZ
 70
     0
  9
$DIMFIT
 70
     3
  9
$DIMUPT
 70
     0
  9
$DIMUNIT
 70
     2
  9
$DIMDEC
 70
     3
  9
$DIMTDEC
 70
     3
  9
$DIMALTU
 70
     2
  9
$DIMALTTD
 70
     2
  9
$DIMTXSTY
  7
ASAMI
  9
$DIMAUNIT
 70
     0
  9
$LUNITS
 70
     2
  9
$LUPREC
 70
     2
  9
$SKETCHINC
 40
1.0
  9
$FILLETRAD
 40
2.5
  9
$AUNITS
 70
     0
  9
$AUPREC
 70
     0
  9
$MENU
  1
.
  9
$ELEVATION
 40
0.0
  9
$PELEVATION
 40
0.0
  9
$THICKNESS
 40
0.0
  9
$LIMCHECK
 70
     0
  9
$BLIPMODE
 70
     0
  9
$CHAMFERA
 40
0.5
  9
$CHAMFERB
 40
0.5
  9
$CHAMFERC
 40
20.0
  9
$CHAMFERD
 40
0.0
  9
$SKPOLY
 70
     0
  9
$TDCREATE
 40
2452836.771637361
  9
$TDUPDATE
 40
2453152.358288576
  9
$TDINDWG
 40
0.0319489699
  9
$TDUSRTIMER
 40
0.0319489699
  9
$USRTIMER
 70
     1
  9
$ANGBASE
 50
0.0
  9
$ANGDIR
 70
     0
  9
$PDMODE
 70
     0
  9
$PDSIZE
 40
0.0
  9
$PLINEWID
 40
0.0
  9
$COORDS
 70
     1
  9
$SPLFRAME
 70
     0
  9
$SPLINETYPE
 70
     6
  9
$SPLINESEGS
 70
     8
  9
$ATTDIA
 70
     1
  9
$ATTREQ
 70
     1
  9
$HANDLING
 70
 12289
  9
$HANDSEED
  5
18AC
  9
$SURFTAB1
 70
     6
  9
$SURFTAB2
 70
     6
  9
$SURFTYPE
 70
     6
  9
$SURFU
 70
     6
  9
$SURFV
 70
     6
  9
$UCSNAME
  2

  9
$UCSORG
 10
0.0
 20
0.0
 30
0.0
  9
$UCSXDIR
 10
1.0
 20
0.0
 30
0.0
  9
$UCSYDIR
 10
0.0
 20
1.0
 30
0.0
  9
$PUCSNAME
  2

  9
$PUCSORG
 10
0.0
 20
0.0
 30
0.0
  9
$PUCSXDIR
 10
1.0
 20
0.0
 30
0.0
  9
$PUCSYDIR
 10
0.0
 20
1.0
 30
0.0
  9
$USERI1
 70
     0
  9
$USERI2
 70
     0
  9
$USERI3
 70
     0
  9
$USERI4
 70
     0
  9
$USERI5
 70
     0
  9
$USERR1
 40
0.0
  9
$USERR2
 40
0.0
  9
$USERR3
 40
0.0
  9
$USERR4
 40
0.0
  9
$USERR5
 40
0.0
  9
$WORLDVIEW
 70
     1
  9
$SHADEDGE
 70
     3
  9
$SHADEDIF
 70
    70
  9
$TILEMODE
 70
     1
  9
$MAXACTVP
 70
    64
  9
$PINSBASE
 10
0.0
 20
0.0
 30
0.0
  9
$PLIMCHECK
 70
     0
  9
$PEXTMIN
 10
1.000000000000000E+20
 20
1.000000000000000E+20
 30
1.000000000000000E+20
  9
$PEXTMAX
 10
-1.000000000000000E+20
 20
-1.000000000000000E+20
 30
-1.000000000000000E+20
  9
$PLIMMIN
 10
0.0
 20
0.0
  9
$PLIMMAX
 10
841.0
 20
594.0
  9
$UNITMODE
 70
     0
  9
$VISRETAIN
 70
     1
  9
$PLINEGEN
 70
     0
  9
$PSLTSCALE
 70
     0
  9
$TREEDEPTH
 70
  3020
  9
$PICKSTYLE
 70
     0
  9
$CMLSTYLE
  2
STANDARD
  9
$CMLJUST
 70
     0
  9
$CMLSCALE
 40
20.0
  9
$PROXYGRAPHICS
 70
     1
  9
$MEASUREMENT
 70
     1
  0
ENDSEC
  0
SECTION
  2
CLASSES
  0
CLASS
  1
ACDBDICTIONARYWDFLT
  2
AcDbDictionaryWithDefault
  3
AutoCAD 2000
 90
        0
280
     0
281
     0
  0
CLASS
  1
ACDBPLACEHOLDER
  2
AcDbPlaceHolder
  3
AutoCAD 2000
 90
        0
280
     0
281
     0
  0
CLASS
  1
LAYOUT
  2
AcDbLayout
  3
AutoCAD 2000
 90
        0
280
     0
281
     0
  0
CLASS
  1
AMGSETTINGSOBJ
  2
AmgSettingsObj
  3
"AcadM|Product Description: AutoCAD Mechanical 2000|Company: Autodesk"
 90
        0
280
     0
281
     0
  0
CLASS
  1
ACME_DOCUMENT
  2
AcMeDbDoc
  3
AcMeServices
 90
        0
280
     0
281
     0
  0
CLASS
  1
ACMESCOPE
  2
AcMeScope
  3
AcMeServices
 90
        0
280
     0
281
     0
  0
CLASS
  1
ACMECOMMANDHISTORY
  2
AcMeCommandHistory
  3
AcMeServices
 90
        0
280
     0
281
     0
  0
CLASS
  1
DICTIONARYVAR
  2
AcDbDictionaryVar
  3
AutoCAD 2000
 90
        0
280
     0
281
     0
  0
CLASS
  1
ACIMSYSVARMAN
  2
AcImSysVarManager
  3
AcMeServices
 90
        0
280
     0
281
     0
  0
CLASS
  1
ACIMREALSYSVAR
  2
AcImRealSysVar
  3
AcMeServices
 90
        0
280
     0
281
     0
  0
CLASS
  1
ACIMINTSYSVAR
  2
AcImIntSysVar
  3
AcMeServices
 90
        0
280
     0
281
     0
  0
CLASS
  1
ACMEDRAWINGMAN
  2
AcMeDrawingMan
  3
AcMeServices
 90
        0
280
     0
281
     0
  0
CLASS
  1
ACMEVIEW
  2
AcMeView
  3
AcMeServices
 90
        0
280
     0
281
     0
  0
CLASS
  1
ACDBENTITYCACHE
  2
AcMeEntityCache
  3
AcMeServices
 90
        0
280
     0
281
     0
  0
CLASS
  1
GSMANAGER
  2
AcMeGSManager
  3
AcMeServices
 90
        0
280
     0
281
     0
  0
CLASS
  1
AmdtInternalReactor
  2
AmdtInternalReactor
  3
AcMeServices
 90
        0
280
     0
281
     0
  0
CLASS
  1
ACMESTATEMGR
  2
AcMeStateMgr
  3
AcMeServices
 90
        0
280
     0
281
     0
  0
CLASS
  1
ACME_DATABASE
  2
AcMeDbDatabase
  3
AcMeServices
 90
        0
280
     0
281
     0
  0
CLASS
  1
ACRFINSADJUSTERMGR
  2
AcRfInsAdjusterMgr
  3
AcMeServices
 90
        0
280
     0
281
     0
  0
CLASS
  1
ACMDATADICTIONARY
  2
AcmDataDictionary
  3
"AcmSymBB|Product Description: AutoCAD Mechanical 2000|Company: Autodesk"
 90
        0
280
     0
281
     0
  0
CLASS
  1
ACMDATAENTRYBLOCK
  2
AcmDataEntryBlock
  3
"AcmSymBB|Product Description: AutoCAD Mechanical 2000|Company: Autodesk"
 90
        0
280
     0
281
     0
  0
CLASS
  1
AMGOBJPROPCFG
  2
AmgObjPropCfg
  3
"AmgLay|Product Description: AutoCAD Mechanical 2000|Company: Autodesk"
 90
        1
280
     0
281
     0
  0
CLASS
  1
ACAMGFILTERDAT
  2
AcAmgFilterDat
  3
"AcadM|Product Description: AutoCAD Mechanical 2000|Company: Autodesk"
 90
        0
280
     0
281
     0
  0
CLASS
  1
LAYER_INDEX
  2
AcDbLayerIndex
  3
AutoCAD 2000
 90
        0
280
     0
281
     0
  0
CLASS
  1
IDBUFFER
  2
AcDbIdBuffer
  3
AutoCAD 2000
 90
        0
280
     0
281
     0
  0
CLASS
  1
ACIMSTRSYSVAR
  2
AcImStrSysVar
  3
AcMeServices
 90
        0
280
     0
281
     0
  0
CLASS
  1
ACMSTANDARDJIS
  2
AcmStandardJIS
  3
"AcmSymBB|Product Description: AutoCAD Mechanical 2000|Company: Autodesk"
 90
        0
280
     0
281
     0
  0
CLASS
  1
ACMSURFSTANDARDJIS
  2
AcmSurfTextStdJIS
  3
"AcmSymBB|Product Description: AutoCAD Mechanical 2000|Company: Autodesk"
 90
        0
280
     0
281
     0
  0
CLASS
  1
ACMFCFSTANDARDJIS
  2
AcmFCFStdJIS
  3
"AcmSymBB|Product Description: AutoCAD Mechanical 2000|Company: Autodesk"
 90
        0
280
     0
281
     0
  0
CLASS
  1
ACMWELDSTANDARDJIS
  2
AcmWeldingStdJIS
  3
"AcmSymBB|Product Description: AutoCAD Mechanical 2000|Company: Autodesk"
 90
        0
280
     0
281
     0
  0
CLASS
  1
ACMIDSTANDARDJIS
  2
AcmIdStdJIS
  3
"AcmSymBB|Product Description: AutoCAD Mechanical 2000|Company: Autodesk"
 90
        0
280
     0
281
     0
  0
CLASS
  1
ACMDATUMSTANDARDJIS
  2
AcmDatumStdJIS
  3
"AcmSymBB|Product Description: AutoCAD Mechanical 2000|Company: Autodesk"
 90
        0
280
     0
281
     0
  0
CLASS
  1
ACMBOMSTANDARDJIS
  2
AcmBOMStdJIS
  3
"AcmSymBB|Product Description: AutoCAD Mechanical 2000|Company: Autodesk"
 90
        0
280
     0
281
     0
  0
CLASS
  1
ACMSTANDARDANSI
  2
AcmStandardANSI
  3
"AcmSymBB|Product Description: AutoCAD Mechanical 2000|Company: Autodesk"
 90
        0
280
     0
281
     0
  0
CLASS
  1
ACMSURFSTANDARDANSI
  2
AcmSurfTextStdANSI
  3
"AcmSymBB|Product Description: AutoCAD Mechanical 2000|Company: Autodesk"
 90
        0
280
     0
281
     0
  0
CLASS
  1
ACMFCFSTANDARDANSI
  2
AcmFCFStdANSI
  3
"AcmSymBB|Product Description: AutoCAD Mechanical 2000|Company: Autodesk"
 90
        0
280
     0
281
     0
  0
CLASS
  1
ACMWELDSTANDARDANSI
  2
AcmWeldingStdANSI
  3
"AcmSymBB|Product Description: AutoCAD Mechanical 2000|Company: Autodesk"
 90
        0
280
     0
281
     0
  0
CLASS
  1
ACMIDSTANDARDANSI
  2
AcmIdStdANSI
  3
"AcmSymBB|Product Description: AutoCAD Mechanical 2000|Company: Autodesk"
 90
        0
280
     0
281
     0
  0
CLASS
  1
ACMDATUMSTANDARDANSI
  2
AcmDatumStdANSI
  3
"AcmSymBB|Product Description: AutoCAD Mechanical 2000|Company: Autodesk"
 90
        0
280
     0
281
     0
  0
CLASS
  1
ACMBOMSTANDARDANSI
  2
AcmBOMStdANSI
  3
"AcmSymBB|Product Description: AutoCAD Mechanical 2000|Company: Autodesk"
 90
        0
280
     0
281
     0
  0
CLASS
  1
ACMSTANDARDBSI
  2
AcmStandardBSI
  3
"AcmSymBB|Product Description: AutoCAD Mechanical 2000|Company: Autodesk"
 90
        0
280
     0
281
     0
  0
CLASS
  1
ACMSURFSTANDARDBSI
  2
AcmSurfTextStdBSI
  3
"AcmSymBB|Product Description: AutoCAD Mechanical 2000|Company: Autodesk"
 90
        0
280
     0
281
     0
  0
CLASS
  1
ACMFCFSTANDARDBSI
  2
AcmFCFStdBSI
  3
"AcmSymBB|Product Description: AutoCAD Mechanical 2000|Company: Autodesk"
 90
        0
280
     0
281
     0
  0
CLASS
  1
ACMWELDSTANDARDBSI
  2
AcmWeldingStdBSI
  3
"AcmSymBB|Product Description: AutoCAD Mechanical 2000|Company: Autodesk"
 90
        0
280
     0
281
     0
  0
CLASS
  1
ACMIDSTANDARDBSI
  2
AcmIdStdBSI
  3
"AcmSymBB|Product Description: AutoCAD Mechanical 2000|Company: Autodesk"
 90
        0
280
     0
281
     0
  0
CLASS
  1
ACMDATUMSTANDARDBSI
  2
AcmDatumStdBSI
  3
"AcmSymBB|Product Description: AutoCAD Mechanical 2000|Company: Autodesk"
 90
        0
280
     0
281
     0
  0
CLASS
  1
ACMBOMSTANDARDBSI
  2
AcmBOMStdBSI
  3
"AcmSymBB|Product Description: AutoCAD Mechanical 2000|Company: Autodesk"
 90
        0
280
     0
281
     0
  0
CLASS
  1
LONG_TRANSACTION
  2
AcDbLongTransaction
  3
AutoCAD 2000
 90
        0
280
     0
281
     0
  0
CLASS
  1
LWPOLYLINE
  2
AcDbPolyline
  3
AutoCAD 2000
 90
        0
280
     0
281
     1
  0
CLASS
  1
HATCH
  2
AcDbHatch
  3
AutoCAD 2000
 90
        0
280
     0
281
     1
  0
CLASS
  1
XRECORD
  2
AcDbXrecord
  3
AutoCAD 2000
 90
        0
280
     0
281
     0
  0
ENDSEC
  0
SECTION
  2
TABLES
  0
TABLE
  2
VPORT
  5
8
330
0
100
AcDbSymbolTable
 70
     3
  0
VPORT
  5
1881
330
8
100
AcDbSymbolTableRecord
100
AcDbViewportTableRecord
  2
*ACTIVE
 70
     0
 10
0.0
 20
0.0
 11
1.0
 21
1.0
 12
-41.84164898941128
 22
-5.188860442154123
 13
0.0
 23
0.0
 14
2.5
 24
2.5
 15
10.0
 25
10.0
 16
0.0
 26
0.0
 36
1.0
 17
0.0
 27
0.0
 37
0.0
 40
91.01238964545038
 41
1.56570841889117
 42
50.0
 43
0.0
 44
0.0
 50
0.0
 51
0.0
 71
     0
 72
   100
 73
     1
 74
     3
 75
     0
 76
     0
 77
     0
 78
     0
  0
ENDTAB
  0
TABLE
  2
LTYPE
  5
5
330
0
100
AcDbSymbolTable
 70
    10
  0
LTYPE
  5
14
330
5
100
AcDbSymbolTableRecord
100
AcDbLinetypeTableRecord
  2
BYBLOCK
 70
     0
  3

 72
    65
 73
     0
 40
0.0
  0
LTYPE
  5
15
330
5
100
AcDbSymbolTableRecord
100
AcDbLinetypeTableRecord
  2
BYLAYER
 70
     0
  3

 72
    65
 73
     0
 40
0.0
  0
LTYPE
  5
16
330
5
100
AcDbSymbolTableRecord
100
AcDbLinetypeTableRecord
  2
CONTINUOUS
 70
     0
  3
Solid line
 72
    65
 73
     0
 40
0.0
  0
LTYPE
  5
4B
330
5
100
AcDbSymbolTableRecord
100
AcDbLinetypeTableRecord
  2
AM_ISO02W050
 70
     0
  3
__ __ __ __ __ __ __ __ __ __ __ __ __ __ __
 72
    65
 73
     2
 40
7.5
 49
6.0
 74
     0
 49
-1.5
 74
     0
  0
LTYPE
  5
4C
330
5
100
AcDbSymbolTableRecord
100
AcDbLinetypeTableRecord
  2
AM_ISO08W050
 70
     0
  3
____ . ____ . ____ . ____ . ____ . ____ . ____
 72
    65
 73
     4
 40
18.0
 49
12.0
 74
     0
 49
-1.5
 74
     0
 49
3.0
 74
     0
 49
-1.5
 74
     0
  0
LTYPE
  5
4D
330
5
100
AcDbSymbolTableRecord
100
AcDbLinetypeTableRecord
  2
AM_ISO09W050
 70
     0
  3
_____ . . _____ . . _____ . . ____ .. ____
 72
    65
 73
     6
 40
22.5
 49
12.0
 74
     0
 49
-1.5
 74
     0
 49
3.0
 74
     0
 49
-1.5
 74
     0
 49
3.0
 74
     0
 49
-1.5
 74
     0
  0
LTYPE
  5
4E
330
5
100
AcDbSymbolTableRecord
100
AcDbLinetypeTableRecord
  2
AMCONSTR
 70
     0
  3
_______________________
 72
    65
 73
     2
 40
9999.0
 49
9999.0
 74
     0
 49
0.0
 74
     0
  0
LTYPE
  5
4F
330
5
100
AcDbSymbolTableRecord
100
AcDbLinetypeTableRecord
  2
AM_ISO02W050X2
 70
     0
  3
 _ _ _ _ _ _ _ _ _ _ _ _
 72
    65
 73
     2
 40
3.75
 49
3.0
 74
     0
 49
-0.75
 74
     0
  0
LTYPE
  5
50
330
5
100
AcDbSymbolTableRecord
100
AcDbLinetypeTableRecord
  2
AM_ISO08W050X2
 70
     0
  3
__ . __ . __ . __ . __ . __
 72
    65
 73
     4
 40
9.0
 49
6.0
 74
     0
 49
-0.75
 74
     0
 49
1.5
 74
     0
 49
-0.75
 74
     0
  0
LTYPE
  5
53
330
5
100
AcDbSymbolTableRecord
100
AcDbLinetypeTableRecord
  2
AMZIGZAG
 70
     0
  3
/\/-/\/-/\/-/\/-/\/-/\/
 72
    65
 73
     2
 40
11.00009999999999
 49
0.0001
 74
     4
 75
   135
340
52
 46
0.04
 50
0.0
 44
0.0
 45
0.0
 49
-11.0
 74
     0
  0
LTYPE
  5
166
330
5
100
AcDbSymbolTableRecord
100
AcDbLinetypeTableRecord
  2
ACJISTGL
 70
     0
  3
_ _ _ _ _
 72
    65
 73
     2
 40
3.0
 49
2.0
 74
     0
 49
-1.0
 74
     0
  0
LTYPE
  5
26A
330
5
100
AcDbSymbolTableRecord
100
AcDbLinetypeTableRecord
  2
ACJISTGB
 70
     0
  3
__ . . __ . .
 72
    65
 73
     6
 40
9.0
 49
4.0
 74
     0
 49
-1.0
 74
     0
 49
1.0
 74
     0
 49
-1.0
 74
     0
 49
1.0
 74
     0
 49
-1.0
 74
     0
  0
ENDTAB
  0
TABLE
  2
LAYER
  5
2
330
0
100
AcDbSymbolTable
 70
     7
  0
LAYER
  5
10
330
2
100
AcDbSymbolTableRecord
100
AcDbLayerTableRecord
  2
0
 70
     0
 62
     7
  6
CONTINUOUS
  0
LAYER
  5
3F9
330
2
100
AcDbSymbolTableRecord
100
AcDbLayerTableRecord
  2
AM_0
 70
     0
 62
     7
  6
CONTINUOUS
  0
LAYER
  5
BD4
330
2
100
AcDbSymbolTableRecord
100
AcDbLayerTableRecord
  2
AM_11
 70
     0
 62
     3
  6
AM_ISO09W050
  0
LAYER
  5
BD5
330
2
100
AcDbSymbolTableRecord
100
AcDbLayerTableRecord
  2
AM_7
 70
     0
 62
     4
  6
AM_ISO08W050
  0
LAYER
  5
BD6
330
2
100
AcDbSymbolTableRecord
100
AcDbLayerTableRecord
  2
AM_5
 70
     0
 62
     3
  6
CONTINUOUS
  0
LAYER
  5
BD7
330
2
100
AcDbSymbolTableRecord
100
AcDbLayerTableRecord
  2
DEFPOINTS
 70
     0
 62
     7
  6
CONTINUOUS
  0
LAYER
  5
E59
330
2
100
AcDbSymbolTableRecord
100
AcDbLayerTableRecord
  2
AM_6
 70
     0
 62
     2
  6
CONTINUOUS
  0
ENDTAB
  0
TABLE
  2
STYLE
  5
3
330
0
100
AcDbSymbolTable
 70
     5
  0
STYLE
  5
11
330
3
100
AcDbSymbolTableRecord
100
AcDbTextStyleTableRecord
  2
STANDARD
 70
     0
 40
0.0
 41
1.0
 50
0.0
 71
     0
 42
2.5
  3
simplex.shx
  4
EXTFONT.SHX
  0
STYLE
  5
52
330
3
100
AcDbSymbolTableRecord
100
AcDbTextStyleTableRecord
  2

 70
     1
 40
0.0
 41
1.0
 50
0.0
 71
     0
 42
2.5
  3
ltypeshp.shx
  4

  0
STYLE
  5
6B
330
3
100
AcDbSymbolTableRecord
100
AcDbTextStyleTableRecord
  2
ASAMI
 70
     0
 40
0.0
 41
1.0
 50
0.0
 71
     0
 42
2.5
  3
simplex.shx
  4
EXTFONT.SHX
  0
STYLE
  5
262
330
3
100
AcDbSymbolTableRecord
100
AcDbTextStyleTableRecord
  2
ACJISTS
 70
     0
 40
1.0
 41
1.0
 50
0.0
 71
     0
 42
2.5
  3
simplex.shx
  4
bigfont.shx
  0
STYLE
  5
269
330
3
100
AcDbSymbolTableRecord
100
AcDbTextStyleTableRecord
  2
ACJISGDT
 70
     0
 40
0.0
 41
1.0
 50
0.0
 71
     0
 42
2.5
  3
amgdtans.shx
  4

  0
ENDTAB
  0
TABLE
  2
VIEW
  5
6
330
0
100
AcDbSymbolTable
 70
     0
  0
ENDTAB
  0
TABLE
  2
UCS
  5
7
330
0
100
AcDbSymbolTable
 70
     0
  0
ENDTAB
  0
TABLE
  2
APPID
  5
9
330
0
100
AcDbSymbolTable
 70
    12
  0
APPID
  5
12
330
9
100
AcDbSymbolTableRecord
100
AcDbRegAppTableRecord
  2
ACAD
 70
     0
  0
APPID
  5
30
330
9
100
AcDbSymbolTableRecord
100
AcDbRegAppTableRecord
  2
MCAD_NO_VIS
 70
     0
  0
APPID
  5
31
330
9
100
AcDbSymbolTableRecord
100
AcDbRegAppTableRecord
  2
ACAD_TEMP_GRAPHIC
 70
     0
  0
APPID
  5
2C2
330
9
100
AcDbSymbolTableRecord
100
AcDbRegAppTableRecord
  2
GENIUS_GENDTOL_13
 70
     0
  0
APPID
  5
339
330
9
100
AcDbSymbolTableRecord
100
AcDbRegAppTableRecord
  2
GENIUS_GENODEF_13
 70
     0
  0
APPID
  5
33A
330
9
100
AcDbSymbolTableRecord
100
AcDbRegAppTableRecord
  2
GENIUS_GENOBJ-N-RSBK_13
 70
     0
  0
APPID
  5
33B
330
9
100
AcDbSymbolTableRecord
100
AcDbRegAppTableRecord
  2
GENIUS_GENOBJ-N-LIB_13
 70
     0
  0
APPID
  5
33C
330
9
100
AcDbSymbolTableRecord
100
AcDbRegAppTableRecord
  2
GENIUS_GENSCALE_13
 70
     0
  0
APPID
  5
378
330
9
100
AcDbSymbolTableRecord
100
AcDbRegAppTableRecord
  2
GENIUS_GENDIMSH_14
 70
     0
  0
APPID
  5
BD8
330
9
100
AcDbSymbolTableRecord
100
AcDbRegAppTableRecord
  2
GENIUS_GENOBJ-N-CEN_13
 70
     0
  0
APPID
  5
BD9
330
9
100
AcDbSymbolTableRecord
100
AcDbRegAppTableRecord
  2
GENIUS_GENFIL_13
 70
     0
  0
APPID
  5
BDA
330
9
100
AcDbSymbolTableRecord
100
AcDbRegAppTableRecord
  2
GENIUS_GENOBJ-N-CHA_13
 70
     0
  0
ENDTAB
  0
TABLE
  2
DIMSTYLE
  5
A
330
0
100
AcDbSymbolTable
 70
     8
  0
DIMSTYLE
105
58
102
{ACAD_REACTORS
330
105F
330
10EF
330
1180
330
16C7
102
}
330
A
100
AcDbSymbolTableRecord
100
AcDbDimStyleTableRecord
  2
AM_JIS
 70
     0
  3

  4
"
  5
OPEN30
  6

  7

 40
0.5
 41
2.5
 42
1.0
 43
12.0
 44
1.0
 45
0.0
 46
0.0
 47
0.1
 48
0.1
140
3.2
141
0.0
142
0.0
143
0.0393701
144
1.0
145
0.0
146
0.71
147
1.5
 71
     0
 72
     0
 73
     0
 74
     0
 75
     0
 76
     0
 77
     3
 78
     8
170
     0
171
     2
172
     1
173
     0
174
     0
175
     0
176
   256
177
   256
178
     2
270
     2
271
     3
272
     3
273
     2
274
     2
340
6B
275
     0
280
     0
281
     0
282
     0
283
     0
284
     0
285
     0
286
     0
287
     3
288
     0
  0
DIMSTYLE
105
5F
330
A
100
AcDbSymbolTableRecord
100
AcDbDimStyleTableRecord
  2
AM_JIS$3
 70
     0
  3

  4
"
  5
OPEN30
  6

  7

 40
0.5
 41
2.5
 42
1.0
 43
10.0
 44
1.0
 45
0.0
 46
0.0
 47
0.1
 48
0.1
140
3.2
141
0.0
142
0.0
143
0.0393701
144
1.0
145
0.0
146
0.71
147
1.5
 71
     0
 72
     0
 73
     0
 74
     1
 75
     0
 76
     0
 77
     3
 78
     8
170
     0
171
     2
172
     0
173
     0
174
     0
175
     0
176
   256
177
   256
178
     2
270
     2
271
     2
272
     3
273
     2
274
     2
340
6B
275
     0
280
     0
281
     0
282
     0
283
     0
284
     0
285
     0
286
     0
287
     0
288
     1
  0
DIMSTYLE
105
60
330
A
100
AcDbSymbolTableRecord
100
AcDbDimStyleTableRecord
  2
AM_JIS$4
 70
     0
  3

  4
"
  5
OPEN30
  6

  7

 40
0.5
 41
2.5
 42
1.0
 43
10.0
 44
1.0
 45
0.0
 46
0.0
 47
0.1
 48
0.1
140
3.2
141
0.0
142
0.0
143
0.0393701
144
1.0
145
0.0
146
0.71
147
1.5
 71
     0
 72
     0
 73
     0
 74
     1
 75
     0
 76
     0
 77
     3
 78
     8
170
     0
171
     2
172
     0
173
     0
174
     0
175
     0
176
   256
177
   256
178
     2
270
     2
271
     2
272
     3
273
     2
274
     2
340
6B
275
     0
280
     0
281
     0
282
     0
283
     0
284
     0
285
     0
286
     0
287
     0
288
     1
  0
DIMSTYLE
105
61
330
A
100
AcDbSymbolTableRecord
100
AcDbDimStyleTableRecord
  2
AM_JIS$6
 70
     0
  3

  4
"
  5
OPEN30
  6

  7

 40
0.5
 41
2.5
 42
1.0
 43
10.0
 44
1.0
 45
0.0
 46
0.0
 47
0.1
 48
0.1
140
3.2
141
0.0
142
0.0
143
0.0393701
144
1.0
145
0.0
146
0.71
147
1.5
 71
     0
 72
     0
 73
     0
 74
     0
 75
     0
 76
     0
 77
     0
 78
     8
170
     0
171
     2
172
     1
173
     0
174
     0
175
     0
176
   256
177
   256
178
     2
270
     2
271
     2
272
     2
273
     2
274
     2
340
6B
275
     0
280
     0
281
     0
282
     0
283
     0
284
     0
285
     0
286
     0
287
     3
288
     0
  0
DIMSTYLE
105
62
330
A
100
AcDbSymbolTableRecord
100
AcDbDimStyleTableRecord
  2
AM_JIS$7
 70
     0
  3

  4
"
  5
OPEN30
  6

  7

 40
0.5
 41
2.5
 42
1.0
 43
10.0
 44
1.0
 45
0.0
 46
0.0
 47
0.1
 48
0.1
140
3.2
141
0.0
142
0.0
143
0.0393701
144
1.0
145
0.0
146
0.71
147
1.5
 71
     0
 72
     0
 73
     0
 74
     0
 75
     0
 76
     0
 77
     3
 78
     8
170
     0
171
     2
172
     1
173
     0
174
     0
175
     0
176
   256
177
   256
178
     2
270
     2
271
     2
272
     3
273
     2
274
     2
340
6B
275
     0
280
     0
281
     0
282
     0
283
     0
284
     0
285
     0
286
     0
287
     3
288
     0
  0
DIMSTYLE
105
63
330
A
100
AcDbSymbolTableRecord
100
AcDbDimStyleTableRecord
  2
AM_JIS$SF
 70
     0
  3

  4
"
  5
OPEN30
  6

  7

 40
0.5
 41
2.5
 42
1.0
 43
10.0
 44
1.0
 45
0.0
 46
0.0
 47
0.1
 48
0.1
140
3.2
141
0.0
142
0.0
143
0.0393701
144
1.0
145
0.0
146
0.71
147
1.5
 71
     0
 72
     0
 73
     0
 74
     0
 75
     1
 76
     1
 77
     3
 78
     8
170
     0
171
     2
172
     1
173
     0
174
     0
175
     0
176
   256
177
   256
178
     2
270
     2
271
     2
272
     2
273
     2
274
     2
340
6B
275
     0
280
     0
281
     0
282
     0
283
     0
284
     0
285
     0
286
     0
287
     3
288
     0
  0
DIMSTYLE
105
68
330
A
100
AcDbSymbolTableRecord
100
AcDbDimStyleTableRecord
  2
AM_JIS$SH
 70
     0
  3

  4
"
  5

  6
GENAXEH
  7
OPEN30
 40
0.5
 41
2.5
 42
1.0
 43
10.0
 44
1.0
 45
0.0
 46
0.0
 47
0.1
 48
0.1
140
3.2
141
0.0
142
0.0
143
0.0393701
144
2.0
145
0.0
146
0.71
147
1.5
 71
     0
 72
     0
 73
     0
 74
     0
 75
     1
 76
     1
 77
     3
 78
     8
170
     0
171
     2
172
     1
173
     1
174
     0
175
     0
176
   256
177
   256
178
     2
270
     2
271
     2
272
     2
273
     2
274
     2
340
6B
275
     0
280
     0
281
     0
282
     0
283
     0
284
     0
285
     0
286
     0
287
     3
288
     0
  0
DIMSTYLE
105
B34
330
A
100
AcDbSymbolTableRecord
100
AcDbDimStyleTableRecord
  2
AM_JIS$2
 70
     0
  3

  4
"
  5
OPEN30
  6

  7

 40
0.5
 41
2.5
 42
1.0
 43
12.0
 44
1.0
 45
0.0
 46
0.0
 47
0.1
 48
0.1
140
3.2
141
0.0
142
0.0
143
0.0393701
144
1.0
145
0.0
146
0.71
147
1.5
 71
     0
 72
     0
 73
     0
 74
     0
 75
     0
 76
     0
 77
     3
 78
     8
170
     0
171
     2
172
     1
173
     0
174
     0
175
     0
176
   256
177
   256
178
     2
270
     2
271
     3
272
     3
273
     2
274
     2
340
6B
275
     0
280
     0
281
     0
282
     0
283
     0
284
     0
285
     0
286
     0
287
     3
288
     0
  0
ENDTAB
  0
TABLE
  2
BLOCK_RECORD
  5
1
330
0
100
AcDbSymbolTable
 70
     9
  0
BLOCK_RECORD
  5
1F
102
{ACAD_XDICTIONARY
360
74
102
}
330
1
100
AcDbSymbolTableRecord
100
AcDbBlockTableRecord
  2
*MODEL_SPACE
  0
BLOCK_RECORD
  5
101
102
{ACAD_XDICTIONARY
360
18AA
102
}
330
1
100
AcDbSymbolTableRecord
100
AcDbBlockTableRecord
  2
*PAPER_SPACE
  0
BLOCK_RECORD
  5
59
330
1
100
AcDbSymbolTableRecord
100
AcDbBlockTableRecord
  2
_OPEN30
  0
BLOCK_RECORD
  5
64
330
1
100
AcDbSymbolTableRecord
100
AcDbBlockTableRecord
  2
GENAXEH
  0
BLOCK_RECORD
  5
1060
330
1
100
AcDbSymbolTableRecord
100
AcDbBlockTableRecord
  2
*D5
  0
BLOCK_RECORD
  5
10F0
330
1
100
AcDbSymbolTableRecord
100
AcDbBlockTableRecord
  2
*D6
  0
BLOCK_RECORD
  5
1181
330
1
100
AcDbSymbolTableRecord
100
AcDbBlockTableRecord
  2
*D7
  0
BLOCK_RECORD
  5
16C8
330
1
100
AcDbSymbolTableRecord
100
AcDbBlockTableRecord
  2
*D8
  0
ENDTAB
  0
ENDSEC
  0
SECTION
  2
BLOCKS
  0
BLOCK
  5
20
330
1F
100
AcDbEntity
  8
0
100
AcDbBlockBegin
  2
*MODEL_SPACE
 70
     0
 10
0.0
 20
0.0
 30
0.0
  3
*MODEL_SPACE
  1

  0
ENDBLK
  5
21
330
1F
100
AcDbEntity
  8
0
100
AcDbBlockEnd
  0
BLOCK
  5
103
330
101
100
AcDbEntity
 67
     1
  8
0
100
AcDbBlockBegin
  2
*PAPER_SPACE
 70
     0
 10
0.0
 20
0.0
 30
0.0
  3
*PAPER_SPACE
  1

  0
ENDBLK
  5
104
330
101
100
AcDbEntity
 67
     1
  8
0
100
AcDbBlockEnd
  0
BLOCK
  5
5D
330
59
100
AcDbEntity
  8
0
100
AcDbBlockBegin
  2
_OPEN30
 70
     0
 10
0.0
 20
0.0
 30
0.0
  3
_OPEN30
  1

  0
LINE
  5
5A
330
59
100
AcDbEntity
  8
0
 62
     0
100
AcDbLine
 10
-1.0
 20
0.26794919
 30
0.0
 11
0.0
 21
0.0
 31
0.0
  0
LINE
  5
5B
330
59
100
AcDbEntity
  8
0
 62
     0
100
AcDbLine
 10
0.0
 20
0.0
 30
0.0
 11
-1.0
 21
-0.26794919
 31
0.0
  0
LINE
  5
5C
330
59
100
AcDbEntity
  8
0
 62
     0
100
AcDbLine
 10
0.0
 20
0.0
 30
0.0
 11
-1.0
 21
0.0
 31
0.0
  0
ENDBLK
  5
5E
330
59
100
AcDbEntity
  8
0
100
AcDbBlockEnd
  0
BLOCK
  5
66
330
64
100
AcDbEntity
  8
0
100
AcDbBlockBegin
  2
GENAXEH
 70
     0
 10
0.0
 20
0.0
 30
0.0
  3
GENAXEH
  1

  0
LINE
  5
65
330
64
100
AcDbEntity
  8
0
100
AcDbLine
 10
-1.0
 20
0.0
 30
0.0
 11
1.0
 21
0.0
 31
0.0
  0
ENDBLK
  5
67
330
64
100
AcDbEntity
  8
0
100
AcDbBlockEnd
  0
BLOCK
  5
106A
330
1060
100
AcDbEntity
  8
0
100
AcDbBlockBegin
  2
*D5
 70
     1
 10
0.0
 20
0.0
 30
0.0
  3
*D5
  1

  0
LINE
  5
182B
330
1060
100
AcDbEntity
  8
AM_5
100
AcDbLine
 10
-40.0
 20
-4.49999999999992
 30
0.0
 11
-40.0
 21
-11.50125636954065
 31
0.0
  0
LINE
  5
182C
330
1060
100
AcDbEntity
  8
AM_5
100
AcDbLine
 10
-0.0000000000007532
 20
-4.500000000000024
 30
0.0
 11
-0.0000000000007536
 21
-11.50125636954065
 31
0.0
  0
LINE
  5
182D
330
1060
100
AcDbEntity
  8
AM_5
100
AcDbLine
 10
-38.75
 20
-11.00125636954065
 30
0.0
 11
-1.250000000000753
 21
-11.00125636954065
 31
0.0
  0
INSERT
  5
182E
330
1060
100
AcDbEntity
  8
AM_5
100
AcDbBlockReference
  2
_OPEN30
 10
-40.0
 20
-11.00125636954065
 30
0.0
 41
1.25
 42
1.25
 43
1.25
 50
180.0
  0
INSERT
  5
182F
330
1060
100
AcDbEntity
  8
AM_5
100
AcDbBlockReference
  2
_OPEN30
 10
-0.0000000000007536
 20
-11.00125636954065
 30
0.0
 41
1.25
 42
1.25
 43
1.25
  0
MTEXT
  5
1830
330
1060
100
AcDbEntity
  8
AM_5
 62
     2
100
AcDbMText
 10
-20.00000000000037
 20
-9.451256369540654
 30
0.0
 40
1.6
 41
0.0
 71
     5
 72
     1
  1
40
  7
ASAMI
1001
ACAD
1000
MTEXTBEGIN
1070
    73
1070
     1
1070
    44
1040
1.0
1070
    74
1070
     0
1000
MTEXTEND
  0
POINT
  5
1831
330
1060
100
AcDbEntity
  8
DEFPOINTS
 62
     0
100
AcDbPoint
 10
-40.0
 20
-3.99999999999992
 30
0.0
  0
POINT
  5
1832
330
1060
100
AcDbEntity
  8
DEFPOINTS
 62
     0
100
AcDbPoint
 10
-0.0000000000007532
 20
-4.000000000000024
 30
0.0
  0
POINT
  5
1833
330
1060
100
AcDbEntity
  8
DEFPOINTS
 62
     0
100
AcDbPoint
 10
-0.0000000000007536
 20
-11.00125636954065
 30
0.0
  0
ENDBLK
  5
106B
330
1060
100
AcDbEntity
  8
0
100
AcDbBlockEnd
  0
BLOCK
  5
10FA
330
10F0
100
AcDbEntity
  8
0
100
AcDbBlockBegin
  2
*D6
 70
     1
 10
0.0
 20
0.0
 30
0.0
  3
*D6
  1

  0
LINE
  5
1822
330
10F0
100
AcDbEntity
  8
AM_5
100
AcDbLine
 10
-85.0
 20
-3.999999999999147
 30
0.0
 11
-85.0
 21
-17.50125636954065
 31
0.0
  0
LINE
  5
1823
330
10F0
100
AcDbEntity
  8
AM_5
100
AcDbLine
 10
0.0000000000000248
 20
-4.500000000000024
 30
0.0
 11
0.000000000000024
 21
-17.50125636954065
 31
0.0
  0
LINE
  5
1824
330
10F0
100
AcDbEntity
  8
AM_5
100
AcDbLine
 10
-83.75
 20
-17.00125636954065
 30
0.0
 11
-1.249999999999976
 21
-17.00125636954065
 31
0.0
  0
INSERT
  5
1825
330
10F0
100
AcDbEntity
  8
AM_5
100
AcDbBlockReference
  2
_OPEN30
 10
-85.0
 20
-17.00125636954065
 30
0.0
 41
1.25
 42
1.25
 43
1.25
 50
180.0
  0
INSERT
  5
1826
330
10F0
100
AcDbEntity
  8
AM_5
100
AcDbBlockReference
  2
_OPEN30
 10
0.0000000000000241
 20
-17.00125636954065
 30
0.0
 41
1.25
 42
1.25
 43
1.25
  0
MTEXT
  5
1827
330
10F0
100
AcDbEntity
  8
AM_5
 62
     2
100
AcDbMText
 10
-42.49999999999999
 20
-15.45125636954065
 30
0.0
 40
1.6
 41
0.0
 71
     5
 72
     1
  1
85
  7
ASAMI
1001
ACAD
1000
MTEXTBEGIN
1070
    73
1070
     1
1070
    44
1040
1.0
1070
    74
1070
     0
1000
MTEXTEND
  0
POINT
  5
1828
330
10F0
100
AcDbEntity
  8
DEFPOINTS
 62
     0
100
AcDbPoint
 10
-85.0
 20
-3.499999999999147
 30
0.0
  0
POINT
  5
1829
330
10F0
100
AcDbEntity
  8
DEFPOINTS
 62
     0
100
AcDbPoint
 10
0.0000000000000249
 20
-4.000000000000024
 30
0.0
  0
POINT
  5
182A
330
10F0
100
AcDbEntity
  8
DEFPOINTS
 62
     0
100
AcDbPoint
 10
0.0000000000000241
 20
-17.00125636954065
 30
0.0
  0
ENDBLK
  5
10FB
330
10F0
100
AcDbEntity
  8
0
100
AcDbBlockEnd
  0
BLOCK
  5
118B
330
1181
100
AcDbEntity
  8
0
100
AcDbBlockBegin
  2
*D7
 70
     1
 10
0.0
 20
0.0
 30
0.0
  3
*D7
  1

  0
LINE
  5
1705
330
1181
100
AcDbEntity
  8
AM_5
100
AcDbLine
 10
0.5000000000000015
 20
4.0
 30
0.0
 11
12.05776903085495
 21
3.999999999999996
 31
0.0
  0
LINE
  5
1706
330
1181
100
AcDbEntity
  8
AM_5
100
AcDbLine
 10
0.5
 20
-4.0
 30
0.0
 11
12.05776903085494
 21
-4.000000000000003
 31
0.0
  0
LINE
  5
1707
330
1181
100
AcDbEntity
  8
AM_5
100
AcDbLine
 10
11.55776903085495
 20
2.749999999999996
 30
0.0
 11
11.55776903085495
 21
-2.750000000000003
 31
0.0
  0
INSERT
  5
1708
330
1181
100
AcDbEntity
  8
AM_5
100
AcDbBlockReference
  2
_OPEN30
 10
11.55776903085495
 20
3.999999999999996
 30
0.0
 41
1.25
 42
1.25
 43
1.25
 50
90.0
  0
INSERT
  5
1709
330
1181
100
AcDbEntity
  8
AM_5
100
AcDbBlockReference
  2
_OPEN30
 10
11.55776903085494
 20
-4.000000000000003
 30
0.0
 41
1.25
 42
1.25
 43
1.25
 50
270.0
  0
MTEXT
  5
170A
330
1181
100
AcDbEntity
  8
AM_5
 62
     2
100
AcDbMText
 10
10.00776903085495
 20
-0.0000000000000014
 30
0.0
 40
1.6
 41
0.0
 71
     5
 72
     1
  1
%%c8
  7
ASAMI
 11
0.0000000000000001
 21
1.0
 31
0.0
1001
ACAD
1000
MTEXTBEGIN
1070
    73
1070
     1
1070
    44
1040
1.0
1070
    74
1070
     0
1000
MTEXTEND
  0
POINT
  5
170B
330
1181
100
AcDbEntity
  8
DEFPOINTS
 62
     0
100
AcDbPoint
 10
0.0000000000000014
 20
4.0
 30
0.0
  0
POINT
  5
170C
330
1181
100
AcDbEntity
  8
DEFPOINTS
 62
     0
100
AcDbPoint
 10
0.0
 20
-4.0
 30
0.0
  0
POINT
  5
170D
330
1181
100
AcDbEntity
  8
DEFPOINTS
 62
     0
100
AcDbPoint
 10
11.55776903085494
 20
-4.000000000000003
 30
0.0
  0
ENDBLK
  5
118C
330
1181
100
AcDbEntity
  8
0
100
AcDbBlockEnd
  0
BLOCK
  5
16D2
330
16C8
100
AcDbEntity
  8
0
100
AcDbBlockBegin
  2
*D8
 70
     1
 10
0.0
 20
0.0
 30
0.0
  3
*D8
  1

  0
LINE
  5
16D5
330
16C8
100
AcDbEntity
  8
AM_5
100
AcDbLine
 10
-85.00000000000001
 20
3.999999999999824
 30
0.0
 11
-95.28823125971978
 21
3.999999999999827
 31
0.0
  0
LINE
  5
16D6
330
16C8
100
AcDbEntity
  8
AM_5
100
AcDbLine
 10
-85.0
 20
-3.999999999999165
 30
0.0
 11
-95.28823125971978
 21
-3.999999999999161
 31
0.0
  0
LINE
  5
16D7
330
16C8
100
AcDbEntity
  8
AM_5
100
AcDbLine
 10
-94.78823125971977
 20
2.749999999999826
 30
0.0
 11
-94.78823125971977
 21
-2.749999999999162
 31
0.0
  0
INSERT
  5
16D8
330
16C8
100
AcDbEntity
  8
AM_5
100
AcDbBlockReference
  2
_OPEN30
 10
-94.78823125971977
 20
3.999999999999826
 30
0.0
 41
1.25
 42
1.25
 43
1.25
 50
90.0
  0
INSERT
  5
16D9
330
16C8
100
AcDbEntity
  8
AM_5
100
AcDbBlockReference
  2
_OPEN30
 10
-94.78823125971977
 20
-3.999999999999162
 30
0.0
 41
1.25
 42
1.25
 43
1.25
 50
270.0
  0
MTEXT
  5
16DA
330
16C8
100
AcDbEntity
  8
AM_5
 62
     2
100
AcDbMText
 10
-96.33823125971979
 20
0.0000000000003173
 30
0.0
 40
1.6
 41
0.0
 71
     5
 72
     1
  1
%%c8
  7
ASAMI
 11
0.0000000000000001
 21
1.0
 31
0.0
1001
ACAD
1000
MTEXTBEGIN
1070
    73
1070
     1
1070
    44
1040
1.0
1070
    74
1070
     0
1000
MTEXTEND
  0
POINT
  5
16DB
330
16C8
100
AcDbEntity
  8
DEFPOINTS
 62
     0
100
AcDbPoint
 10
-84.50000000000001
 20
3.999999999999824
 30
0.0
  0
POINT
  5
16DC
330
16C8
100
AcDbEntity
  8
DEFPOINTS
 62
     0
100
AcDbPoint
 10
-84.50000000000001
 20
-3.999999999999165
 30
0.0
  0
POINT
  5
16DD
330
16C8
100
AcDbEntity
  8
DEFPOINTS
 62
     0
100
AcDbPoint
 10
-94.78823125971977
 20
-3.999999999999162
 30
0.0
  0
ENDBLK
  5
16D3
330
16C8
100
AcDbEntity
  8
0
100
AcDbBlockEnd
  0
ENDSEC
  0
SECTION
  2
ENTITIES
  0
TEXT
  5
E5A
330
1F
100
AcDbEntity
  8
AM_6
100
AcDbText
 10
-51.66666666666665
 20
-28.25125636954065
 30
0.0
 40
2.5
  1
ELSM2080
 72
     4
 11
-42.49999999999999
 21
-27.00125636954065
 31
0.0
100
AcDbText
  0
LINE
  5
F47
330
1F
100
AcDbEntity
  8
AM_7
  6
AM_ISO08W050X2
100
AcDbLine
 10
4.557768030854958
 20
0.0
 30
0.0
 11
-87.78823025971979
 21
-0.0000000000000146
 31
0.0
1001
GENIUS_GENODEF_13
1002
{
1000
HIER
1070
     0
1002
}
1002
{
1000
MANEDIT
1070
     0
1002
}
1002
{
1000
NOSEL
1070
     0
1002
}
1002
{
1000
BEHIND
1070
     0
1002
}
1002
{
1000
REACTOR
1002
}
1001
GENIUS_GENOBJ-N-CEN_13
1002
{
1000
OWNER
1000
GEN
1002
}
  0
DIMENSION
  5
105F
330
1F
100
AcDbEntity
  8
AM_5
100
AcDbDimension
  2
*D5
 10
-0.0000000000007536
 20
-11.00125636954065
 30
0.0
 11
-20.00000000000037
 21
-9.451256369540654
 31
0.0
 70
    32
  1
<>
  3
AM_JIS
100
AcDbAlignedDimension
 13
-40.0
 23
-3.99999999999992
 33
0.0
 14
-0.0000000000007532
 24
-4.000000000000024
 34
0.0
 50
0.0000000000001132
100
AcDbRotatedDimension
1001
GENIUS_GENDTOL_13
1000

1000
h7
1000

1040
0.0
  0
DIMENSION
  5
10EF
330
1F
100
AcDbEntity
  8
AM_5
100
AcDbDimension
  2
*D6
 10
0.0000000000000241
 20
-17.00125636954065
 30
0.0
 11
-42.49999999999999
 21
-15.45125636954065
 31
0.0
 70
    32
  1
<>
  3
AM_JIS
100
AcDbAlignedDimension
 13
-85.0
 23
-3.499999999999147
 33
0.0
 14
0.0000000000000249
 24
-4.000000000000024
 34
0.0
 50
0.0000000000001132
100
AcDbRotatedDimension
1001
GENIUS_GENDTOL_13
1000

1000
h7
1000

1040
0.0
  0
DIMENSION
  5
1180
330
1F
100
AcDbEntity
  8
AM_5
100
AcDbDimension
  2
*D7
 10
11.55776903085494
 20
-4.000000000000003
 30
0.0
 11
10.00776903085495
 21
-0.0000000000000014
 31
0.0
 70
    32
  1
%%c<>
  3
AM_JIS
100
AcDbAlignedDimension
 13
0.0000000000000014
 23
4.0
 33
0.0
 14
0.0
 24
-4.0
 34
0.0
 50
90.0
100
AcDbRotatedDimension
1001
GENIUS_GENDTOL_13
1000

1000
h7
1000

1040
0.0
  0
LINE
  5
16C2
330
1F
100
AcDbEntity
  8
AM_0
100
AcDbLine
 10
-40.8464265136738
 20
-4.000000000000006
 30
0.0
 11
-84.50000000000001
 21
-3.999999999999155
 31
0.0
  0
LINE
  5
16C5
330
1F
100
AcDbEntity
  8
AM_0
100
AcDbLine
 10
-84.50000000000001
 20
3.999999999999809
 30
0.0
 11
-84.50000000000002
 21
-3.999999999999178
 31
0.0
  0
LINE
  5
16C6
330
1F
100
AcDbEntity
  8
AM_0
100
AcDbLine
 10
-85.00000000000001
 20
3.499999999999823
 30
0.0
 11
-85.0
 21
-3.499999999999147
 31
0.0
  0
DIMENSION
  5
16C7
330
1F
100
AcDbEntity
  8
AM_5
100
AcDbDimension
  2
*D8
 10
-94.78823125971977
 20
-3.999999999999162
 30
0.0
 11
-96.33823125971979
 21
0.0000000000003173
 31
0.0
 70
    32
  1
%%c<>
  3
AM_JIS
100
AcDbAlignedDimension
 13
-84.50000000000001
 23
3.999999999999824
 33
0.0
 14
-84.50000000000001
 24
-3.999999999999165
 34
0.0
 50
270.0
100
AcDbRotatedDimension
1001
GENIUS_GENDTOL_13
1000

1000
h7
1000

1040
0.0
  0
LINE
  5
16D4
330
1F
100
AcDbEntity
  8
AM_0
100
AcDbLine
 10
-42.73091784557169
 20
3.999999999999876
 30
0.0
 11
-84.50000000000001
 21
3.999999999999824
 31
0.0
  0
LINE
  5
16E0
330
1F
100
AcDbEntity
  8
AM_0
100
AcDbLine
 10
-84.50000000000001
 20
3.999999999999824
 30
0.0
 11
-85.00000000000001
 21
3.499999999999823
 31
0.0
1001
GENIUS_GENFIL_13
1070
     0
1040
0.5
1040
0.5
1040
20.0
1040
0.0
1002
{
1002
}
1001
GENIUS_GENODEF_13
1002
{
1000
HIER
1070
     0
1002
}
1002
{
1000
MANEDIT
1070
     0
1002
}
1002
{
1000
NOSEL
1070
     0
1002
}
1002
{
1000
BEHIND
1070
     0
1002
}
1002
{
1000
REACTOR
1002
}
1001
GENIUS_GENOBJ-N-CHA_13
1002
{
1000
OWNER
1000
GEN
1002
}
  0
LINE
  5
16E3
330
1F
100
AcDbEntity
  8
AM_0
100
AcDbLine
 10
-85.0
 20
-3.499999999999147
 30
0.0
 11
-84.50000000000001
 21
-3.999999999999155
 31
0.0
1001
GENIUS_GENFIL_13
1070
     0
1040
0.5
1040
0.5
1040
20.0
1040
0.0
1002
{
1002
}
1001
GENIUS_GENODEF_13
1002
{
1000
HIER
1070
     0
1002
}
1002
{
1000
MANEDIT
1070
     0
1002
}
1002
{
1000
NOSEL
1070
     0
1002
}
1002
{
1000
BEHIND
1070
     0
1002
}
1002
{
1000
REACTOR
1002
}
1001
GENIUS_GENOBJ-N-CHA_13
1002
{
1000
OWNER
1000
GEN
1002
}
  0
SPLINE
  5
17D1
330
1F
100
AcDbEntity
  8
AM_0
100
AcDbSpline
210
0.0
220
0.0
230
1.0
 70
     8
 71
     3
 72
     8
 73
     4
 74
     0
 42
0.0000000001
 43
0.0000000001
 40
0.0
 40
0.0
 40
0.0
 40
0.0
 40
2.238610194515266
 40
2.238610194515266
 40
2.238610194515266
 40
2.238610194515266
 10
-17.9666645007933
 20
-3.999999999999015
 30
0.0
 10
-16.79614936624249
 20
-3.999999999999015
 30
0.0
 10
-15.64684358701025
 20
-3.849515214849944
 30
0.0
 10
-13.71535717213732
 20
-3.281111049125559
 30
0.0
  0
SPLINE
  5
17D2
330
1F
100
AcDbEntity
  8
AM_0
100
AcDbSpline
210
0.0
220
0.0
230
1.0
 70
     8
 71
     3
 72
     8
 73
     4
 74
     2
 42
0.0000000001
 43
0.0000000001
 44
0.0000000001
 12
1.0
 22
0.0000000000000006
 32
0.0
 40
0.0
 40
0.0
 40
0.0
 40
0.0
 40
11.59199723947517
 40
11.59199723947517
 40
11.59199723947517
 40
11.59199723947517
 10
-21.75999999999998
 20
4.000000000000074
 30
0.0
 10
-17.89600092017492
 20
4.000000000000077
 30
0.0
 10
-14.38800046008745
 20
2.000000000000075
 30
0.0
 10
-10.87999999999998
 20
0.0000000000000746
 30
0.0
 11
-21.75999999999998
 21
4.000000000000074
 31
0.0
 11
-10.87999999999998
 21
0.0000000000000746
 31
0.0
  0
SPLINE
  5
17D3
330
1F
100
AcDbEntity
  8
AM_0
100
AcDbSpline
210
0.0
220
0.0
230
1.0
 70
     8
 71
     3
 72
     8
 73
     4
 74
     0
 42
0.0000000001
 43
0.0000000001
 40
0.3581103616548037
 40
0.3581103616548037
 40
0.3581103616548037
 40
0.3581103616548037
 40
14.43901837670146
 40
14.43901837670146
 40
14.43901837670146
 40
14.43901837670146
 10
-20.07776687945773
 20
3.876676338282091
 30
0.0
 10
-16.33889106117276
 20
3.783991206442525
 30
0.0
 10
-12.91126601778852
 20
1.891995603221271
 30
0.0
 10
-9.4836409744043
 20
0.0000000000000249
 30
0.0
  0
SPLINE
  5
17D4
330
1F
100
AcDbEntity
  8
AM_0
100
AcDbSpline
210
0.0
220
0.0
230
1.0
 70
     8
 71
     3
 72
     8
 73
     4
 74
     2
 42
0.0000000001
 43
0.0000000001
 44
0.0000000001
 12
-0.6417012268563095
 22
-0.7669547153848835
 32
0.0
 13
-0.990099942783104
 23
-0.140364180975397
 33
0.0
 40
0.0
 40
0.0
 40
0.0
 40
0.0
 40
2.069252258893382
 40
2.069252258893382
 40
2.069252258893382
 40
2.069252258893382
 10
0.0
 20
3.259762149347121
 30
0.0
 10
-0.4426139044023578
 20
2.730754556920754
 30
0.0
 10
-1.202335603772824
 20
2.503579037539474
 30
0.0
 10
-1.88525778481754
 20
2.406762738022454
 30
0.0
 11
0.0
 21
3.259762149347121
 31
0.0
 11
-1.88525778481754
 21
2.406762738022454
 31
0.0
  0
SPLINE
  5
17D5
330
1F
100
AcDbEntity
  8
AM_0
100
AcDbSpline
210
0.0
220
0.0
230
1.0
 70
     8
 71
     3
 72
     8
 73
     4
 74
     0
 42
0.0000000001
 43
0.0000000001
 40
0.0
 40
0.0
 40
0.0
 40
0.0
 40
7.57842115059705
 40
7.57842115059705
 40
7.57842115059705
 40
7.57842115059705
 10
0.0
 20
3.999999999999975
 30
0.0
 10
-2.020912306825847
 20
3.999999999999975
 30
0.0
 10
-3.94444473639669
 20
3.452919916785884
 30
0.0
 10
-5.821527992451313
 20
2.644888408813965
 30
0.0
  0
SPLINE
  5
17D6
330
1F
100
AcDbEntity
  8
AM_0
100
AcDbSpline
210
0.0
220
0.0
230
1.0
 70
     8
 71
     3
 72
     8
 73
     4
 74
     0
 42
0.0000000001
 43
0.0000000001
 40
0.7142832446738512
 40
0.7142832446738512
 40
0.7142832446738512
 40
0.7142832446738512
 40
14.36247867694493
 40
14.36247867694493
 40
14.36247867694493
 40
14.36247867694493
 10
-18.18654557797685
 20
3.680478231859392
 30
0.0
 10
-14.57513730828479
 20
3.510245628380364
 30
0.0
 10
-11.22544198175228
 20
1.755122814190219
 30
0.0
 10
-7.875746655219749
 20
0.0000000000000249
 30
0.0
  0
SPLINE
  5
17D7
330
1F
100
AcDbEntity
  8
AM_0
100
AcDbSpline
210
0.0
220
0.0
230
1.0
 70
     8
 71
     3
 72
     8
 73
     4
 74
     2
 42
0.0000000001
 43
0.0000000001
 44
0.0000000001
 12
-1.0
 22
-0.0000000000000008
 32
0.0
 40
0.0
 40
0.0
 40
0.0
 40
0.0
 40
11.59199723947517
 40
11.59199723947517
 40
11.59199723947517
 40
11.59199723947517
 10
0.0000000000000249
 20
-4.000000000000024
 30
0.0
 10
-3.863999079825034
 20
-4.000000000000027
 30
0.0
 10
-7.371999539912507
 20
-2.000000000000026
 30
0.0
 10
-10.87999999999998
 20
-0.0000000000000249
 30
0.0
 11
0.0000000000000249
 21
-4.000000000000024
 31
0.0
 11
-10.87999999999998
 21
-0.0000000000000249
 31
0.0
  0
SPLINE
  5
17D8
330
1F
100
AcDbEntity
  8
AM_0
100
AcDbSpline
210
0.0
220
0.0
230
1.0
 70
     8
 71
     3
 72
     8
 73
     4
 74
     0
 42
0.0000000001
 43
0.0000000001
 40
1.870660592686466
 40
1.870660592686466
 40
1.870660592686466
 40
1.870660592686466
 40
14.43901837670146
 40
14.43901837670146
 40
14.43901837670146
 40
14.43901837670146
 10
-0.0839999999999588
 20
-3.786752926097431
 30
0.0
 10
-3.364771672983023
 20
-3.377520489681224
 30
0.0
 10
-6.424206323693674
 20
-1.688760244840597
 30
0.0
 10
-9.4836409744043
 20
0.0000000000000249
 30
0.0
  0
SPLINE
  5
17D9
330
1F
100
AcDbEntity
  8
AM_0
100
AcDbSpline
210
0.0
220
0.0
230
1.0
 70
     8
 71
     3
 72
     8
 73
     4
 74
     0
 42
0.0000000001
 43
0.0000000001
 40
4.219358800530717
 40
4.219358800530717
 40
4.219358800530717
 40
4.219358800530717
 40
14.36247867694493
 40
14.36247867694493
 40
14.36247867694493
 40
14.36247867694493
 10
-0.2999999999999545
 20
-3.262576147610491
 30
0.0
 10
-2.896867005512122
 20
-2.608758233351057
 30
0.0
 10
-5.386306830365936
 20
-1.304379116675516
 30
0.0
 10
-7.875746655219749
 20
0.0000000000000249
 30
0.0
  0
SPLINE
  5
17DA
330
1F
100
AcDbEntity
  8
AM_0
100
AcDbSpline
210
0.0
220
0.0
230
1.0
 70
     8
 71
     3
 72
     8
 73
     4
 74
     0
 42
0.0000000001
 43
0.0000000001
 40
0.0
 40
0.0
 40
0.0
 40
0.0
 40
13.97258598406841
 40
13.97258598406841
 40
13.97258598406841
 40
13.97258598406841
 10
-30.19454464764089
 20
-3.069356366984042
 30
0.0
 10
-33.92056757672581
 20
-3.069356366984042
 30
0.0
 10
-37.43167663452789
 20
-1.544497772289179
 30
0.0
 10
-40.94001774276388
 20
-0.0000000000000746
 30
0.0
  0
SPLINE
  5
17DB
330
1F
100
AcDbEntity
  8
AM_0
100
AcDbSpline
210
0.0
220
0.0
230
1.0
 70
     8
 71
     3
 72
     8
 73
     4
 74
     2
 42
0.0000000001
 43
0.0000000001
 44
0.0000000001
 12
1.0
 22
0.0000000000000006
 32
0.0
 40
0.0
 40
0.0
 40
0.0
 40
0.0
 40
11.59199723947516
 40
11.59199723947516
 40
11.59199723947516
 40
11.59199723947516
 10
-42.73091784557286
 20
3.999999999999868
 30
0.0
 10
-38.8669187657478
 20
3.999999999999871
 30
0.0
 10
-35.35891830566033
 20
1.999999999999871
 30
0.0
 10
-31.85091784557286
 20
-0.0000000000001279
 30
0.0
 11
-42.73091784557286
 21
3.999999999999868
 31
0.0
 11
-31.85091784557286
 21
-0.0000000000001279
 31
0.0
  0
SPLINE
  5
17DC
330
1F
100
AcDbEntity
  8
AM_0
100
AcDbSpline
210
0.0
220
0.0
230
1.0
 70
     8
 71
     3
 72
     8
 73
     4
 74
     0
 42
0.0000000001
 43
0.0000000001
 40
0.0
 40
0.0
 40
0.0
 40
0.0
 40
2.238610194515266
 40
2.238610194515266
 40
2.238610194515266
 40
2.238610194515266
 10
-30.19454464764089
 20
-3.069356366984042
 30
0.0
 10
-29.02402951309007
 20
-3.069356366984042
 30
0.0
 10
-27.87472373385783
 20
-2.918871581834967
 30
0.0
 10
-26.1930180972712
 20
-2.664567341706291
 30
0.0
  0
SPLINE
  5
17DD
330
1F
100
AcDbEntity
  8
AM_0
100
AcDbSpline
210
0.0
220
0.0
230
1.0
 70
     8
 71
     3
 72
     8
 73
     4
 74
     0
 42
0.0000000001
 43
0.0000000001
 40
0.3581103616548037
 40
0.3581103616548037
 40
0.3581103616548037
 40
0.3581103616548037
 40
14.43901837670146
 40
14.43901837670146
 40
14.43901837670146
 40
14.43901837670146
 10
-41.04868472503061
 20
3.876676338281942
 30
0.0
 10
-37.30980890674562
 20
3.783991206442376
 30
0.0
 10
-33.8821838633614
 20
1.891995603221122
 30
0.0
 10
-30.45455881997718
 20
-0.0000000000001279
 30
0.0
  0
SPLINE
  5
17DE
330
1F
100
AcDbEntity
  8
AM_0
100
AcDbSpline
210
0.0
220
0.0
230
1.0
 70
     8
 71
     3
 72
     8
 73
     4
 74
     0
 42
0.0000000001
 43
0.0000000001
 40
0.7142832446738512
 40
0.7142832446738512
 40
0.7142832446738512
 40
0.7142832446738512
 40
14.36247867694493
 40
14.36247867694493
 40
14.36247867694493
 40
14.36247867694493
 10
-39.15746342354971
 20
3.680478231859243
 30
0.0
 10
-35.54605515385766
 20
3.510245628380214
 30
0.0
 10
-32.19635982732515
 20
1.755122814190013
 30
0.0
 10
-28.84666450079263
 20
-0.0000000000001279
 30
0.0
  0
SPLINE
  5
17DF
330
1F
100
AcDbEntity
  8
AM_0
100
AcDbSpline
210
0.0
220
0.0
230
1.0
 70
     8
 71
     3
 72
     8
 73
     4
 74
     0
 42
0.0000000001
 43
0.0000000001
 40
0.0
 40
0.0
 40
0.0
 40
0.0
 40
5.192508374738713
 40
5.192508374738713
 40
5.192508374738713
 40
5.192508374738713
 10
-42.73091784557289
 20
3.999999999999925
 30
0.0
 10
-44.11558674550316
 20
3.999999999999925
 30
0.0
 10
-45.45453986256006
 20
3.743168763366934
 30
0.0
 10
-46.87303062866064
 20
3.258685312027029
 30
0.0
  0
SPLINE
  5
17E0
330
1F
100
AcDbEntity
  8
AM_0
100
AcDbSpline
210
0.0
220
0.0
230
1.0
 70
     8
 71
     3
 72
     8
 73
     4
 74
     0
 42
0.0000000001
 43
0.0000000001
 40
0.0
 40
0.0
 40
0.0
 40
0.0
 40
7.57842115059705
 40
7.57842115059705
 40
7.57842115059705
 40
7.57842115059705
 10
-21.75999999999941
 20
3.999999999999975
 30
0.0
 10
-23.78091230682528
 20
3.999999999999975
 30
0.0
 10
-25.70444473639609
 20
3.452919916785884
 30
0.0
 10
-27.58152799245072
 20
2.644888408813965
 30
0.0
  0
SPLINE
  5
17E1
330
1F
100
AcDbEntity
  8
AM_0
100
AcDbSpline
210
0.0
220
0.0
230
1.0
 70
     8
 71
     3
 72
     8
 73
     4
 74
     0
 42
0.0000000001
 43
0.0000000001
 40
0.7142832446738512
 40
0.7142832446738512
 40
0.7142832446738512
 40
0.7142832446738512
 40
14.36247867694493
 40
14.36247867694493
 40
14.36247867694493
 40
14.36247867694493
 10
-21.54011892281578
 20
-3.680478231859499
 30
0.0
 10
-25.15152719250782
 20
-3.510245628380467
 30
0.0
 10
-28.50122251904036
 20
-1.755122814190272
 30
0.0
 10
-31.85091784557286
 20
-0.0000000000001279
 30
0.0
  0
SPLINE
  5
17E2
330
1F
100
AcDbEntity
  8
AM_0
100
AcDbSpline
210
0.0
220
0.0
230
1.0
 70
     8
 71
     3
 72
     8
 73
     4
 74
     0
 42
0.0000000001
 43
0.0000000001
 40
0.3581103616548037
 40
0.3581103616548037
 40
0.3581103616548037
 40
0.3581103616548037
 40
14.43901837670146
 40
14.43901837670146
 40
14.43901837670146
 40
14.43901837670146
 10
-19.64889762133488
 20
-3.876676338282198
 30
0.0
 10
-23.38777343961987
 20
-3.783991206442632
 30
0.0
 10
-26.81539848300409
 20
-1.891995603221378
 30
0.0
 10
-30.45455881997738
 20
-0.0000000000000746
 30
0.0
  0
SPLINE
  5
17E3
330
1F
100
AcDbEntity
  8
AM_0
100
AcDbSpline
210
0.0
220
0.0
230
1.0
 70
     8
 71
     3
 72
     8
 73
     4
 74
     2
 42
0.0000000001
 43
0.0000000001
 44
0.0000000001
 12
-1.0
 22
-0.0000000000000014
 32
0.0
 40
0.0
 40
0.0
 40
0.0
 40
0.0
 40
11.59199723947515
 40
11.59199723947515
 40
11.59199723947515
 40
11.59199723947515
 10
-17.96666450079265
 20
-4.000000000000127
 30
0.0
 10
-21.8306635806177
 20
-4.000000000000133
 30
0.0
 10
-25.33866404070517
 20
-2.00000000000013
 30
0.0
 10
-28.84666450079263
 20
-0.0000000000001279
 30
0.0
 11
-17.96666450079265
 21
-4.000000000000127
 31
0.0
 11
-28.84666450079263
 21
-0.0000000000001279
 31
0.0
  0
LINE
  5
17E4
330
1F
100
AcDbEntity
  8
AM_0
100
AcDbLine
 10
-0.2685118819767478
 20
0.479999999999972
 30
0.0
 11
0.0
 21
0.8000000000000007
 31
0.0
  0
LINE
  5
17E5
330
1F
100
AcDbEntity
  8
AM_0
100
AcDbLine
 10
0.0
 20
0.1599999999999859
 30
0.0
 11
-1.885257784817529
 21
2.406762738022454
 31
0.0
  0
LINE
  5
17E6
330
1F
100
AcDbEntity
  8
AM_11
100
AcDbLine
 10
0.0
 20
-3.999999999999054
 30
0.0
 11
0.0
 21
3.999999999999939
 31
0.0
  0
ARC
  5
17E7
330
1F
100
AcDbEntity
  8
AM_0
100
AcDbCircle
 10
11.36541475390614
 20
0.016829849366701
 30
0.0
 40
12.10601631192947
100
AcDbArc
 50
175.3635181775061
 51
195.5055110014724
  0
ARC
  5
17E8
330
1F
100
AcDbEntity
  8
AM_0
100
AcDbCircle
 10
-9.433416053999192
 20
64.39373233411325
 30
0.0
 40
71.68834433777847
100
AcDbArc
 50
238.516348495351
 51
243.9283952048679
  0
LINE
  5
17E9
330
1F
100
AcDbEntity
  8
AM_11
100
AcDbLine
 10
-40.0
 20
-3.999999999999072
 30
0.0
 11
-40.0
 21
3.999999999999932
 31
0.0
  0
LINE
  5
17EA
330
1F
100
AcDbEntity
  8
AM_11
100
AcDbLine
 10
-40.0
 20
-3.999999999999921
 30
0.0
 11
0.0000000000000071
 21
-4.000000000000003
 31
0.0
  0
LINE
  5
17EB
330
1F
100
AcDbEntity
  8
AM_7
  6
AM_ISO08W050X2
100
AcDbLine
 10
3.646214424683964
 20
0.0000000000000036
 30
0.0
 11
-32.63999999999995
 21
-0.0000000000000249
 31
0.0
1001
GENIUS_GENODEF_13
1002
{
1000
HIER
1070
     0
1002
}
1002
{
1000
MANEDIT
1070
     0
1002
}
1002
{
1000
NOSEL
1070
     0
1002
}
1002
{
1000
BEHIND
1070
     0
1002
}
1002
{
1000
REACTOR
1002
}
1001
GENIUS_GENOBJ-N-CEN_13
1002
{
1000
OWNER
1000
GEN
1002
}
  0
LINE
  5
17EC
330
1F
100
AcDbEntity
  8
AM_0
100
AcDbLine
 10
-30.194544647641
 20
-3.069356366984042
 30
0.0
 11
-40.0
 21
-3.568229394322802
 31
0.0
  0
ARC
  5
17ED
330
1F
100
AcDbEntity
  8
AM_0
100
AcDbCircle
 10
-40.11171255182463
 20
5.608647417869622
 30
0.0
 40
9.636696000532044
100
AcDbArc
 50
231.9711497740364
 51
265.6274538140337
  0
ARC
  5
17EE
330
1F
100
AcDbEntity
  8
AM_0
100
AcDbCircle
 10
-38.24888511372931
 20
-4.734956065158365
 30
0.0
 40
8.271118532620137
100
AcDbArc
 50
131.618724159357
 51
160.560133049031
  0
ARC
  5
17EF
330
1F
100
AcDbEntity
  8
AM_0
100
AcDbCircle
 10
-40.66712663832801
 20
6.213782256636473
 30
0.0
 40
9.804734055091433
100
AcDbArc
 50
236.7116847746716
 51
273.9014924381789
  0
ARC
  5
17F0
330
1F
100
AcDbEntity
  8
AM_0
100
AcDbCircle
 10
-40.74395311519531
 20
0.1817587424675104
 30
0.0
 40
4.18301410200824
100
AcDbArc
 50
268.5962560692249
 51
298.1754747888964
  0
LINE
  5
17F1
330
1F
100
AcDbEntity
  8
AM_0
100
AcDbLine
 10
-5.492348575494922
 20
-2.783658045466857
 30
0.0
 11
-13.71535717213734
 21
-3.281111049125577
 31
0.0
  0
LINE
  5
17F2
330
1F
100
AcDbEntity
  8
AM_0
100
AcDbLine
 10
0.0000000000000071
 20
-4.000000000000003
 30
0.0
 11
0.0
 21
0.1599999999999859
 31
0.0
  0
LINE
  5
17F3
330
1F
100
AcDbEntity
  8
AM_0
100
AcDbLine
 10
-0.0840000000000085
 20
-3.786752926097463
 30
0.0
 11
-0.0840000000000156
 21
0.2601073017779036
 31
0.0
  0
LINE
  5
17F4
330
1F
100
AcDbEntity
  8
AM_0
100
AcDbLine
 10
-0.0840000000000085
 20
-3.786752926097463
 30
0.0
 11
-0.2999999999999918
 21
-3.262576147610619
 31
0.0
  0
LINE
  5
17F5
330
1F
100
AcDbEntity
  8
AM_0
100
AcDbLine
 10
0.0000000000000071
 20
-4.000000000000003
 30
0.0
 11
-0.0840000000000085
 21
-3.786752926097463
 31
0.0
  0
LINE
  5
17F6
330
1F
100
AcDbEntity
  8
AM_0
100
AcDbLine
 10
-0.2999999999999918
 20
-3.262576147610619
 30
0.0
 11
-0.2999999999999918
 21
-3.219484344906099
 31
0.0
  0
LINE
  5
17F7
330
1F
100
AcDbEntity
  8
AM_11
100
AcDbLine
 10
-0.0000000000006111
 20
3.999999999999996
 30
0.0
 11
-40.0
 21
3.99999999999996
 31
0.0
  0
LINE
  5
17F8
330
1F
100
AcDbEntity
  8
AM_0
100
AcDbLine
 10
-42.73091784557229
 20
3.999999999999918
 30
0.0
 11
-42.81694957367848
 21
3.999999999999918
 31
0.0
  0
LINE
  5
17F9
330
1F
100
AcDbEntity
  8
AM_0
100
AcDbLine
 10
-36.0175581601344
 20
3.155228206778314
 30
0.0
 11
-23.64525778481693
 21
2.406762738022447
 31
0.0
  0
LINE
  5
17FA
330
1F
100
AcDbEntity
  8
AM_0
100
AcDbLine
 10
-15.27340365323786
 20
3.216682039138849
 30
0.0
 11
-1.885257784817529
 21
2.406762738022454
 31
0.0
  0
LINE
  5
17FB
330
1F
100
AcDbEntity
  8
AM_0
100
AcDbLine
 10
0.0
 20
0.8000000000000007
 30
0.0
 11
0.0
 21
3.999999999999996
 31
0.0
  0
VIEWPORT
  5
110
330
101
100
AcDbEntity
 67
     1
  8
0
100
AcDbViewport
 10
420.5
 20
297.0
 30
0.0
 40
948.9782706766916
 41
628.452
 68
     1
 69
     1
1001
ACAD
1000
MVIEW
1002
{
1070
    16
1010
0.0
1020
0.0
1030
0.0
1010
0.0
1020
0.0
1030
1.0
1040
0.0
1040
628.452
1040
420.5
1040
297.0
1040
50.0
1040
0.0
1040
0.0
1070
     0
1070
   100
1070
     1
1070
     1
1070
     0
1070
     0
1070
     0
1070
     0
1040
0.0
1040
0.0
1040
0.0
1040
10.0
1040
10.0
1040
10.0
1040
10.0
1070
     0
1002
{
1002
}
1002
}
  0
ENDSEC
  0
SECTION
  2
OBJECTS
  0
DICTIONARY
  5
C
330
0
100
AcDbDictionary
  3
ACAD_GROUP
350
D
  3
ACAD_LAYOUT
350
1A
  3
ACAD_MLINESTYLE
350
17
  3
ACAD_PLOTSETTINGS
350
19
  3
ACAD_PLOTSTYLENAME
350
E
  3
ACDBVARIABLEDICTIONARY
350
34
  3
ACMDICTIONARY
350
43
  3
AMG
350
2B
  3
AMGSNAPSETTINGS
350
6E
  3
DWGPROPS
350
1876
  3
ACDBHEADERROUNDTRIPXREC
350
1882
  0
DICTIONARY
  5
74
330
1F
100
AcDbDictionary
280
     1
  3
ACAD_INDEX
360
1878
  3
ACAD_LAYOUTSELFREF
360
18A5
  0
DICTIONARY
  5
18AA
330
101
100
AcDbDictionary
280
     1
  3
ACAD_LAYOUTSELFREF
360
18AB
  0
DICTIONARY
  5
D
102
{ACAD_REACTORS
330
C
102
}
330
C
100
AcDbDictionary
  0
DICTIONARY
  5
1A
102
{ACAD_REACTORS
330
C
102
}
330
C
100
AcDbDictionary
  0
DICTIONARY
  5
17
102
{ACAD_REACTORS
330
C
102
}
330
C
100
AcDbDictionary
  3
STANDARD
350
18
  0
DICTIONARY
  5
19
102
{ACAD_REACTORS
330
C
102
}
330
C
100
AcDbDictionary
  0
ACDBDICTIONARYWDFLT
  5
E
102
{ACAD_REACTORS
330
C
102
}
330
C
100
AcDbDictionary
281
     1
  3
Normal
350
F
100
AcDbDictionaryWithDefault
340
F
  0
DICTIONARY
  5
34
102
{ACAD_REACTORS
330
C
102
}
330
C
100
AcDbDictionary
  3
INDEXCTL
350
35
  3
SORTENTS
350
B5E
  0
DICTIONARY
  5
43
102
{ACAD_REACTORS
330
C
102
}
330
C
100
AcDbDictionary
  3
ACMSTDDICTIONARY
350
260
  0
DICTIONARY
  5
2B
102
{ACAD_REACTORS
330
C
102
}
330
C
100
AcDbDictionary
  3
ACMGSETTINGS
350
2C
  0
DICTIONARY
  5
6E
102
{ACAD_REACTORS
330
C
102
}
330
C
100
AcDbDictionary
  0
XRECORD
  5
1876
102
{ACAD_REACTORS
330
C
102
}
330
C
100
AcDbXrecord
  1
DWGPROPS COOKIE
  2

  3

  4

  6

  7

  8

  9

300
AmdtFileType=82
301
=
302
=
303
=
304
=
305
=
306
=
307
=
308
=
309
=
 40
0.0319034027777778
 41
2452836.771637361
 42
2453045.460672176
  1

 90
        1
  0
DICTIONARY
  5
1882
102
{ACAD_REACTORS
330
C
102
}
330
C
100
AcDbDictionary
  3
TSTACKALIGN
350
1883
  3
TSTACKSIZE
350
1884
  3
HYPERLINKBASE
350
1885
  3
STYLESHEET
350
1886
  3
LAYOUTDICT
350
1887
  3
PLOTSETDICT
350
1888
  3
PLOTSTYLNAMDICT
350
1889
  3
LWETCUNION
350
188A
  3
INSUNITS
350
188B
  3
CEPSNTYPE
350
188C
  3
FINGERPRINTGUID
350
188D
  3
VERSIONGUID
350
188E
  3
PSVPSCALE
350
188F
  3
DIMSTYLEDATA
350
1890
  3
PUCSORTHOREF
350
1891
  3
PUCSORTHOVIEW
350
1892
  3
PUCSBASE
350
1893
  3
PUCSORGTOP
350
1894
  3
PUCSORGBOTTOM
350
1895
  3
PUCSORGLEFT
350
1896
  3
PUCSORGRIGHT
350
1897
  3
PUCSORGFRONT
350
1898
  3
PUCSORGBACK
350
1899
  3
UCSORTHOREF
350
189A
  3
UCSORTHOVIEW
350
189B
  3
UCSBASE
350
189C
  3
UCSORGTOP
350
189D
  3
UCSORGBOTTOM
350
189E
  3
UCSORGLEFT
350
189F
  3
UCSORGRIGHT
350
18A0
  3
UCSORGFRONT
350
18A1
  3
UCSORGBACK
350
18A2
  0
DICTIONARY
  5
1878
102
{ACAD_REACTORS
330
74
102
}
330
74
100
AcDbDictionary
  3
*A1
350
1879
  0
XRECORD
  5
18A5
102
{ACAD_REACTORS
330
74
102
}
330
74
100
AcDbXrecord
340
1F
  0
XRECORD
  5
18AB
102
{ACAD_REACTORS
330
18AA
102
}
330
18AA
100
AcDbXrecord
340
101
  0
MLINESTYLE
  5
18
102
{ACAD_REACTORS
330
17
102
}
330
17
100
AcDbMlineStyle
  2
STANDARD
 70
     0
  3

 62
   256
 51
90.0
 52
90.0
 71
     2
 49
0.5
 62
   256
  6
BYLAYER
 49
-0.5
 62
   256
  6
BYLAYER
  0
ACDBPLACEHOLDER
  5
F
102
{ACAD_REACTORS
330
E
102
}
330
E
100
AcDbPlaceHolder
280
     0
  0
DICTIONARYVAR
  5
35
102
{ACAD_REACTORS
330
34
102
}
330
34
100
DictionaryVariables
280
     0
  1
1
  0
DICTIONARYVAR
  5
B5E
102
{ACAD_REACTORS
330
34
102
}
330
34
100
DictionaryVariables
280
     0
  1
96
  0
DICTIONARY
  5
260
102
{ACAD_REACTORS
330
43
102
}
330
43
100
AcDbDictionary
  0
DICTIONARY
  5
2C
102
{ACAD_REACTORS
330
2B
102
}
330
2B
100
AcDbDictionary
  3
DWGSETTINGS
350
2D
  0
XRECORD
  5
1883
102
{ACAD_REACTORS
330
1882
102
}
330
1882
100
AcDbXrecord
 90
        1
  0
XRECORD
  5
1884
102
{ACAD_REACTORS
330
1882
102
}
330
1882
100
AcDbXrecord
 90
       70
  0
XRECORD
  5
1885
102
{ACAD_REACTORS
330
1882
102
}
330
1882
100
AcDbXrecord
  1

  0
XRECORD
  5
1886
102
{ACAD_REACTORS
330
1882
102
}
330
1882
100
AcDbXrecord
  1
ASAMI.ctb
  0
XRECORD
  5
1887
102
{ACAD_REACTORS
330
1882
102
}
330
1882
100
AcDbXrecord
340
1A
  0
XRECORD
  5
1888
102
{ACAD_REACTORS
330
1882
102
}
330
1882
100
AcDbXrecord
340
19
  0
XRECORD
  5
1889
102
{ACAD_REACTORS
330
1882
102
}
330
1882
100
AcDbXrecord
340
E
  0
XRECORD
  5
188A
102
{ACAD_REACTORS
330
1882
102
}
330
1882
100
AcDbXrecord
 90
    10781
  0
XRECORD
  5
188B
102
{ACAD_REACTORS
330
1882
102
}
330
1882
100
AcDbXrecord
 90
        4
  0
XRECORD
  5
188C
102
{ACAD_REACTORS
330
1882
102
}
330
1882
100
AcDbXrecord
 90
        0
  0
XRECORD
  5
188D
102
{ACAD_REACTORS
330
1882
102
}
330
1882
100
AcDbXrecord
  1
{AFB28963-8C59-40AE-9337-C84526B81ACE}
  0
XRECORD
  5
188E
102
{ACAD_REACTORS
330
1882
102
}
330
1882
100
AcDbXrecord
  1
{D5564D4F-9502-48B2-B913-E5778AAC621F}
  0
XRECORD
  5
188F
102
{ACAD_REACTORS
330
1882
102
}
330
1882
100
AcDbXrecord
 40
0.0
  0
XRECORD
  5
1890
102
{ACAD_REACTORS
330
1882
102
}
330
1882
100
AcDbXrecord
1000
DSTYLE
1002
{
1070
    79
 70
     2
1070
   341
340
59
1070
   342
340
59
1070
   371
 70
    -1
1070
   372
 70
    -1
1002
}
  0
XRECORD
  5
1891
102
{ACAD_REACTORS
330
1882
102
}
330
1882
100
AcDbXrecord
340
0
  0
XRECORD
  5
1892
102
{ACAD_REACTORS
330
1882
102
}
330
1882
100
AcDbXrecord
 70
     0
  0
XRECORD
  5
1893
102
{ACAD_REACTORS
330
1882
102
}
330
1882
100
AcDbXrecord
340
0
  0
XRECORD
  5
1894
102
{ACAD_REACTORS
330
1882
102
}
330
1882
100
AcDbXrecord
 10
0.0
 20
0.0
 30
0.0
  0
XRECORD
  5
1895
102
{ACAD_REACTORS
330
1882
102
}
330
1882
100
AcDbXrecord
 10
0.0
 20
0.0
 30
0.0
  0
XRECORD
  5
1896
102
{ACAD_REACTORS
330
1882
102
}
330
1882
100
AcDbXrecord
 10
0.0
 20
0.0
 30
0.0
  0
XRECORD
  5
1897
102
{ACAD_REACTORS
330
1882
102
}
330
1882
100
AcDbXrecord
 10
0.0
 20
0.0
 30
0.0
  0
XRECORD
  5
1898
102
{ACAD_REACTORS
330
1882
102
}
330
1882
100
AcDbXrecord
 10
0.0
 20
0.0
 30
0.0
  0
XRECORD
  5
1899
102
{ACAD_REACTORS
330
1882
102
}
330
1882
100
AcDbXrecord
 10
0.0
 20
0.0
 30
0.0
  0
XRECORD
  5
189A
102
{ACAD_REACTORS
330
1882
102
}
330
1882
100
AcDbXrecord
340
0
  0
XRECORD
  5
189B
102
{ACAD_REACTORS
330
1882
102
}
330
1882
100
AcDbXrecord
 70
     0
  0
XRECORD
  5
189C
102
{ACAD_REACTORS
330
1882
102
}
330
1882
100
AcDbXrecord
340
0
  0
XRECORD
  5
189D
102
{ACAD_REACTORS
330
1882
102
}
330
1882
100
AcDbXrecord
 10
0.0
 20
0.0
 30
0.0
  0
XRECORD
  5
189E
102
{ACAD_REACTORS
330
1882
102
}
330
1882
100
AcDbXrecord
 10
0.0
 20
0.0
 30
0.0
  0
XRECORD
  5
189F
102
{ACAD_REACTORS
330
1882
102
}
330
1882
100
AcDbXrecord
 10
0.0
 20
0.0
 30
0.0
  0
XRECORD
  5
18A0
102
{ACAD_REACTORS
330
1882
102
}
330
1882
100
AcDbXrecord
 10
0.0
 20
0.0
 30
0.0
  0
XRECORD
  5
18A1
102
{ACAD_REACTORS
330
1882
102
}
330
1882
100
AcDbXrecord
 10
0.0
 20
0.0
 30
0.0
  0
XRECORD
  5
18A2
102
{ACAD_REACTORS
330
1882
102
}
330
1882
100
AcDbXrecord
 10
0.0
 20
0.0
 30
0.0
  0
LAYER_INDEX
  5
1879
102
{ACAD_REACTORS
330
1878
102
}
330
1878
100
AcDbIndex
 40
2453152.358288576
100
AcDbLayerIndex
  8
0
360
187A
 90
        0
  8
AM_0
360
187B
 90
       44
  8
AM_11
360
187C
 90
        4
  8
AM_7
360
187D
 90
        2
  8
AM_5
360
187E
 90
        4
  8
Defpoints
360
187F
 90
        0
  8
AM_6
360
1880
 90
        1
  0
XRECORD
  5
2D
102
{ACAD_REACTORS
330
2C
102
}
330
2C
100
AcDbXrecord
  1
VERSION
140
15.0
  1
PRODUCT
  2
AutoCAD Mechanical 2000
  0
IDBUFFER
  5
187A
330
0
100
AcDbIdBuffer
  0
IDBUFFER
  5
187B
330
0
100
AcDbIdBuffer
330
17DB
330
17DC
330
17DD
330
17DE
330
17DF
330
17E0
330
17E1
330
17E2
330
17E3
330
17E4
330
17E5
330
17E7
330
17E8
330
17EC
330
17ED
330
17EE
330
17EF
330
17F0
330
17F1
330
17F2
330
17F3
330
17F4
330
17F5
330
17F6
330
17F8
330
17F9
330
17FA
330
17FB
330
16C2
330
16C5
330
16C6
330
16D4
330
16E0
330
16E3
330
17D1
330
17D2
330
17D3
330
17D4
330
17D5
330
17D6
330
17D7
330
17D8
330
17D9
330
17DA
  0
IDBUFFER
  5
187C
330
0
100
AcDbIdBuffer
330
17E6
330
17E9
330
17EA
330
17F7
  0
IDBUFFER
  5
187D
330
0
100
AcDbIdBuffer
330
F47
330
17EB
  0
IDBUFFER
  5
187E
330
0
100
AcDbIdBuffer
330
105F
330
10EF
330
1180
330
16C7
  0
IDBUFFER
  5
187F
330
0
100
AcDbIdBuffer
  0
IDBUFFER
  5
1880
330
0
100
AcDbIdBuffer
330
E5A
  0
ENDSEC
  0
EOF
