  0
SECTION
  2
HEADER
  9
$ACADVER
  1
AC1014
  9
$ACADMAINTVER
 70
     9
  9
$DWGCODEPAGE
  3
ANSI_932
  9
$INSBASE
 10
0.0
 20
0.0
 30
0.0
  9
$EXTMIN
 10
-181.4882312597197
 20
-58.50000099999736
 30
-0.00000001
  9
$EXTMAX
 10
19.55776903085494
 20
10.90205879132647
 30
0.00000001
  9
$LIMMIN
 10
-189.7640730821871
 20
-85.68211792330192
  9
$LIMMAX
 10
35.15969054344703
 20
40.23840731897661
  9
$ORTHOMODE
 70
     0
  9
$REGENMODE
 70
     1
  9
$FILLMODE
 70
     1
  9
$QTEXTMODE
 70
     0
  9
$MIRRTEXT
 70
     0
  9
$DRAGMODE
 70
     2
  9
$LTSCALE
 40
1.0
  9
$OSMODE
 70
    55
  9
$ATTMODE
 70
     1
  9
$TEXTSIZE
 40
2.5
  9
$TRACEWID
 40
1.0
  9
$TEXTSTYLE
  7
STANDARD
  9
$CLAYER
  8
AM_0
  9
$CELTYPE
  6
BYLAYER
  9
$CECOLOR
 62
   256
  9
$CELTSCALE
 40
1.0
  9
$DELOBJ
 70
     1
  9
$DISPSILH
 70
     0
  9
$DIMSCALE
 40
1.0
  9
$DIMASZ
 40
2.5
  9
$DIMEXO
 40
1.0
  9
$DIMDLI
 40
12.0
  9
$DIMRND
 40
0.0
  9
$DIMDLE
 40
0.0
  9
$DIMEXE
 40
1.0
  9
$DIMTP
 40
0.1
  9
$DIMTM
 40
0.1
  9
$DIMTXT
 40
3.2
  9
$DIMCEN
 40
0.0
  9
$DIMTSZ
 40
0.0
  9
$DIMTOL
 70
     0
  9
$DIMLIM
 70
     0
  9
$DIMTIH
 70
     0
  9
$DIMTOH
 70
     0
  9
$DIMSE1
 70
     0
  9
$DIMSE2
 70
     0
  9
$DIMTAD
 70
     3
  9
$DIMZIN
 70
     8
  9
$DIMBLK
  1
OPEN30
  9
$DIMASO
 70
     1
  9
$DIMSHO
 70
     1
  9
$DIMPOST
  1

  9
$DIMAPOST
  1
"
  9
$DIMALT
 70
     0
  9
$DIMALTD
 70
     2
  9
$DIMALTF
 40
0.0393701
  9
$DIMLFAC
 40
1.0
  9
$DIMTOFL
 70
     1
  9
$DIMTVP
 40
0.0
  9
$DIMTIX
 70
     0
  9
$DIMSOXD
 70
     0
  9
$DIMSAH
 70
     0
  9
$DIMBLK1
  1

  9
$DIMBLK2
  1

  9
$DIMSTYLE
  2
AM_JIS
  9
$DIMCLRD
 70
   256
  9
$DIMCLRE
 70
   256
  9
$DIMCLRT
 70
     2
  9
$DIMTFAC
 40
0.71
  9
$DIMGAP
 40
1.5
  9
$DIMJUST
 70
     0
  9
$DIMSD1
 70
     0
  9
$DIMSD2
 70
     0
  9
$DIMTOLJ
 70
     0
  9
$DIMTZIN
 70
     0
  9
$DIMALTZ
 70
     0
  9
$DIMALTTZ
 70
     0
  9
$DIMFIT
 70
     3
  9
$DIMUPT
 70
     0
  9
$DIMUNIT
 70
     2
  9
$DIMDEC
 70
     3
  9
$DIMTDEC
 70
     3
  9
$DIMALTU
 70
     2
  9
$DIMALTTD
 70
     2
  9
$DIMTXSTY
  7
ASAMI
  9
$DIMAUNIT
 70
     0
  9
$LUNITS
 70
     2
  9
$LUPREC
 70
     2
  9
$SKETCHINC
 40
1.0
  9
$FILLETRAD
 40
2.5
  9
$AUNITS
 70
     0
  9
$AUPREC
 70
     0
  9
$MENU
  1
.
  9
$ELEVATION
 40
0.0
  9
$PELEVATION
 40
0.0
  9
$THICKNESS
 40
0.0
  9
$LIMCHECK
 70
     0
  9
$BLIPMODE
 70
     0
  9
$CHAMFERA
 40
1.25
  9
$CHAMFERB
 40
1.25
  9
$CHAMFERC
 40
20.0
  9
$CHAMFERD
 40
0.0
  9
$SKPOLY
 70
     0
  9
$TDCREATE
 40
2452836.771637361
  9
$TDUPDATE
 40
2453152.358775057
  9
$TDINDWG
 40
0.0397775694
  9
$TDUSRTIMER
 40
0.0397775694
  9
$USRTIMER
 70
     1
  9
$ANGBASE
 50
0.0
  9
$ANGDIR
 70
     0
  9
$PDMODE
 70
     0
  9
$PDSIZE
 40
0.0
  9
$PLINEWID
 40
0.0
  9
$COORDS
 70
     1
  9
$SPLFRAME
 70
     0
  9
$SPLINETYPE
 70
     6
  9
$SPLINESEGS
 70
     8
  9
$ATTDIA
 70
     1
  9
$ATTREQ
 70
     1
  9
$HANDLING
 70
 12289
  9
$HANDSEED
  5
1AE8
  9
$SURFTAB1
 70
     6
  9
$SURFTAB2
 70
     6
  9
$SURFTYPE
 70
     6
  9
$SURFU
 70
     6
  9
$SURFV
 70
     6
  9
$UCSNAME
  2

  9
$UCSORG
 10
0.0
 20
0.0
 30
0.0
  9
$UCSXDIR
 10
1.0
 20
0.0
 30
0.0
  9
$UCSYDIR
 10
0.0
 20
1.0
 30
0.0
  9
$PUCSNAME
  2

  9
$PUCSORG
 10
0.0
 20
0.0
 30
0.0
  9
$PUCSXDIR
 10
1.0
 20
0.0
 30
0.0
  9
$PUCSYDIR
 10
0.0
 20
1.0
 30
0.0
  9
$USERI1
 70
     0
  9
$USERI2
 70
     0
  9
$USERI3
 70
     0
  9
$USERI4
 70
     0
  9
$USERI5
 70
     0
  9
$USERR1
 40
0.0
  9
$USERR2
 40
0.0
  9
$USERR3
 40
0.0
  9
$USERR4
 40
0.0
  9
$USERR5
 40
0.0
  9
$WORLDVIEW
 70
     1
  9
$SHADEDGE
 70
     3
  9
$SHADEDIF
 70
    70
  9
$TILEMODE
 70
     1
  9
$MAXACTVP
 70
    64
  9
$PINSBASE
 10
0.0
 20
0.0
 30
0.0
  9
$PLIMCHECK
 70
     0
  9
$PEXTMIN
 10
1.000000000000000E+20
 20
1.000000000000000E+20
 30
1.000000000000000E+20
  9
$PEXTMAX
 10
-1.000000000000000E+20
 20
-1.000000000000000E+20
 30
-1.000000000000000E+20
  9
$PLIMMIN
 10
0.0
 20
0.0
  9
$PLIMMAX
 10
841.0
 20
594.0
  9
$UNITMODE
 70
     0
  9
$VISRETAIN
 70
     1
  9
$PLINEGEN
 70
     0
  9
$PSLTSCALE
 70
     0
  9
$TREEDEPTH
 70
  3020
  9
$PICKSTYLE
 70
     0
  9
$CMLSTYLE
  2
STANDARD
  9
$CMLJUST
 70
     0
  9
$CMLSCALE
 40
20.0
  9
$PROXYGRAPHICS
 70
     1
  9
$MEASUREMENT
 70
     1
  0
ENDSEC
  0
SECTION
  2
CLASSES
  0
CLASS
  1
ACDBDICTIONARYWDFLT
  2
AcDbDictionaryWithDefault
  3
AutoCAD 2000
 90
        0
280
     0
281
     0
  0
CLASS
  1
ACDBPLACEHOLDER
  2
AcDbPlaceHolder
  3
AutoCAD 2000
 90
        0
280
     0
281
     0
  0
CLASS
  1
LAYOUT
  2
AcDbLayout
  3
AutoCAD 2000
 90
        0
280
     0
281
     0
  0
CLASS
  1
AMGSETTINGSOBJ
  2
AmgSettingsObj
  3
"AcadM|Product Description: AutoCAD Mechanical 2000|Company: Autodesk"
 90
        0
280
     0
281
     0
  0
CLASS
  1
ACME_DOCUMENT
  2
AcMeDbDoc
  3
AcMeServices
 90
        0
280
     0
281
     0
  0
CLASS
  1
ACMESCOPE
  2
AcMeScope
  3
AcMeServices
 90
        0
280
     0
281
     0
  0
CLASS
  1
ACMECOMMANDHISTORY
  2
AcMeCommandHistory
  3
AcMeServices
 90
        0
280
     0
281
     0
  0
CLASS
  1
DICTIONARYVAR
  2
AcDbDictionaryVar
  3
AutoCAD 2000
 90
        0
280
     0
281
     0
  0
CLASS
  1
ACIMSYSVARMAN
  2
AcImSysVarManager
  3
AcMeServices
 90
        0
280
     0
281
     0
  0
CLASS
  1
ACIMREALSYSVAR
  2
AcImRealSysVar
  3
AcMeServices
 90
        0
280
     0
281
     0
  0
CLASS
  1
ACIMINTSYSVAR
  2
AcImIntSysVar
  3
AcMeServices
 90
        0
280
     0
281
     0
  0
CLASS
  1
ACMEDRAWINGMAN
  2
AcMeDrawingMan
  3
AcMeServices
 90
        0
280
     0
281
     0
  0
CLASS
  1
ACMEVIEW
  2
AcMeView
  3
AcMeServices
 90
        0
280
     0
281
     0
  0
CLASS
  1
ACDBENTITYCACHE
  2
AcMeEntityCache
  3
AcMeServices
 90
        0
280
     0
281
     0
  0
CLASS
  1
GSMANAGER
  2
AcMeGSManager
  3
AcMeServices
 90
        0
280
     0
281
     0
  0
CLASS
  1
AmdtInternalReactor
  2
AmdtInternalReactor
  3
AcMeServices
 90
        0
280
     0
281
     0
  0
CLASS
  1
ACMESTATEMGR
  2
AcMeStateMgr
  3
AcMeServices
 90
        0
280
     0
281
     0
  0
CLASS
  1
ACME_DATABASE
  2
AcMeDbDatabase
  3
AcMeServices
 90
        0
280
     0
281
     0
  0
CLASS
  1
ACRFINSADJUSTERMGR
  2
AcRfInsAdjusterMgr
  3
AcMeServices
 90
        0
280
     0
281
     0
  0
CLASS
  1
ACMDATADICTIONARY
  2
AcmDataDictionary
  3
"AcmSymBB|Product Description: AutoCAD Mechanical 2000|Company: Autodesk"
 90
        0
280
     0
281
     0
  0
CLASS
  1
ACMDATAENTRYBLOCK
  2
AcmDataEntryBlock
  3
"AcmSymBB|Product Description: AutoCAD Mechanical 2000|Company: Autodesk"
 90
        0
280
     0
281
     0
  0
CLASS
  1
AMGOBJPROPCFG
  2
AmgObjPropCfg
  3
"AmgLay|Product Description: AutoCAD Mechanical 2000|Company: Autodesk"
 90
        1
280
     0
281
     0
  0
CLASS
  1
ACAMGFILTERDAT
  2
AcAmgFilterDat
  3
"AcadM|Product Description: AutoCAD Mechanical 2000|Company: Autodesk"
 90
        0
280
     0
281
     0
  0
CLASS
  1
LAYER_INDEX
  2
AcDbLayerIndex
  3
AutoCAD 2000
 90
        0
280
     0
281
     0
  0
CLASS
  1
IDBUFFER
  2
AcDbIdBuffer
  3
AutoCAD 2000
 90
        0
280
     0
281
     0
  0
CLASS
  1
ACIMSTRSYSVAR
  2
AcImStrSysVar
  3
AcMeServices
 90
        0
280
     0
281
     0
  0
CLASS
  1
ACMSTANDARDJIS
  2
AcmStandardJIS
  3
"AcmSymBB|Product Description: AutoCAD Mechanical 2000|Company: Autodesk"
 90
        0
280
     0
281
     0
  0
CLASS
  1
ACMSURFSTANDARDJIS
  2
AcmSurfTextStdJIS
  3
"AcmSymBB|Product Description: AutoCAD Mechanical 2000|Company: Autodesk"
 90
        0
280
     0
281
     0
  0
CLASS
  1
ACMFCFSTANDARDJIS
  2
AcmFCFStdJIS
  3
"AcmSymBB|Product Description: AutoCAD Mechanical 2000|Company: Autodesk"
 90
        0
280
     0
281
     0
  0
CLASS
  1
ACMWELDSTANDARDJIS
  2
AcmWeldingStdJIS
  3
"AcmSymBB|Product Description: AutoCAD Mechanical 2000|Company: Autodesk"
 90
        0
280
     0
281
     0
  0
CLASS
  1
ACMIDSTANDARDJIS
  2
AcmIdStdJIS
  3
"AcmSymBB|Product Description: AutoCAD Mechanical 2000|Company: Autodesk"
 90
        0
280
     0
281
     0
  0
CLASS
  1
ACMDATUMSTANDARDJIS
  2
AcmDatumStdJIS
  3
"AcmSymBB|Product Description: AutoCAD Mechanical 2000|Company: Autodesk"
 90
        0
280
     0
281
     0
  0
CLASS
  1
ACMBOMSTANDARDJIS
  2
AcmBOMStdJIS
  3
"AcmSymBB|Product Description: AutoCAD Mechanical 2000|Company: Autodesk"
 90
        0
280
     0
281
     0
  0
CLASS
  1
ACMSTANDARDANSI
  2
AcmStandardANSI
  3
"AcmSymBB|Product Description: AutoCAD Mechanical 2000|Company: Autodesk"
 90
        0
280
     0
281
     0
  0
CLASS
  1
ACMSURFSTANDARDANSI
  2
AcmSurfTextStdANSI
  3
"AcmSymBB|Product Description: AutoCAD Mechanical 2000|Company: Autodesk"
 90
        0
280
     0
281
     0
  0
CLASS
  1
ACMFCFSTANDARDANSI
  2
AcmFCFStdANSI
  3
"AcmSymBB|Product Description: AutoCAD Mechanical 2000|Company: Autodesk"
 90
        0
280
     0
281
     0
  0
CLASS
  1
ACMWELDSTANDARDANSI
  2
AcmWeldingStdANSI
  3
"AcmSymBB|Product Description: AutoCAD Mechanical 2000|Company: Autodesk"
 90
        0
280
     0
281
     0
  0
CLASS
  1
ACMIDSTANDARDANSI
  2
AcmIdStdANSI
  3
"AcmSymBB|Product Description: AutoCAD Mechanical 2000|Company: Autodesk"
 90
        0
280
     0
281
     0
  0
CLASS
  1
ACMDATUMSTANDARDANSI
  2
AcmDatumStdANSI
  3
"AcmSymBB|Product Description: AutoCAD Mechanical 2000|Company: Autodesk"
 90
        0
280
     0
281
     0
  0
CLASS
  1
ACMBOMSTANDARDANSI
  2
AcmBOMStdANSI
  3
"AcmSymBB|Product Description: AutoCAD Mechanical 2000|Company: Autodesk"
 90
        0
280
     0
281
     0
  0
CLASS
  1
ACMSTANDARDBSI
  2
AcmStandardBSI
  3
"AcmSymBB|Product Description: AutoCAD Mechanical 2000|Company: Autodesk"
 90
        0
280
     0
281
     0
  0
CLASS
  1
ACMSURFSTANDARDBSI
  2
AcmSurfTextStdBSI
  3
"AcmSymBB|Product Description: AutoCAD Mechanical 2000|Company: Autodesk"
 90
        0
280
     0
281
     0
  0
CLASS
  1
ACMFCFSTANDARDBSI
  2
AcmFCFStdBSI
  3
"AcmSymBB|Product Description: AutoCAD Mechanical 2000|Company: Autodesk"
 90
        0
280
     0
281
     0
  0
CLASS
  1
ACMWELDSTANDARDBSI
  2
AcmWeldingStdBSI
  3
"AcmSymBB|Product Description: AutoCAD Mechanical 2000|Company: Autodesk"
 90
        0
280
     0
281
     0
  0
CLASS
  1
ACMIDSTANDARDBSI
  2
AcmIdStdBSI
  3
"AcmSymBB|Product Description: AutoCAD Mechanical 2000|Company: Autodesk"
 90
        0
280
     0
281
     0
  0
CLASS
  1
ACMDATUMSTANDARDBSI
  2
AcmDatumStdBSI
  3
"AcmSymBB|Product Description: AutoCAD Mechanical 2000|Company: Autodesk"
 90
        0
280
     0
281
     0
  0
CLASS
  1
ACMBOMSTANDARDBSI
  2
AcmBOMStdBSI
  3
"AcmSymBB|Product Description: AutoCAD Mechanical 2000|Company: Autodesk"
 90
        0
280
     0
281
     0
  0
CLASS
  1
LONG_TRANSACTION
  2
AcDbLongTransaction
  3
AutoCAD 2000
 90
        0
280
     0
281
     0
  0
CLASS
  1
LWPOLYLINE
  2
AcDbPolyline
  3
AutoCAD 2000
 90
        0
280
     0
281
     1
  0
CLASS
  1
HATCH
  2
AcDbHatch
  3
AutoCAD 2000
 90
        0
280
     0
281
     1
  0
CLASS
  1
XRECORD
  2
AcDbXrecord
  3
AutoCAD 2000
 90
        0
280
     0
281
     0
  0
ENDSEC
  0
SECTION
  2
TABLES
  0
TABLE
  2
VPORT
  5
8
330
0
100
AcDbSymbolTable
 70
     3
  0
VPORT
  5
1ABD
330
8
100
AcDbSymbolTableRecord
100
AcDbViewportTableRecord
  2
*ACTIVE
 70
     0
 10
0.0
 20
0.0
 11
1.0
 21
1.0
 12
-80.96591935209165
 22
-23.80263954772681
 13
0.0
 23
0.0
 14
2.5
 24
2.5
 15
10.0
 25
10.0
 16
0.0
 26
0.0
 36
1.0
 17
0.0
 27
0.0
 37
0.0
 40
128.9242340899427
 41
1.56570841889117
 42
50.0
 43
0.0
 44
0.0
 50
0.0
 51
0.0
 71
     0
 72
   100
 73
     1
 74
     3
 75
     0
 76
     0
 77
     0
 78
     0
  0
ENDTAB
  0
TABLE
  2
LTYPE
  5
5
330
0
100
AcDbSymbolTable
 70
    10
  0
LTYPE
  5
14
330
5
100
AcDbSymbolTableRecord
100
AcDbLinetypeTableRecord
  2
BYBLOCK
 70
     0
  3

 72
    65
 73
     0
 40
0.0
  0
LTYPE
  5
15
330
5
100
AcDbSymbolTableRecord
100
AcDbLinetypeTableRecord
  2
BYLAYER
 70
     0
  3

 72
    65
 73
     0
 40
0.0
  0
LTYPE
  5
16
330
5
100
AcDbSymbolTableRecord
100
AcDbLinetypeTableRecord
  2
CONTINUOUS
 70
     0
  3
Solid line
 72
    65
 73
     0
 40
0.0
  0
LTYPE
  5
4B
330
5
100
AcDbSymbolTableRecord
100
AcDbLinetypeTableRecord
  2
AM_ISO02W050
 70
     0
  3
__ __ __ __ __ __ __ __ __ __ __ __ __ __ __
 72
    65
 73
     2
 40
7.5
 49
6.0
 74
     0
 49
-1.5
 74
     0
  0
LTYPE
  5
4C
330
5
100
AcDbSymbolTableRecord
100
AcDbLinetypeTableRecord
  2
AM_ISO08W050
 70
     0
  3
____ . ____ . ____ . ____ . ____ . ____ . ____
 72
    65
 73
     4
 40
18.0
 49
12.0
 74
     0
 49
-1.5
 74
     0
 49
3.0
 74
     0
 49
-1.5
 74
     0
  0
LTYPE
  5
4D
330
5
100
AcDbSymbolTableRecord
100
AcDbLinetypeTableRecord
  2
AM_ISO09W050
 70
     0
  3
_____ . . _____ . . _____ . . ____ .. ____
 72
    65
 73
     6
 40
22.5
 49
12.0
 74
     0
 49
-1.5
 74
     0
 49
3.0
 74
     0
 49
-1.5
 74
     0
 49
3.0
 74
     0
 49
-1.5
 74
     0
  0
LTYPE
  5
4E
330
5
100
AcDbSymbolTableRecord
100
AcDbLinetypeTableRecord
  2
AMCONSTR
 70
     0
  3
_______________________
 72
    65
 73
     2
 40
9999.0
 49
9999.0
 74
     0
 49
0.0
 74
     0
  0
LTYPE
  5
4F
330
5
100
AcDbSymbolTableRecord
100
AcDbLinetypeTableRecord
  2
AM_ISO02W050X2
 70
     0
  3
 _ _ _ _ _ _ _ _ _ _ _ _
 72
    65
 73
     2
 40
3.75
 49
3.0
 74
     0
 49
-0.75
 74
     0
  0
LTYPE
  5
50
330
5
100
AcDbSymbolTableRecord
100
AcDbLinetypeTableRecord
  2
AM_ISO08W050X2
 70
     0
  3
__ . __ . __ . __ . __ . __
 72
    65
 73
     4
 40
9.0
 49
6.0
 74
     0
 49
-0.75
 74
     0
 49
1.5
 74
     0
 49
-0.75
 74
     0
  0
LTYPE
  5
53
330
5
100
AcDbSymbolTableRecord
100
AcDbLinetypeTableRecord
  2
AMZIGZAG
 70
     0
  3
/\/-/\/-/\/-/\/-/\/-/\/
 72
    65
 73
     2
 40
11.00009999999999
 49
0.0001
 74
     4
 75
   135
340
52
 46
0.04
 50
0.0
 44
0.0
 45
0.0
 49
-11.0
 74
     0
  0
LTYPE
  5
166
330
5
100
AcDbSymbolTableRecord
100
AcDbLinetypeTableRecord
  2
ACJISTGL
 70
     0
  3
_ _ _ _ _
 72
    65
 73
     2
 40
3.0
 49
2.0
 74
     0
 49
-1.0
 74
     0
  0
LTYPE
  5
26A
330
5
100
AcDbSymbolTableRecord
100
AcDbLinetypeTableRecord
  2
ACJISTGB
 70
     0
  3
__ . . __ . .
 72
    65
 73
     6
 40
9.0
 49
4.0
 74
     0
 49
-1.0
 74
     0
 49
1.0
 74
     0
 49
-1.0
 74
     0
 49
1.0
 74
     0
 49
-1.0
 74
     0
  0
ENDTAB
  0
TABLE
  2
LAYER
  5
2
330
0
100
AcDbSymbolTable
 70
     7
  0
LAYER
  5
10
330
2
100
AcDbSymbolTableRecord
100
AcDbLayerTableRecord
  2
0
 70
     0
 62
     7
  6
CONTINUOUS
  0
LAYER
  5
3F9
330
2
100
AcDbSymbolTableRecord
100
AcDbLayerTableRecord
  2
AM_0
 70
     0
 62
     7
  6
CONTINUOUS
  0
LAYER
  5
BD4
330
2
100
AcDbSymbolTableRecord
100
AcDbLayerTableRecord
  2
AM_11
 70
     0
 62
     3
  6
AM_ISO09W050
  0
LAYER
  5
BD5
330
2
100
AcDbSymbolTableRecord
100
AcDbLayerTableRecord
  2
AM_7
 70
     0
 62
     4
  6
AM_ISO08W050
  0
LAYER
  5
BD6
330
2
100
AcDbSymbolTableRecord
100
AcDbLayerTableRecord
  2
AM_5
 70
     0
 62
     3
  6
CONTINUOUS
  0
LAYER
  5
BD7
330
2
100
AcDbSymbolTableRecord
100
AcDbLayerTableRecord
  2
DEFPOINTS
 70
     0
 62
     7
  6
CONTINUOUS
  0
LAYER
  5
E59
330
2
100
AcDbSymbolTableRecord
100
AcDbLayerTableRecord
  2
AM_6
 70
     0
 62
     2
  6
CONTINUOUS
  0
ENDTAB
  0
TABLE
  2
STYLE
  5
3
330
0
100
AcDbSymbolTable
 70
     5
  0
STYLE
  5
11
330
3
100
AcDbSymbolTableRecord
100
AcDbTextStyleTableRecord
  2
STANDARD
 70
     0
 40
0.0
 41
1.0
 50
0.0
 71
     0
 42
2.5
  3
simplex.shx
  4
EXTFONT.SHX
  0
STYLE
  5
52
330
3
100
AcDbSymbolTableRecord
100
AcDbTextStyleTableRecord
  2

 70
     1
 40
0.0
 41
1.0
 50
0.0
 71
     0
 42
2.5
  3
ltypeshp.shx
  4

  0
STYLE
  5
6B
330
3
100
AcDbSymbolTableRecord
100
AcDbTextStyleTableRecord
  2
ASAMI
 70
     0
 40
0.0
 41
1.0
 50
0.0
 71
     0
 42
2.5
  3
simplex.shx
  4
EXTFONT.SHX
  0
STYLE
  5
262
330
3
100
AcDbSymbolTableRecord
100
AcDbTextStyleTableRecord
  2
ACJISTS
 70
     0
 40
1.0
 41
1.0
 50
0.0
 71
     0
 42
2.5
  3
simplex.shx
  4
bigfont.shx
  0
STYLE
  5
269
330
3
100
AcDbSymbolTableRecord
100
AcDbTextStyleTableRecord
  2
ACJISGDT
 70
     0
 40
0.0
 41
1.0
 50
0.0
 71
     0
 42
2.5
  3
amgdtans.shx
  4

  0
ENDTAB
  0
TABLE
  2
VIEW
  5
6
330
0
100
AcDbSymbolTable
 70
     0
  0
ENDTAB
  0
TABLE
  2
UCS
  5
7
330
0
100
AcDbSymbolTable
 70
     0
  0
ENDTAB
  0
TABLE
  2
APPID
  5
9
330
0
100
AcDbSymbolTable
 70
    12
  0
APPID
  5
12
330
9
100
AcDbSymbolTableRecord
100
AcDbRegAppTableRecord
  2
ACAD
 70
     0
  0
APPID
  5
30
330
9
100
AcDbSymbolTableRecord
100
AcDbRegAppTableRecord
  2
MCAD_NO_VIS
 70
     0
  0
APPID
  5
31
330
9
100
AcDbSymbolTableRecord
100
AcDbRegAppTableRecord
  2
ACAD_TEMP_GRAPHIC
 70
     0
  0
APPID
  5
2C2
330
9
100
AcDbSymbolTableRecord
100
AcDbRegAppTableRecord
  2
GENIUS_GENDTOL_13
 70
     0
  0
APPID
  5
339
330
9
100
AcDbSymbolTableRecord
100
AcDbRegAppTableRecord
  2
GENIUS_GENODEF_13
 70
     0
  0
APPID
  5
33A
330
9
100
AcDbSymbolTableRecord
100
AcDbRegAppTableRecord
  2
GENIUS_GENOBJ-N-RSBK_13
 70
     0
  0
APPID
  5
33B
330
9
100
AcDbSymbolTableRecord
100
AcDbRegAppTableRecord
  2
GENIUS_GENOBJ-N-LIB_13
 70
     0
  0
APPID
  5
33C
330
9
100
AcDbSymbolTableRecord
100
AcDbRegAppTableRecord
  2
GENIUS_GENSCALE_13
 70
     0
  0
APPID
  5
378
330
9
100
AcDbSymbolTableRecord
100
AcDbRegAppTableRecord
  2
GENIUS_GENDIMSH_14
 70
     0
  0
APPID
  5
BD8
330
9
100
AcDbSymbolTableRecord
100
AcDbRegAppTableRecord
  2
GENIUS_GENOBJ-N-CEN_13
 70
     0
  0
APPID
  5
BD9
330
9
100
AcDbSymbolTableRecord
100
AcDbRegAppTableRecord
  2
GENIUS_GENFIL_13
 70
     0
  0
APPID
  5
BDA
330
9
100
AcDbSymbolTableRecord
100
AcDbRegAppTableRecord
  2
GENIUS_GENOBJ-N-CHA_13
 70
     0
  0
ENDTAB
  0
TABLE
  2
DIMSTYLE
  5
A
330
0
100
AcDbSymbolTable
 70
     8
  0
DIMSTYLE
105
58
102
{ACAD_REACTORS
330
105F
330
10EF
330
1180
330
1681
102
}
330
A
100
AcDbSymbolTableRecord
100
AcDbDimStyleTableRecord
  2
AM_JIS
 70
     0
  3

  4
"
  5
OPEN30
  6

  7

 40
1.0
 41
2.5
 42
1.0
 43
12.0
 44
1.0
 45
0.0
 46
0.0
 47
0.1
 48
0.1
140
3.2
141
0.0
142
0.0
143
0.0393701
144
1.0
145
0.0
146
0.71
147
1.5
 71
     0
 72
     0
 73
     0
 74
     0
 75
     0
 76
     0
 77
     3
 78
     8
170
     0
171
     2
172
     1
173
     0
174
     0
175
     0
176
   256
177
   256
178
     2
270
     2
271
     3
272
     3
273
     2
274
     2
340
6B
275
     0
280
     0
281
     0
282
     0
283
     0
284
     0
285
     0
286
     0
287
     3
288
     0
  0
DIMSTYLE
105
5F
330
A
100
AcDbSymbolTableRecord
100
AcDbDimStyleTableRecord
  2
AM_JIS$3
 70
     0
  3

  4
"
  5
OPEN30
  6

  7

 40
1.0
 41
2.5
 42
1.0
 43
10.0
 44
1.0
 45
0.0
 46
0.0
 47
0.1
 48
0.1
140
3.2
141
0.0
142
0.0
143
0.0393701
144
1.0
145
0.0
146
0.71
147
1.5
 71
     0
 72
     0
 73
     0
 74
     1
 75
     0
 76
     0
 77
     3
 78
     8
170
     0
171
     2
172
     0
173
     0
174
     0
175
     0
176
   256
177
   256
178
     2
270
     2
271
     2
272
     3
273
     2
274
     2
340
6B
275
     0
280
     0
281
     0
282
     0
283
     0
284
     0
285
     0
286
     0
287
     0
288
     1
  0
DIMSTYLE
105
60
330
A
100
AcDbSymbolTableRecord
100
AcDbDimStyleTableRecord
  2
AM_JIS$4
 70
     0
  3

  4
"
  5
OPEN30
  6

  7

 40
1.0
 41
2.5
 42
1.0
 43
10.0
 44
1.0
 45
0.0
 46
0.0
 47
0.1
 48
0.1
140
3.2
141
0.0
142
0.0
143
0.0393701
144
1.0
145
0.0
146
0.71
147
1.5
 71
     0
 72
     0
 73
     0
 74
     1
 75
     0
 76
     0
 77
     3
 78
     8
170
     0
171
     2
172
     0
173
     0
174
     0
175
     0
176
   256
177
   256
178
     2
270
     2
271
     2
272
     3
273
     2
274
     2
340
6B
275
     0
280
     0
281
     0
282
     0
283
     0
284
     0
285
     0
286
     0
287
     0
288
     1
  0
DIMSTYLE
105
61
330
A
100
AcDbSymbolTableRecord
100
AcDbDimStyleTableRecord
  2
AM_JIS$6
 70
     0
  3

  4
"
  5
OPEN30
  6

  7

 40
1.0
 41
2.5
 42
1.0
 43
10.0
 44
1.0
 45
0.0
 46
0.0
 47
0.1
 48
0.1
140
3.2
141
0.0
142
0.0
143
0.0393701
144
1.0
145
0.0
146
0.71
147
1.5
 71
     0
 72
     0
 73
     0
 74
     0
 75
     0
 76
     0
 77
     0
 78
     8
170
     0
171
     2
172
     1
173
     0
174
     0
175
     0
176
   256
177
   256
178
     2
270
     2
271
     2
272
     2
273
     2
274
     2
340
6B
275
     0
280
     0
281
     0
282
     0
283
     0
284
     0
285
     0
286
     0
287
     3
288
     0
  0
DIMSTYLE
105
62
330
A
100
AcDbSymbolTableRecord
100
AcDbDimStyleTableRecord
  2
AM_JIS$7
 70
     0
  3

  4
"
  5
OPEN30
  6

  7

 40
1.0
 41
2.5
 42
1.0
 43
10.0
 44
1.0
 45
0.0
 46
0.0
 47
0.1
 48
0.1
140
3.2
141
0.0
142
0.0
143
0.0393701
144
1.0
145
0.0
146
0.71
147
1.5
 71
     0
 72
     0
 73
     0
 74
     0
 75
     0
 76
     0
 77
     3
 78
     8
170
     0
171
     2
172
     1
173
     0
174
     0
175
     0
176
   256
177
   256
178
     2
270
     2
271
     2
272
     3
273
     2
274
     2
340
6B
275
     0
280
     0
281
     0
282
     0
283
     0
284
     0
285
     0
286
     0
287
     3
288
     0
  0
DIMSTYLE
105
63
330
A
100
AcDbSymbolTableRecord
100
AcDbDimStyleTableRecord
  2
AM_JIS$SF
 70
     0
  3

  4
"
  5
OPEN30
  6

  7

 40
1.0
 41
2.5
 42
1.0
 43
10.0
 44
1.0
 45
0.0
 46
0.0
 47
0.1
 48
0.1
140
3.2
141
0.0
142
0.0
143
0.0393701
144
1.0
145
0.0
146
0.71
147
1.5
 71
     0
 72
     0
 73
     0
 74
     0
 75
     1
 76
     1
 77
     3
 78
     8
170
     0
171
     2
172
     1
173
     0
174
     0
175
     0
176
   256
177
   256
178
     2
270
     2
271
     2
272
     2
273
     2
274
     2
340
6B
275
     0
280
     0
281
     0
282
     0
283
     0
284
     0
285
     0
286
     0
287
     3
288
     0
  0
DIMSTYLE
105
68
330
A
100
AcDbSymbolTableRecord
100
AcDbDimStyleTableRecord
  2
AM_JIS$SH
 70
     0
  3

  4
"
  5

  6
GENAXEH
  7
OPEN30
 40
1.0
 41
2.5
 42
1.0
 43
10.0
 44
1.0
 45
0.0
 46
0.0
 47
0.1
 48
0.1
140
3.2
141
0.0
142
0.0
143
0.0393701
144
2.0
145
0.0
146
0.71
147
1.5
 71
     0
 72
     0
 73
     0
 74
     0
 75
     1
 76
     1
 77
     3
 78
     8
170
     0
171
     2
172
     1
173
     1
174
     0
175
     0
176
   256
177
   256
178
     2
270
     2
271
     2
272
     2
273
     2
274
     2
340
6B
275
     0
280
     0
281
     0
282
     0
283
     0
284
     0
285
     0
286
     0
287
     3
288
     0
  0
DIMSTYLE
105
B34
330
A
100
AcDbSymbolTableRecord
100
AcDbDimStyleTableRecord
  2
AM_JIS$2
 70
     0
  3

  4
"
  5
OPEN30
  6

  7

 40
1.0
 41
2.5
 42
1.0
 43
12.0
 44
1.0
 45
0.0
 46
0.0
 47
0.1
 48
0.1
140
3.2
141
0.0
142
0.0
143
0.0393701
144
1.0
145
0.0
146
0.71
147
1.5
 71
     0
 72
     0
 73
     0
 74
     0
 75
     0
 76
     0
 77
     3
 78
     8
170
     0
171
     2
172
     1
173
     0
174
     0
175
     0
176
   256
177
   256
178
     2
270
     2
271
     3
272
     3
273
     2
274
     2
340
6B
275
     0
280
     0
281
     0
282
     0
283
     0
284
     0
285
     0
286
     0
287
     3
288
     0
  0
ENDTAB
  0
TABLE
  2
BLOCK_RECORD
  5
1
330
0
100
AcDbSymbolTable
 70
     9
  0
BLOCK_RECORD
  5
1F
102
{ACAD_XDICTIONARY
360
74
102
}
330
1
100
AcDbSymbolTableRecord
100
AcDbBlockTableRecord
  2
*MODEL_SPACE
  0
BLOCK_RECORD
  5
101
102
{ACAD_XDICTIONARY
360
1AE6
102
}
330
1
100
AcDbSymbolTableRecord
100
AcDbBlockTableRecord
  2
*PAPER_SPACE
  0
BLOCK_RECORD
  5
59
330
1
100
AcDbSymbolTableRecord
100
AcDbBlockTableRecord
  2
_OPEN30
  0
BLOCK_RECORD
  5
64
330
1
100
AcDbSymbolTableRecord
100
AcDbBlockTableRecord
  2
GENAXEH
  0
BLOCK_RECORD
  5
1060
330
1
100
AcDbSymbolTableRecord
100
AcDbBlockTableRecord
  2
*D5
  0
BLOCK_RECORD
  5
10F0
330
1
100
AcDbSymbolTableRecord
100
AcDbBlockTableRecord
  2
*D6
  0
BLOCK_RECORD
  5
1181
330
1
100
AcDbSymbolTableRecord
100
AcDbBlockTableRecord
  2
*D7
  0
BLOCK_RECORD
  5
1682
330
1
100
AcDbSymbolTableRecord
100
AcDbBlockTableRecord
  2
*D8
  0
ENDTAB
  0
ENDSEC
  0
SECTION
  2
BLOCKS
  0
BLOCK
  5
20
330
1F
100
AcDbEntity
  8
0
100
AcDbBlockBegin
  2
*MODEL_SPACE
 70
     0
 10
0.0
 20
0.0
 30
0.0
  3
*MODEL_SPACE
  1

  0
ENDBLK
  5
21
330
1F
100
AcDbEntity
  8
0
100
AcDbBlockEnd
  0
BLOCK
  5
103
330
101
100
AcDbEntity
 67
     1
  8
0
100
AcDbBlockBegin
  2
*PAPER_SPACE
 70
     0
 10
0.0
 20
0.0
 30
0.0
  3
*PAPER_SPACE
  1

  0
ENDBLK
  5
104
330
101
100
AcDbEntity
 67
     1
  8
0
100
AcDbBlockEnd
  0
BLOCK
  5
5D
330
59
100
AcDbEntity
  8
0
100
AcDbBlockBegin
  2
_OPEN30
 70
     0
 10
0.0
 20
0.0
 30
0.0
  3
_OPEN30
  1

  0
LINE
  5
5A
330
59
100
AcDbEntity
  8
0
 62
     0
100
AcDbLine
 10
-1.0
 20
0.26794919
 30
0.0
 11
0.0
 21
0.0
 31
0.0
  0
LINE
  5
5B
330
59
100
AcDbEntity
  8
0
 62
     0
100
AcDbLine
 10
0.0
 20
0.0
 30
0.0
 11
-1.0
 21
-0.26794919
 31
0.0
  0
LINE
  5
5C
330
59
100
AcDbEntity
  8
0
 62
     0
100
AcDbLine
 10
0.0
 20
0.0
 30
0.0
 11
-1.0
 21
0.0
 31
0.0
  0
ENDBLK
  5
5E
330
59
100
AcDbEntity
  8
0
100
AcDbBlockEnd
  0
BLOCK
  5
66
330
64
100
AcDbEntity
  8
0
100
AcDbBlockBegin
  2
GENAXEH
 70
     0
 10
0.0
 20
0.0
 30
0.0
  3
GENAXEH
  1

  0
LINE
  5
65
330
64
100
AcDbEntity
  8
0
100
AcDbLine
 10
-1.0
 20
0.0
 30
0.0
 11
1.0
 21
0.0
 31
0.0
  0
ENDBLK
  5
67
330
64
100
AcDbEntity
  8
0
100
AcDbBlockEnd
  0
BLOCK
  5
106A
330
1060
100
AcDbEntity
  8
0
100
AcDbBlockBegin
  2
*D5
 70
     1
 10
0.0
 20
0.0
 30
0.0
  3
*D5
  1

  0
LINE
  5
1A6C
330
1060
100
AcDbEntity
  8
AM_5
100
AcDbLine
 10
-80.0
 20
-9.999999999997911
 30
0.0
 11
-80.0
 21
-25.00000099999736
 31
0.0
  0
LINE
  5
1A6D
330
1060
100
AcDbEntity
  8
AM_5
100
AcDbLine
 10
-0.0000000000007781
 20
-9.999999999997877
 30
0.0
 11
-0.000000000000779
 21
-25.00000099999736
 31
0.0
  0
LINE
  5
1A6E
330
1060
100
AcDbEntity
  8
AM_5
100
AcDbLine
 10
-77.5
 20
-24.00000099999736
 30
0.0
 11
-2.500000000000778
 21
-24.00000099999736
 31
0.0
  0
INSERT
  5
1A6F
330
1060
100
AcDbEntity
  8
AM_5
100
AcDbBlockReference
  2
_OPEN30
 10
-80.0
 20
-24.00000099999736
 30
0.0
 41
2.5
 42
2.5
 43
2.5
 50
180.0
  0
INSERT
  5
1A70
330
1060
100
AcDbEntity
  8
AM_5
100
AcDbBlockReference
  2
_OPEN30
 10
-0.000000000000779
 20
-24.00000099999736
 30
0.0
 41
2.5
 42
2.5
 43
2.5
  0
MTEXT
  5
1A71
330
1060
100
AcDbEntity
  8
AM_5
 62
     2
100
AcDbMText
 10
-40.00000000000039
 20
-20.90000099999735
 30
0.0
 40
3.2
 41
0.0
 71
     5
 72
     1
  1
80
  7
ASAMI
1001
ACAD
1000
MTEXTBEGIN
1070
    73
1070
     1
1070
    44
1040
1.0
1070
    74
1070
     0
1000
MTEXTEND
  0
POINT
  5
1A72
330
1060
100
AcDbEntity
  8
DEFPOINTS
 62
     0
100
AcDbPoint
 10
-80.0
 20
-8.999999999997911
 30
0.0
  0
POINT
  5
1A73
330
1060
100
AcDbEntity
  8
DEFPOINTS
 62
     0
100
AcDbPoint
 10
-0.000000000000778
 20
-8.999999999997877
 30
0.0
  0
POINT
  5
1A74
330
1060
100
AcDbEntity
  8
DEFPOINTS
 62
     0
100
AcDbPoint
 10
-0.000000000000779
 20
-24.00000099999736
 30
0.0
  0
ENDBLK
  5
106B
330
1060
100
AcDbEntity
  8
0
100
AcDbBlockEnd
  0
BLOCK
  5
10FA
330
10F0
100
AcDbEntity
  8
0
100
AcDbBlockBegin
  2
*D6
 70
     1
 10
0.0
 20
0.0
 30
0.0
  3
*D6
  1

  0
LINE
  5
1A75
330
10F0
100
AcDbEntity
  8
AM_5
100
AcDbLine
 10
-160.0
 20
-9.749999999997639
 30
0.0
 11
-160.0
 21
-37.00000099999736
 31
0.0
  0
LINE
  5
1A76
330
10F0
100
AcDbEntity
  8
AM_5
100
AcDbLine
 10
-0.0000000000000001
 20
-9.999999999997877
 30
0.0
 11
-0.0000000000000017
 21
-37.00000099999736
 31
0.0
  0
LINE
  5
1A77
330
10F0
100
AcDbEntity
  8
AM_5
100
AcDbLine
 10
-157.5
 20
-36.00000099999736
 30
0.0
 11
-2.500000000000001
 21
-36.00000099999736
 31
0.0
  0
INSERT
  5
1A78
330
10F0
100
AcDbEntity
  8
AM_5
100
AcDbBlockReference
  2
_OPEN30
 10
-160.0
 20
-36.00000099999736
 30
0.0
 41
2.5
 42
2.5
 43
2.5
 50
180.0
  0
INSERT
  5
1A79
330
10F0
100
AcDbEntity
  8
AM_5
100
AcDbBlockReference
  2
_OPEN30
 10
-0.0000000000000017
 20
-36.00000099999736
 30
0.0
 41
2.5
 42
2.5
 43
2.5
  0
MTEXT
  5
1A7A
330
10F0
100
AcDbEntity
  8
AM_5
 62
     2
100
AcDbMText
 10
-80.0
 20
-32.90000099999736
 30
0.0
 40
3.2
 41
0.0
 71
     5
 72
     1
  1
160
  7
ASAMI
1001
ACAD
1000
MTEXTBEGIN
1070
    73
1070
     1
1070
    44
1040
1.0
1070
    74
1070
     0
1000
MTEXTEND
  0
POINT
  5
1A7B
330
10F0
100
AcDbEntity
  8
DEFPOINTS
 62
     0
100
AcDbPoint
 10
-160.0
 20
-8.749999999997639
 30
0.0
  0
POINT
  5
1A7C
330
10F0
100
AcDbEntity
  8
DEFPOINTS
 62
     0
100
AcDbPoint
 10
0.0
 20
-8.999999999997877
 30
0.0
  0
POINT
  5
1A7D
330
10F0
100
AcDbEntity
  8
DEFPOINTS
 62
     0
100
AcDbPoint
 10
-0.0000000000000017
 20
-36.00000099999736
 30
0.0
  0
ENDBLK
  5
10FB
330
10F0
100
AcDbEntity
  8
0
100
AcDbBlockEnd
  0
BLOCK
  5
118B
330
1181
100
AcDbEntity
  8
0
100
AcDbBlockBegin
  2
*D7
 70
     1
 10
0.0
 20
0.0
 30
0.0
  3
*D7
  1

  0
LINE
  5
1A63
330
1181
100
AcDbEntity
  8
AM_5
100
AcDbLine
 10
1.000000000000003
 20
9.0
 30
0.0
 11
19.55776903085494
 21
8.999999999999994
 31
0.0
  0
LINE
  5
1A64
330
1181
100
AcDbEntity
  8
AM_5
100
AcDbLine
 10
1.0
 20
-9.0
 30
0.0
 11
19.55776903085493
 21
-9.000000000000005
 31
0.0
  0
LINE
  5
1A65
330
1181
100
AcDbEntity
  8
AM_5
100
AcDbLine
 10
18.55776903085494
 20
6.499999999999993
 30
0.0
 11
18.55776903085494
 21
-6.500000000000006
 31
0.0
  0
INSERT
  5
1A66
330
1181
100
AcDbEntity
  8
AM_5
100
AcDbBlockReference
  2
_OPEN30
 10
18.55776903085494
 20
8.999999999999994
 30
0.0
 41
2.5
 42
2.5
 43
2.5
 50
90.0
  0
INSERT
  5
1A67
330
1181
100
AcDbEntity
  8
AM_5
100
AcDbBlockReference
  2
_OPEN30
 10
18.55776903085494
 20
-9.000000000000005
 30
0.0
 41
2.5
 42
2.5
 43
2.5
 50
270.0
  0
MTEXT
  5
1A68
330
1181
100
AcDbEntity
  8
AM_5
 62
     2
100
AcDbMText
 10
15.45776903085494
 20
-0.0000000000000025
 30
0.0
 40
3.2
 41
0.0
 71
     5
 72
     1
  1
%%c18
  7
ASAMI
 11
0.0000000000000001
 21
1.0
 31
0.0
1001
ACAD
1000
MTEXTBEGIN
1070
    73
1070
     1
1070
    44
1040
1.0
1070
    74
1070
     0
1000
MTEXTEND
  0
POINT
  5
1A69
330
1181
100
AcDbEntity
  8
DEFPOINTS
 62
     0
100
AcDbPoint
 10
0.0000000000000032
 20
9.0
 30
0.0
  0
POINT
  5
1A6A
330
1181
100
AcDbEntity
  8
DEFPOINTS
 62
     0
100
AcDbPoint
 10
0.0
 20
-9.0
 30
0.0
  0
POINT
  5
1A6B
330
1181
100
AcDbEntity
  8
DEFPOINTS
 62
     0
100
AcDbPoint
 10
18.55776903085494
 20
-9.000000000000005
 30
0.0
  0
ENDBLK
  5
118C
330
1181
100
AcDbEntity
  8
0
100
AcDbBlockEnd
  0
BLOCK
  5
168C
330
1682
100
AcDbEntity
  8
0
100
AcDbBlockBegin
  2
*D8
 70
     1
 10
0.0
 20
0.0
 30
0.0
  3
*D8
  1

  0
LINE
  5
16B2
330
1682
100
AcDbEntity
  8
AM_5
100
AcDbLine
 10
-159.75
 20
9.999999999999834
 30
0.0
 11
-177.7882312597197
 21
9.99999999999984
 31
0.0
  0
LINE
  5
16B3
330
1682
100
AcDbEntity
  8
AM_5
100
AcDbLine
 10
-159.75
 20
-9.999999999997639
 30
0.0
 11
-177.7882312597197
 21
-9.999999999997633
 31
0.0
  0
LINE
  5
16B4
330
1682
100
AcDbEntity
  8
AM_5
100
AcDbLine
 10
-176.7882312597198
 20
7.49999999999984
 30
0.0
 11
-176.7882312597198
 21
-7.499999999997633
 31
0.0
  0
INSERT
  5
16B5
330
1682
100
AcDbEntity
  8
AM_5
100
AcDbBlockReference
  2
_OPEN30
 10
-176.7882312597198
 20
9.99999999999984
 30
0.0
 41
2.5
 42
2.5
 43
2.5
 50
90.0
  0
INSERT
  5
16B6
330
1682
100
AcDbEntity
  8
AM_5
100
AcDbBlockReference
  2
_OPEN30
 10
-176.7882312597198
 20
-9.999999999997633
 30
0.0
 41
2.5
 42
2.5
 43
2.5
 50
270.0
  0
MTEXT
  5
16B7
330
1682
100
AcDbEntity
  8
AM_5
 62
     2
100
AcDbMText
 10
-179.8882312597197
 20
0.0000000000010752
 30
0.0
 40
3.2
 41
0.0
 71
     5
 72
     1
  1
%%c20
  7
ASAMI
 11
0.0000000000000001
 21
1.0
 31
0.0
1001
ACAD
1000
MTEXTBEGIN
1070
    73
1070
     1
1070
    44
1040
1.0
1070
    74
1070
     0
1000
MTEXTEND
  0
POINT
  5
16B8
330
1682
100
AcDbEntity
  8
DEFPOINTS
 62
     0
100
AcDbPoint
 10
-158.75
 20
9.999999999999834
 30
0.0
  0
POINT
  5
16B9
330
1682
100
AcDbEntity
  8
DEFPOINTS
 62
     0
100
AcDbPoint
 10
-158.75
 20
-9.999999999997639
 30
0.0
  0
POINT
  5
16BA
330
1682
100
AcDbEntity
  8
DEFPOINTS
 62
     0
100
AcDbPoint
 10
-176.7882312597198
 20
-9.999999999997633
 30
0.0
  0
ENDBLK
  5
168D
330
1682
100
AcDbEntity
  8
0
100
AcDbBlockEnd
  0
ENDSEC
  0
SECTION
  2
ENTITIES
  0
TEXT
  5
E5A
330
1F
100
AcDbEntity
  8
AM_6
100
AcDbText
 10
-97.85714285714284
 20
-58.50000099999736
 30
0.0
 40
5.0
  1
ELSM2180
 72
     4
 11
-79.99999999999999
 21
-56.00000099999736
 31
0.0
100
AcDbText
  0
LINE
  5
F47
330
1F
100
AcDbEntity
  8
AM_7
  6
AM_ISO08W050X2
100
AcDbLine
 10
4.557768030854958
 20
0.0
 30
0.0
 11
-162.7882302597198
 21
-0.0000000000000581
 31
0.0
1001
GENIUS_GENODEF_13
1002
{
1000
HIER
1070
     0
1002
}
1002
{
1000
MANEDIT
1070
     0
1002
}
1002
{
1000
NOSEL
1070
     0
1002
}
1002
{
1000
BEHIND
1070
     0
1002
}
1002
{
1000
REACTOR
1002
}
1001
GENIUS_GENOBJ-N-CEN_13
1002
{
1000
OWNER
1000
GEN
1002
}
  0
DIMENSION
  5
105F
330
1F
100
AcDbEntity
  8
AM_5
100
AcDbDimension
  2
*D5
 10
-0.000000000000779
 20
-24.00000099999736
 30
0.0
 11
-40.00000000000039
 21
-20.90000099999735
 31
0.0
 70
    32
  1
<>
  3
AM_JIS
100
AcDbAlignedDimension
 13
-80.0
 23
-8.999999999997911
 33
0.0
 14
-0.000000000000778
 24
-8.999999999997877
 34
0.0
 50
0.0000000000001132
100
AcDbRotatedDimension
1001
GENIUS_GENDTOL_13
1000

1000
h7
1000

1040
0.0
  0
DIMENSION
  5
10EF
330
1F
100
AcDbEntity
  8
AM_5
100
AcDbDimension
  2
*D6
 10
-0.0000000000000017
 20
-36.00000099999736
 30
0.0
 11
-80.0
 21
-32.90000099999736
 31
0.0
 70
    32
  1
<>
  3
AM_JIS
100
AcDbAlignedDimension
 13
-160.0
 23
-8.749999999997639
 33
0.0
 14
0.0
 24
-8.999999999997877
 34
0.0
 50
0.0000000000001132
100
AcDbRotatedDimension
1001
GENIUS_GENDTOL_13
1000

1000
h7
1000

1040
0.0
  0
DIMENSION
  5
1180
330
1F
100
AcDbEntity
  8
AM_5
100
AcDbDimension
  2
*D7
 10
18.55776903085494
 20
-9.000000000000005
 30
0.0
 11
15.45776903085494
 21
-0.0000000000000025
 31
0.0
 70
    32
  1
%%c<>
  3
AM_JIS
100
AcDbAlignedDimension
 13
0.0000000000000032
 23
9.0
 33
0.0
 14
0.0
 24
-9.0
 34
0.0
 50
90.0
100
AcDbRotatedDimension
1001
GENIUS_GENDTOL_13
1000

1000
h7
1000

1040
0.0
  0
LINE
  5
13FD
330
1F
100
AcDbEntity
  8
AM_0
100
AcDbLine
 10
-0.1890000000000199
 20
-8.520194083719292
 30
0.0
 11
-0.1890000000000327
 21
0.5852414290002849
 31
0.0
  0
LINE
  5
13FE
330
1F
100
AcDbEntity
  8
AM_0
100
AcDbLine
 10
0.0000000000000128
 20
-9.000000000000007
 30
0.0
 11
0.0
 21
0.3599999999999732
 31
0.0
  0
ARC
  5
13FF
330
1F
100
AcDbEntity
  8
AM_0
100
AcDbCircle
 10
25.57218319628881
 20
0.0378671610750772
 30
0.0
 40
27.23853670184132
100
AcDbArc
 50
175.3635181775062
 51
195.5055110014725
  0
SPLINE
  5
1400
330
1F
100
AcDbEntity
  8
AM_0
100
AcDbSpline
210
0.0
220
0.0
230
1.0
 70
     8
 71
     3
 72
     8
 73
     4
 74
     0
 42
0.0000000001
 43
0.0000000001
 40
4.219358800530717
 40
4.219358800530717
 40
4.219358800530717
 40
4.219358800530717
 40
14.36247867694493
 40
14.36247867694493
 40
14.36247867694493
 40
14.36247867694493
 10
-0.6749999999998849
 20
-7.340796332123484
 30
0.0
 10
-6.517950762402285
 20
-5.869706025039858
 30
0.0
 10
-12.11919036832338
 20
-2.934853012519894
 30
0.0
 10
-17.72042997424447
 20
0.0000000000000831
 30
0.0
  0
SPLINE
  5
1401
330
1F
100
AcDbEntity
  8
AM_0
100
AcDbSpline
210
0.0
220
0.0
230
1.0
 70
     8
 71
     3
 72
     8
 73
     4
 74
     0
 42
0.0000000001
 43
0.0000000001
 40
1.870660592686466
 40
1.870660592686466
 40
1.870660592686466
 40
1.870660592686466
 40
14.43901837670146
 40
14.43901837670146
 40
14.43901837670146
 40
14.43901837670146
 10
-0.1889999999999688
 20
-8.520194083719189
 30
0.0
 10
-7.570736264211864
 20
-7.599421101782668
 30
0.0
 10
-14.45446422831081
 20
-3.799710550891298
 30
0.0
 10
-21.33819219240968
 20
0.0000000000000831
 30
0.0
  0
SPLINE
  5
1402
330
1F
100
AcDbEntity
  8
AM_0
100
AcDbSpline
210
0.0
220
0.0
230
1.0
 70
     8
 71
     3
 72
     8
 73
     4
 74
     2
 42
0.0000000001
 43
0.0000000001
 44
0.0000000001
 12
-1.0
 22
-0.0000000000000008
 32
0.0
 40
0.0
 40
0.0
 40
0.0
 40
0.0
 40
26.08199378881913
 40
26.08199378881913
 40
26.08199378881913
 40
26.08199378881913
 10
0.0000000000000128
 20
-9.000000000000007
 30
0.0
 10
-8.693997929606366
 20
-9.000000000000014
 30
0.0
 10
-16.58699896480317
 20
-4.500000000000016
 30
0.0
 10
-24.47999999999999
 20
-0.0000000000000192
 30
0.0
 11
0.0000000000000128
 21
-9.000000000000007
 31
0.0
 11
-24.47999999999999
 21
-0.0000000000000192
 31
0.0
  0
SPLINE
  5
1404
330
1F
100
AcDbEntity
  8
AM_0
100
AcDbSpline
210
0.0
220
0.0
230
1.0
 70
     8
 71
     3
 72
     8
 73
     4
 74
     0
 42
0.0000000001
 43
0.0000000001
 40
0.7142832446738512
 40
0.7142832446738512
 40
0.7142832446738512
 40
0.7142832446738512
 40
14.36247867694493
 40
14.36247867694493
 40
14.36247867694493
 40
14.36247867694493
 10
-40.91972755044793
 20
8.281076021683693
 30
0.0
 10
-32.79405894364079
 20
7.898052663855924
 30
0.0
 10
-25.25724445894264
 20
3.94902633192801
 30
0.0
 10
-17.72042997424447
 20
0.0000000000000831
 30
0.0
  0
SPLINE
  5
1405
330
1F
100
AcDbEntity
  8
AM_0
100
AcDbSpline
210
0.0
220
0.0
230
1.0
 70
     8
 71
     3
 72
     8
 73
     4
 74
     0
 42
0.0000000001
 43
0.0000000001
 40
0.0
 40
0.0
 40
0.0
 40
0.0
 40
7.57842115059705
 40
7.57842115059705
 40
7.57842115059705
 40
7.57842115059705
 10
0.0
 20
8.999999999999994
 30
0.0
 10
-4.54705269035823
 20
8.999999999999994
 30
0.0
 10
-8.875000656892552
 20
7.769069812768297
 30
0.0
 10
-13.09843798301547
 20
5.950998919831469
 30
0.0
  0
SPLINE
  5
1406
330
1F
100
AcDbEntity
  8
AM_0
100
AcDbSpline
210
0.0
220
0.0
230
1.0
 70
     8
 71
     3
 72
     8
 73
     4
 74
     2
 42
0.0000000001
 43
0.0000000001
 44
0.0000000001
 12
-0.6417012268563095
 22
-0.7669547153848834
 32
0.0
 13
-0.990099942783104
 23
-0.140364180975397
 33
0.0
 40
0.0
 40
0.0
 40
0.0
 40
0.0
 40
4.655817582510131
 40
4.655817582510131
 40
4.655817582510131
 40
4.655817582510131
 10
0.0
 20
7.334464836031128
 30
0.0
 10
-0.9958812849053092
 20
6.144197753071797
 30
0.0
 10
-2.705255108488828
 20
5.633052834463828
 30
0.0
 10
-4.241830015839445
 20
5.415216160550532
 30
0.0
 11
0.0
 21
7.334464836031128
 31
0.0
 11
-4.241830015839445
 21
5.415216160550532
 31
0.0
  0
SPLINE
  5
1407
330
1F
100
AcDbEntity
  8
AM_0
100
AcDbSpline
210
0.0
220
0.0
230
1.0
 70
     8
 71
     3
 72
     8
 73
     4
 74
     0
 42
0.0000000001
 43
0.0000000001
 40
0.3581103616548037
 40
0.3581103616548037
 40
0.3581103616548037
 40
0.3581103616548037
 40
14.43901837670146
 40
14.43901837670146
 40
14.43901837670146
 40
14.43901837670146
 10
-45.17497547877993
 20
8.722521761134773
 30
0.0
 10
-36.76250488763872
 20
8.51398021449577
 30
0.0
 10
-29.0503485400242
 20
4.25699010724792
 30
0.0
 10
-21.33819219240968
 20
0.0000000000000831
 30
0.0
  0
SPLINE
  5
1408
330
1F
100
AcDbEntity
  8
AM_0
100
AcDbSpline
210
0.0
220
0.0
230
1.0
 70
     8
 71
     3
 72
     8
 73
     4
 74
     2
 42
0.0000000001
 43
0.0000000001
 44
0.0000000001
 12
1.0
 22
0.0000000000000006
 32
0.0
 40
0.0
 40
0.0
 40
0.0
 40
0.0
 40
26.08199378881912
 40
26.08199378881912
 40
26.08199378881912
 40
26.08199378881912
 10
-48.95999999999999
 20
9.000000000000159
 30
0.0
 10
-40.2660020703936
 20
9.000000000000165
 30
0.0
 10
-32.37300103519681
 20
4.500000000000175
 30
0.0
 10
-24.47999999999999
 20
0.0000000000001855
 30
0.0
 11
-48.95999999999999
 21
9.000000000000159
 31
0.0
 11
-24.47999999999999
 21
0.0000000000001855
 31
0.0
  0
LINE
  5
140B
330
1F
100
AcDbEntity
  8
AM_0
100
AcDbLine
 10
-34.3651582197852
 20
7.237534588062421
 30
0.0
 11
-4.241830015839445
 21
5.415216160550532
 31
0.0
  0
LINE
  5
140C
330
1F
100
AcDbEntity
  8
AM_11
100
AcDbLine
 10
-0.0000000000013813
 20
8.999999999999994
 30
0.0
 11
-80.0
 21
8.999999999999925
 31
0.0
  0
LINE
  5
140D
330
1F
100
AcDbEntity
  8
AM_0
100
AcDbLine
 10
0.0
 20
1.799999999999993
 30
0.0
 11
0.0
 21
8.999999999999994
 31
0.0
  0
LINE
  5
140E
330
1F
100
AcDbEntity
  8
AM_0
100
AcDbLine
 10
0.0
 20
0.3599999999999732
 30
0.0
 11
-4.241830015839445
 21
5.415216160550532
 31
0.0
  0
LINE
  5
140F
330
1F
100
AcDbEntity
  8
AM_0
100
AcDbLine
 10
-0.6041517344476803
 20
1.079999999999932
 30
0.0
 11
0.0
 21
1.799999999999993
 31
0.0
  0
LINE
  5
1415
330
1F
100
AcDbEntity
  8
AM_11
100
AcDbLine
 10
-80.0
 20
-8.99999999999984
 30
0.0
 11
0.0000000000000128
 21
-9.000000000000007
 31
0.0
  0
LINE
  5
1416
330
1F
100
AcDbEntity
  8
AM_0
100
AcDbLine
 10
-0.6749999999999873
 20
-7.340796332123892
 30
0.0
 11
-0.6749999999999873
 21
-7.243839776038721
 31
0.0
  0
LINE
  5
1417
330
1F
100
AcDbEntity
  8
AM_0
100
AcDbLine
 10
0.0000000000000128
 20
-9.000000000000007
 30
0.0
 11
-0.1890000000000199
 21
-8.520194083719292
 31
0.0
  0
LINE
  5
1418
330
1F
100
AcDbEntity
  8
AM_0
100
AcDbLine
 10
-0.1890000000000199
 20
-8.520194083719292
 30
0.0
 11
-0.6749999999999873
 21
-7.340796332123892
 31
0.0
  0
SPLINE
  5
14D2
330
1F
100
AcDbEntity
  8
AM_0
100
AcDbSpline
210
0.0
220
0.0
230
1.0
 70
     8
 71
     3
 72
     8
 73
     4
 74
     0
 42
0.0000000001
 43
0.0000000001
 40
0.7142832446738512
 40
0.7142832446738512
 40
0.7142832446738512
 40
0.7142832446738512
 40
14.36247867694493
 40
14.36247867694493
 40
14.36247867694493
 40
14.36247867694493
 10
-48.46526757633551
 20
-8.281076021683801
 30
0.0
 10
-56.59093618314265
 20
-7.898052663856041
 30
0.0
 10
-64.1277506678408
 20
-3.949026331928132
 30
0.0
 10
-71.66456515253897
 20
-0.000000000000211
 30
0.0
  0
SPLINE
  5
14D3
330
1F
100
AcDbEntity
  8
AM_0
100
AcDbSpline
210
0.0
220
0.0
230
1.0
 70
     8
 71
     3
 72
     8
 73
     4
 74
     0
 42
0.0000000001
 43
0.0000000001
 40
0.3581103616548037
 40
0.3581103616548037
 40
0.3581103616548037
 40
0.3581103616548037
 40
14.43901837670146
 40
14.43901837670146
 40
14.43901837670146
 40
14.43901837670146
 10
-44.2100196480035
 20
-8.722521761134874
 30
0.0
 10
-52.62249023914473
 20
-8.513980214495886
 30
0.0
 10
-60.33464658675924
 20
-4.256990107248035
 30
0.0
 10
-68.52275734494913
 20
-0.0000000000000576
 30
0.0
  0
SPLINE
  5
14D4
330
1F
100
AcDbEntity
  8
AM_0
100
AcDbSpline
210
0.0
220
0.0
230
1.0
 70
     8
 71
     3
 72
     8
 73
     4
 74
     2
 42
0.0000000001
 43
0.0000000001
 44
0.0000000001
 12
-1.0
 22
-0.0000000000000014
 32
0.0
 40
0.0
 40
0.0
 40
0.0
 40
0.0
 40
26.0819937888191
 40
26.0819937888191
 40
26.0819937888191
 40
26.0819937888191
 10
-40.42499512678346
 20
-9.000000000000262
 30
0.0
 10
-49.11899305638983
 20
-9.000000000000275
 30
0.0
 10
-57.01199409158664
 20
-4.500000000000291
 30
0.0
 10
-64.90499512678344
 20
-0.000000000000307
 30
0.0
 11
-40.42499512678346
 21
-9.000000000000262
 31
0.0
 11
-64.90499512678344
 21
-0.000000000000307
 31
0.0
  0
SPLINE
  5
14D6
330
1F
100
AcDbEntity
  8
AM_0
100
AcDbSpline
210
0.0
220
0.0
230
1.0
 70
     8
 71
     3
 72
     8
 73
     4
 74
     0
 42
0.0000000001
 43
0.0000000001
 40
0.0
 40
0.0
 40
0.0
 40
0.0
 40
2.238610194515266
 40
2.238610194515266
 40
2.238610194515266
 40
2.238610194515266
 10
-40.42499512678494
 20
-8.999999999997781
 30
0.0
 10
-37.79133607404563
 20
-8.999999999997781
 30
0.0
 10
-35.2053980707731
 20
-8.661409233412323
 30
0.0
 10
-30.85955363730901
 20
-7.382499860532546
 30
0.0
  0
LINE
  5
14EC
330
1F
100
AcDbEntity
  8
AM_11
100
AcDbLine
 10
0.0
 20
-8.999999999997877
 30
0.0
 11
0.0
 21
8.999999999999872
 31
0.0
  0
LINE
  5
162B
330
1F
100
AcDbEntity
  8
AM_0
100
AcDbLine
 10
-96.75252258054513
 20
8.999999999999824
 30
0.0
 11
-99.49999999999999
 21
9.999999999999925
 31
0.0
  0
LINE
  5
162E
330
1F
100
AcDbEntity
  8
AM_0
100
AcDbLine
 10
-99.49999999999999
 20
-9.999999999997559
 30
0.0
 11
-96.75252258055166
 21
-8.999999999999852
 31
0.0
  0
LINE
  5
167C
330
1F
100
AcDbEntity
  8
AM_0
100
AcDbLine
 10
-99.49999999999999
 20
-9.999999999997559
 30
0.0
 11
-158.75
 21
-9.999999999997637
 31
0.0
  0
LINE
  5
167F
330
1F
100
AcDbEntity
  8
AM_0
100
AcDbLine
 10
-158.75
 20
9.999999999999834
 30
0.0
 11
-158.75
 21
-9.999999999997639
 31
0.0
  0
LINE
  5
1680
330
1F
100
AcDbEntity
  8
AM_0
100
AcDbLine
 10
-160.0
 20
8.749999999999833
 30
0.0
 11
-160.0
 21
-8.749999999997639
 31
0.0
  0
DIMENSION
  5
1681
330
1F
100
AcDbEntity
  8
AM_5
100
AcDbDimension
  2
*D8
 10
-176.7882312597198
 20
-9.999999999997633
 30
0.0
 11
-179.8882312597197
 21
0.0000000000010752
 31
0.0
 70
    32
  1
%%c<>
  3
AM_JIS
100
AcDbAlignedDimension
 13
-158.75
 23
9.999999999999834
 33
0.0
 14
-158.75
 24
-9.999999999997639
 34
0.0
 50
270.0
100
AcDbRotatedDimension
1001
GENIUS_GENDTOL_13
1000

1000
h7
1000

1040
0.0
  0
LINE
  5
168E
330
1F
100
AcDbEntity
  8
AM_0
100
AcDbLine
 10
-99.49999999999999
 20
9.999999999999925
 30
0.0
 11
-158.75
 21
9.999999999999834
 31
0.0
  0
LINE
  5
169A
330
1F
100
AcDbEntity
  8
AM_0
100
AcDbLine
 10
-158.75
 20
9.999999999999834
 30
0.0
 11
-160.0
 21
8.749999999999833
 31
0.0
1001
GENIUS_GENFIL_13
1070
     0
1040
1.25
1040
1.25
1040
20.0
1040
0.0
1002
{
1002
}
1001
GENIUS_GENODEF_13
1002
{
1000
HIER
1070
     0
1002
}
1002
{
1000
MANEDIT
1070
     0
1002
}
1002
{
1000
NOSEL
1070
     0
1002
}
1002
{
1000
BEHIND
1070
     0
1002
}
1002
{
1000
REACTOR
1002
}
1001
GENIUS_GENOBJ-N-CHA_13
1002
{
1000
OWNER
1000
GEN
1002
}
  0
LINE
  5
169D
330
1F
100
AcDbEntity
  8
AM_0
100
AcDbLine
 10
-160.0
 20
-8.749999999997639
 30
0.0
 11
-158.75
 21
-9.999999999997637
 31
0.0
1001
GENIUS_GENFIL_13
1070
     0
1040
1.25
1040
1.25
1040
20.0
1040
0.0
1002
{
1002
}
1001
GENIUS_GENODEF_13
1002
{
1000
HIER
1070
     0
1002
}
1002
{
1000
MANEDIT
1070
     0
1002
}
1002
{
1000
NOSEL
1070
     0
1002
}
1002
{
1000
BEHIND
1070
     0
1002
}
1002
{
1000
REACTOR
1002
}
1001
GENIUS_GENOBJ-N-CHA_13
1002
{
1000
OWNER
1000
GEN
1002
}
  0
LINE
  5
16C2
330
1F
100
AcDbEntity
  8
AM_0
100
AcDbLine
 10
-99.49999999999999
 20
9.999999999999923
 30
0.0
 11
-99.49999999999999
 21
-9.999999999997557
 31
0.0
  0
LINE
  5
16E9
330
1F
100
AcDbEntity
  8
AM_11
100
AcDbLine
 10
-80.0
 20
-8.999999999997911
 30
0.0
 11
-80.0
 21
8.99999999999984
 31
0.0
  0
SPLINE
  5
18A4
330
1F
100
AcDbEntity
  8
AM_0
100
AcDbSpline
210
0.0
220
0.0
230
1.0
 70
     8
 71
     3
 72
     8
 73
     4
 74
     0
 42
0.0000000001
 43
0.0000000001
 40
0.0
 40
0.0
 40
0.0
 40
0.0
 40
7.57842115059705
 40
7.57842115059705
 40
7.57842115059705
 40
7.57842115059705
 10
-48.95999999999866
 20
8.999999999999957
 30
0.0
 10
-53.50705269035689
 20
8.999999999999957
 30
0.0
 10
-57.83500065689121
 20
7.769069812768259
 30
0.0
 10
-62.05843798301414
 20
5.950998919831431
 30
0.0
  0
LINE
  5
18A5
330
1F
100
AcDbEntity
  8
AM_0
100
AcDbLine
 10
-79.01421753622063
 20
6.648388605249804
 30
0.0
 11
-53.20183001583811
 21
5.415216160550495
 31
0.0
  0
LINE
  5
18AB
330
1F
100
AcDbEntity
  8
AM_0
100
AcDbLine
 10
-12.35778429486357
 20
-6.263230602300433
 30
0.0
 11
-30.85955363730902
 21
-7.382499860532546
 31
0.0
  0
SPLINE
  5
1909
330
1F
100
AcDbEntity
  8
AM_0
100
AcDbSpline
210
0.0
220
0.0
230
1.0
 70
     8
 71
     3
 72
     8
 73
     4
 74
     0
 42
0.0000000001
 43
0.0000000001
 40
0.0
 40
0.0
 40
0.0
 40
0.0
 40
5.192508374738713
 40
5.192508374738713
 40
5.192508374738713
 40
5.192508374738713
 10
-80.00000000000003
 20
4.538702655831994
 30
0.0
 10
-86.4804662386558
 20
6.087037653389334
 30
0.0
 10
-89.49311075203386
 20
5.509167370965105
 30
0.0
 10
-97.95704059788619
 20
4.039088833085358
 30
0.0
  0
SPLINE
  5
190A
330
1F
100
AcDbEntity
  8
AM_0
100
AcDbSpline
210
0.0
220
0.0
230
1.0
 70
     8
 71
     3
 72
     8
 73
     4
 74
     0
 42
0.0000000001
 43
0.0000000001
 40
0.0
 40
0.0
 40
0.0
 40
0.0
 40
2.238610194515266
 40
2.238610194515266
 40
2.238610194515266
 40
2.238610194515266
 10
-67.93772545719268
 20
-6.906051825713884
 30
0.0
 10
-65.30406640445336
 20
-6.906051825713884
 30
0.0
 10
-62.71812840118084
 20
-6.567461059128529
 30
0.0
 10
-60.16511315047548
 20
-5.995276518838945
 30
0.0
  0
SPLINE
  5
190B
330
1F
100
AcDbEntity
  8
AM_0
100
AcDbSpline
210
0.0
220
0.0
230
1.0
 70
     8
 71
     3
 72
     8
 73
     4
 74
     0
 42
0.0000000001
 43
0.0000000001
 40
9.410373889400617
 40
9.410373889400617
 40
9.410373889400617
 40
9.410373889400617
 40
14.48999654934396
 40
14.48999654934396
 40
14.48999654934396
 40
14.48999654934396
 10
-80.00000000000003
 20
4.538702655831994
 30
0.0
 10
-77.1985163549169
 20
3.15504588174406
 30
0.0
 10
-74.43154075372827
 20
1.577522940872131
 30
0.0
 10
-71.66456515253968
 20
0.0000000000002025
 30
0.0
  0
SPLINE
  5
190C
330
1F
100
AcDbEntity
  8
AM_0
100
AcDbSpline
210
0.0
220
0.0
230
1.0
 70
     8
 71
     3
 72
     8
 73
     4
 74
     0
 42
0.0000000001
 43
0.0000000001
 40
7.019069047417927
 40
7.019069047417927
 40
7.019069047417927
 40
7.019069047417927
 40
14.43901837670146
 40
14.43901837670146
 40
14.43901837670146
 40
14.43901837670146
 10
-80.81701577368001
 20
6.137297545568171
 30
0.0
 10
-76.65061518730779
 20
4.486450853494298
 30
0.0
 10
-72.58668626612858
 20
2.243225426747186
 30
0.0
 10
-68.52275734494937
 20
0.0000000000000746
 30
0.0
  0
SPLINE
  5
190D
330
1F
100
AcDbEntity
  8
AM_0
100
AcDbSpline
210
0.0
220
0.0
230
1.0
 70
     8
 71
     3
 72
     8
 73
     4
 74
     0
 42
0.0000000001
 43
0.0000000001
 40
0.0
 40
0.0
 40
0.0
 40
0.0
 40
13.97258598406841
 40
13.97258598406841
 40
13.97258598406841
 40
13.97258598406841
 10
-67.93772545719268
 20
-6.906051825713884
 30
0.0
 10
-76.32127704763378
 20
-6.906051825713884
 30
0.0
 10
-84.22127242768842
 20
-3.47511998765054
 30
0.0
 10
-92.11503992121938
 20
0.0000000000000746
 30
0.0
  0
LINE
  5
190E
330
1F
100
AcDbEntity
  8
AM_0
100
AcDbLine
 10
-80.81701577368001
 20
6.137297545568172
 30
0.0
 11
-80.0
 21
7.001528063837916
 31
0.0
  0
ARC
  5
190F
330
1F
100
AcDbEntity
  8
AM_0
100
AcDbCircle
 10
-83.67400000596317
 20
0.408957170552025
 30
0.0
 40
9.41178172951853
100
AcDbArc
 50
268.5962560692248
 51
301.704292261137
  0
ARC
  5
1910
330
1F
100
AcDbEntity
  8
AM_0
100
AcDbCircle
 10
-88.57279664406432
 20
-43.79366423881863
 30
0.0
 40
39.95816017020694
100
AcDbArc
 50
78.37422037564542
 51
100.1423169251443
  0
LINE
  5
1911
330
1F
100
AcDbEntity
  8
AM_0
100
AcDbLine
 10
-67.93772545719267
 20
-6.906051825713948
 30
0.0
 11
-85.43301604891267
 21
-8.028516137226159
 31
0.0
  0
ARC
  5
1912
330
1F
100
AcDbEntity
  8
AM_0
100
AcDbCircle
 10
-82.25145873837917
 20
12.6194566902068
 30
0.0
 40
21.68256600119711
100
AcDbArc
 50
231.9711497740364
 51
265.6274538140337
  0
ARC
  5
1913
330
1F
100
AcDbEntity
  8
AM_0
100
AcDbCircle
 10
-83.24869405274894
 20
14.49365270226481
 30
0.0
 40
22.62784461272139
100
AcDbArc
 50
236.8897931757458
 51
264.4604700175731
  0
ARC
  5
1914
330
1F
100
AcDbEntity
  8
AM_0
100
AcDbCircle
 10
-68.45473195633878
 20
40.46584443897547
 30
0.0
 40
46.8753105499299
100
AcDbArc
 50
230.9957220267557
 51
239.6852489157493
  0
LINE
  5
1915
330
1F
100
AcDbEntity
  8
AM_0
100
AcDbLine
 10
-80.0
 20
4.538702655831992
 30
0.0
 11
-80.81701577368001
 21
6.137297545568172
 31
0.0
  0
SPLINE
  5
1916
330
1F
100
AcDbEntity
  8
AM_0
100
AcDbSpline
210
0.0
220
0.0
230
1.0
 70
     8
 71
     3
 72
     8
 73
     4
 74
     0
 42
0.0000000001
 43
0.0000000001
 40
0.7142832446738512
 40
0.7142832446738512
 40
0.7142832446738512
 40
0.7142832446738512
 40
14.36247867694493
 40
14.36247867694493
 40
14.36247867694493
 40
14.36247867694493
 10
-88.10429270298763
 20
8.999999999999946
 30
0.0
 10
-79.97862409618048
 20
7.898052663855853
 30
0.0
 10
-72.44180961148233
 20
3.949026331928028
 30
0.0
 10
-64.90499512678415
 20
0.0000000000000746
 30
0.0
  0
LINE
  5
1919
330
1F
100
AcDbEntity
  8
AM_0
100
AcDbLine
 10
-88.1042927029868
 20
8.999999999999834
 30
0.0
 11
-96.75252258054511
 21
8.999999999999827
 31
0.0
  0
LINE
  5
191A
330
1F
100
AcDbEntity
  8
AM_0
100
AcDbLine
 10
-83.44343485937896
 20
-8.999999999999843
 30
0.0
 11
-96.75252258055166
 21
-8.999999999999854
 31
0.0
  0
LINE
  5
191B
330
1F
100
AcDbEntity
  8
AM_0
100
AcDbLine
 10
-96.75252258055166
 20
-8.999999999999854
 30
0.0
 11
-96.75252258054726
 21
3.095672042519659
 31
0.0
  0
LINE
  5
191C
330
1F
100
AcDbEntity
  8
AM_0
100
AcDbLine
 10
-96.75252258054683
 20
4.248364695722735
 30
0.0
 11
-96.75252258054511
 21
8.999999999999827
 31
0.0
  0
VIEWPORT
  5
110
330
101
100
AcDbEntity
 67
     1
  8
0
100
AcDbViewport
 10
420.5
 20
297.0
 30
0.0
 40
948.9782706766916
 41
628.452
 68
     1
 69
     1
1001
ACAD
1000
MVIEW
1002
{
1070
    16
1010
0.0
1020
0.0
1030
0.0
1010
0.0
1020
0.0
1030
1.0
1040
0.0
1040
628.452
1040
420.5
1040
297.0
1040
50.0
1040
0.0
1040
0.0
1070
     0
1070
   100
1070
     1
1070
     1
1070
     0
1070
     0
1070
     0
1070
     0
1040
0.0
1040
0.0
1040
0.0
1040
10.0
1040
10.0
1040
10.0
1040
10.0
1070
     0
1002
{
1002
}
1002
}
  0
ENDSEC
  0
SECTION
  2
OBJECTS
  0
DICTIONARY
  5
C
330
0
100
AcDbDictionary
  3
ACAD_GROUP
350
D
  3
ACAD_LAYOUT
350
1A
  3
ACAD_MLINESTYLE
350
17
  3
ACAD_PLOTSETTINGS
350
19
  3
ACAD_PLOTSTYLENAME
350
E
  3
ACDBVARIABLEDICTIONARY
350
34
  3
ACMDICTIONARY
350
43
  3
AMG
350
2B
  3
AMGSNAPSETTINGS
350
6E
  3
DWGPROPS
350
1AB2
  3
ACDBHEADERROUNDTRIPXREC
350
1ABE
  0
DICTIONARY
  5
74
330
1F
100
AcDbDictionary
280
     1
  3
ACAD_INDEX
360
1AB4
  3
ACAD_LAYOUTSELFREF
360
1AE1
  0
DICTIONARY
  5
1AE6
330
101
100
AcDbDictionary
280
     1
  3
ACAD_LAYOUTSELFREF
360
1AE7
  0
DICTIONARY
  5
D
102
{ACAD_REACTORS
330
C
102
}
330
C
100
AcDbDictionary
  0
DICTIONARY
  5
1A
102
{ACAD_REACTORS
330
C
102
}
330
C
100
AcDbDictionary
  0
DICTIONARY
  5
17
102
{ACAD_REACTORS
330
C
102
}
330
C
100
AcDbDictionary
  3
STANDARD
350
18
  0
DICTIONARY
  5
19
102
{ACAD_REACTORS
330
C
102
}
330
C
100
AcDbDictionary
  0
ACDBDICTIONARYWDFLT
  5
E
102
{ACAD_REACTORS
330
C
102
}
330
C
100
AcDbDictionary
281
     1
  3
Normal
350
F
100
AcDbDictionaryWithDefault
340
F
  0
DICTIONARY
  5
34
102
{ACAD_REACTORS
330
C
102
}
330
C
100
AcDbDictionary
  3
INDEXCTL
350
35
  3
SORTENTS
350
B5E
  0
DICTIONARY
  5
43
102
{ACAD_REACTORS
330
C
102
}
330
C
100
AcDbDictionary
  3
ACMSTDDICTIONARY
350
260
  0
DICTIONARY
  5
2B
102
{ACAD_REACTORS
330
C
102
}
330
C
100
AcDbDictionary
  3
ACMGSETTINGS
350
2C
  0
DICTIONARY
  5
6E
102
{ACAD_REACTORS
330
C
102
}
330
C
100
AcDbDictionary
  0
XRECORD
  5
1AB2
102
{ACAD_REACTORS
330
C
102
}
330
C
100
AcDbXrecord
  1
DWGPROPS COOKIE
  2

  3

  4

  6

  7

  8

  9

300
AmdtFileType=82
301
=
302
=
303
=
304
=
305
=
306
=
307
=
308
=
309
=
 40
0.0397316319444445
 41
2452836.771637361
 42
2452857.445052257
  1

 90
        1
  0
DICTIONARY
  5
1ABE
102
{ACAD_REACTORS
330
C
102
}
330
C
100
AcDbDictionary
  3
TSTACKALIGN
350
1ABF
  3
TSTACKSIZE
350
1AC0
  3
HYPERLINKBASE
350
1AC1
  3
STYLESHEET
350
1AC2
  3
LAYOUTDICT
350
1AC3
  3
PLOTSETDICT
350
1AC4
  3
PLOTSTYLNAMDICT
350
1AC5
  3
LWETCUNION
350
1AC6
  3
INSUNITS
350
1AC7
  3
CEPSNTYPE
350
1AC8
  3
FINGERPRINTGUID
350
1AC9
  3
VERSIONGUID
350
1ACA
  3
PSVPSCALE
350
1ACB
  3
DIMSTYLEDATA
350
1ACC
  3
PUCSORTHOREF
350
1ACD
  3
PUCSORTHOVIEW
350
1ACE
  3
PUCSBASE
350
1ACF
  3
PUCSORGTOP
350
1AD0
  3
PUCSORGBOTTOM
350
1AD1
  3
PUCSORGLEFT
350
1AD2
  3
PUCSORGRIGHT
350
1AD3
  3
PUCSORGFRONT
350
1AD4
  3
PUCSORGBACK
350
1AD5
  3
UCSORTHOREF
350
1AD6
  3
UCSORTHOVIEW
350
1AD7
  3
UCSBASE
350
1AD8
  3
UCSORGTOP
350
1AD9
  3
UCSORGBOTTOM
350
1ADA
  3
UCSORGLEFT
350
1ADB
  3
UCSORGRIGHT
350
1ADC
  3
UCSORGFRONT
350
1ADD
  3
UCSORGBACK
350
1ADE
  0
DICTIONARY
  5
1AB4
102
{ACAD_REACTORS
330
74
102
}
330
74
100
AcDbDictionary
  3
*A1
350
1AB5
  0
XRECORD
  5
1AE1
102
{ACAD_REACTORS
330
74
102
}
330
74
100
AcDbXrecord
340
1F
  0
XRECORD
  5
1AE7
102
{ACAD_REACTORS
330
1AE6
102
}
330
1AE6
100
AcDbXrecord
340
101
  0
MLINESTYLE
  5
18
102
{ACAD_REACTORS
330
17
102
}
330
17
100
AcDbMlineStyle
  2
STANDARD
 70
     0
  3

 62
   256
 51
90.0
 52
90.0
 71
     2
 49
0.5
 62
   256
  6
BYLAYER
 49
-0.5
 62
   256
  6
BYLAYER
  0
ACDBPLACEHOLDER
  5
F
102
{ACAD_REACTORS
330
E
102
}
330
E
100
AcDbPlaceHolder
280
     0
  0
DICTIONARYVAR
  5
35
102
{ACAD_REACTORS
330
34
102
}
330
34
100
DictionaryVariables
280
     0
  1
1
  0
DICTIONARYVAR
  5
B5E
102
{ACAD_REACTORS
330
34
102
}
330
34
100
DictionaryVariables
280
     0
  1
96
  0
DICTIONARY
  5
260
102
{ACAD_REACTORS
330
43
102
}
330
43
100
AcDbDictionary
  0
DICTIONARY
  5
2C
102
{ACAD_REACTORS
330
2B
102
}
330
2B
100
AcDbDictionary
  3
DWGSETTINGS
350
2D
  0
XRECORD
  5
1ABF
102
{ACAD_REACTORS
330
1ABE
102
}
330
1ABE
100
AcDbXrecord
 90
        1
  0
XRECORD
  5
1AC0
102
{ACAD_REACTORS
330
1ABE
102
}
330
1ABE
100
AcDbXrecord
 90
       70
  0
XRECORD
  5
1AC1
102
{ACAD_REACTORS
330
1ABE
102
}
330
1ABE
100
AcDbXrecord
  1

  0
XRECORD
  5
1AC2
102
{ACAD_REACTORS
330
1ABE
102
}
330
1ABE
100
AcDbXrecord
  1
ASAMI.ctb
  0
XRECORD
  5
1AC3
102
{ACAD_REACTORS
330
1ABE
102
}
330
1ABE
100
AcDbXrecord
340
1A
  0
XRECORD
  5
1AC4
102
{ACAD_REACTORS
330
1ABE
102
}
330
1ABE
100
AcDbXrecord
340
19
  0
XRECORD
  5
1AC5
102
{ACAD_REACTORS
330
1ABE
102
}
330
1ABE
100
AcDbXrecord
340
E
  0
XRECORD
  5
1AC6
102
{ACAD_REACTORS
330
1ABE
102
}
330
1ABE
100
AcDbXrecord
 90
    10781
  0
XRECORD
  5
1AC7
102
{ACAD_REACTORS
330
1ABE
102
}
330
1ABE
100
AcDbXrecord
 90
        4
  0
XRECORD
  5
1AC8
102
{ACAD_REACTORS
330
1ABE
102
}
330
1ABE
100
AcDbXrecord
 90
        0
  0
XRECORD
  5
1AC9
102
{ACAD_REACTORS
330
1ABE
102
}
330
1ABE
100
AcDbXrecord
  1
{AFB28963-8C59-40AE-9337-C84526B81ACE}
  0
XRECORD
  5
1ACA
102
{ACAD_REACTORS
330
1ABE
102
}
330
1ABE
100
AcDbXrecord
  1
{7FF48FA0-0FA4-4E89-AFDE-D0FCF18D5EF4}
  0
XRECORD
  5
1ACB
102
{ACAD_REACTORS
330
1ABE
102
}
330
1ABE
100
AcDbXrecord
 40
0.0
  0
XRECORD
  5
1ACC
102
{ACAD_REACTORS
330
1ABE
102
}
330
1ABE
100
AcDbXrecord
1000
DSTYLE
1002
{
1070
    79
 70
     2
1070
   341
340
59
1070
   342
340
59
1070
   371
 70
    -1
1070
   372
 70
    -1
1002
}
  0
XRECORD
  5
1ACD
102
{ACAD_REACTORS
330
1ABE
102
}
330
1ABE
100
AcDbXrecord
340
0
  0
XRECORD
  5
1ACE
102
{ACAD_REACTORS
330
1ABE
102
}
330
1ABE
100
AcDbXrecord
 70
     0
  0
XRECORD
  5
1ACF
102
{ACAD_REACTORS
330
1ABE
102
}
330
1ABE
100
AcDbXrecord
340
0
  0
XRECORD
  5
1AD0
102
{ACAD_REACTORS
330
1ABE
102
}
330
1ABE
100
AcDbXrecord
 10
0.0
 20
0.0
 30
0.0
  0
XRECORD
  5
1AD1
102
{ACAD_REACTORS
330
1ABE
102
}
330
1ABE
100
AcDbXrecord
 10
0.0
 20
0.0
 30
0.0
  0
XRECORD
  5
1AD2
102
{ACAD_REACTORS
330
1ABE
102
}
330
1ABE
100
AcDbXrecord
 10
0.0
 20
0.0
 30
0.0
  0
XRECORD
  5
1AD3
102
{ACAD_REACTORS
330
1ABE
102
}
330
1ABE
100
AcDbXrecord
 10
0.0
 20
0.0
 30
0.0
  0
XRECORD
  5
1AD4
102
{ACAD_REACTORS
330
1ABE
102
}
330
1ABE
100
AcDbXrecord
 10
0.0
 20
0.0
 30
0.0
  0
XRECORD
  5
1AD5
102
{ACAD_REACTORS
330
1ABE
102
}
330
1ABE
100
AcDbXrecord
 10
0.0
 20
0.0
 30
0.0
  0
XRECORD
  5
1AD6
102
{ACAD_REACTORS
330
1ABE
102
}
330
1ABE
100
AcDbXrecord
340
0
  0
XRECORD
  5
1AD7
102
{ACAD_REACTORS
330
1ABE
102
}
330
1ABE
100
AcDbXrecord
 70
     0
  0
XRECORD
  5
1AD8
102
{ACAD_REACTORS
330
1ABE
102
}
330
1ABE
100
AcDbXrecord
340
0
  0
XRECORD
  5
1AD9
102
{ACAD_REACTORS
330
1ABE
102
}
330
1ABE
100
AcDbXrecord
 10
0.0
 20
0.0
 30
0.0
  0
XRECORD
  5
1ADA
102
{ACAD_REACTORS
330
1ABE
102
}
330
1ABE
100
AcDbXrecord
 10
0.0
 20
0.0
 30
0.0
  0
XRECORD
  5
1ADB
102
{ACAD_REACTORS
330
1ABE
102
}
330
1ABE
100
AcDbXrecord
 10
0.0
 20
0.0
 30
0.0
  0
XRECORD
  5
1ADC
102
{ACAD_REACTORS
330
1ABE
102
}
330
1ABE
100
AcDbXrecord
 10
0.0
 20
0.0
 30
0.0
  0
XRECORD
  5
1ADD
102
{ACAD_REACTORS
330
1ABE
102
}
330
1ABE
100
AcDbXrecord
 10
0.0
 20
0.0
 30
0.0
  0
XRECORD
  5
1ADE
102
{ACAD_REACTORS
330
1ABE
102
}
330
1ABE
100
AcDbXrecord
 10
0.0
 20
0.0
 30
0.0
  0
LAYER_INDEX
  5
1AB5
102
{ACAD_REACTORS
330
1AB4
102
}
330
1AB4
100
AcDbIndex
 40
2453152.358775057
100
AcDbLayerIndex
  8
0
360
1AB6
 90
        0
  8
AM_0
360
1AB7
 90
       52
  8
AM_11
360
1AB8
 90
        4
  8
AM_7
360
1AB9
 90
        1
  8
AM_5
360
1ABA
 90
        4
  8
Defpoints
360
1ABB
 90
        0
  8
AM_6
360
1ABC
 90
        1
  0
XRECORD
  5
2D
102
{ACAD_REACTORS
330
2C
102
}
330
2C
100
AcDbXrecord
  1
VERSION
140
15.0
  1
PRODUCT
  2
AutoCAD Mechanical 2000
  0
IDBUFFER
  5
1AB6
330
0
100
AcDbIdBuffer
  0
IDBUFFER
  5
1AB7
330
0
100
AcDbIdBuffer
330
1919
330
191A
330
191B
330
191C
330
13FD
330
13FE
330
13FF
330
1400
330
1401
330
1402
330
1404
330
1405
330
1406
330
1407
330
1408
330
140B
330
140D
330
140E
330
140F
330
1416
330
1417
330
1418
330
14D2
330
14D3
330
14D4
330
14D6
330
162B
330
162E
330
167C
330
167F
330
1680
330
168E
330
169A
330
169D
330
16C2
330
18A4
330
18A5
330
18AB
330
1909
330
190A
330
190B
330
190C
330
190D
330
190E
330
190F
330
1910
330
1911
330
1912
330
1913
330
1914
330
1915
330
1916
  0
IDBUFFER
  5
1AB8
330
0
100
AcDbIdBuffer
330
140C
330
1415
330
14EC
330
16E9
  0
IDBUFFER
  5
1AB9
330
0
100
AcDbIdBuffer
330
F47
  0
IDBUFFER
  5
1ABA
330
0
100
AcDbIdBuffer
330
105F
330
10EF
330
1180
330
1681
  0
IDBUFFER
  5
1ABB
330
0
100
AcDbIdBuffer
  0
IDBUFFER
  5
1ABC
330
0
100
AcDbIdBuffer
330
E5A
  0
ENDSEC
  0
EOF
