  0
SECTION
  2
HEADER
  9
$ACADVER
  1
AC1014
  9
$ACADMAINTVER
 70
     9
  9
$DWGCODEPAGE
  3
ANSI_932
  9
$INSBASE
 10
0.0
 20
0.0
 30
0.0
  9
$EXTMIN
 10
-161.4882312597197
 20
-56.50000099999789
 30
-0.00000001
  9
$EXTMAX
 10
19.55776903085494
 20
9.266848766202269
 30
0.00000001
  9
$LIMMIN
 10
-167.8970279110839
 20
-65.92294597433522
  9
$LIMMAX
 10
28.36683168405693
 20
22.85554155095661
  9
$ORTHOMODE
 70
     0
  9
$REGENMODE
 70
     1
  9
$FILLMODE
 70
     1
  9
$QTEXTMODE
 70
     0
  9
$MIRRTEXT
 70
     0
  9
$DRAGMODE
 70
     2
  9
$LTSCALE
 40
1.0
  9
$OSMODE
 70
    55
  9
$ATTMODE
 70
     1
  9
$TEXTSIZE
 40
2.5
  9
$TRACEWID
 40
1.0
  9
$TEXTSTYLE
  7
STANDARD
  9
$CLAYER
  8
AM_0
  9
$CELTYPE
  6
BYLAYER
  9
$CECOLOR
 62
   256
  9
$CELTSCALE
 40
1.0
  9
$DELOBJ
 70
     1
  9
$DISPSILH
 70
     0
  9
$DIMSCALE
 40
1.0
  9
$DIMASZ
 40
2.5
  9
$DIMEXO
 40
1.0
  9
$DIMDLI
 40
12.0
  9
$DIMRND
 40
0.0
  9
$DIMDLE
 40
0.0
  9
$DIMEXE
 40
1.0
  9
$DIMTP
 40
0.1
  9
$DIMTM
 40
0.1
  9
$DIMTXT
 40
3.2
  9
$DIMCEN
 40
0.0
  9
$DIMTSZ
 40
0.0
  9
$DIMTOL
 70
     0
  9
$DIMLIM
 70
     0
  9
$DIMTIH
 70
     0
  9
$DIMTOH
 70
     0
  9
$DIMSE1
 70
     0
  9
$DIMSE2
 70
     0
  9
$DIMTAD
 70
     3
  9
$DIMZIN
 70
     8
  9
$DIMBLK
  1
OPEN30
  9
$DIMASO
 70
     1
  9
$DIMSHO
 70
     1
  9
$DIMPOST
  1

  9
$DIMAPOST
  1
"
  9
$DIMALT
 70
     0
  9
$DIMALTD
 70
     2
  9
$DIMALTF
 40
0.0393701
  9
$DIMLFAC
 40
1.0
  9
$DIMTOFL
 70
     1
  9
$DIMTVP
 40
0.0
  9
$DIMTIX
 70
     0
  9
$DIMSOXD
 70
     0
  9
$DIMSAH
 70
     0
  9
$DIMBLK1
  1

  9
$DIMBLK2
  1

  9
$DIMSTYLE
  2
AM_JIS
  9
$DIMCLRD
 70
   256
  9
$DIMCLRE
 70
   256
  9
$DIMCLRT
 70
     2
  9
$DIMTFAC
 40
0.71
  9
$DIMGAP
 40
1.5
  9
$DIMJUST
 70
     0
  9
$DIMSD1
 70
     0
  9
$DIMSD2
 70
     0
  9
$DIMTOLJ
 70
     0
  9
$DIMTZIN
 70
     0
  9
$DIMALTZ
 70
     0
  9
$DIMALTTZ
 70
     0
  9
$DIMFIT
 70
     3
  9
$DIMUPT
 70
     0
  9
$DIMUNIT
 70
     2
  9
$DIMDEC
 70
     3
  9
$DIMTDEC
 70
     3
  9
$DIMALTU
 70
     2
  9
$DIMALTTD
 70
     2
  9
$DIMTXSTY
  7
ASAMI
  9
$DIMAUNIT
 70
     0
  9
$LUNITS
 70
     2
  9
$LUPREC
 70
     2
  9
$SKETCHINC
 40
1.0
  9
$FILLETRAD
 40
2.5
  9
$AUNITS
 70
     0
  9
$AUPREC
 70
     0
  9
$MENU
  1
.
  9
$ELEVATION
 40
0.0
  9
$PELEVATION
 40
0.0
  9
$THICKNESS
 40
0.0
  9
$LIMCHECK
 70
     0
  9
$BLIPMODE
 70
     0
  9
$CHAMFERA
 40
1.0
  9
$CHAMFERB
 40
1.0
  9
$CHAMFERC
 40
20.0
  9
$CHAMFERD
 40
0.0
  9
$SKPOLY
 70
     0
  9
$TDCREATE
 40
2452836.771637361
  9
$TDUPDATE
 40
2453152.357567164
  9
$TDINDWG
 40
0.0550862500
  9
$TDUSRTIMER
 40
0.0550862500
  9
$USRTIMER
 70
     1
  9
$ANGBASE
 50
0.0
  9
$ANGDIR
 70
     0
  9
$PDMODE
 70
     0
  9
$PDSIZE
 40
0.0
  9
$PLINEWID
 40
0.0
  9
$COORDS
 70
     1
  9
$SPLFRAME
 70
     0
  9
$SPLINETYPE
 70
     6
  9
$SPLINESEGS
 70
     8
  9
$ATTDIA
 70
     1
  9
$ATTREQ
 70
     1
  9
$HANDLING
 70
 12289
  9
$HANDSEED
  5
2047
  9
$SURFTAB1
 70
     6
  9
$SURFTAB2
 70
     6
  9
$SURFTYPE
 70
     6
  9
$SURFU
 70
     6
  9
$SURFV
 70
     6
  9
$UCSNAME
  2

  9
$UCSORG
 10
0.0
 20
0.0
 30
0.0
  9
$UCSXDIR
 10
1.0
 20
0.0
 30
0.0
  9
$UCSYDIR
 10
0.0
 20
1.0
 30
0.0
  9
$PUCSNAME
  2

  9
$PUCSORG
 10
0.0
 20
0.0
 30
0.0
  9
$PUCSXDIR
 10
1.0
 20
0.0
 30
0.0
  9
$PUCSYDIR
 10
0.0
 20
1.0
 30
0.0
  9
$USERI1
 70
     0
  9
$USERI2
 70
     0
  9
$USERI3
 70
     0
  9
$USERI4
 70
     0
  9
$USERI5
 70
     0
  9
$USERR1
 40
0.0
  9
$USERR2
 40
0.0
  9
$USERR3
 40
0.0
  9
$USERR4
 40
0.0
  9
$USERR5
 40
0.0
  9
$WORLDVIEW
 70
     1
  9
$SHADEDGE
 70
     3
  9
$SHADEDIF
 70
    70
  9
$TILEMODE
 70
     1
  9
$MAXACTVP
 70
    64
  9
$PINSBASE
 10
0.0
 20
0.0
 30
0.0
  9
$PLIMCHECK
 70
     0
  9
$PEXTMIN
 10
1.000000000000000E+20
 20
1.000000000000000E+20
 30
1.000000000000000E+20
  9
$PEXTMAX
 10
-1.000000000000000E+20
 20
-1.000000000000000E+20
 30
-1.000000000000000E+20
  9
$PLIMMIN
 10
0.0
 20
0.0
  9
$PLIMMAX
 10
841.0
 20
594.0
  9
$UNITMODE
 70
     0
  9
$VISRETAIN
 70
     1
  9
$PLINEGEN
 70
     0
  9
$PSLTSCALE
 70
     0
  9
$TREEDEPTH
 70
  3020
  9
$PICKSTYLE
 70
     0
  9
$CMLSTYLE
  2
STANDARD
  9
$CMLJUST
 70
     0
  9
$CMLSCALE
 40
20.0
  9
$PROXYGRAPHICS
 70
     1
  9
$MEASUREMENT
 70
     1
  0
ENDSEC
  0
SECTION
  2
CLASSES
  0
CLASS
  1
ACDBDICTIONARYWDFLT
  2
AcDbDictionaryWithDefault
  3
AutoCAD 2000
 90
        0
280
     0
281
     0
  0
CLASS
  1
ACDBPLACEHOLDER
  2
AcDbPlaceHolder
  3
AutoCAD 2000
 90
        0
280
     0
281
     0
  0
CLASS
  1
LAYOUT
  2
AcDbLayout
  3
AutoCAD 2000
 90
        0
280
     0
281
     0
  0
CLASS
  1
AMGSETTINGSOBJ
  2
AmgSettingsObj
  3
"AcadM|Product Description: AutoCAD Mechanical 2000|Company: Autodesk"
 90
        0
280
     0
281
     0
  0
CLASS
  1
ACME_DOCUMENT
  2
AcMeDbDoc
  3
AcMeServices
 90
        0
280
     0
281
     0
  0
CLASS
  1
ACMESCOPE
  2
AcMeScope
  3
AcMeServices
 90
        0
280
     0
281
     0
  0
CLASS
  1
ACMECOMMANDHISTORY
  2
AcMeCommandHistory
  3
AcMeServices
 90
        0
280
     0
281
     0
  0
CLASS
  1
DICTIONARYVAR
  2
AcDbDictionaryVar
  3
AutoCAD 2000
 90
        0
280
     0
281
     0
  0
CLASS
  1
ACIMSYSVARMAN
  2
AcImSysVarManager
  3
AcMeServices
 90
        0
280
     0
281
     0
  0
CLASS
  1
ACIMREALSYSVAR
  2
AcImRealSysVar
  3
AcMeServices
 90
        0
280
     0
281
     0
  0
CLASS
  1
ACIMINTSYSVAR
  2
AcImIntSysVar
  3
AcMeServices
 90
        0
280
     0
281
     0
  0
CLASS
  1
ACMEDRAWINGMAN
  2
AcMeDrawingMan
  3
AcMeServices
 90
        0
280
     0
281
     0
  0
CLASS
  1
ACMEVIEW
  2
AcMeView
  3
AcMeServices
 90
        0
280
     0
281
     0
  0
CLASS
  1
ACDBENTITYCACHE
  2
AcMeEntityCache
  3
AcMeServices
 90
        0
280
     0
281
     0
  0
CLASS
  1
GSMANAGER
  2
AcMeGSManager
  3
AcMeServices
 90
        0
280
     0
281
     0
  0
CLASS
  1
AmdtInternalReactor
  2
AmdtInternalReactor
  3
AcMeServices
 90
        0
280
     0
281
     0
  0
CLASS
  1
ACMESTATEMGR
  2
AcMeStateMgr
  3
AcMeServices
 90
        0
280
     0
281
     0
  0
CLASS
  1
ACME_DATABASE
  2
AcMeDbDatabase
  3
AcMeServices
 90
        0
280
     0
281
     0
  0
CLASS
  1
ACRFINSADJUSTERMGR
  2
AcRfInsAdjusterMgr
  3
AcMeServices
 90
        0
280
     0
281
     0
  0
CLASS
  1
ACMDATADICTIONARY
  2
AcmDataDictionary
  3
"AcmSymBB|Product Description: AutoCAD Mechanical 2000|Company: Autodesk"
 90
        0
280
     0
281
     0
  0
CLASS
  1
ACMDATAENTRYBLOCK
  2
AcmDataEntryBlock
  3
"AcmSymBB|Product Description: AutoCAD Mechanical 2000|Company: Autodesk"
 90
        0
280
     0
281
     0
  0
CLASS
  1
AMGOBJPROPCFG
  2
AmgObjPropCfg
  3
"AmgLay|Product Description: AutoCAD Mechanical 2000|Company: Autodesk"
 90
        1
280
     0
281
     0
  0
CLASS
  1
ACAMGFILTERDAT
  2
AcAmgFilterDat
  3
"AcadM|Product Description: AutoCAD Mechanical 2000|Company: Autodesk"
 90
        0
280
     0
281
     0
  0
CLASS
  1
LAYER_INDEX
  2
AcDbLayerIndex
  3
AutoCAD 2000
 90
        0
280
     0
281
     0
  0
CLASS
  1
IDBUFFER
  2
AcDbIdBuffer
  3
AutoCAD 2000
 90
        0
280
     0
281
     0
  0
CLASS
  1
ACIMSTRSYSVAR
  2
AcImStrSysVar
  3
AcMeServices
 90
        0
280
     0
281
     0
  0
CLASS
  1
ACMSTANDARDJIS
  2
AcmStandardJIS
  3
"AcmSymBB|Product Description: AutoCAD Mechanical 2000|Company: Autodesk"
 90
        0
280
     0
281
     0
  0
CLASS
  1
ACMSURFSTANDARDJIS
  2
AcmSurfTextStdJIS
  3
"AcmSymBB|Product Description: AutoCAD Mechanical 2000|Company: Autodesk"
 90
        0
280
     0
281
     0
  0
CLASS
  1
ACMFCFSTANDARDJIS
  2
AcmFCFStdJIS
  3
"AcmSymBB|Product Description: AutoCAD Mechanical 2000|Company: Autodesk"
 90
        0
280
     0
281
     0
  0
CLASS
  1
ACMWELDSTANDARDJIS
  2
AcmWeldingStdJIS
  3
"AcmSymBB|Product Description: AutoCAD Mechanical 2000|Company: Autodesk"
 90
        0
280
     0
281
     0
  0
CLASS
  1
ACMIDSTANDARDJIS
  2
AcmIdStdJIS
  3
"AcmSymBB|Product Description: AutoCAD Mechanical 2000|Company: Autodesk"
 90
        0
280
     0
281
     0
  0
CLASS
  1
ACMDATUMSTANDARDJIS
  2
AcmDatumStdJIS
  3
"AcmSymBB|Product Description: AutoCAD Mechanical 2000|Company: Autodesk"
 90
        0
280
     0
281
     0
  0
CLASS
  1
ACMBOMSTANDARDJIS
  2
AcmBOMStdJIS
  3
"AcmSymBB|Product Description: AutoCAD Mechanical 2000|Company: Autodesk"
 90
        0
280
     0
281
     0
  0
CLASS
  1
ACMSTANDARDANSI
  2
AcmStandardANSI
  3
"AcmSymBB|Product Description: AutoCAD Mechanical 2000|Company: Autodesk"
 90
        0
280
     0
281
     0
  0
CLASS
  1
ACMSURFSTANDARDANSI
  2
AcmSurfTextStdANSI
  3
"AcmSymBB|Product Description: AutoCAD Mechanical 2000|Company: Autodesk"
 90
        0
280
     0
281
     0
  0
CLASS
  1
ACMFCFSTANDARDANSI
  2
AcmFCFStdANSI
  3
"AcmSymBB|Product Description: AutoCAD Mechanical 2000|Company: Autodesk"
 90
        0
280
     0
281
     0
  0
CLASS
  1
ACMWELDSTANDARDANSI
  2
AcmWeldingStdANSI
  3
"AcmSymBB|Product Description: AutoCAD Mechanical 2000|Company: Autodesk"
 90
        0
280
     0
281
     0
  0
CLASS
  1
ACMIDSTANDARDANSI
  2
AcmIdStdANSI
  3
"AcmSymBB|Product Description: AutoCAD Mechanical 2000|Company: Autodesk"
 90
        0
280
     0
281
     0
  0
CLASS
  1
ACMDATUMSTANDARDANSI
  2
AcmDatumStdANSI
  3
"AcmSymBB|Product Description: AutoCAD Mechanical 2000|Company: Autodesk"
 90
        0
280
     0
281
     0
  0
CLASS
  1
ACMBOMSTANDARDANSI
  2
AcmBOMStdANSI
  3
"AcmSymBB|Product Description: AutoCAD Mechanical 2000|Company: Autodesk"
 90
        0
280
     0
281
     0
  0
CLASS
  1
ACMSTANDARDBSI
  2
AcmStandardBSI
  3
"AcmSymBB|Product Description: AutoCAD Mechanical 2000|Company: Autodesk"
 90
        0
280
     0
281
     0
  0
CLASS
  1
ACMSURFSTANDARDBSI
  2
AcmSurfTextStdBSI
  3
"AcmSymBB|Product Description: AutoCAD Mechanical 2000|Company: Autodesk"
 90
        0
280
     0
281
     0
  0
CLASS
  1
ACMFCFSTANDARDBSI
  2
AcmFCFStdBSI
  3
"AcmSymBB|Product Description: AutoCAD Mechanical 2000|Company: Autodesk"
 90
        0
280
     0
281
     0
  0
CLASS
  1
ACMWELDSTANDARDBSI
  2
AcmWeldingStdBSI
  3
"AcmSymBB|Product Description: AutoCAD Mechanical 2000|Company: Autodesk"
 90
        0
280
     0
281
     0
  0
CLASS
  1
ACMIDSTANDARDBSI
  2
AcmIdStdBSI
  3
"AcmSymBB|Product Description: AutoCAD Mechanical 2000|Company: Autodesk"
 90
        0
280
     0
281
     0
  0
CLASS
  1
ACMDATUMSTANDARDBSI
  2
AcmDatumStdBSI
  3
"AcmSymBB|Product Description: AutoCAD Mechanical 2000|Company: Autodesk"
 90
        0
280
     0
281
     0
  0
CLASS
  1
ACMBOMSTANDARDBSI
  2
AcmBOMStdBSI
  3
"AcmSymBB|Product Description: AutoCAD Mechanical 2000|Company: Autodesk"
 90
        0
280
     0
281
     0
  0
CLASS
  1
LONG_TRANSACTION
  2
AcDbLongTransaction
  3
AutoCAD 2000
 90
        0
280
     0
281
     0
  0
CLASS
  1
LWPOLYLINE
  2
AcDbPolyline
  3
AutoCAD 2000
 90
        0
280
     0
281
     1
  0
CLASS
  1
HATCH
  2
AcDbHatch
  3
AutoCAD 2000
 90
        0
280
     0
281
     1
  0
CLASS
  1
XRECORD
  2
AcDbXrecord
  3
AutoCAD 2000
 90
        0
280
     0
281
     0
  0
ENDSEC
  0
SECTION
  2
TABLES
  0
TABLE
  2
VPORT
  5
8
330
0
100
AcDbSymbolTable
 70
     3
  0
VPORT
  5
201C
330
8
100
AcDbSymbolTableRecord
100
AcDbViewportTableRecord
  2
*ACTIVE
 70
     0
 10
0.0
 20
0.0
 11
1.0
 21
1.0
 12
-58.22345422515465
 22
-3.151359326628139
 13
0.0
 23
0.0
 14
2.5
 24
2.5
 15
10.0
 25
10.0
 16
0.0
 26
0.0
 36
1.0
 17
0.0
 27
0.0
 37
0.0
 40
172.4215312989304
 41
1.56570841889117
 42
50.0
 43
0.0
 44
0.0
 50
0.0
 51
0.0
 71
     0
 72
   100
 73
     1
 74
     3
 75
     0
 76
     0
 77
     0
 78
     0
  0
ENDTAB
  0
TABLE
  2
LTYPE
  5
5
330
0
100
AcDbSymbolTable
 70
    10
  0
LTYPE
  5
14
330
5
100
AcDbSymbolTableRecord
100
AcDbLinetypeTableRecord
  2
BYBLOCK
 70
     0
  3

 72
    65
 73
     0
 40
0.0
  0
LTYPE
  5
15
330
5
100
AcDbSymbolTableRecord
100
AcDbLinetypeTableRecord
  2
BYLAYER
 70
     0
  3

 72
    65
 73
     0
 40
0.0
  0
LTYPE
  5
16
330
5
100
AcDbSymbolTableRecord
100
AcDbLinetypeTableRecord
  2
CONTINUOUS
 70
     0
  3
Solid line
 72
    65
 73
     0
 40
0.0
  0
LTYPE
  5
4B
330
5
100
AcDbSymbolTableRecord
100
AcDbLinetypeTableRecord
  2
AM_ISO02W050
 70
     0
  3
__ __ __ __ __ __ __ __ __ __ __ __ __ __ __
 72
    65
 73
     2
 40
7.5
 49
6.0
 74
     0
 49
-1.5
 74
     0
  0
LTYPE
  5
4C
330
5
100
AcDbSymbolTableRecord
100
AcDbLinetypeTableRecord
  2
AM_ISO08W050
 70
     0
  3
____ . ____ . ____ . ____ . ____ . ____ . ____
 72
    65
 73
     4
 40
18.0
 49
12.0
 74
     0
 49
-1.5
 74
     0
 49
3.0
 74
     0
 49
-1.5
 74
     0
  0
LTYPE
  5
4D
330
5
100
AcDbSymbolTableRecord
100
AcDbLinetypeTableRecord
  2
AM_ISO09W050
 70
     0
  3
_____ . . _____ . . _____ . . ____ .. ____
 72
    65
 73
     6
 40
22.5
 49
12.0
 74
     0
 49
-1.5
 74
     0
 49
3.0
 74
     0
 49
-1.5
 74
     0
 49
3.0
 74
     0
 49
-1.5
 74
     0
  0
LTYPE
  5
4E
330
5
100
AcDbSymbolTableRecord
100
AcDbLinetypeTableRecord
  2
AMCONSTR
 70
     0
  3
_______________________
 72
    65
 73
     2
 40
9999.0
 49
9999.0
 74
     0
 49
0.0
 74
     0
  0
LTYPE
  5
4F
330
5
100
AcDbSymbolTableRecord
100
AcDbLinetypeTableRecord
  2
AM_ISO02W050X2
 70
     0
  3
 _ _ _ _ _ _ _ _ _ _ _ _
 72
    65
 73
     2
 40
3.75
 49
3.0
 74
     0
 49
-0.75
 74
     0
  0
LTYPE
  5
50
330
5
100
AcDbSymbolTableRecord
100
AcDbLinetypeTableRecord
  2
AM_ISO08W050X2
 70
     0
  3
__ . __ . __ . __ . __ . __
 72
    65
 73
     4
 40
9.0
 49
6.0
 74
     0
 49
-0.75
 74
     0
 49
1.5
 74
     0
 49
-0.75
 74
     0
  0
LTYPE
  5
53
330
5
100
AcDbSymbolTableRecord
100
AcDbLinetypeTableRecord
  2
AMZIGZAG
 70
     0
  3
/\/-/\/-/\/-/\/-/\/-/\/
 72
    65
 73
     2
 40
11.00009999999999
 49
0.0001
 74
     4
 75
   135
340
52
 46
0.04
 50
0.0
 44
0.0
 45
0.0
 49
-11.0
 74
     0
  0
LTYPE
  5
166
330
5
100
AcDbSymbolTableRecord
100
AcDbLinetypeTableRecord
  2
ACJISTGL
 70
     0
  3
_ _ _ _ _
 72
    65
 73
     2
 40
3.0
 49
2.0
 74
     0
 49
-1.0
 74
     0
  0
LTYPE
  5
26A
330
5
100
AcDbSymbolTableRecord
100
AcDbLinetypeTableRecord
  2
ACJISTGB
 70
     0
  3
__ . . __ . .
 72
    65
 73
     6
 40
9.0
 49
4.0
 74
     0
 49
-1.0
 74
     0
 49
1.0
 74
     0
 49
-1.0
 74
     0
 49
1.0
 74
     0
 49
-1.0
 74
     0
  0
ENDTAB
  0
TABLE
  2
LAYER
  5
2
330
0
100
AcDbSymbolTable
 70
     7
  0
LAYER
  5
10
330
2
100
AcDbSymbolTableRecord
100
AcDbLayerTableRecord
  2
0
 70
     0
 62
     7
  6
CONTINUOUS
  0
LAYER
  5
3F9
330
2
100
AcDbSymbolTableRecord
100
AcDbLayerTableRecord
  2
AM_0
 70
     0
 62
     7
  6
CONTINUOUS
  0
LAYER
  5
BD4
330
2
100
AcDbSymbolTableRecord
100
AcDbLayerTableRecord
  2
AM_11
 70
     0
 62
     3
  6
AM_ISO09W050
  0
LAYER
  5
BD5
330
2
100
AcDbSymbolTableRecord
100
AcDbLayerTableRecord
  2
AM_7
 70
     0
 62
     4
  6
AM_ISO08W050
  0
LAYER
  5
BD6
330
2
100
AcDbSymbolTableRecord
100
AcDbLayerTableRecord
  2
AM_5
 70
     0
 62
     3
  6
CONTINUOUS
  0
LAYER
  5
BD7
330
2
100
AcDbSymbolTableRecord
100
AcDbLayerTableRecord
  2
DEFPOINTS
 70
     0
 62
     7
  6
CONTINUOUS
  0
LAYER
  5
E59
330
2
100
AcDbSymbolTableRecord
100
AcDbLayerTableRecord
  2
AM_6
 70
     0
 62
     2
  6
CONTINUOUS
  0
ENDTAB
  0
TABLE
  2
STYLE
  5
3
330
0
100
AcDbSymbolTable
 70
     5
  0
STYLE
  5
11
330
3
100
AcDbSymbolTableRecord
100
AcDbTextStyleTableRecord
  2
STANDARD
 70
     0
 40
0.0
 41
1.0
 50
0.0
 71
     0
 42
2.5
  3
simplex.shx
  4
EXTFONT.SHX
  0
STYLE
  5
52
330
3
100
AcDbSymbolTableRecord
100
AcDbTextStyleTableRecord
  2

 70
     1
 40
0.0
 41
1.0
 50
0.0
 71
     0
 42
2.5
  3
ltypeshp.shx
  4

  0
STYLE
  5
6B
330
3
100
AcDbSymbolTableRecord
100
AcDbTextStyleTableRecord
  2
ASAMI
 70
     0
 40
0.0
 41
1.0
 50
0.0
 71
     0
 42
2.5
  3
simplex.shx
  4
EXTFONT.SHX
  0
STYLE
  5
262
330
3
100
AcDbSymbolTableRecord
100
AcDbTextStyleTableRecord
  2
ACJISTS
 70
     0
 40
1.0
 41
1.0
 50
0.0
 71
     0
 42
2.5
  3
simplex.shx
  4
bigfont.shx
  0
STYLE
  5
269
330
3
100
AcDbSymbolTableRecord
100
AcDbTextStyleTableRecord
  2
ACJISGDT
 70
     0
 40
0.0
 41
1.0
 50
0.0
 71
     0
 42
2.5
  3
amgdtans.shx
  4

  0
ENDTAB
  0
TABLE
  2
VIEW
  5
6
330
0
100
AcDbSymbolTable
 70
     0
  0
ENDTAB
  0
TABLE
  2
UCS
  5
7
330
0
100
AcDbSymbolTable
 70
     0
  0
ENDTAB
  0
TABLE
  2
APPID
  5
9
330
0
100
AcDbSymbolTable
 70
    12
  0
APPID
  5
12
330
9
100
AcDbSymbolTableRecord
100
AcDbRegAppTableRecord
  2
ACAD
 70
     0
  0
APPID
  5
30
330
9
100
AcDbSymbolTableRecord
100
AcDbRegAppTableRecord
  2
MCAD_NO_VIS
 70
     0
  0
APPID
  5
31
330
9
100
AcDbSymbolTableRecord
100
AcDbRegAppTableRecord
  2
ACAD_TEMP_GRAPHIC
 70
     0
  0
APPID
  5
2C2
330
9
100
AcDbSymbolTableRecord
100
AcDbRegAppTableRecord
  2
GENIUS_GENDTOL_13
 70
     0
  0
APPID
  5
339
330
9
100
AcDbSymbolTableRecord
100
AcDbRegAppTableRecord
  2
GENIUS_GENODEF_13
 70
     0
  0
APPID
  5
33A
330
9
100
AcDbSymbolTableRecord
100
AcDbRegAppTableRecord
  2
GENIUS_GENOBJ-N-RSBK_13
 70
     0
  0
APPID
  5
33B
330
9
100
AcDbSymbolTableRecord
100
AcDbRegAppTableRecord
  2
GENIUS_GENOBJ-N-LIB_13
 70
     0
  0
APPID
  5
33C
330
9
100
AcDbSymbolTableRecord
100
AcDbRegAppTableRecord
  2
GENIUS_GENSCALE_13
 70
     0
  0
APPID
  5
378
330
9
100
AcDbSymbolTableRecord
100
AcDbRegAppTableRecord
  2
GENIUS_GENDIMSH_14
 70
     0
  0
APPID
  5
BD8
330
9
100
AcDbSymbolTableRecord
100
AcDbRegAppTableRecord
  2
GENIUS_GENOBJ-N-CEN_13
 70
     0
  0
APPID
  5
BD9
330
9
100
AcDbSymbolTableRecord
100
AcDbRegAppTableRecord
  2
GENIUS_GENFIL_13
 70
     0
  0
APPID
  5
BDA
330
9
100
AcDbSymbolTableRecord
100
AcDbRegAppTableRecord
  2
GENIUS_GENOBJ-N-CHA_13
 70
     0
  0
ENDTAB
  0
TABLE
  2
DIMSTYLE
  5
A
330
0
100
AcDbSymbolTable
 70
     8
  0
DIMSTYLE
105
58
102
{ACAD_REACTORS
330
105F
330
10EF
330
1180
330
1B50
102
}
330
A
100
AcDbSymbolTableRecord
100
AcDbDimStyleTableRecord
  2
AM_JIS
 70
     0
  3

  4
"
  5
OPEN30
  6

  7

 40
1.0
 41
2.5
 42
1.0
 43
12.0
 44
1.0
 45
0.0
 46
0.0
 47
0.1
 48
0.1
140
3.2
141
0.0
142
0.0
143
0.0393701
144
1.0
145
0.0
146
0.71
147
1.5
 71
     0
 72
     0
 73
     0
 74
     0
 75
     0
 76
     0
 77
     3
 78
     8
170
     0
171
     2
172
     1
173
     0
174
     0
175
     0
176
   256
177
   256
178
     2
270
     2
271
     3
272
     3
273
     2
274
     2
340
6B
275
     0
280
     0
281
     0
282
     0
283
     0
284
     0
285
     0
286
     0
287
     3
288
     0
  0
DIMSTYLE
105
5F
330
A
100
AcDbSymbolTableRecord
100
AcDbDimStyleTableRecord
  2
AM_JIS$3
 70
     0
  3

  4
"
  5
OPEN30
  6

  7

 40
1.0
 41
2.5
 42
1.0
 43
10.0
 44
1.0
 45
0.0
 46
0.0
 47
0.1
 48
0.1
140
3.2
141
0.0
142
0.0
143
0.0393701
144
1.0
145
0.0
146
0.71
147
1.5
 71
     0
 72
     0
 73
     0
 74
     1
 75
     0
 76
     0
 77
     3
 78
     8
170
     0
171
     2
172
     0
173
     0
174
     0
175
     0
176
   256
177
   256
178
     2
270
     2
271
     2
272
     3
273
     2
274
     2
340
6B
275
     0
280
     0
281
     0
282
     0
283
     0
284
     0
285
     0
286
     0
287
     0
288
     1
  0
DIMSTYLE
105
60
330
A
100
AcDbSymbolTableRecord
100
AcDbDimStyleTableRecord
  2
AM_JIS$4
 70
     0
  3

  4
"
  5
OPEN30
  6

  7

 40
1.0
 41
2.5
 42
1.0
 43
10.0
 44
1.0
 45
0.0
 46
0.0
 47
0.1
 48
0.1
140
3.2
141
0.0
142
0.0
143
0.0393701
144
1.0
145
0.0
146
0.71
147
1.5
 71
     0
 72
     0
 73
     0
 74
     1
 75
     0
 76
     0
 77
     3
 78
     8
170
     0
171
     2
172
     0
173
     0
174
     0
175
     0
176
   256
177
   256
178
     2
270
     2
271
     2
272
     3
273
     2
274
     2
340
6B
275
     0
280
     0
281
     0
282
     0
283
     0
284
     0
285
     0
286
     0
287
     0
288
     1
  0
DIMSTYLE
105
61
330
A
100
AcDbSymbolTableRecord
100
AcDbDimStyleTableRecord
  2
AM_JIS$6
 70
     0
  3

  4
"
  5
OPEN30
  6

  7

 40
1.0
 41
2.5
 42
1.0
 43
10.0
 44
1.0
 45
0.0
 46
0.0
 47
0.1
 48
0.1
140
3.2
141
0.0
142
0.0
143
0.0393701
144
1.0
145
0.0
146
0.71
147
1.5
 71
     0
 72
     0
 73
     0
 74
     0
 75
     0
 76
     0
 77
     0
 78
     8
170
     0
171
     2
172
     1
173
     0
174
     0
175
     0
176
   256
177
   256
178
     2
270
     2
271
     2
272
     2
273
     2
274
     2
340
6B
275
     0
280
     0
281
     0
282
     0
283
     0
284
     0
285
     0
286
     0
287
     3
288
     0
  0
DIMSTYLE
105
62
330
A
100
AcDbSymbolTableRecord
100
AcDbDimStyleTableRecord
  2
AM_JIS$7
 70
     0
  3

  4
"
  5
OPEN30
  6

  7

 40
1.0
 41
2.5
 42
1.0
 43
10.0
 44
1.0
 45
0.0
 46
0.0
 47
0.1
 48
0.1
140
3.2
141
0.0
142
0.0
143
0.0393701
144
1.0
145
0.0
146
0.71
147
1.5
 71
     0
 72
     0
 73
     0
 74
     0
 75
     0
 76
     0
 77
     3
 78
     8
170
     0
171
     2
172
     1
173
     0
174
     0
175
     0
176
   256
177
   256
178
     2
270
     2
271
     2
272
     3
273
     2
274
     2
340
6B
275
     0
280
     0
281
     0
282
     0
283
     0
284
     0
285
     0
286
     0
287
     3
288
     0
  0
DIMSTYLE
105
63
330
A
100
AcDbSymbolTableRecord
100
AcDbDimStyleTableRecord
  2
AM_JIS$SF
 70
     0
  3

  4
"
  5
OPEN30
  6

  7

 40
1.0
 41
2.5
 42
1.0
 43
10.0
 44
1.0
 45
0.0
 46
0.0
 47
0.1
 48
0.1
140
3.2
141
0.0
142
0.0
143
0.0393701
144
1.0
145
0.0
146
0.71
147
1.5
 71
     0
 72
     0
 73
     0
 74
     0
 75
     1
 76
     1
 77
     3
 78
     8
170
     0
171
     2
172
     1
173
     0
174
     0
175
     0
176
   256
177
   256
178
     2
270
     2
271
     2
272
     2
273
     2
274
     2
340
6B
275
     0
280
     0
281
     0
282
     0
283
     0
284
     0
285
     0
286
     0
287
     3
288
     0
  0
DIMSTYLE
105
68
330
A
100
AcDbSymbolTableRecord
100
AcDbDimStyleTableRecord
  2
AM_JIS$SH
 70
     0
  3

  4
"
  5

  6
GENAXEH
  7
OPEN30
 40
1.0
 41
2.5
 42
1.0
 43
10.0
 44
1.0
 45
0.0
 46
0.0
 47
0.1
 48
0.1
140
3.2
141
0.0
142
0.0
143
0.0393701
144
2.0
145
0.0
146
0.71
147
1.5
 71
     0
 72
     0
 73
     0
 74
     0
 75
     1
 76
     1
 77
     3
 78
     8
170
     0
171
     2
172
     1
173
     1
174
     0
175
     0
176
   256
177
   256
178
     2
270
     2
271
     2
272
     2
273
     2
274
     2
340
6B
275
     0
280
     0
281
     0
282
     0
283
     0
284
     0
285
     0
286
     0
287
     3
288
     0
  0
DIMSTYLE
105
B34
330
A
100
AcDbSymbolTableRecord
100
AcDbDimStyleTableRecord
  2
AM_JIS$2
 70
     0
  3

  4
"
  5
OPEN30
  6

  7

 40
1.0
 41
2.5
 42
1.0
 43
12.0
 44
1.0
 45
0.0
 46
0.0
 47
0.1
 48
0.1
140
3.2
141
0.0
142
0.0
143
0.0393701
144
1.0
145
0.0
146
0.71
147
1.5
 71
     0
 72
     0
 73
     0
 74
     0
 75
     0
 76
     0
 77
     3
 78
     8
170
     0
171
     2
172
     1
173
     0
174
     0
175
     0
176
   256
177
   256
178
     2
270
     2
271
     3
272
     3
273
     2
274
     2
340
6B
275
     0
280
     0
281
     0
282
     0
283
     0
284
     0
285
     0
286
     0
287
     3
288
     0
  0
ENDTAB
  0
TABLE
  2
BLOCK_RECORD
  5
1
330
0
100
AcDbSymbolTable
 70
     9
  0
BLOCK_RECORD
  5
1F
102
{ACAD_XDICTIONARY
360
74
102
}
330
1
100
AcDbSymbolTableRecord
100
AcDbBlockTableRecord
  2
*MODEL_SPACE
  0
BLOCK_RECORD
  5
101
102
{ACAD_XDICTIONARY
360
2045
102
}
330
1
100
AcDbSymbolTableRecord
100
AcDbBlockTableRecord
  2
*PAPER_SPACE
  0
BLOCK_RECORD
  5
59
330
1
100
AcDbSymbolTableRecord
100
AcDbBlockTableRecord
  2
_OPEN30
  0
BLOCK_RECORD
  5
64
330
1
100
AcDbSymbolTableRecord
100
AcDbBlockTableRecord
  2
GENAXEH
  0
BLOCK_RECORD
  5
1060
330
1
100
AcDbSymbolTableRecord
100
AcDbBlockTableRecord
  2
*D5
  0
BLOCK_RECORD
  5
10F0
330
1
100
AcDbSymbolTableRecord
100
AcDbBlockTableRecord
  2
*D6
  0
BLOCK_RECORD
  5
1181
330
1
100
AcDbSymbolTableRecord
100
AcDbBlockTableRecord
  2
*D7
  0
BLOCK_RECORD
  5
1B51
330
1
100
AcDbSymbolTableRecord
100
AcDbBlockTableRecord
  2
*D8
  0
ENDTAB
  0
ENDSEC
  0
SECTION
  2
BLOCKS
  0
BLOCK
  5
20
330
1F
100
AcDbEntity
  8
0
100
AcDbBlockBegin
  2
*MODEL_SPACE
 70
     0
 10
0.0
 20
0.0
 30
0.0
  3
*MODEL_SPACE
  1

  0
ENDBLK
  5
21
330
1F
100
AcDbEntity
  8
0
100
AcDbBlockEnd
  0
BLOCK
  5
103
330
101
100
AcDbEntity
 67
     1
  8
0
100
AcDbBlockBegin
  2
*PAPER_SPACE
 70
     0
 10
0.0
 20
0.0
 30
0.0
  3
*PAPER_SPACE
  1

  0
ENDBLK
  5
104
330
101
100
AcDbEntity
 67
     1
  8
0
100
AcDbBlockEnd
  0
BLOCK
  5
5D
330
59
100
AcDbEntity
  8
0
100
AcDbBlockBegin
  2
_OPEN30
 70
     0
 10
0.0
 20
0.0
 30
0.0
  3
_OPEN30
  1

  0
LINE
  5
5A
330
59
100
AcDbEntity
  8
0
 62
     0
100
AcDbLine
 10
-1.0
 20
0.26794919
 30
0.0
 11
0.0
 21
0.0
 31
0.0
  0
LINE
  5
5B
330
59
100
AcDbEntity
  8
0
 62
     0
100
AcDbLine
 10
0.0
 20
0.0
 30
0.0
 11
-1.0
 21
-0.26794919
 31
0.0
  0
LINE
  5
5C
330
59
100
AcDbEntity
  8
0
 62
     0
100
AcDbLine
 10
0.0
 20
0.0
 30
0.0
 11
-1.0
 21
0.0
 31
0.0
  0
ENDBLK
  5
5E
330
59
100
AcDbEntity
  8
0
100
AcDbBlockEnd
  0
BLOCK
  5
66
330
64
100
AcDbEntity
  8
0
100
AcDbBlockBegin
  2
GENAXEH
 70
     0
 10
0.0
 20
0.0
 30
0.0
  3
GENAXEH
  1

  0
LINE
  5
65
330
64
100
AcDbEntity
  8
0
100
AcDbLine
 10
-1.0
 20
0.0
 30
0.0
 11
1.0
 21
0.0
 31
0.0
  0
ENDBLK
  5
67
330
64
100
AcDbEntity
  8
0
100
AcDbBlockEnd
  0
BLOCK
  5
106A
330
1060
100
AcDbEntity
  8
0
100
AcDbBlockBegin
  2
*D5
 70
     1
 10
0.0
 20
0.0
 30
0.0
  3
*D5
  1

  0
LINE
  5
1E04
330
1060
100
AcDbEntity
  8
AM_5
100
AcDbLine
 10
-70.0
 20
-8.499999999999847
 30
0.0
 11
-70.0
 21
-23.00000099999788
 31
0.0
  0
LINE
  5
1E05
330
1060
100
AcDbEntity
  8
AM_5
100
AcDbLine
 10
-0.0000000000007763
 20
-8.500000000002964
 30
0.0
 11
-0.0000000000007772
 21
-23.00000099999788
 31
0.0
  0
LINE
  5
1E06
330
1060
100
AcDbEntity
  8
AM_5
100
AcDbLine
 10
-67.5
 20
-22.00000099999788
 30
0.0
 11
-2.500000000000777
 21
-22.00000099999788
 31
0.0
  0
INSERT
  5
1E07
330
1060
100
AcDbEntity
  8
AM_5
100
AcDbBlockReference
  2
_OPEN30
 10
-70.0
 20
-22.00000099999788
 30
0.0
 41
2.5
 42
2.5
 43
2.5
 50
180.0
  0
INSERT
  5
1E08
330
1060
100
AcDbEntity
  8
AM_5
100
AcDbBlockReference
  2
_OPEN30
 10
-0.0000000000007772
 20
-22.00000099999788
 30
0.0
 41
2.5
 42
2.5
 43
2.5
  0
MTEXT
  5
1E09
330
1060
100
AcDbEntity
  8
AM_5
 62
     2
100
AcDbMText
 10
-35.00000000000039
 20
-18.90000099999787
 30
0.0
 40
3.2
 41
0.0
 71
     5
 72
     1
  1
70
  7
ASAMI
1001
ACAD
1000
MTEXTBEGIN
1070
    73
1070
     1
1070
    44
1040
1.0
1070
    74
1070
     0
1000
MTEXTEND
  0
POINT
  5
1E0A
330
1060
100
AcDbEntity
  8
DEFPOINTS
 62
     0
100
AcDbPoint
 10
-70.0
 20
-7.499999999999848
 30
0.0
  0
POINT
  5
1E0B
330
1060
100
AcDbEntity
  8
DEFPOINTS
 62
     0
100
AcDbPoint
 10
-0.0000000000007763
 20
-7.500000000002964
 30
0.0
  0
POINT
  5
1E0C
330
1060
100
AcDbEntity
  8
DEFPOINTS
 62
     0
100
AcDbPoint
 10
-0.0000000000007772
 20
-22.00000099999788
 30
0.0
  0
ENDBLK
  5
106B
330
1060
100
AcDbEntity
  8
0
100
AcDbBlockEnd
  0
BLOCK
  5
10FA
330
10F0
100
AcDbEntity
  8
0
100
AcDbBlockBegin
  2
*D6
 70
     1
 10
0.0
 20
0.0
 30
0.0
  3
*D6
  1

  0
LINE
  5
1E0D
330
10F0
100
AcDbEntity
  8
AM_5
100
AcDbLine
 10
-140.0
 20
-7.999999999998139
 30
0.0
 11
-140.0
 21
-35.00000099999788
 31
0.0
  0
LINE
  5
1E0E
330
10F0
100
AcDbEntity
  8
AM_5
100
AcDbLine
 10
0.0000000000000017
 20
-8.500000000002964
 30
0.0
 11
0.0000000000000001
 21
-35.00000099999788
 31
0.0
  0
LINE
  5
1E0F
330
10F0
100
AcDbEntity
  8
AM_5
100
AcDbLine
 10
-137.5
 20
-34.00000099999788
 30
0.0
 11
-2.5
 21
-34.00000099999788
 31
0.0
  0
INSERT
  5
1E10
330
10F0
100
AcDbEntity
  8
AM_5
100
AcDbBlockReference
  2
_OPEN30
 10
-140.0
 20
-34.00000099999788
 30
0.0
 41
2.5
 42
2.5
 43
2.5
 50
180.0
  0
INSERT
  5
1E11
330
10F0
100
AcDbEntity
  8
AM_5
100
AcDbBlockReference
  2
_OPEN30
 10
0.0000000000000001
 20
-34.00000099999788
 30
0.0
 41
2.5
 42
2.5
 43
2.5
  0
MTEXT
  5
1E12
330
10F0
100
AcDbEntity
  8
AM_5
 62
     2
100
AcDbMText
 10
-70.0
 20
-30.90000099999787
 30
0.0
 40
3.2
 41
0.0
 71
     5
 72
     1
  1
140
  7
ASAMI
1001
ACAD
1000
MTEXTBEGIN
1070
    73
1070
     1
1070
    44
1040
1.0
1070
    74
1070
     0
1000
MTEXTEND
  0
POINT
  5
1E13
330
10F0
100
AcDbEntity
  8
DEFPOINTS
 62
     0
100
AcDbPoint
 10
-140.0
 20
-6.999999999998139
 30
0.0
  0
POINT
  5
1E14
330
10F0
100
AcDbEntity
  8
DEFPOINTS
 62
     0
100
AcDbPoint
 10
0.0000000000000018
 20
-7.500000000002964
 30
0.0
  0
POINT
  5
1E15
330
10F0
100
AcDbEntity
  8
DEFPOINTS
 62
     0
100
AcDbPoint
 10
0.0000000000000001
 20
-34.00000099999788
 30
0.0
  0
ENDBLK
  5
10FB
330
10F0
100
AcDbEntity
  8
0
100
AcDbBlockEnd
  0
BLOCK
  5
118B
330
1181
100
AcDbEntity
  8
0
100
AcDbBlockBegin
  2
*D7
 70
     1
 10
0.0
 20
0.0
 30
0.0
  3
*D7
  1

  0
LINE
  5
1D2D
330
1181
100
AcDbEntity
  8
AM_5
100
AcDbLine
 10
1.000000000000002
 20
7.5
 30
0.0
 11
19.55776903085494
 21
7.499999999999994
 31
0.0
  0
LINE
  5
1D2E
330
1181
100
AcDbEntity
  8
AM_5
100
AcDbLine
 10
1.0
 20
-7.5
 30
0.0
 11
19.55776903085494
 21
-7.500000000000005
 31
0.0
  0
LINE
  5
1D2F
330
1181
100
AcDbEntity
  8
AM_5
100
AcDbLine
 10
18.55776903085494
 20
4.999999999999994
 30
0.0
 11
18.55776903085494
 21
-5.000000000000005
 31
0.0
  0
INSERT
  5
1D30
330
1181
100
AcDbEntity
  8
AM_5
100
AcDbBlockReference
  2
_OPEN30
 10
18.55776903085494
 20
7.499999999999994
 30
0.0
 41
2.5
 42
2.5
 43
2.5
 50
90.0
  0
INSERT
  5
1D31
330
1181
100
AcDbEntity
  8
AM_5
100
AcDbBlockReference
  2
_OPEN30
 10
18.55776903085494
 20
-7.500000000000005
 30
0.0
 41
2.5
 42
2.5
 43
2.5
 50
270.0
  0
MTEXT
  5
1D32
330
1181
100
AcDbEntity
  8
AM_5
 62
     2
100
AcDbMText
 10
15.45776903085494
 20
-0.0000000000000016
 30
0.0
 40
3.2
 41
0.0
 71
     5
 72
     1
  1
%%c15
  7
ASAMI
 11
0.0000000000000001
 21
1.0
 31
0.0
1001
ACAD
1000
MTEXTBEGIN
1070
    73
1070
     1
1070
    44
1040
1.0
1070
    74
1070
     0
1000
MTEXTEND
  0
POINT
  5
1D33
330
1181
100
AcDbEntity
  8
DEFPOINTS
 62
     0
100
AcDbPoint
 10
0.0000000000000027
 20
7.5
 30
0.0
  0
POINT
  5
1D34
330
1181
100
AcDbEntity
  8
DEFPOINTS
 62
     0
100
AcDbPoint
 10
0.0
 20
-7.5
 30
0.0
  0
POINT
  5
1D35
330
1181
100
AcDbEntity
  8
DEFPOINTS
 62
     0
100
AcDbPoint
 10
18.55776903085494
 20
-7.500000000000005
 30
0.0
  0
ENDBLK
  5
118C
330
1181
100
AcDbEntity
  8
0
100
AcDbBlockEnd
  0
BLOCK
  5
1B5B
330
1B51
100
AcDbEntity
  8
0
100
AcDbBlockBegin
  2
*D8
 70
     1
 10
0.0
 20
0.0
 30
0.0
  3
*D8
  1

  0
LINE
  5
1B5D
330
1B51
100
AcDbEntity
  8
AM_5
100
AcDbLine
 10
-140.0
 20
7.999999999999822
 30
0.0
 11
-157.7882312597197
 21
7.999999999999826
 31
0.0
  0
LINE
  5
1B5E
330
1B51
100
AcDbEntity
  8
AM_5
100
AcDbLine
 10
-140.0
 20
-7.999999999998157
 30
0.0
 11
-157.7882312597197
 21
-7.999999999998152
 31
0.0
  0
LINE
  5
1B5F
330
1B51
100
AcDbEntity
  8
AM_5
100
AcDbLine
 10
-156.7882312597197
 20
5.499999999999826
 30
0.0
 11
-156.7882312597197
 21
-5.499999999998152
 31
0.0
  0
INSERT
  5
1B60
330
1B51
100
AcDbEntity
  8
AM_5
100
AcDbBlockReference
  2
_OPEN30
 10
-156.7882312597197
 20
7.999999999999826
 30
0.0
 41
2.5
 42
2.5
 43
2.5
 50
90.0
  0
INSERT
  5
1B61
330
1B51
100
AcDbEntity
  8
AM_5
100
AcDbBlockReference
  2
_OPEN30
 10
-156.7882312597197
 20
-7.999999999998152
 30
0.0
 41
2.5
 42
2.5
 43
2.5
 50
270.0
  0
MTEXT
  5
1B62
330
1B51
100
AcDbEntity
  8
AM_5
 62
     2
100
AcDbMText
 10
-159.8882312597197
 20
0.0000000000008124
 30
0.0
 40
3.2
 41
0.0
 71
     5
 72
     1
  1
%%c16
  7
ASAMI
 11
0.0000000000000001
 21
1.0
 31
0.0
1001
ACAD
1000
MTEXTBEGIN
1070
    73
1070
     1
1070
    44
1040
1.0
1070
    74
1070
     0
1000
MTEXTEND
  0
POINT
  5
1B63
330
1B51
100
AcDbEntity
  8
DEFPOINTS
 62
     0
100
AcDbPoint
 10
-139.0
 20
7.999999999999822
 30
0.0
  0
POINT
  5
1B64
330
1B51
100
AcDbEntity
  8
DEFPOINTS
 62
     0
100
AcDbPoint
 10
-139.0
 20
-7.999999999998157
 30
0.0
  0
POINT
  5
1B65
330
1B51
100
AcDbEntity
  8
DEFPOINTS
 62
     0
100
AcDbPoint
 10
-156.7882312597197
 20
-7.999999999998152
 30
0.0
  0
ENDBLK
  5
1B5C
330
1B51
100
AcDbEntity
  8
0
100
AcDbBlockEnd
  0
ENDSEC
  0
SECTION
  2
ENTITIES
  0
TEXT
  5
E5A
330
1F
100
AcDbEntity
  8
AM_6
100
AcDbText
 10
-87.85714285714284
 20
-56.50000099999788
 30
0.0
 40
5.0
  1
ELSM4150
 72
     4
 11
-69.99999999999999
 21
-54.00000099999788
 31
0.0
100
AcDbText
  0
LINE
  5
F47
330
1F
100
AcDbEntity
  8
AM_7
  6
AM_ISO08W050X2
100
AcDbLine
 10
4.557768030854958
 20
0.0
 30
0.0
 11
-142.7882302597198
 21
-0.0000000000000919
 31
0.0
1001
GENIUS_GENODEF_13
1002
{
1000
HIER
1070
     0
1002
}
1002
{
1000
MANEDIT
1070
     0
1002
}
1002
{
1000
NOSEL
1070
     0
1002
}
1002
{
1000
BEHIND
1070
     0
1002
}
1002
{
1000
REACTOR
1002
}
1001
GENIUS_GENOBJ-N-CEN_13
1002
{
1000
OWNER
1000
GEN
1002
}
  0
DIMENSION
  5
105F
330
1F
100
AcDbEntity
  8
AM_5
100
AcDbDimension
  2
*D5
 10
-0.0000000000007772
 20
-22.00000099999788
 30
0.0
 11
-35.00000000000039
 21
-18.90000099999787
 31
0.0
 70
    32
  1
<>
  3
AM_JIS
100
AcDbAlignedDimension
 13
-70.0
 23
-7.499999999999848
 33
0.0
 14
-0.0000000000007763
 24
-7.500000000002964
 34
0.0
 50
0.0000000000001132
100
AcDbRotatedDimension
1001
GENIUS_GENDTOL_13
1000

1000
h7
1000

1040
0.0
  0
DIMENSION
  5
10EF
330
1F
100
AcDbEntity
  8
AM_5
100
AcDbDimension
  2
*D6
 10
0.0000000000000001
 20
-34.00000099999788
 30
0.0
 11
-70.0
 21
-30.90000099999787
 31
0.0
 70
    32
  1
<>
  3
AM_JIS
100
AcDbAlignedDimension
 13
-140.0
 23
-6.999999999998139
 33
0.0
 14
0.0000000000000018
 24
-7.500000000002964
 34
0.0
 50
0.0000000000001132
100
AcDbRotatedDimension
1001
GENIUS_GENDTOL_13
1000

1000
h7
1000

1040
0.0
  0
DIMENSION
  5
1180
330
1F
100
AcDbEntity
  8
AM_5
100
AcDbDimension
  2
*D7
 10
18.55776903085494
 20
-7.500000000000005
 30
0.0
 11
15.45776903085494
 21
-0.0000000000000016
 31
0.0
 70
    32
  1
%%c<>
  3
AM_JIS
100
AcDbAlignedDimension
 13
0.0000000000000027
 23
7.5
 33
0.0
 14
0.0
 24
-7.5
 34
0.0
 50
90.0
100
AcDbRotatedDimension
1001
GENIUS_GENDTOL_13
1000

1000
h7
1000

1040
0.0
  0
LINE
  5
1B4A
330
1F
100
AcDbEntity
  8
AM_0
100
AcDbLine
 10
-80.99999999999999
 20
-7.99999999999803
 30
0.0
 11
-139.0
 21
-7.999999999998137
 31
0.0
  0
LINE
  5
1B4D
330
1F
100
AcDbEntity
  8
AM_0
100
AcDbLine
 10
-80.99999999999996
 20
7.999999999999937
 30
0.0
 11
-139.0
 21
7.999999999999822
 31
0.0
  0
LINE
  5
1B4E
330
1F
100
AcDbEntity
  8
AM_0
100
AcDbLine
 10
-139.0
 20
7.999999999999822
 30
0.0
 11
-139.0
 21
-7.999999999998157
 31
0.0
  0
LINE
  5
1B4F
330
1F
100
AcDbEntity
  8
AM_0
100
AcDbLine
 10
-140.0
 20
6.99999999999982
 30
0.0
 11
-140.0
 21
-6.999999999998139
 31
0.0
  0
DIMENSION
  5
1B50
330
1F
100
AcDbEntity
  8
AM_5
100
AcDbDimension
  2
*D8
 10
-156.7882312597197
 20
-7.999999999998152
 30
0.0
 11
-159.8882312597197
 21
0.0000000000008124
 31
0.0
 70
    32
  1
%%c<>
  3
AM_JIS
100
AcDbAlignedDimension
 13
-139.0
 23
7.999999999999822
 33
0.0
 14
-139.0
 24
-7.999999999998157
 34
0.0
 50
270.0
100
AcDbRotatedDimension
1001
GENIUS_GENDTOL_13
1000

1000
h7
1000

1040
0.0
  0
LINE
  5
1B68
330
1F
100
AcDbEntity
  8
AM_0
100
AcDbLine
 10
-139.0
 20
7.999999999999822
 30
0.0
 11
-140.0
 21
6.99999999999982
 31
0.0
1001
GENIUS_GENFIL_13
1070
     0
1040
1.0
1040
1.0
1040
20.0
1040
0.0
1002
{
1002
}
1001
GENIUS_GENODEF_13
1002
{
1000
HIER
1070
     0
1002
}
1002
{
1000
MANEDIT
1070
     0
1002
}
1002
{
1000
NOSEL
1070
     0
1002
}
1002
{
1000
BEHIND
1070
     0
1002
}
1002
{
1000
REACTOR
1002
}
1001
GENIUS_GENOBJ-N-CHA_13
1002
{
1000
OWNER
1000
GEN
1002
}
  0
LINE
  5
1B6B
330
1F
100
AcDbEntity
  8
AM_0
100
AcDbLine
 10
-140.0
 20
-6.999999999998139
 30
0.0
 11
-139.0
 21
-7.999999999998137
 31
0.0
1001
GENIUS_GENFIL_13
1070
     0
1040
1.0
1040
1.0
1040
20.0
1040
0.0
1002
{
1002
}
1001
GENIUS_GENODEF_13
1002
{
1000
HIER
1070
     0
1002
}
1002
{
1000
MANEDIT
1070
     0
1002
}
1002
{
1000
NOSEL
1070
     0
1002
}
1002
{
1000
BEHIND
1070
     0
1002
}
1002
{
1000
REACTOR
1002
}
1001
GENIUS_GENOBJ-N-CHA_13
1002
{
1000
OWNER
1000
GEN
1002
}
  0
LINE
  5
1BFF
330
1F
100
AcDbEntity
  8
AM_0
100
AcDbLine
 10
-80.99999999999999
 20
7.999999999999936
 30
0.0
 11
-81.0
 21
-7.999999999998029
 31
0.0
  0
LINE
  5
1CC3
330
1F
100
AcDbEntity
  8
AM_11
100
AcDbLine
 10
0.0
 20
-7.499999999998237
 30
0.0
 11
0.0
 21
7.499999999999879
 31
0.0
  0
LINE
  5
1CCD
330
1F
100
AcDbEntity
  8
AM_11
100
AcDbLine
 10
-0.0000000000021964
 20
7.499999999999985
 30
0.0
 11
-70.0
 21
7.499999999999937
 31
0.0
  0
LINE
  5
1CCE
330
1F
100
AcDbEntity
  8
AM_11
100
AcDbLine
 10
-70.0
 20
-7.499999999999848
 30
0.0
 11
-0.0000000000010982
 21
-7.500000000000014
 31
0.0
  0
LINE
  5
1CE1
330
1F
100
AcDbEntity
  8
AM_11
100
AcDbLine
 10
-70.0
 20
-7.499999999998266
 30
0.0
 11
-70.0
 21
7.499999999999864
 31
0.0
  0
LINE
  5
1D0E
330
1F
100
AcDbEntity
  8
AM_0
100
AcDbLine
 10
-76.52044488356795
 20
7.499999999999933
 30
0.0
 11
-79.62626129027262
 21
7.49999999999993
 31
0.0
  0
LINE
  5
1D0F
330
1F
100
AcDbEntity
  8
AM_0
100
AcDbLine
 10
-79.62626129027262
 20
7.49999999999993
 30
0.0
 11
-80.99999999999996
 21
7.999999999999937
 31
0.0
  0
LINE
  5
1D10
330
1F
100
AcDbEntity
  8
AM_0
100
AcDbLine
 10
-76.57520165718368
 20
-7.499999999999854
 30
0.0
 11
-79.6262612902777
 21
-7.499999999999856
 31
0.0
  0
LINE
  5
1D11
330
1F
100
AcDbEntity
  8
AM_0
100
AcDbLine
 10
-79.6262612902777
 20
-7.499999999999856
 30
0.0
 11
-79.62626129027263
 21
7.499999999999936
 31
0.0
  0
LINE
  5
1D12
330
1F
100
AcDbEntity
  8
AM_0
100
AcDbLine
 10
-80.99999999999999
 20
-7.99999999999803
 30
0.0
 11
-79.6262612902777
 21
-7.499999999999857
 31
0.0
  0
LINE
  5
1F91
330
1F
100
AcDbEntity
  8
AM_0
100
AcDbLine
 10
0.0
 20
0.0
 30
0.0
 11
-0.1280681818181648
 21
1.50000000000017
 31
0.0
  0
LINE
  5
1F92
330
1F
100
AcDbEntity
  8
AM_0
100
AcDbLine
 10
-0.1280681818181648
 20
-1.990346781844777
 30
0.0
 11
0.0
 21
-1.5
 31
0.0
  0
LINE
  5
1F93
330
1F
100
AcDbEntity
  8
AM_0
100
AcDbLine
 10
0.0
 20
-1.5
 30
0.0
 11
-0.7041923737843473
 21
0.0000000000000853
 31
0.0
  0
LINE
  5
1F94
330
1F
100
AcDbEntity
  8
AM_0
100
AcDbLine
 10
0.0
 20
0.0
 30
0.0
 11
-0.1083610611528627
 21
-1.269180130628626
 31
0.0
  0
LINE
  5
1F95
330
1F
100
AcDbEntity
  8
AM_0
100
AcDbLine
 10
0.0
 20
0.0
 30
0.0
 11
0.0
 21
7.5
 31
0.0
  0
LINE
  5
1F96
330
1F
100
AcDbEntity
  8
AM_0
100
AcDbLine
 10
-0.1280681818181648
 20
1.50000000000017
 30
0.0
 11
-1.302056029068796
 21
4.000711221015592
 31
0.0
  0
LINE
  5
1F97
330
1F
100
AcDbEntity
  8
AM_0
100
AcDbLine
 10
-2.87430400904942
 20
0.0
 30
0.0
 11
-2.87430400904942
 21
-1.200000000000017
 31
0.0
  0
SPLINE
  5
1F98
330
1F
100
AcDbEntity
  8
AM_0
100
AcDbSpline
210
0.0
220
0.0
230
1.0
 70
     8
 71
     3
 72
     8
 73
     4
 74
     0
 42
0.0000000001
 43
0.0000000001
 40
0.0
 40
0.0
 40
0.0
 40
0.0
 40
5.635889483499127
 40
5.635889483499127
 40
5.635889483499127
 40
5.635889483499127
 10
0.0
 20
7.5
 30
0.0
 10
-2.291359108190294
 20
7.5
 30
0.0
 10
-4.500607726269798
 20
6.932691043468707
 30
0.0
 10
-6.659682759545876
 20
6.018728157556864
 30
0.0
  0
SPLINE
  5
1F99
330
1F
100
AcDbEntity
  8
AM_0
100
AcDbSpline
210
0.0
220
0.0
230
1.0
 70
     8
 71
     3
 72
     8
 73
     4
 74
     0
 42
0.0000000001
 43
0.0000000001
 40
0.7142832446738512
 40
0.7142832446738512
 40
0.7142832446738512
 40
0.7142832446738512
 40
9.361146747480315
 40
9.361146747480315
 40
9.361146747480315
 40
9.361146747480315
 10
-11.13971437551392
 20
6.900896684736427
 30
0.0
 10
-7.651349404967583
 20
6.698675158457376
 30
0.0
 10
-4.32314437562978
 20
5.303654824199441
 30
0.0
 10
-1.053629378374424
 20
3.471537674221423
 30
0.0
  0
SPLINE
  5
1F9A
330
1F
100
AcDbEntity
  8
AM_0
100
AcDbSpline
210
0.0
220
0.0
230
1.0
 70
     8
 71
     3
 72
     8
 73
     4
 74
     0
 42
0.0000000001
 43
0.0000000001
 40
0.3581103616548037
 40
0.3581103616548037
 40
0.3581103616548037
 40
0.3581103616548037
 40
12.40023413887867
 40
12.40023413887867
 40
12.40023413887867
 40
12.40023413887867
 10
-14.02311048856725
 20
7.268768134279003
 30
0.0
 10
-9.148101462080957
 20
7.120145905594256
 30
0.0
 10
-4.620162574864785
 20
4.50405169272749
 30
0.0
 10
-0.1424762089070223
 20
1.530690534913446
 30
0.0
  0
SPLINE
  5
1F9B
330
1F
100
AcDbEntity
  8
AM_0
100
AcDbSpline
210
0.0
220
0.0
230
1.0
 70
     8
 71
     3
 72
     8
 73
     4
 74
     0
 42
0.0000000001
 43
0.0000000001
 40
0.0
 40
0.0
 40
0.0
 40
0.0
 40
7.244998274671977
 40
7.244998274671977
 40
7.244998274671977
 40
7.244998274671977
 10
-16.58787878787877
 20
7.500000000000149
 30
0.0
 10
-10.69674382716065
 20
7.500000000000149
 30
0.0
 10
-5.348371913580311
 20
3.750000000000159
 30
0.0
 10
0.0
 20
0.0000000000001705
 30
0.0
  0
LINE
  5
1F9C
330
1F
100
AcDbEntity
  8
AM_0
100
AcDbLine
 10
-2.87430400904942
 20
-1.200000000000017
 30
0.0
 11
-0.1408384747568595
 21
-1.200000000000017
 31
0.0
  0
LINE
  5
1F9D
330
1F
100
AcDbEntity
  8
AM_0
100
AcDbLine
 10
0.0
 20
0.0
 30
0.0
 11
-2.87430400904942
 21
0.0
 31
0.0
  0
LINE
  5
1F9E
330
1F
100
AcDbEntity
  8
AM_0
100
AcDbLine
 10
-1.302056029068796
 20
4.000711221015592
 30
0.0
 11
-2.87430400904942
 21
4.512680133792116
 31
0.0
  0
SPLINE
  5
1F9F
330
1F
100
AcDbEntity
  8
AM_0
100
AcDbSpline
210
0.0
220
0.0
230
1.0
 70
     8
 71
     3
 72
     8
 73
     4
 74
     0
 42
0.0000000001
 43
0.0000000001
 40
0.0
 40
0.0
 40
0.0
 40
0.0
 40
1.293282661808357
 40
1.293282661808357
 40
1.293282661808357
 40
1.293282661808357
 10
0.0
 20
6.112054030025944
 30
0.0
 10
-0.674818547431625
 20
5.120164794226511
 30
0.0
 10
-1.833106365600561
 20
4.694210695386527
 30
0.0
 10
-2.87430400904942
 20
4.512680133792116
 30
0.0
  0
ELLIPSE
  5
1FA0
330
1F
100
AcDbEntity
  8
AM_0
100
AcDbEllipse
 10
2.421919562927119
 20
-3.815820247076857
 30
0.0
 11
0.0000000000000345
 21
4.561047173274013
 31
0.0
210
0.0
220
0.0
230
1.0
 40
0.8131313131313248
 41
1.211124581303828
 42
2.069278538290332
  0
LINE
  5
1FA1
330
1F
100
AcDbEntity
  8
AM_0
100
AcDbLine
 10
-0.1280681818181648
 20
-7.100161736432653
 30
0.0
 11
-0.8354924242424271
 21
-5.996424983192866
 31
0.0
  0
LINE
  5
1FA2
330
1F
100
AcDbEntity
  8
AM_0
100
AcDbLine
 10
0.0
 20
-7.5
 30
0.0
 11
-0.1280681818181648
 21
-7.100161736432738
 31
0.0
  0
SPLINE
  5
1FA3
330
1F
100
AcDbEntity
  8
AM_0
100
AcDbSpline
210
0.0
220
0.0
230
1.0
 70
     8
 71
     3
 72
     8
 73
     4
 74
     0
 42
0.0000000001
 43
0.0000000001
 40
0.0
 40
0.0
 40
0.0
 40
0.0
 40
3.33536911321369
 40
3.33536911321369
 40
3.33536911321369
 40
3.33536911321369
 10
-9.674197078507653
 20
-6.926166755704041
 30
0.0
 10
-8.318150545105106
 20
-6.926166755704041
 30
0.0
 10
-6.987181189763364
 20
-6.739403274944187
 30
0.0
 10
-5.675465390597111
 20
-6.409248015427575
 30
0.0
  0
SPLINE
  5
1FA4
330
1F
100
AcDbEntity
  8
AM_0
100
AcDbSpline
210
0.0
220
0.0
230
1.0
 70
     8
 71
     3
 72
     8
 73
     4
 74
     0
 42
0.0000000001
 43
0.0000000001
 40
0.0
 40
0.0
 40
0.0
 40
0.0
 40
2.130230809022907
 40
2.130230809022907
 40
2.130230809022907
 40
2.130230809022907
 10
-14.25454545454568
 20
-7.50000000000001
 30
0.0
 10
-13.38846676703887
 20
-7.50000000000001
 30
0.0
 10
-12.53411886333521
 20
-7.418950931730261
 30
0.0
 10
-11.6897771552344
 20
-7.268768134278854
 30
0.0
  0
SPLINE
  5
1FA5
330
1F
100
AcDbEntity
  8
AM_0
100
AcDbSpline
210
0.0
220
0.0
230
1.0
 70
     8
 71
     3
 72
     8
 73
     4
 74
     0
 42
0.0000000001
 43
0.0000000001
 40
0.0
 40
0.0
 40
0.0
 40
0.0
 40
2.764560748519282
 40
2.764560748519282
 40
2.764560748519282
 40
2.764560748519282
 10
-12.12562686438558
 20
-7.27542550550309
 30
0.0
 10
-11.00165140854822
 20
-7.27542550550309
 30
0.0
 10
-9.896433254209615
 20
-7.142071722765091
 30
0.0
 10
-8.806381042309311
 20
-6.900896684764671
 30
0.0
  0
SPLINE
  5
1FA6
330
1F
100
AcDbEntity
  8
AM_0
100
AcDbSpline
210
0.0
220
0.0
230
1.0
 70
     8
 71
     3
 72
     8
 73
     4
 74
     0
 42
0.0000000001
 43
0.0000000001
 40
4.542668862435135
 40
4.542668862435135
 40
4.542668862435135
 40
4.542668862435135
 40
14.36247867694493
 40
14.36247867694493
 40
14.36247867694493
 40
14.36247867694493
 10
-0.8354924242407193
 20
-5.996424983184937
 30
0.0
 10
-4.658583588891988
 20
-4.735508529859298
 30
0.0
 10
-8.333057000366355
 20
-2.367754264929612
 30
0.0
 10
-12.00753041184073
 20
0.0000000000000746
 30
0.0
  0
SPLINE
  5
1FA7
330
1F
100
AcDbEntity
  8
AM_0
100
AcDbSpline
210
0.0
220
0.0
230
1.0
 70
     8
 71
     3
 72
     8
 73
     4
 74
     0
 42
0.0000000001
 43
0.0000000001
 40
0.0
 40
0.0
 40
0.0
 40
0.0
 40
7.244998274671978
 40
7.244998274671978
 40
7.244998274671978
 40
7.244998274671978
 10
0.0
 20
-7.5
 30
0.0
 10
-5.891134960718117
 20
-7.50000000000001
 30
0.0
 10
-11.23950687429844
 20
-3.75
 30
0.0
 10
-16.58787878787877
 20
-0.0000000000000107
 30
0.0
  0
SPLINE
  5
1FA8
330
1F
100
AcDbEntity
  8
AM_0
100
AcDbSpline
210
0.0
220
0.0
230
1.0
 70
     8
 71
     3
 72
     8
 73
     4
 74
     0
 42
0.0000000001
 43
0.0000000001
 40
1.870660592686466
 40
1.870660592686466
 40
1.870660592686466
 40
1.870660592686466
 40
14.43901837670146
 40
14.43901837670146
 40
14.43901837670146
 40
14.43901837670146
 10
-0.1280681818181648
 20
-7.100161736432653
 30
0.0
 10
-5.130002266574543
 20
-6.332850918152217
 30
0.0
 10
-9.794481232146633
 20
-3.166425459076076
 30
0.0
 10
-14.45896019771872
 20
0.0000000000000746
 30
0.0
  0
LINE
  5
1FA9
330
1F
100
AcDbEntity
  8
AM_0
100
AcDbLine
 10
0.0
 20
-7.5
 30
0.0
 11
0.0
 21
-1.5
 31
0.0
  0
LINE
  5
1FAA
330
1F
100
AcDbEntity
  8
AM_0
100
AcDbLine
 10
-0.1280681818181648
 20
-7.100161736432738
 30
0.0
 11
-0.1280681818181648
 21
-1.990346781844777
 31
0.0
  0
LINE
  5
1FAB
330
1F
100
AcDbEntity
  8
AM_0
100
AcDbLine
 10
-1.049497997699075
 20
-2.210482147749814
 30
0.0
 11
-0.1280681818181648
 21
-1.990346781844777
 31
0.0
  0
LINE
  5
1FAC
330
1F
100
AcDbEntity
  8
AM_0
100
AcDbLine
 10
-2.87430400904942
 20
-1.200000000000017
 30
0.0
 11
-1.049497997699075
 21
-2.210482147749814
 31
0.0
  0
SPLINE
  5
1FAD
330
1F
100
AcDbEntity
  8
AM_0
100
AcDbSpline
210
0.0
220
0.0
230
1.0
 70
     8
 71
     3
 72
     8
 73
     4
 74
     0
 42
0.0000000001
 43
0.0000000001
 40
0.0
 40
0.0
 40
0.0
 40
0.0
 40
5.095367048666267
 40
5.095367048666267
 40
5.095367048666267
 40
5.095367048666267
 10
-48.06997240734192
 20
7.500000000000053
 30
0.0
 10
-50.14157365692596
 20
7.500000000000053
 30
0.0
 10
-52.14605912426923
 20
7.036290864439134
 30
0.0
 10
-54.16229111639742
 20
6.230913799320791
 30
0.0
  0
SPLINE
  5
1FAE
330
1F
100
AcDbEntity
  8
AM_0
100
AcDbSpline
210
0.0
220
0.0
230
1.0
 70
     8
 71
     3
 72
     8
 73
     4
 74
     0
 42
0.0000000001
 43
0.0000000001
 40
0.7142832446738512
 40
0.7142832446738512
 40
0.7142832446738512
 40
0.7142832446738512
 40
9.361146747480315
 40
9.361146747480315
 40
9.361146747480315
 40
9.361146747480315
 10
-42.62180799497694
 20
6.900896684736405
 30
0.0
 10
-35.33061903879366
 20
5.877055230804973
 30
0.0
 10
-30.31035301051073
 20
2.310757114960213
 30
0.0
 10
-26.90174524342463
 20
0.0
 30
0.0
  0
SPLINE
  5
1FAF
330
1F
100
AcDbEntity
  8
AM_0
100
AcDbSpline
210
0.0
220
0.0
230
1.0
 70
     8
 71
     3
 72
     8
 73
     4
 74
     0
 42
0.0000000001
 43
0.0000000001
 40
0.3581103616548037
 40
0.3581103616548037
 40
0.3581103616548037
 40
0.3581103616548037
 40
12.40023413887867
 40
12.40023413887867
 40
12.40023413887867
 40
12.40023413887867
 10
-45.50520410803026
 20
7.268768134278982
 30
0.0
 10
-39.9131924724266
 20
6.880971426126439
 30
0.0
 10
-34.30042790472117
 20
3.960488420979459
 30
0.0
 10
-29.3531750293025
 20
-0.0000000000000853
 30
0.0
  0
SPLINE
  5
1FB0
330
1F
100
AcDbEntity
  8
AM_0
100
AcDbSpline
210
0.0
220
0.0
230
1.0
 70
     8
 71
     3
 72
     8
 73
     4
 74
     0
 42
0.0000000001
 43
0.0000000001
 40
0.0
 40
0.0
 40
0.0
 40
0.0
 40
7.244998274671977
 40
7.244998274671977
 40
7.244998274671977
 40
7.244998274671977
 10
-48.06997240734179
 20
7.500000000000138
 30
0.0
 10
-42.17883744662366
 20
7.500000000000138
 30
0.0
 10
-36.83046553304332
 20
3.750000000000149
 30
0.0
 10
-31.48209361946301
 20
0.0000000000001492
 30
0.0
  0
SPLINE
  5
1FB1
330
1F
100
AcDbEntity
  8
AM_0
100
AcDbSpline
210
0.0
220
0.0
230
1.0
 70
     8
 71
     3
 72
     8
 73
     4
 74
     0
 42
0.0000000001
 43
0.0000000001
 40
0.0
 40
0.0
 40
0.0
 40
0.0
 40
5.095367048666426
 40
5.095367048666426
 40
5.095367048666426
 40
5.095367048666426
 10
-33.17575757575804
 20
7.500000000000138
 30
0.0
 10
-35.24735882534213
 20
7.500000000000138
 30
0.0
 10
-37.25184429268547
 20
7.036290864439177
 30
0.0
 10
-39.26807628481372
 20
6.230913799320791
 30
0.0
  0
SPLINE
  5
1FB2
330
1F
100
AcDbEntity
  8
AM_0
100
AcDbSpline
210
0.0
220
0.0
230
1.0
 70
     8
 71
     3
 72
     8
 73
     4
 74
     0
 42
0.0000000001
 43
0.0000000001
 40
0.0
 40
0.0
 40
0.0
 40
0.0
 40
3.872359523417441
 40
3.872359523417441
 40
3.872359523417441
 40
3.872359523417441
 10
-24.56841191009154
 20
-6.926166755704116
 30
0.0
 10
-22.99404351799505
 20
-6.926166755704116
 30
0.0
 10
-21.45347711069787
 20
-6.674424860248095
 30
0.0
 10
-19.93759911938702
 20
-6.238814808141068
 30
0.0
  0
SPLINE
  5
1FB3
330
1F
100
AcDbEntity
  8
AM_0
100
AcDbSpline
210
0.0
220
0.0
230
1.0
 70
     8
 71
     3
 72
     8
 73
     4
 74
     0
 42
0.0000000001
 43
0.0000000001
 40
0.0
 40
0.0
 40
0.0
 40
0.0
 40
2.764560748519282
 40
2.764560748519282
 40
2.764560748519282
 40
2.764560748519282
 10
-27.01984169596958
 20
-7.27542550550309
 30
0.0
 10
-25.89586624013222
 20
-7.27542550550309
 30
0.0
 10
-24.7906480857936
 20
-7.142071722765091
 30
0.0
 10
-23.7005958738933
 20
-6.900896684764671
 30
0.0
  0
SPLINE
  5
1FB4
330
1F
100
AcDbEntity
  8
AM_0
100
AcDbSpline
210
0.0
220
0.0
230
1.0
 70
     8
 71
     3
 72
     8
 73
     4
 74
     0
 42
0.0000000001
 43
0.0000000001
 40
0.0
 40
0.0
 40
0.0
 40
0.0
 40
2.130230809022907
 40
2.130230809022907
 40
2.130230809022907
 40
2.130230809022907
 10
-29.14876028612968
 20
-7.50000000000001
 30
0.0
 10
-28.28268159862286
 20
-7.50000000000001
 30
0.0
 10
-27.4283336949192
 20
-7.418950931730261
 30
0.0
 10
-26.58399198681839
 20
-7.268768134278854
 30
0.0
  0
SPLINE
  5
1FB5
330
1F
100
AcDbEntity
  8
AM_0
100
AcDbSpline
210
0.0
220
0.0
230
1.0
 70
     8
 71
     3
 72
     8
 73
     4
 74
     0
 42
0.0000000001
 43
0.0000000001
 40
0.0
 40
0.0
 40
0.0
 40
0.0
 40
2.764560748519282
 40
2.764560748519282
 40
2.764560748519282
 40
2.764560748519282
 10
-41.91405652755332
 20
-7.27542550550309
 30
0.0
 10
-40.79008107171596
 20
-7.27542550550309
 30
0.0
 10
-39.68486291737735
 20
-7.142071722765091
 30
0.0
 10
-38.59481070547705
 20
-6.900896684764671
 30
0.0
  0
SPLINE
  5
1FB6
330
1F
100
AcDbEntity
  8
AM_0
100
AcDbSpline
210
0.0
220
0.0
230
1.0
 70
     8
 71
     3
 72
     8
 73
     4
 74
     0
 42
0.0000000001
 43
0.0000000001
 40
0.0
 40
0.0
 40
0.0
 40
0.0
 40
2.130230809022907
 40
2.130230809022907
 40
2.130230809022907
 40
2.130230809022907
 10
-44.04297511771342
 20
-7.50000000000001
 30
0.0
 10
-43.17689643020661
 20
-7.50000000000001
 30
0.0
 10
-42.32254852650295
 20
-7.418950931730261
 30
0.0
 10
-41.47820681840213
 20
-7.268768134278854
 30
0.0
  0
SPLINE
  5
1FB7
330
1F
100
AcDbEntity
  8
AM_0
100
AcDbSpline
210
0.0
220
0.0
230
1.0
 70
     8
 71
     3
 72
     8
 73
     4
 74
     0
 42
0.0000000001
 43
0.0000000001
 40
0.0
 40
0.0
 40
0.0
 40
0.0
 40
3.872359523417654
 40
3.872359523417654
 40
3.872359523417654
 40
3.872359523417654
 10
-54.35684157325965
 20
-6.926166755704041
 30
0.0
 10
-52.78247318116306
 20
-6.926166755704041
 30
0.0
 10
-51.24190677386582
 20
-6.674424860247988
 30
0.0
 10
-49.72602878255488
 20
-6.238814808140929
 30
0.0
  0
SPLINE
  5
1FB8
330
1F
100
AcDbEntity
  8
AM_0
100
AcDbSpline
210
0.0
220
0.0
230
1.0
 70
     8
 71
     3
 72
     8
 73
     4
 74
     0
 42
0.0000000001
 43
0.0000000001
 40
0.0
 40
0.0
 40
0.0
 40
0.0
 40
3.872359523417452
 40
3.872359523417452
 40
3.872359523417452
 40
3.872359523417452
 10
-39.46262674167529
 20
-6.926166755704116
 30
0.0
 10
-37.88825834957879
 20
-6.926166755704116
 30
0.0
 10
-36.34769194228161
 20
-6.674424860248095
 30
0.0
 10
-34.83181395097076
 20
-6.238814808141057
 30
0.0
  0
SPLINE
  5
1FB9
330
1F
100
AcDbEntity
  8
AM_0
100
AcDbSpline
210
0.0
220
0.0
230
1.0
 70
     8
 71
     3
 72
     8
 73
     4
 74
     0
 42
0.0000000001
 43
0.0000000001
 40
0.0
 40
0.0
 40
0.0
 40
0.0
 40
11.45610476152127
 40
11.45610476152127
 40
11.45610476152127
 40
11.45610476152127
 10
-27.01984169596936
 20
-7.275425505502909
 30
0.0
 10
-31.67750045002221
 20
-7.275425505502919
 30
0.0
 10
-36.01305823096071
 20
-4.985470141124192
 30
0.0
 10
-44.24738986088637
 20
0.0000000000000107
 30
0.0
  0
SPLINE
  5
1FBA
330
1F
100
AcDbEntity
  8
AM_0
100
AcDbSpline
210
0.0
220
0.0
230
1.0
 70
     8
 71
     3
 72
     8
 73
     4
 74
     0
 42
0.0000000001
 43
0.0000000001
 40
0.0
 40
0.0
 40
0.0
 40
0.0
 40
12.79333816032526
 40
12.79333816032526
 40
12.79333816032526
 40
12.79333816032526
 10
-24.56841191009143
 20
-6.92616675570386
 30
0.0
 10
-29.76974383891054
 20
-6.92616675570386
 30
0.0
 10
-34.60213332628821
 20
-4.178450310234818
 30
0.0
 10
-41.7959600750084
 20
0.0000000000000107
 30
0.0
  0
SPLINE
  5
1FBB
330
1F
100
AcDbEntity
  8
AM_0
100
AcDbSpline
210
0.0
220
0.0
230
1.0
 70
     8
 71
     3
 72
     8
 73
     4
 74
     0
 42
0.0000000001
 43
0.0000000001
 40
0.0
 40
0.0
 40
0.0
 40
0.0
 40
9.068166399416787
 40
9.068166399416787
 40
9.068166399416787
 40
9.068166399416787
 10
-29.14876028612946
 20
-7.499999999999829
 30
0.0
 10
-32.83556531215497
 20
-7.49999999999984
 30
0.0
 10
-36.3097951024199
 20
-6.031298071403096
 30
0.0
 10
-46.37630845104631
 20
0.0000000000000107
 30
0.0
  0
LINE
  5
1FBC
330
1F
100
AcDbEntity
  8
AM_0
100
AcDbLine
 10
-70.44207967687184
 20
6.355556436916263
 30
0.0
 11
-70.0
 21
6.539223447742354
 31
0.0
  0
LINE
  5
1FBD
330
1F
100
AcDbEntity
  8
AM_0
100
AcDbLine
 10
-70.02746767489892
 20
5.37180257819978
 30
0.0
 11
-70.44207967687184
 21
6.355556436916263
 31
0.0
  0
LINE
  5
1FBE
330
1F
100
AcDbEntity
  8
AM_0
100
AcDbLine
 10
-70.00000000000001
 20
-1.0779610225668
 30
0.0
 11
-70.887859303819
 21
-2.169862526642308
 31
0.0
  0
SPLINE
  5
1FBF
330
1F
100
AcDbEntity
  8
AM_0
100
AcDbSpline
210
0.0
220
0.0
230
1.0
 70
     8
 71
     3
 72
     8
 73
     4
 74
     0
 42
0.0000000001
 43
0.0000000001
 40
5.360156850992435
 40
5.360156850992435
 40
5.360156850992435
 40
5.360156850992435
 40
14.48999654934396
 40
14.48999654934396
 40
14.48999654934396
 40
14.48999654934396
 10
-72.68264449475123
 20
6.371410171005965
 30
0.0
 10
-68.1082035673846
 20
4.943581633493675
 30
0.0
 10
-64.64041906223709
 20
2.362795515666896
 30
0.0
 10
-61.27052328263008
 20
0.0000000000000213
 30
0.0
  0
SPLINE
  5
1FC0
330
1F
100
AcDbEntity
  8
AM_0
100
AcDbSpline
210
0.0
220
0.0
230
1.0
 70
     8
 71
     3
 72
     8
 73
     4
 74
     0
 42
0.0000000001
 43
0.0000000001
 40
4.760897075498665
 40
4.760897075498665
 40
4.760897075498665
 40
4.760897075498665
 40
14.43901837670146
 40
14.43901837670146
 40
14.43901837670146
 40
14.43901837670146
 10
-70.44207967687184
 20
6.355556436916263
 30
0.0
 10
-66.29601074767982
 20
4.941682253292949
 30
0.0
 10
-62.73343379309691
 20
2.43826999603166
 30
0.0
 10
-59.14160469247004
 20
-0.0000000000000639
 30
0.0
  0
SPLINE
  5
1FC1
330
1F
100
AcDbEntity
  8
AM_0
100
AcDbSpline
210
0.0
220
0.0
230
1.0
 70
     8
 71
     3
 72
     8
 73
     4
 74
     0
 42
0.0000000001
 43
0.0000000001
 40
0.0
 40
0.0
 40
0.0
 40
0.0
 40
4.557835794433954
 40
4.557835794433954
 40
4.557835794433954
 40
4.557835794433954
 10
-62.96418723892569
 20
7.500000000000063
 30
0.0
 10
-64.81724674120819
 20
7.500000000000063
 30
0.0
 10
-66.77131730327499
 20
7.252754359954337
 30
0.0
 10
-68.73598956565867
 20
6.193443648544004
 30
0.0
  0
ELLIPSE
  5
1FC2
330
1F
100
AcDbEntity
  8
AM_0
100
AcDbEllipse
 10
-75.33190666273267
 20
-5.726047563536339
 30
0.0
 11
-0.0000000000001533
 21
12.56784160769011
 31
0.0
210
0.0
220
0.0
230
1.0
 40
0.7777777777777933
 41
-0.2744573092303693
 42
-0.0464778851483996
  0
ELLIPSE
  5
1FC3
330
1F
100
AcDbEntity
  8
AM_0
100
AcDbEllipse
 10
-75.08177616746097
 20
-4.27998869410579
 30
0.0
 11
0.0000000000000843
 21
11.11130760348771
 31
0.0
210
0.0
220
0.0
230
1.0
 40
0.777777777777791
 41
-0.023610582036061
 42
0.0699134887600277
  0
ELLIPSE
  5
1FC4
330
1F
100
AcDbEntity
  8
AM_0
100
AcDbEllipse
 10
-75.4677900901466
 20
2.497869700785209
 30
0.0
 11
-0.000000000000086
 21
4.315391263493772
 31
0.0
210
0.0
220
0.0
230
1.0
 40
0.7777777777777521
 41
0.0649050273208316
 42
0.2818753373284655
  0
ELLIPSE
  5
1FC5
330
1F
100
AcDbEntity
  8
AM_0
100
AcDbEllipse
 10
-76.38269156016036
 20
6.556685682016643
 30
0.0
 11
-0.0000000000000326
 21
0.089561740126076
 31
0.0
210
0.0
220
0.0
230
1.0
 40
0.777777777777864
 41
0.2719407122495319
 42
1.93441839839619
  0
ELLIPSE
  5
1FC6
330
1F
100
AcDbEntity
  8
AM_0
100
AcDbEllipse
 10
-76.06639555915586
 20
6.732491837008146
 30
0.0
 11
0.0000000000002405
 21
0.5325291705103014
 31
0.0
210
0.0
220
0.0
230
1.0
 40
0.7777777777778656
 41
1.971373813482118
 42
2.242223107841286
  0
ELLIPSE
  5
1FC7
330
1F
100
AcDbEntity
  8
AM_0
100
AcDbEllipse
 10
-44.6353692503022
 20
39.0021934267632
 30
0.0
 11
0.0000000001095
 21
52.24721014488476
 31
0.0
210
0.0
220
0.0
230
1.0
 40
0.7777777777779446
 41
2.244616404323447
 42
2.271962905900843
  0
ELLIPSE
  5
1FC8
330
1F
100
AcDbEntity
  8
AM_0
100
AcDbEllipse
 10
-25.22800680975035
 20
60.09356434525155
 30
0.0
 11
0.0000000001705769
 21
84.91927988963395
 31
0.0
210
0.0
220
0.0
230
1.0
 40
0.7777777777778889
 41
2.272183442782134
 42
2.296769164366283
  0
ELLIPSE
  5
1FC9
330
1F
100
AcDbEntity
  8
AM_0
100
AcDbEllipse
 10
40.62750666031334
 20
135.2903129687893
 30
0.0
 11
-0.0000000007625368
 21
198.1614644669878
 31
0.0
210
0.0
220
0.0
230
1.0
 40
0.7777777777776168
 41
2.296900205346859
 42
2.31300166316124
  0
ELLIPSE
  5
1FCA
330
1F
100
AcDbEntity
  8
AM_0
100
AcDbEllipse
 10
-69.87573066651421
 20
4.986774341386942
 30
0.0
 11
0.0000000000007591
 21
5.380537781351494
 31
0.0
210
0.0
220
0.0
230
1.0
 40
0.7777777777777698
 41
2.312989308185147
 42
2.550375734847397
  0
ELLIPSE
  5
1FCB
330
1F
100
AcDbEntity
  8
AM_0
100
AcDbEllipse
 10
-61.11254991406239
 20
21.66668154172898
 30
0.0
 11
-0.0000000000029561
 21
25.50919127509494
 31
0.0
210
0.0
220
0.0
230
1.0
 40
0.7777777777777999
 41
2.548116967189625
 42
2.657335277493471
  0
SPLINE
  5
1FCC
330
1F
100
AcDbEntity
  8
AM_0
100
AcDbSpline
210
0.0
220
0.0
230
1.0
 70
     8
 71
     3
 72
     8
 73
     4
 74
     0
 42
0.0000000001
 43
0.0000000001
 40
1.090140354492627
 40
1.090140354492627
 40
1.090140354492627
 40
1.090140354492627
 40
14.36247867694493
 40
14.36247867694493
 40
14.36247867694493
 40
14.36247867694493
 10
-76.52044488356795
 20
7.499999999999904
 30
0.0
 10
-66.29306118187256
 20
6.799922890010691
 30
0.0
 10
-61.65654953045523
 20
3.200228544359383
 30
0.0
 10
-56.69017490659205
 20
-0.0000000000000639
 30
0.0
  0
SPLINE
  5
1FCD
330
1F
100
AcDbEntity
  8
AM_0
100
AcDbSpline
210
0.0
220
0.0
230
1.0
 70
     8
 71
     3
 72
     8
 73
     4
 74
     0
 42
0.0000000001
 43
0.0000000001
 40
0.0
 40
0.0
 40
0.0
 40
0.0
 40
2.130230809022907
 40
2.130230809022907
 40
2.130230809022907
 40
2.130230809022907
 10
-58.93718994929768
 20
-7.50000000000001
 30
0.0
 10
-58.07111126179087
 20
-7.50000000000001
 30
0.0
 10
-57.2167633580872
 20
-7.418950931730261
 30
0.0
 10
-56.3724216499864
 20
-7.268768134278854
 30
0.0
  0
SPLINE
  5
1FCE
330
1F
100
AcDbEntity
  8
AM_0
100
AcDbSpline
210
0.0
220
0.0
230
1.0
 70
     8
 71
     3
 72
     8
 73
     4
 74
     0
 42
0.0000000001
 43
0.0000000001
 40
0.0
 40
0.0
 40
0.0
 40
0.0
 40
9.068166399416787
 40
9.068166399416787
 40
9.068166399416787
 40
9.068166399416787
 10
-58.93718994929768
 20
-7.49999999999984
 30
0.0
 10
-62.62399497532317
 20
-7.49999999999985
 30
0.0
 10
-66.09822476558811
 20
-6.031298071403107
 30
0.0
 10
-70.34931116141857
 20
-3.974766991273529
 30
0.0
  0
POLYLINE
  5
1FCF
330
1F
100
AcDbEntity
  8
AM_0
100
AcDb2dPolyline
 66
     1
 10
0.0
 20
0.0
 30
0.0
 70
     2
  0
VERTEX
  5
1FD0
330
1FCF
100
AcDbEntity
  8
AM_0
100
AcDbVertex
100
AcDb2dVertex
 10
-73.3985535856608
 20
-6.724410812585784
 30
0.0
 42
-0.0230918143391583
  0
VERTEX
  5
1FD1
330
1FCF
100
AcDbEntity
  8
AM_0
100
AcDbVertex
100
AcDb2dVertex
 10
-74.10173053258271
 20
-6.505250097198437
 30
0.0
 42
-0.0355587143075394
 70
     1
  0
VERTEX
  5
1FD2
330
1FCF
100
AcDbEntity
  8
AM_0
100
AcDbVertex
100
AcDb2dVertex
 10
-74.54201949475169
 20
-6.298050962611295
 30
0.0
 42
-0.0216088548285507
  0
VERTEX
  5
1FD3
330
1FCF
100
AcDbEntity
  8
AM_0
100
AcDbVertex
100
AcDb2dVertex
 10
-75.56927782715813
 20
-5.640719977000042
 30
0.0
 42
-0.0414110700152503
 70
     1
  0
VERTEX
  5
1FD4
330
1FCF
100
AcDbEntity
  8
AM_0
100
AcDbVertex
100
AcDb2dVertex
 10
-76.06664070687291
 20
-5.217072988982689
 30
0.0
 42
-0.0653031023268945
  0
VERTEX
  5
1FD5
330
1FCF
100
AcDbEntity
  8
AM_0
100
AcDbVertex
100
AcDb2dVertex
 10
-76.38702498644386
 20
-4.795693679695698
 30
0.0
 42
-0.1569363594221426
 70
     1
  0
VERTEX
  5
1FD6
330
1FCF
100
AcDbEntity
  8
AM_0
100
AcDbVertex
100
AcDb2dVertex
 10
-76.44779600990323
 20
-4.562454865328529
 30
0.0
 42
-0.1617045000652558
  0
VERTEX
  5
1FD7
330
1FCF
100
AcDbEntity
  8
AM_0
100
AcDbVertex
100
AcDb2dVertex
 10
-76.38597526625924
 20
-4.334463701199336
 30
0.0
 42
-0.0680210806811403
 70
     1
  0
VERTEX
  5
1FD8
330
1FCF
100
AcDbEntity
  8
AM_0
100
AcDbVertex
100
AcDb2dVertex
 10
-76.06664070687291
 20
-3.936157734090965
 30
0.0
 42
-0.0450747416233525
  0
VERTEX
  5
1FD9
330
1FCF
100
AcDbEntity
  8
AM_0
100
AcDbVertex
100
AcDb2dVertex
 10
-75.57395935368301
 20
-3.550745706989044
 30
0.0
 42
-0.0231467319857815
 70
     1
  0
VERTEX
  5
1FDA
330
1FCF
100
AcDbEntity
  8
AM_0
100
AcDbVertex
100
AcDb2dVertex
 10
-74.54201949475169
 20
-2.968463730128956
 30
0.0
 42
-0.0364444523572374
  0
VERTEX
  5
1FDB
330
1FCF
100
AcDbEntity
  8
AM_0
100
AcDbVertex
100
AcDb2dVertex
 10
-74.09385255956923
 20
-2.791291259252897
 30
0.0
 42
-0.0242139410122645
 70
     1
  0
VERTEX
  5
1FDC
330
1FCF
100
AcDbEntity
  8
AM_0
100
AcDbVertex
100
AcDb2dVertex
 10
-73.3985535856608
 20
-2.627066857404383
 30
0.0
  0
SEQEND
  5
1FDD
330
1FCF
100
AcDbEntity
  8
AM_0
  0
ELLIPSE
  5
1FDE
330
1F
100
AcDbEntity
  8
AM_0
100
AcDbEllipse
 10
-76.67910674857431
 20
7.012779935497679
 30
0.0
 11
0.8410894706197373
 21
14.51061507659816
 31
0.0
210
0.0
220
0.0
230
1.0
 40
0.7642878509707043
 41
3.226630265196647
 42
3.516698598325903
  0
ELLIPSE
  5
1FDF
330
1F
100
AcDbEntity
  8
AM_0
100
AcDbEllipse
 10
-76.66985366324675
 20
-19.71245774539705
 30
0.0
 11
0.0000000000002397
 21
17.55265880752754
 31
0.0
210
0.0
220
0.0
230
1.0
 40
0.8131313131313063
 41
-0.4587681791449388
 42
-0.2312569029271048
  0
SPLINE
  5
1FE0
330
1F
100
AcDbEntity
  8
AM_0
100
AcDbSpline
210
0.0
220
0.0
230
1.0
 70
     8
 71
     3
 72
     8
 73
     4
 74
     0
 42
0.0000000001
 43
0.0000000001
 40
0.0
 40
0.0
 40
0.0
 40
0.0
 40
4.451443990518192
 40
4.451443990518192
 40
4.451443990518192
 40
4.451443990518192
 10
-73.3985535856608
 20
-6.724410812585784
 30
0.0
 10
-70.3015827791345
 20
-6.705114967178047
 30
0.0
 10
-68.53644613730669
 20
-6.372450832845174
 30
0.0
 10
-66.30212905125823
 20
-5.810227034859224
 30
0.0
  0
SPLINE
  5
1FE1
330
1F
100
AcDbEntity
  8
AM_0
100
AcDbSpline
210
0.0
220
0.0
230
1.0
 70
     8
 71
     3
 72
     8
 73
     4
 74
     0
 42
0.0000000001
 43
0.0000000001
 40
0.0
 40
0.0
 40
0.0
 40
0.0
 40
11.45610476152127
 40
11.45610476152127
 40
11.45610476152127
 40
11.45610476152127
 10
-56.80827135913759
 20
-7.275425505502919
 30
0.0
 10
-61.46593011319043
 20
-7.27542550550293
 30
0.0
 10
-65.80148789412892
 20
-4.985470141124203
 30
0.0
 10
-70.887859303819
 20
-2.169862526642308
 30
0.0
  0
LINE
  5
1FE2
330
1F
100
AcDbEntity
  8
AM_0
100
AcDbLine
 10
-70.887859303819
 20
-2.169862526642308
 30
0.0
 11
-70.00000000000011
 21
-4.143241558408423
 31
0.0
  0
SPLINE
  5
1FE3
330
1F
100
AcDbEntity
  8
AM_0
100
AcDbSpline
210
0.0
220
0.0
230
1.0
 70
     8
 71
     3
 72
     8
 73
     4
 74
     0
 42
0.0000000001
 43
0.0000000001
 40
0.0
 40
0.0
 40
0.0
 40
0.0
 40
7.244998274671977
 40
7.244998274671977
 40
7.244998274671977
 40
7.244998274671977
 10
-62.96418723892557
 20
7.500000000000149
 30
0.0
 10
-57.07305227820745
 20
7.500000000000149
 30
0.0
 10
-51.7246803646271
 20
3.750000000000149
 30
0.0
 10
-46.37630845104677
 20
0.0000000000001705
 30
0.0
  0
SPLINE
  5
1FE4
330
1F
100
AcDbEntity
  8
AM_0
100
AcDbSpline
210
0.0
220
0.0
230
1.0
 70
     8
 71
     3
 72
     8
 73
     4
 74
     0
 42
0.0000000001
 43
0.0000000001
 40
0.0
 40
0.0
 40
0.0
 40
0.0
 40
12.79333816032526
 40
12.79333816032526
 40
12.79333816032526
 40
12.79333816032526
 10
-54.35684157325965
 20
-6.926166755703871
 30
0.0
 10
-59.55817350207876
 20
-6.926166755703871
 30
0.0
 10
-64.39056298945643
 20
-4.178450310234829
 30
0.0
 10
-70.34931116141857
 20
-0.9094864554316401
 30
0.0
  0
SPLINE
  5
1FE5
330
1F
100
AcDbEntity
  8
AM_0
100
AcDbSpline
210
0.0
220
0.0
230
1.0
 70
     8
 71
     3
 72
     8
 73
     4
 74
     0
 42
0.0000000001
 43
0.0000000001
 40
0.7142832446738512
 40
0.7142832446738512
 40
0.7142832446738512
 40
0.7142832446738512
 40
9.361146747480315
 40
9.361146747480315
 40
9.361146747480315
 40
9.361146747480315
 10
-57.51602282656071
 20
6.900896684736416
 30
0.0
 10
-50.22483387037741
 20
5.877055230804984
 30
0.0
 10
-45.20456784209449
 20
2.310757114960226
 30
0.0
 10
-41.7959600750084
 20
0.0
 30
0.0
  0
SPLINE
  5
1FE6
330
1F
100
AcDbEntity
  8
AM_0
100
AcDbSpline
210
0.0
220
0.0
230
1.0
 70
     8
 71
     3
 72
     8
 73
     4
 74
     0
 42
0.0000000001
 43
0.0000000001
 40
0.3581103616548037
 40
0.3581103616548037
 40
0.3581103616548037
 40
0.3581103616548037
 40
12.40023413887867
 40
12.40023413887867
 40
12.40023413887867
 40
12.40023413887867
 10
-60.39941893961405
 20
7.268768134278992
 30
0.0
 10
-54.80740730401036
 20
6.88097142612645
 30
0.0
 10
-49.19464273630493
 20
3.960488420979459
 30
0.0
 10
-44.24738986088628
 20
-0.0000000000000639
 30
0.0
  0
SPLINE
  5
1FE7
330
1F
100
AcDbEntity
  8
AM_0
100
AcDbSpline
210
0.0
220
0.0
230
1.0
 70
     8
 71
     3
 72
     8
 73
     4
 74
     0
 42
0.0000000001
 43
0.0000000001
 40
0.0
 40
0.0
 40
0.0
 40
0.0
 40
11.45610476152127
 40
11.45610476152127
 40
11.45610476152127
 40
11.45610476152127
 10
-41.91405652755313
 20
-7.275425505502898
 30
0.0
 10
-46.57171528160596
 20
-7.275425505502909
 30
0.0
 10
-50.90727306254447
 20
-4.985470141124181
 30
0.0
 10
-59.14160469247015
 20
0.0000000000000213
 30
0.0
  0
SPLINE
  5
1FE8
330
1F
100
AcDbEntity
  8
AM_0
100
AcDbSpline
210
0.0
220
0.0
230
1.0
 70
     8
 71
     3
 72
     8
 73
     4
 74
     0
 42
0.0000000001
 43
0.0000000001
 40
0.0
 40
0.0
 40
0.0
 40
0.0
 40
9.068166399416787
 40
9.068166399416787
 40
9.068166399416787
 40
9.068166399416787
 10
-44.04297511771322
 20
-7.499999999999818
 30
0.0
 10
-47.72978014373872
 20
-7.499999999999829
 30
0.0
 10
-51.20400993400366
 20
-6.031298071403085
 30
0.0
 10
-61.27052328263008
 20
0.0000000000000213
 30
0.0
  0
SPLINE
  5
1FE9
330
1F
100
AcDbEntity
  8
AM_0
100
AcDbSpline
210
0.0
220
0.0
230
1.0
 70
     8
 71
     3
 72
     8
 73
     4
 74
     0
 42
0.0000000001
 43
0.0000000001
 40
0.0
 40
0.0
 40
0.0
 40
0.0
 40
12.79333816032526
 40
12.79333816032526
 40
12.79333816032526
 40
12.79333816032526
 10
-39.46262674167519
 20
-6.926166755703849
 30
0.0
 10
-44.66395867049429
 20
-6.926166755703849
 30
0.0
 10
-49.49634815787198
 20
-4.178450310234808
 30
0.0
 10
-56.69017490659217
 20
0.0000000000000213
 30
0.0
  0
SPLINE
  5
1FEA
330
1F
100
AcDbEntity
  8
AM_0
100
AcDbSpline
210
0.0
220
0.0
230
1.0
 70
     8
 71
     3
 72
     8
 73
     4
 74
     0
 42
0.0000000001
 43
0.0000000001
 40
0.0
 40
0.0
 40
0.0
 40
0.0
 40
2.764560748519282
 40
2.764560748519282
 40
2.764560748519282
 40
2.764560748519282
 10
-56.80827135913759
 20
-7.27542550550309
 30
0.0
 10
-55.68429590330023
 20
-7.27542550550309
 30
0.0
 10
-54.57907774896161
 20
-7.142071722765091
 30
0.0
 10
-53.48902553706131
 20
-6.900896684764671
 30
0.0
  0
SPLINE
  5
1FEB
330
1F
100
AcDbEntity
  8
AM_0
100
AcDbSpline
210
0.0
220
0.0
230
1.0
 70
     8
 71
     3
 72
     8
 73
     4
 74
     0
 42
0.0000000001
 43
0.0000000001
 40
0.0
 40
0.0
 40
0.0
 40
0.0
 40
5.635889483499305
 40
5.635889483499305
 40
5.635889483499305
 40
5.635889483499305
 10
-16.58787878787902
 20
7.500000000000149
 30
0.0
 10
-18.87923789606941
 20
7.500000000000149
 30
0.0
 10
-21.08848651414896
 20
6.932691043468857
 30
0.0
 10
-23.32234086855324
 20
5.96321890746427
 30
0.0
  0
SPLINE
  5
1FEC
330
1F
100
AcDbEntity
  8
AM_0
100
AcDbSpline
210
0.0
220
0.0
230
1.0
 70
     8
 71
     3
 72
     8
 73
     4
 74
     0
 42
0.0000000001
 43
0.0000000001
 40
0.0
 40
0.0
 40
0.0
 40
0.0
 40
7.244998274671977
 40
7.244998274671977
 40
7.244998274671977
 40
7.244998274671977
 10
-33.17575757575791
 20
7.500000000000213
 30
0.0
 10
-27.28462261503977
 20
7.500000000000213
 30
0.0
 10
-21.93625070145944
 20
3.750000000000223
 30
0.0
 10
-16.58787878787912
 20
0.0000000000002345
 30
0.0
  0
SPLINE
  5
1FED
330
1F
100
AcDbEntity
  8
AM_0
100
AcDbSpline
210
0.0
220
0.0
230
1.0
 70
     8
 71
     3
 72
     8
 73
     4
 74
     0
 42
0.0000000001
 43
0.0000000001
 40
0.3581103616548037
 40
0.3581103616548037
 40
0.3581103616548037
 40
0.3581103616548037
 40
12.40023413887867
 40
12.40023413887867
 40
12.40023413887867
 40
12.40023413887867
 10
-30.61098927644639
 20
7.268768134279067
 30
0.0
 10
-25.01897764084271
 20
6.880971426126524
 30
0.0
 10
-19.40621307313728
 20
3.960488420979533
 30
0.0
 10
-14.45896019771861
 20
0.0
 30
0.0
  0
SPLINE
  5
1FEE
330
1F
100
AcDbEntity
  8
AM_0
100
AcDbSpline
210
0.0
220
0.0
230
1.0
 70
     8
 71
     3
 72
     8
 73
     4
 74
     0
 42
0.0000000001
 43
0.0000000001
 40
0.7142832446738512
 40
0.7142832446738512
 40
0.7142832446738512
 40
0.7142832446738512
 40
9.361146747480315
 40
9.361146747480315
 40
9.361146747480315
 40
9.361146747480315
 10
-27.72759316339304
 20
6.90089668473649
 30
0.0
 10
-20.43640420720976
 20
5.877055230805058
 30
0.0
 10
-15.41613817892683
 20
2.310757114960298
 30
0.0
 10
-12.00753041184073
 20
0.0000000000000746
 30
0.0
  0
SPLINE
  5
1FEF
330
1F
100
AcDbEntity
  8
AM_0
100
AcDbSpline
210
0.0
220
0.0
230
1.0
 70
     8
 71
     3
 72
     8
 73
     4
 74
     0
 42
0.0000000001
 43
0.0000000001
 40
0.0
 40
0.0
 40
0.0
 40
0.0
 40
11.45610476152127
 40
11.45610476152127
 40
11.45610476152127
 40
11.45610476152127
 10
-12.12562686438558
 20
-7.275425505502919
 30
0.0
 10
-16.78328561843843
 20
-7.27542550550293
 30
0.0
 10
-21.11884339937694
 20
-4.985470141124203
 30
0.0
 10
-29.35317502930261
 20
0.0
 30
0.0
  0
SPLINE
  5
1FF0
330
1F
100
AcDbEntity
  8
AM_0
100
AcDbSpline
210
0.0
220
0.0
230
1.0
 70
     8
 71
     3
 72
     8
 73
     4
 74
     0
 42
0.0000000001
 43
0.0000000001
 40
0.0
 40
0.0
 40
0.0
 40
0.0
 40
9.068166399416787
 40
9.068166399416787
 40
9.068166399416787
 40
9.068166399416787
 10
-14.25454545454568
 20
-7.49999999999984
 30
0.0
 10
-17.94135048057118
 20
-7.49999999999985
 30
0.0
 10
-21.41558027083612
 20
-6.031298071403107
 30
0.0
 10
-31.48209361946255
 20
0.0
 30
0.0
  0
SPLINE
  5
1FF1
330
1F
100
AcDbEntity
  8
AM_0
100
AcDbSpline
210
0.0
220
0.0
230
1.0
 70
     8
 71
     3
 72
     8
 73
     4
 74
     0
 42
0.0000000001
 43
0.0000000001
 40
0.0
 40
0.0
 40
0.0
 40
0.0
 40
12.79333816032526
 40
12.79333816032526
 40
12.79333816032526
 40
12.79333816032526
 10
-9.674197078507653
 20
-6.926166755703871
 30
0.0
 10
-14.87552900732675
 20
-6.926166755703871
 30
0.0
 10
-19.70791849470444
 20
-4.178450310234829
 30
0.0
 10
-26.90174524342463
 20
0.0
 30
0.0
  0
VIEWPORT
  5
110
330
101
100
AcDbEntity
 67
     1
  8
0
100
AcDbViewport
 10
420.5
 20
297.0
 30
0.0
 40
948.9782706766916
 41
628.452
 68
     1
 69
     1
1001
ACAD
1000
MVIEW
1002
{
1070
    16
1010
0.0
1020
0.0
1030
0.0
1010
0.0
1020
0.0
1030
1.0
1040
0.0
1040
628.452
1040
420.5
1040
297.0
1040
50.0
1040
0.0
1040
0.0
1070
     0
1070
   100
1070
     1
1070
     1
1070
     0
1070
     0
1070
     0
1070
     0
1040
0.0
1040
0.0
1040
0.0
1040
10.0
1040
10.0
1040
10.0
1040
10.0
1070
     0
1002
{
1002
}
1002
}
  0
ENDSEC
  0
SECTION
  2
OBJECTS
  0
DICTIONARY
  5
C
330
0
100
AcDbDictionary
  3
ACAD_GROUP
350
D
  3
ACAD_LAYOUT
350
1A
  3
ACAD_MLINESTYLE
350
17
  3
ACAD_PLOTSETTINGS
350
19
  3
ACAD_PLOTSTYLENAME
350
E
  3
ACDBVARIABLEDICTIONARY
350
34
  3
ACMDICTIONARY
350
43
  3
AMG
350
2B
  3
AMGSNAPSETTINGS
350
6E
  3
DWGPROPS
350
2011
  3
ACDBHEADERROUNDTRIPXREC
350
201D
  0
DICTIONARY
  5
74
330
1F
100
AcDbDictionary
280
     1
  3
ACAD_INDEX
360
2013
  3
ACAD_LAYOUTSELFREF
360
2040
  0
DICTIONARY
  5
2045
330
101
100
AcDbDictionary
280
     1
  3
ACAD_LAYOUTSELFREF
360
2046
  0
DICTIONARY
  5
D
102
{ACAD_REACTORS
330
C
102
}
330
C
100
AcDbDictionary
  0
DICTIONARY
  5
1A
102
{ACAD_REACTORS
330
C
102
}
330
C
100
AcDbDictionary
  0
DICTIONARY
  5
17
102
{ACAD_REACTORS
330
C
102
}
330
C
100
AcDbDictionary
  3
STANDARD
350
18
  0
DICTIONARY
  5
19
102
{ACAD_REACTORS
330
C
102
}
330
C
100
AcDbDictionary
  0
ACDBDICTIONARYWDFLT
  5
E
102
{ACAD_REACTORS
330
C
102
}
330
C
100
AcDbDictionary
281
     1
  3
Normal
350
F
100
AcDbDictionaryWithDefault
340
F
  0
DICTIONARY
  5
34
102
{ACAD_REACTORS
330
C
102
}
330
C
100
AcDbDictionary
  3
INDEXCTL
350
35
  3
SORTENTS
350
B5E
  0
DICTIONARY
  5
43
102
{ACAD_REACTORS
330
C
102
}
330
C
100
AcDbDictionary
  3
ACMSTDDICTIONARY
350
260
  0
DICTIONARY
  5
2B
102
{ACAD_REACTORS
330
C
102
}
330
C
100
AcDbDictionary
  3
ACMGSETTINGS
350
2C
  0
DICTIONARY
  5
6E
102
{ACAD_REACTORS
330
C
102
}
330
C
100
AcDbDictionary
  0
XRECORD
  5
2011
102
{ACAD_REACTORS
330
C
102
}
330
C
100
AcDbXrecord
  1
DWGPROPS COOKIE
  2

  3

  4

  6

  7

  8

  9

300
AmdtFileType=82
301
=
302
=
303
=
304
=
305
=
306
=
307
=
308
=
309
=
 40
0.0550419444444445
 41
2452836.771637361
 42
2453045.466732846
  1

 90
        1
  0
DICTIONARY
  5
201D
102
{ACAD_REACTORS
330
C
102
}
330
C
100
AcDbDictionary
  3
TSTACKALIGN
350
201E
  3
TSTACKSIZE
350
201F
  3
HYPERLINKBASE
350
2020
  3
STYLESHEET
350
2021
  3
LAYOUTDICT
350
2022
  3
PLOTSETDICT
350
2023
  3
PLOTSTYLNAMDICT
350
2024
  3
LWETCUNION
350
2025
  3
INSUNITS
350
2026
  3
CEPSNTYPE
350
2027
  3
FINGERPRINTGUID
350
2028
  3
VERSIONGUID
350
2029
  3
PSVPSCALE
350
202A
  3
DIMSTYLEDATA
350
202B
  3
PUCSORTHOREF
350
202C
  3
PUCSORTHOVIEW
350
202D
  3
PUCSBASE
350
202E
  3
PUCSORGTOP
350
202F
  3
PUCSORGBOTTOM
350
2030
  3
PUCSORGLEFT
350
2031
  3
PUCSORGRIGHT
350
2032
  3
PUCSORGFRONT
350
2033
  3
PUCSORGBACK
350
2034
  3
UCSORTHOREF
350
2035
  3
UCSORTHOVIEW
350
2036
  3
UCSBASE
350
2037
  3
UCSORGTOP
350
2038
  3
UCSORGBOTTOM
350
2039
  3
UCSORGLEFT
350
203A
  3
UCSORGRIGHT
350
203B
  3
UCSORGFRONT
350
203C
  3
UCSORGBACK
350
203D
  0
DICTIONARY
  5
2013
102
{ACAD_REACTORS
330
74
102
}
330
74
100
AcDbDictionary
  3
*A1
350
2014
  0
XRECORD
  5
2040
102
{ACAD_REACTORS
330
74
102
}
330
74
100
AcDbXrecord
340
1F
  0
XRECORD
  5
2046
102
{ACAD_REACTORS
330
2045
102
}
330
2045
100
AcDbXrecord
340
101
  0
MLINESTYLE
  5
18
102
{ACAD_REACTORS
330
17
102
}
330
17
100
AcDbMlineStyle
  2
STANDARD
 70
     0
  3

 62
   256
 51
90.0
 52
90.0
 71
     2
 49
0.5
 62
   256
  6
BYLAYER
 49
-0.5
 62
   256
  6
BYLAYER
  0
ACDBPLACEHOLDER
  5
F
102
{ACAD_REACTORS
330
E
102
}
330
E
100
AcDbPlaceHolder
280
     0
  0
DICTIONARYVAR
  5
35
102
{ACAD_REACTORS
330
34
102
}
330
34
100
DictionaryVariables
280
     0
  1
1
  0
DICTIONARYVAR
  5
B5E
102
{ACAD_REACTORS
330
34
102
}
330
34
100
DictionaryVariables
280
     0
  1
96
  0
DICTIONARY
  5
260
102
{ACAD_REACTORS
330
43
102
}
330
43
100
AcDbDictionary
  0
DICTIONARY
  5
2C
102
{ACAD_REACTORS
330
2B
102
}
330
2B
100
AcDbDictionary
  3
DWGSETTINGS
350
2D
  0
XRECORD
  5
201E
102
{ACAD_REACTORS
330
201D
102
}
330
201D
100
AcDbXrecord
 90
        1
  0
XRECORD
  5
201F
102
{ACAD_REACTORS
330
201D
102
}
330
201D
100
AcDbXrecord
 90
       70
  0
XRECORD
  5
2020
102
{ACAD_REACTORS
330
201D
102
}
330
201D
100
AcDbXrecord
  1

  0
XRECORD
  5
2021
102
{ACAD_REACTORS
330
201D
102
}
330
201D
100
AcDbXrecord
  1
ASAMI.ctb
  0
XRECORD
  5
2022
102
{ACAD_REACTORS
330
201D
102
}
330
201D
100
AcDbXrecord
340
1A
  0
XRECORD
  5
2023
102
{ACAD_REACTORS
330
201D
102
}
330
201D
100
AcDbXrecord
340
19
  0
XRECORD
  5
2024
102
{ACAD_REACTORS
330
201D
102
}
330
201D
100
AcDbXrecord
340
E
  0
XRECORD
  5
2025
102
{ACAD_REACTORS
330
201D
102
}
330
201D
100
AcDbXrecord
 90
    10781
  0
XRECORD
  5
2026
102
{ACAD_REACTORS
330
201D
102
}
330
201D
100
AcDbXrecord
 90
        4
  0
XRECORD
  5
2027
102
{ACAD_REACTORS
330
201D
102
}
330
201D
100
AcDbXrecord
 90
        0
  0
XRECORD
  5
2028
102
{ACAD_REACTORS
330
201D
102
}
330
201D
100
AcDbXrecord
  1
{AFB28963-8C59-40AE-9337-C84526B81ACE}
  0
XRECORD
  5
2029
102
{ACAD_REACTORS
330
201D
102
}
330
201D
100
AcDbXrecord
  1
{66E0AA24-D72A-41A6-BF06-E75FFFE880F1}
  0
XRECORD
  5
202A
102
{ACAD_REACTORS
330
201D
102
}
330
201D
100
AcDbXrecord
 40
0.0
  0
XRECORD
  5
202B
102
{ACAD_REACTORS
330
201D
102
}
330
201D
100
AcDbXrecord
1000
DSTYLE
1002
{
1070
    79
 70
     2
1070
   341
340
59
1070
   342
340
59
1070
   371
 70
    -1
1070
   372
 70
    -1
1002
}
  0
XRECORD
  5
202C
102
{ACAD_REACTORS
330
201D
102
}
330
201D
100
AcDbXrecord
340
0
  0
XRECORD
  5
202D
102
{ACAD_REACTORS
330
201D
102
}
330
201D
100
AcDbXrecord
 70
     0
  0
XRECORD
  5
202E
102
{ACAD_REACTORS
330
201D
102
}
330
201D
100
AcDbXrecord
340
0
  0
XRECORD
  5
202F
102
{ACAD_REACTORS
330
201D
102
}
330
201D
100
AcDbXrecord
 10
0.0
 20
0.0
 30
0.0
  0
XRECORD
  5
2030
102
{ACAD_REACTORS
330
201D
102
}
330
201D
100
AcDbXrecord
 10
0.0
 20
0.0
 30
0.0
  0
XRECORD
  5
2031
102
{ACAD_REACTORS
330
201D
102
}
330
201D
100
AcDbXrecord
 10
0.0
 20
0.0
 30
0.0
  0
XRECORD
  5
2032
102
{ACAD_REACTORS
330
201D
102
}
330
201D
100
AcDbXrecord
 10
0.0
 20
0.0
 30
0.0
  0
XRECORD
  5
2033
102
{ACAD_REACTORS
330
201D
102
}
330
201D
100
AcDbXrecord
 10
0.0
 20
0.0
 30
0.0
  0
XRECORD
  5
2034
102
{ACAD_REACTORS
330
201D
102
}
330
201D
100
AcDbXrecord
 10
0.0
 20
0.0
 30
0.0
  0
XRECORD
  5
2035
102
{ACAD_REACTORS
330
201D
102
}
330
201D
100
AcDbXrecord
340
0
  0
XRECORD
  5
2036
102
{ACAD_REACTORS
330
201D
102
}
330
201D
100
AcDbXrecord
 70
     0
  0
XRECORD
  5
2037
102
{ACAD_REACTORS
330
201D
102
}
330
201D
100
AcDbXrecord
340
0
  0
XRECORD
  5
2038
102
{ACAD_REACTORS
330
201D
102
}
330
201D
100
AcDbXrecord
 10
0.0
 20
0.0
 30
0.0
  0
XRECORD
  5
2039
102
{ACAD_REACTORS
330
201D
102
}
330
201D
100
AcDbXrecord
 10
0.0
 20
0.0
 30
0.0
  0
XRECORD
  5
203A
102
{ACAD_REACTORS
330
201D
102
}
330
201D
100
AcDbXrecord
 10
0.0
 20
0.0
 30
0.0
  0
XRECORD
  5
203B
102
{ACAD_REACTORS
330
201D
102
}
330
201D
100
AcDbXrecord
 10
0.0
 20
0.0
 30
0.0
  0
XRECORD
  5
203C
102
{ACAD_REACTORS
330
201D
102
}
330
201D
100
AcDbXrecord
 10
0.0
 20
0.0
 30
0.0
  0
XRECORD
  5
203D
102
{ACAD_REACTORS
330
201D
102
}
330
201D
100
AcDbXrecord
 10
0.0
 20
0.0
 30
0.0
  0
LAYER_INDEX
  5
2014
102
{ACAD_REACTORS
330
2013
102
}
330
2013
100
AcDbIndex
 40
2453152.357567164
100
AcDbLayerIndex
  8
0
360
2015
 90
        0
  8
AM_0
360
2016
 90
       95
  8
AM_11
360
2017
 90
        4
  8
AM_7
360
2018
 90
        1
  8
AM_5
360
2019
 90
        4
  8
Defpoints
360
201A
 90
        0
  8
AM_6
360
201B
 90
        1
  0
XRECORD
  5
2D
102
{ACAD_REACTORS
330
2C
102
}
330
2C
100
AcDbXrecord
  1
VERSION
140
15.0
  1
PRODUCT
  2
AutoCAD Mechanical 2000
  0
IDBUFFER
  5
2015
330
0
100
AcDbIdBuffer
  0
IDBUFFER
  5
2016
330
0
100
AcDbIdBuffer
330
1FB5
330
1FB6
330
1FB7
330
1FB8
330
1FB9
330
1FBA
330
1FBB
330
1FBC
330
1FBD
330
1FBE
330
1FBF
330
1FC0
330
1FC1
330
1FC2
330
1FC3
330
1FC4
330
1FC5
330
1FC6
330
1FC7
330
1FC8
330
1FC9
330
1FCA
330
1FCB
330
1FCC
330
1FCD
330
1FCE
330
1FCF
330
1FDE
330
1FDF
330
1FE0
330
1FE1
330
1FE2
330
1FE3
330
1FE4
330
1FE5
330
1FE6
330
1FE7
330
1FE8
330
1FE9
330
1FEA
330
1FEB
330
1FEC
330
1FED
330
1FEE
330
1FEF
330
1FF0
330
1FF1
330
1B4A
330
1B4D
330
1B4E
330
1B4F
330
1B68
330
1B6B
330
1BFF
330
1D0E
330
1D0F
330
1D10
330
1D11
330
1D12
330
1F91
330
1F92
330
1F93
330
1F94
330
1F95
330
1F96
330
1F97
330
1F98
330
1F99
330
1F9A
330
1F9B
330
1F9C
330
1F9D
330
1F9E
330
1F9F
330
1FA0
330
1FA1
330
1FA2
330
1FA3
330
1FA4
330
1FA5
330
1FA6
330
1FA7
330
1FA8
330
1FA9
330
1FAA
330
1FAB
330
1FAC
330
1FAD
330
1FAE
330
1FAF
330
1FB0
330
1FB1
330
1FB2
330
1FB3
330
1FB4
  0
IDBUFFER
  5
2017
330
0
100
AcDbIdBuffer
330
1CC3
330
1CCD
330
1CCE
330
1CE1
  0
IDBUFFER
  5
2018
330
0
100
AcDbIdBuffer
330
F47
  0
IDBUFFER
  5
2019
330
0
100
AcDbIdBuffer
330
105F
330
10EF
330
1180
330
1B50
  0
IDBUFFER
  5
201A
330
0
100
AcDbIdBuffer
  0
IDBUFFER
  5
201B
330
0
100
AcDbIdBuffer
330
E5A
  0
ENDSEC
  0
EOF
