  0
SECTION
  2
HEADER
  9
$ACADVER
  1
AC1014
  9
$ACADMAINTVER
 70
     9
  9
$DWGCODEPAGE
  3
ANSI_932
  9
$INSBASE
 10
0.0
 20
0.0
 30
0.0
  9
$EXTMIN
 10
-181.4882312597197
 20
-58.50000099999921
 30
-0.00000001
  9
$EXTMAX
 10
15.72385206916658
 20
11.0947842864195
 30
0.00000001
  9
$LIMMIN
 10
-188.3368966984044
 20
-77.52097681426881
  9
$LIMMAX
 10
25.02305720705578
 20
37.54144196739895
  9
$ORTHOMODE
 70
     0
  9
$REGENMODE
 70
     1
  9
$FILLMODE
 70
     1
  9
$QTEXTMODE
 70
     0
  9
$MIRRTEXT
 70
     0
  9
$DRAGMODE
 70
     2
  9
$LTSCALE
 40
1.0
  9
$OSMODE
 70
    55
  9
$ATTMODE
 70
     1
  9
$TEXTSIZE
 40
2.5
  9
$TRACEWID
 40
1.0
  9
$TEXTSTYLE
  7
STANDARD
  9
$CLAYER
  8
AM_0
  9
$CELTYPE
  6
BYLAYER
  9
$CECOLOR
 62
   256
  9
$CELTSCALE
 40
1.0
  9
$DELOBJ
 70
     1
  9
$DISPSILH
 70
     0
  9
$DIMSCALE
 40
1.0
  9
$DIMASZ
 40
2.5
  9
$DIMEXO
 40
1.0
  9
$DIMDLI
 40
12.0
  9
$DIMRND
 40
0.0
  9
$DIMDLE
 40
0.0
  9
$DIMEXE
 40
1.0
  9
$DIMTP
 40
0.1
  9
$DIMTM
 40
0.1
  9
$DIMTXT
 40
3.2
  9
$DIMCEN
 40
0.0
  9
$DIMTSZ
 40
0.0
  9
$DIMTOL
 70
     0
  9
$DIMLIM
 70
     0
  9
$DIMTIH
 70
     0
  9
$DIMTOH
 70
     0
  9
$DIMSE1
 70
     0
  9
$DIMSE2
 70
     0
  9
$DIMTAD
 70
     3
  9
$DIMZIN
 70
     8
  9
$DIMBLK
  1
OPEN30
  9
$DIMASO
 70
     1
  9
$DIMSHO
 70
     1
  9
$DIMPOST
  1

  9
$DIMAPOST
  1
"
  9
$DIMALT
 70
     0
  9
$DIMALTD
 70
     2
  9
$DIMALTF
 40
0.0393701
  9
$DIMLFAC
 40
1.0
  9
$DIMTOFL
 70
     1
  9
$DIMTVP
 40
0.0
  9
$DIMTIX
 70
     0
  9
$DIMSOXD
 70
     0
  9
$DIMSAH
 70
     0
  9
$DIMBLK1
  1

  9
$DIMBLK2
  1

  9
$DIMSTYLE
  2
AM_JIS
  9
$DIMCLRD
 70
   256
  9
$DIMCLRE
 70
   256
  9
$DIMCLRT
 70
     2
  9
$DIMTFAC
 40
0.71
  9
$DIMGAP
 40
1.5
  9
$DIMJUST
 70
     0
  9
$DIMSD1
 70
     0
  9
$DIMSD2
 70
     0
  9
$DIMTOLJ
 70
     0
  9
$DIMTZIN
 70
     0
  9
$DIMALTZ
 70
     0
  9
$DIMALTTZ
 70
     0
  9
$DIMFIT
 70
     3
  9
$DIMUPT
 70
     0
  9
$DIMUNIT
 70
     2
  9
$DIMDEC
 70
     3
  9
$DIMTDEC
 70
     3
  9
$DIMALTU
 70
     2
  9
$DIMALTTD
 70
     2
  9
$DIMTXSTY
  7
ASAMI
  9
$DIMAUNIT
 70
     0
  9
$LUNITS
 70
     2
  9
$LUPREC
 70
     2
  9
$SKETCHINC
 40
1.0
  9
$FILLETRAD
 40
2.5
  9
$AUNITS
 70
     0
  9
$AUPREC
 70
     0
  9
$MENU
  1
.
  9
$ELEVATION
 40
0.0
  9
$PELEVATION
 40
0.0
  9
$THICKNESS
 40
0.0
  9
$LIMCHECK
 70
     0
  9
$BLIPMODE
 70
     0
  9
$CHAMFERA
 40
1.25
  9
$CHAMFERB
 40
1.25
  9
$CHAMFERC
 40
20.0
  9
$CHAMFERD
 40
0.0
  9
$SKPOLY
 70
     0
  9
$TDCREATE
 40
2452836.771637361
  9
$TDUPDATE
 40
2453152.357727210
  9
$TDINDWG
 40
0.0616635880
  9
$TDUSRTIMER
 40
0.0616635880
  9
$USRTIMER
 70
     1
  9
$ANGBASE
 50
0.0
  9
$ANGDIR
 70
     0
  9
$PDMODE
 70
     0
  9
$PDSIZE
 40
0.0
  9
$PLINEWID
 40
0.0
  9
$COORDS
 70
     1
  9
$SPLFRAME
 70
     0
  9
$SPLINETYPE
 70
     6
  9
$SPLINESEGS
 70
     8
  9
$ATTDIA
 70
     1
  9
$ATTREQ
 70
     1
  9
$HANDLING
 70
 12289
  9
$HANDSEED
  5
2330
  9
$SURFTAB1
 70
     6
  9
$SURFTAB2
 70
     6
  9
$SURFTYPE
 70
     6
  9
$SURFU
 70
     6
  9
$SURFV
 70
     6
  9
$UCSNAME
  2

  9
$UCSORG
 10
0.0
 20
0.0
 30
0.0
  9
$UCSXDIR
 10
1.0
 20
0.0
 30
0.0
  9
$UCSYDIR
 10
0.0
 20
1.0
 30
0.0
  9
$PUCSNAME
  2

  9
$PUCSORG
 10
0.0
 20
0.0
 30
0.0
  9
$PUCSXDIR
 10
1.0
 20
0.0
 30
0.0
  9
$PUCSYDIR
 10
0.0
 20
1.0
 30
0.0
  9
$USERI1
 70
     0
  9
$USERI2
 70
     0
  9
$USERI3
 70
     0
  9
$USERI4
 70
     0
  9
$USERI5
 70
     0
  9
$USERR1
 40
0.0
  9
$USERR2
 40
0.0
  9
$USERR3
 40
0.0
  9
$USERR4
 40
0.0
  9
$USERR5
 40
0.0
  9
$WORLDVIEW
 70
     1
  9
$SHADEDGE
 70
     3
  9
$SHADEDIF
 70
    70
  9
$TILEMODE
 70
     1
  9
$MAXACTVP
 70
    64
  9
$PINSBASE
 10
0.0
 20
0.0
 30
0.0
  9
$PLIMCHECK
 70
     0
  9
$PEXTMIN
 10
1.000000000000000E+20
 20
1.000000000000000E+20
 30
1.000000000000000E+20
  9
$PEXTMAX
 10
-1.000000000000000E+20
 20
-1.000000000000000E+20
 30
-1.000000000000000E+20
  9
$PLIMMIN
 10
0.0
 20
0.0
  9
$PLIMMAX
 10
841.0
 20
594.0
  9
$UNITMODE
 70
     0
  9
$VISRETAIN
 70
     1
  9
$PLINEGEN
 70
     0
  9
$PSLTSCALE
 70
     0
  9
$TREEDEPTH
 70
  3020
  9
$PICKSTYLE
 70
     0
  9
$CMLSTYLE
  2
STANDARD
  9
$CMLJUST
 70
     0
  9
$CMLSCALE
 40
20.0
  9
$PROXYGRAPHICS
 70
     1
  9
$MEASUREMENT
 70
     1
  0
ENDSEC
  0
SECTION
  2
CLASSES
  0
CLASS
  1
ACDBDICTIONARYWDFLT
  2
AcDbDictionaryWithDefault
  3
AutoCAD 2000
 90
        0
280
     0
281
     0
  0
CLASS
  1
ACDBPLACEHOLDER
  2
AcDbPlaceHolder
  3
AutoCAD 2000
 90
        0
280
     0
281
     0
  0
CLASS
  1
LAYOUT
  2
AcDbLayout
  3
AutoCAD 2000
 90
        0
280
     0
281
     0
  0
CLASS
  1
AMGSETTINGSOBJ
  2
AmgSettingsObj
  3
"AcadM|Product Description: AutoCAD Mechanical 2000|Company: Autodesk"
 90
        0
280
     0
281
     0
  0
CLASS
  1
ACME_DOCUMENT
  2
AcMeDbDoc
  3
AcMeServices
 90
        0
280
     0
281
     0
  0
CLASS
  1
ACMESCOPE
  2
AcMeScope
  3
AcMeServices
 90
        0
280
     0
281
     0
  0
CLASS
  1
ACMECOMMANDHISTORY
  2
AcMeCommandHistory
  3
AcMeServices
 90
        0
280
     0
281
     0
  0
CLASS
  1
DICTIONARYVAR
  2
AcDbDictionaryVar
  3
AutoCAD 2000
 90
        0
280
     0
281
     0
  0
CLASS
  1
ACIMSYSVARMAN
  2
AcImSysVarManager
  3
AcMeServices
 90
        0
280
     0
281
     0
  0
CLASS
  1
ACIMREALSYSVAR
  2
AcImRealSysVar
  3
AcMeServices
 90
        0
280
     0
281
     0
  0
CLASS
  1
ACIMINTSYSVAR
  2
AcImIntSysVar
  3
AcMeServices
 90
        0
280
     0
281
     0
  0
CLASS
  1
ACMEDRAWINGMAN
  2
AcMeDrawingMan
  3
AcMeServices
 90
        0
280
     0
281
     0
  0
CLASS
  1
ACMEVIEW
  2
AcMeView
  3
AcMeServices
 90
        0
280
     0
281
     0
  0
CLASS
  1
ACDBENTITYCACHE
  2
AcMeEntityCache
  3
AcMeServices
 90
        0
280
     0
281
     0
  0
CLASS
  1
GSMANAGER
  2
AcMeGSManager
  3
AcMeServices
 90
        0
280
     0
281
     0
  0
CLASS
  1
AmdtInternalReactor
  2
AmdtInternalReactor
  3
AcMeServices
 90
        0
280
     0
281
     0
  0
CLASS
  1
ACMESTATEMGR
  2
AcMeStateMgr
  3
AcMeServices
 90
        0
280
     0
281
     0
  0
CLASS
  1
ACME_DATABASE
  2
AcMeDbDatabase
  3
AcMeServices
 90
        0
280
     0
281
     0
  0
CLASS
  1
ACRFINSADJUSTERMGR
  2
AcRfInsAdjusterMgr
  3
AcMeServices
 90
        0
280
     0
281
     0
  0
CLASS
  1
ACMDATADICTIONARY
  2
AcmDataDictionary
  3
"AcmSymBB|Product Description: AutoCAD Mechanical 2000|Company: Autodesk"
 90
        0
280
     0
281
     0
  0
CLASS
  1
ACMDATAENTRYBLOCK
  2
AcmDataEntryBlock
  3
"AcmSymBB|Product Description: AutoCAD Mechanical 2000|Company: Autodesk"
 90
        0
280
     0
281
     0
  0
CLASS
  1
AMGOBJPROPCFG
  2
AmgObjPropCfg
  3
"AmgLay|Product Description: AutoCAD Mechanical 2000|Company: Autodesk"
 90
        1
280
     0
281
     0
  0
CLASS
  1
ACAMGFILTERDAT
  2
AcAmgFilterDat
  3
"AcadM|Product Description: AutoCAD Mechanical 2000|Company: Autodesk"
 90
        0
280
     0
281
     0
  0
CLASS
  1
LAYER_INDEX
  2
AcDbLayerIndex
  3
AutoCAD 2000
 90
        0
280
     0
281
     0
  0
CLASS
  1
IDBUFFER
  2
AcDbIdBuffer
  3
AutoCAD 2000
 90
        0
280
     0
281
     0
  0
CLASS
  1
ACIMSTRSYSVAR
  2
AcImStrSysVar
  3
AcMeServices
 90
        0
280
     0
281
     0
  0
CLASS
  1
ACMSTANDARDJIS
  2
AcmStandardJIS
  3
"AcmSymBB|Product Description: AutoCAD Mechanical 2000|Company: Autodesk"
 90
        0
280
     0
281
     0
  0
CLASS
  1
ACMSURFSTANDARDJIS
  2
AcmSurfTextStdJIS
  3
"AcmSymBB|Product Description: AutoCAD Mechanical 2000|Company: Autodesk"
 90
        0
280
     0
281
     0
  0
CLASS
  1
ACMFCFSTANDARDJIS
  2
AcmFCFStdJIS
  3
"AcmSymBB|Product Description: AutoCAD Mechanical 2000|Company: Autodesk"
 90
        0
280
     0
281
     0
  0
CLASS
  1
ACMWELDSTANDARDJIS
  2
AcmWeldingStdJIS
  3
"AcmSymBB|Product Description: AutoCAD Mechanical 2000|Company: Autodesk"
 90
        0
280
     0
281
     0
  0
CLASS
  1
ACMIDSTANDARDJIS
  2
AcmIdStdJIS
  3
"AcmSymBB|Product Description: AutoCAD Mechanical 2000|Company: Autodesk"
 90
        0
280
     0
281
     0
  0
CLASS
  1
ACMDATUMSTANDARDJIS
  2
AcmDatumStdJIS
  3
"AcmSymBB|Product Description: AutoCAD Mechanical 2000|Company: Autodesk"
 90
        0
280
     0
281
     0
  0
CLASS
  1
ACMBOMSTANDARDJIS
  2
AcmBOMStdJIS
  3
"AcmSymBB|Product Description: AutoCAD Mechanical 2000|Company: Autodesk"
 90
        0
280
     0
281
     0
  0
CLASS
  1
ACMSTANDARDANSI
  2
AcmStandardANSI
  3
"AcmSymBB|Product Description: AutoCAD Mechanical 2000|Company: Autodesk"
 90
        0
280
     0
281
     0
  0
CLASS
  1
ACMSURFSTANDARDANSI
  2
AcmSurfTextStdANSI
  3
"AcmSymBB|Product Description: AutoCAD Mechanical 2000|Company: Autodesk"
 90
        0
280
     0
281
     0
  0
CLASS
  1
ACMFCFSTANDARDANSI
  2
AcmFCFStdANSI
  3
"AcmSymBB|Product Description: AutoCAD Mechanical 2000|Company: Autodesk"
 90
        0
280
     0
281
     0
  0
CLASS
  1
ACMWELDSTANDARDANSI
  2
AcmWeldingStdANSI
  3
"AcmSymBB|Product Description: AutoCAD Mechanical 2000|Company: Autodesk"
 90
        0
280
     0
281
     0
  0
CLASS
  1
ACMIDSTANDARDANSI
  2
AcmIdStdANSI
  3
"AcmSymBB|Product Description: AutoCAD Mechanical 2000|Company: Autodesk"
 90
        0
280
     0
281
     0
  0
CLASS
  1
ACMDATUMSTANDARDANSI
  2
AcmDatumStdANSI
  3
"AcmSymBB|Product Description: AutoCAD Mechanical 2000|Company: Autodesk"
 90
        0
280
     0
281
     0
  0
CLASS
  1
ACMBOMSTANDARDANSI
  2
AcmBOMStdANSI
  3
"AcmSymBB|Product Description: AutoCAD Mechanical 2000|Company: Autodesk"
 90
        0
280
     0
281
     0
  0
CLASS
  1
ACMSTANDARDBSI
  2
AcmStandardBSI
  3
"AcmSymBB|Product Description: AutoCAD Mechanical 2000|Company: Autodesk"
 90
        0
280
     0
281
     0
  0
CLASS
  1
ACMSURFSTANDARDBSI
  2
AcmSurfTextStdBSI
  3
"AcmSymBB|Product Description: AutoCAD Mechanical 2000|Company: Autodesk"
 90
        0
280
     0
281
     0
  0
CLASS
  1
ACMFCFSTANDARDBSI
  2
AcmFCFStdBSI
  3
"AcmSymBB|Product Description: AutoCAD Mechanical 2000|Company: Autodesk"
 90
        0
280
     0
281
     0
  0
CLASS
  1
ACMWELDSTANDARDBSI
  2
AcmWeldingStdBSI
  3
"AcmSymBB|Product Description: AutoCAD Mechanical 2000|Company: Autodesk"
 90
        0
280
     0
281
     0
  0
CLASS
  1
ACMIDSTANDARDBSI
  2
AcmIdStdBSI
  3
"AcmSymBB|Product Description: AutoCAD Mechanical 2000|Company: Autodesk"
 90
        0
280
     0
281
     0
  0
CLASS
  1
ACMDATUMSTANDARDBSI
  2
AcmDatumStdBSI
  3
"AcmSymBB|Product Description: AutoCAD Mechanical 2000|Company: Autodesk"
 90
        0
280
     0
281
     0
  0
CLASS
  1
ACMBOMSTANDARDBSI
  2
AcmBOMStdBSI
  3
"AcmSymBB|Product Description: AutoCAD Mechanical 2000|Company: Autodesk"
 90
        0
280
     0
281
     0
  0
CLASS
  1
LONG_TRANSACTION
  2
AcDbLongTransaction
  3
AutoCAD 2000
 90
        0
280
     0
281
     0
  0
CLASS
  1
LWPOLYLINE
  2
AcDbPolyline
  3
AutoCAD 2000
 90
        0
280
     0
281
     1
  0
CLASS
  1
HATCH
  2
AcDbHatch
  3
AutoCAD 2000
 90
        0
280
     0
281
     1
  0
CLASS
  1
XRECORD
  2
AcDbXrecord
  3
AutoCAD 2000
 90
        0
280
     0
281
     0
  0
ENDSEC
  0
SECTION
  2
TABLES
  0
TABLE
  2
VPORT
  5
8
330
0
100
AcDbSymbolTable
 70
     3
  0
VPORT
  5
2305
330
8
100
AcDbSymbolTableRecord
100
AcDbViewportTableRecord
  2
*ACTIVE
 70
     0
 10
0.0
 20
0.0
 11
1.0
 21
1.0
 12
-68.13281748283341
 22
-5.685584585606335
 13
0.0
 23
0.0
 14
2.5
 24
2.5
 15
10.0
 25
10.0
 16
0.0
 26
0.0
 36
1.0
 17
0.0
 27
0.0
 37
0.0
 40
194.7954163903825
 41
1.56570841889117
 42
50.0
 43
0.0
 44
0.0
 50
0.0
 51
0.0
 71
     0
 72
   100
 73
     1
 74
     3
 75
     0
 76
     0
 77
     0
 78
     0
  0
ENDTAB
  0
TABLE
  2
LTYPE
  5
5
330
0
100
AcDbSymbolTable
 70
    10
  0
LTYPE
  5
14
330
5
100
AcDbSymbolTableRecord
100
AcDbLinetypeTableRecord
  2
BYBLOCK
 70
     0
  3

 72
    65
 73
     0
 40
0.0
  0
LTYPE
  5
15
330
5
100
AcDbSymbolTableRecord
100
AcDbLinetypeTableRecord
  2
BYLAYER
 70
     0
  3

 72
    65
 73
     0
 40
0.0
  0
LTYPE
  5
16
330
5
100
AcDbSymbolTableRecord
100
AcDbLinetypeTableRecord
  2
CONTINUOUS
 70
     0
  3
Solid line
 72
    65
 73
     0
 40
0.0
  0
LTYPE
  5
4B
330
5
100
AcDbSymbolTableRecord
100
AcDbLinetypeTableRecord
  2
AM_ISO02W050
 70
     0
  3
__ __ __ __ __ __ __ __ __ __ __ __ __ __ __
 72
    65
 73
     2
 40
7.5
 49
6.0
 74
     0
 49
-1.5
 74
     0
  0
LTYPE
  5
4C
330
5
100
AcDbSymbolTableRecord
100
AcDbLinetypeTableRecord
  2
AM_ISO08W050
 70
     0
  3
____ . ____ . ____ . ____ . ____ . ____ . ____
 72
    65
 73
     4
 40
18.0
 49
12.0
 74
     0
 49
-1.5
 74
     0
 49
3.0
 74
     0
 49
-1.5
 74
     0
  0
LTYPE
  5
4D
330
5
100
AcDbSymbolTableRecord
100
AcDbLinetypeTableRecord
  2
AM_ISO09W050
 70
     0
  3
_____ . . _____ . . _____ . . ____ .. ____
 72
    65
 73
     6
 40
22.5
 49
12.0
 74
     0
 49
-1.5
 74
     0
 49
3.0
 74
     0
 49
-1.5
 74
     0
 49
3.0
 74
     0
 49
-1.5
 74
     0
  0
LTYPE
  5
4E
330
5
100
AcDbSymbolTableRecord
100
AcDbLinetypeTableRecord
  2
AMCONSTR
 70
     0
  3
_______________________
 72
    65
 73
     2
 40
9999.0
 49
9999.0
 74
     0
 49
0.0
 74
     0
  0
LTYPE
  5
4F
330
5
100
AcDbSymbolTableRecord
100
AcDbLinetypeTableRecord
  2
AM_ISO02W050X2
 70
     0
  3
 _ _ _ _ _ _ _ _ _ _ _ _
 72
    65
 73
     2
 40
3.75
 49
3.0
 74
     0
 49
-0.75
 74
     0
  0
LTYPE
  5
50
330
5
100
AcDbSymbolTableRecord
100
AcDbLinetypeTableRecord
  2
AM_ISO08W050X2
 70
     0
  3
__ . __ . __ . __ . __ . __
 72
    65
 73
     4
 40
9.0
 49
6.0
 74
     0
 49
-0.75
 74
     0
 49
1.5
 74
     0
 49
-0.75
 74
     0
  0
LTYPE
  5
53
330
5
100
AcDbSymbolTableRecord
100
AcDbLinetypeTableRecord
  2
AMZIGZAG
 70
     0
  3
/\/-/\/-/\/-/\/-/\/-/\/
 72
    65
 73
     2
 40
11.00009999999999
 49
0.0001
 74
     4
 75
   135
340
52
 46
0.04
 50
0.0
 44
0.0
 45
0.0
 49
-11.0
 74
     0
  0
LTYPE
  5
166
330
5
100
AcDbSymbolTableRecord
100
AcDbLinetypeTableRecord
  2
ACJISTGL
 70
     0
  3
_ _ _ _ _
 72
    65
 73
     2
 40
3.0
 49
2.0
 74
     0
 49
-1.0
 74
     0
  0
LTYPE
  5
26A
330
5
100
AcDbSymbolTableRecord
100
AcDbLinetypeTableRecord
  2
ACJISTGB
 70
     0
  3
__ . . __ . .
 72
    65
 73
     6
 40
9.0
 49
4.0
 74
     0
 49
-1.0
 74
     0
 49
1.0
 74
     0
 49
-1.0
 74
     0
 49
1.0
 74
     0
 49
-1.0
 74
     0
  0
ENDTAB
  0
TABLE
  2
LAYER
  5
2
330
0
100
AcDbSymbolTable
 70
     7
  0
LAYER
  5
10
330
2
100
AcDbSymbolTableRecord
100
AcDbLayerTableRecord
  2
0
 70
     0
 62
     7
  6
CONTINUOUS
  0
LAYER
  5
3F9
330
2
100
AcDbSymbolTableRecord
100
AcDbLayerTableRecord
  2
AM_0
 70
     0
 62
     7
  6
CONTINUOUS
  0
LAYER
  5
BD4
330
2
100
AcDbSymbolTableRecord
100
AcDbLayerTableRecord
  2
AM_11
 70
     0
 62
     3
  6
AM_ISO09W050
  0
LAYER
  5
BD5
330
2
100
AcDbSymbolTableRecord
100
AcDbLayerTableRecord
  2
AM_7
 70
     0
 62
     4
  6
AM_ISO08W050
  0
LAYER
  5
BD6
330
2
100
AcDbSymbolTableRecord
100
AcDbLayerTableRecord
  2
AM_5
 70
     0
 62
     3
  6
CONTINUOUS
  0
LAYER
  5
BD7
330
2
100
AcDbSymbolTableRecord
100
AcDbLayerTableRecord
  2
DEFPOINTS
 70
     0
 62
     7
  6
CONTINUOUS
  0
LAYER
  5
E59
330
2
100
AcDbSymbolTableRecord
100
AcDbLayerTableRecord
  2
AM_6
 70
     0
 62
     2
  6
CONTINUOUS
  0
ENDTAB
  0
TABLE
  2
STYLE
  5
3
330
0
100
AcDbSymbolTable
 70
     5
  0
STYLE
  5
11
330
3
100
AcDbSymbolTableRecord
100
AcDbTextStyleTableRecord
  2
STANDARD
 70
     0
 40
0.0
 41
1.0
 50
0.0
 71
     0
 42
2.5
  3
simplex.shx
  4
EXTFONT.SHX
  0
STYLE
  5
52
330
3
100
AcDbSymbolTableRecord
100
AcDbTextStyleTableRecord
  2

 70
     1
 40
0.0
 41
1.0
 50
0.0
 71
     0
 42
2.5
  3
ltypeshp.shx
  4

  0
STYLE
  5
6B
330
3
100
AcDbSymbolTableRecord
100
AcDbTextStyleTableRecord
  2
ASAMI
 70
     0
 40
0.0
 41
1.0
 50
0.0
 71
     0
 42
2.5
  3
simplex.shx
  4
EXTFONT.SHX
  0
STYLE
  5
262
330
3
100
AcDbSymbolTableRecord
100
AcDbTextStyleTableRecord
  2
ACJISTS
 70
     0
 40
1.0
 41
1.0
 50
0.0
 71
     0
 42
2.5
  3
simplex.shx
  4
bigfont.shx
  0
STYLE
  5
269
330
3
100
AcDbSymbolTableRecord
100
AcDbTextStyleTableRecord
  2
ACJISGDT
 70
     0
 40
0.0
 41
1.0
 50
0.0
 71
     0
 42
2.5
  3
amgdtans.shx
  4

  0
ENDTAB
  0
TABLE
  2
VIEW
  5
6
330
0
100
AcDbSymbolTable
 70
     0
  0
ENDTAB
  0
TABLE
  2
UCS
  5
7
330
0
100
AcDbSymbolTable
 70
     0
  0
ENDTAB
  0
TABLE
  2
APPID
  5
9
330
0
100
AcDbSymbolTable
 70
    12
  0
APPID
  5
12
330
9
100
AcDbSymbolTableRecord
100
AcDbRegAppTableRecord
  2
ACAD
 70
     0
  0
APPID
  5
30
330
9
100
AcDbSymbolTableRecord
100
AcDbRegAppTableRecord
  2
MCAD_NO_VIS
 70
     0
  0
APPID
  5
31
330
9
100
AcDbSymbolTableRecord
100
AcDbRegAppTableRecord
  2
ACAD_TEMP_GRAPHIC
 70
     0
  0
APPID
  5
2C2
330
9
100
AcDbSymbolTableRecord
100
AcDbRegAppTableRecord
  2
GENIUS_GENDTOL_13
 70
     0
  0
APPID
  5
339
330
9
100
AcDbSymbolTableRecord
100
AcDbRegAppTableRecord
  2
GENIUS_GENODEF_13
 70
     0
  0
APPID
  5
33A
330
9
100
AcDbSymbolTableRecord
100
AcDbRegAppTableRecord
  2
GENIUS_GENOBJ-N-RSBK_13
 70
     0
  0
APPID
  5
33B
330
9
100
AcDbSymbolTableRecord
100
AcDbRegAppTableRecord
  2
GENIUS_GENOBJ-N-LIB_13
 70
     0
  0
APPID
  5
33C
330
9
100
AcDbSymbolTableRecord
100
AcDbRegAppTableRecord
  2
GENIUS_GENSCALE_13
 70
     0
  0
APPID
  5
378
330
9
100
AcDbSymbolTableRecord
100
AcDbRegAppTableRecord
  2
GENIUS_GENDIMSH_14
 70
     0
  0
APPID
  5
BD8
330
9
100
AcDbSymbolTableRecord
100
AcDbRegAppTableRecord
  2
GENIUS_GENOBJ-N-CEN_13
 70
     0
  0
APPID
  5
BD9
330
9
100
AcDbSymbolTableRecord
100
AcDbRegAppTableRecord
  2
GENIUS_GENFIL_13
 70
     0
  0
APPID
  5
BDA
330
9
100
AcDbSymbolTableRecord
100
AcDbRegAppTableRecord
  2
GENIUS_GENOBJ-N-CHA_13
 70
     0
  0
ENDTAB
  0
TABLE
  2
DIMSTYLE
  5
A
330
0
100
AcDbSymbolTable
 70
     8
  0
DIMSTYLE
105
58
102
{ACAD_REACTORS
330
105F
330
10EF
330
1180
330
1EAF
102
}
330
A
100
AcDbSymbolTableRecord
100
AcDbDimStyleTableRecord
  2
AM_JIS
 70
     0
  3

  4
"
  5
OPEN30
  6

  7

 40
1.0
 41
2.5
 42
1.0
 43
12.0
 44
1.0
 45
0.0
 46
0.0
 47
0.1
 48
0.1
140
3.2
141
0.0
142
0.0
143
0.0393701
144
1.0
145
0.0
146
0.71
147
1.5
 71
     0
 72
     0
 73
     0
 74
     0
 75
     0
 76
     0
 77
     3
 78
     8
170
     0
171
     2
172
     1
173
     0
174
     0
175
     0
176
   256
177
   256
178
     2
270
     2
271
     3
272
     3
273
     2
274
     2
340
6B
275
     0
280
     0
281
     0
282
     0
283
     0
284
     0
285
     0
286
     0
287
     3
288
     0
  0
DIMSTYLE
105
5F
330
A
100
AcDbSymbolTableRecord
100
AcDbDimStyleTableRecord
  2
AM_JIS$3
 70
     0
  3

  4
"
  5
OPEN30
  6

  7

 40
1.0
 41
2.5
 42
1.0
 43
10.0
 44
1.0
 45
0.0
 46
0.0
 47
0.1
 48
0.1
140
3.2
141
0.0
142
0.0
143
0.0393701
144
1.0
145
0.0
146
0.71
147
1.5
 71
     0
 72
     0
 73
     0
 74
     1
 75
     0
 76
     0
 77
     3
 78
     8
170
     0
171
     2
172
     0
173
     0
174
     0
175
     0
176
   256
177
   256
178
     2
270
     2
271
     2
272
     3
273
     2
274
     2
340
6B
275
     0
280
     0
281
     0
282
     0
283
     0
284
     0
285
     0
286
     0
287
     0
288
     1
  0
DIMSTYLE
105
60
330
A
100
AcDbSymbolTableRecord
100
AcDbDimStyleTableRecord
  2
AM_JIS$4
 70
     0
  3

  4
"
  5
OPEN30
  6

  7

 40
1.0
 41
2.5
 42
1.0
 43
10.0
 44
1.0
 45
0.0
 46
0.0
 47
0.1
 48
0.1
140
3.2
141
0.0
142
0.0
143
0.0393701
144
1.0
145
0.0
146
0.71
147
1.5
 71
     0
 72
     0
 73
     0
 74
     1
 75
     0
 76
     0
 77
     3
 78
     8
170
     0
171
     2
172
     0
173
     0
174
     0
175
     0
176
   256
177
   256
178
     2
270
     2
271
     2
272
     3
273
     2
274
     2
340
6B
275
     0
280
     0
281
     0
282
     0
283
     0
284
     0
285
     0
286
     0
287
     0
288
     1
  0
DIMSTYLE
105
61
330
A
100
AcDbSymbolTableRecord
100
AcDbDimStyleTableRecord
  2
AM_JIS$6
 70
     0
  3

  4
"
  5
OPEN30
  6

  7

 40
1.0
 41
2.5
 42
1.0
 43
10.0
 44
1.0
 45
0.0
 46
0.0
 47
0.1
 48
0.1
140
3.2
141
0.0
142
0.0
143
0.0393701
144
1.0
145
0.0
146
0.71
147
1.5
 71
     0
 72
     0
 73
     0
 74
     0
 75
     0
 76
     0
 77
     0
 78
     8
170
     0
171
     2
172
     1
173
     0
174
     0
175
     0
176
   256
177
   256
178
     2
270
     2
271
     2
272
     2
273
     2
274
     2
340
6B
275
     0
280
     0
281
     0
282
     0
283
     0
284
     0
285
     0
286
     0
287
     3
288
     0
  0
DIMSTYLE
105
62
330
A
100
AcDbSymbolTableRecord
100
AcDbDimStyleTableRecord
  2
AM_JIS$7
 70
     0
  3

  4
"
  5
OPEN30
  6

  7

 40
1.0
 41
2.5
 42
1.0
 43
10.0
 44
1.0
 45
0.0
 46
0.0
 47
0.1
 48
0.1
140
3.2
141
0.0
142
0.0
143
0.0393701
144
1.0
145
0.0
146
0.71
147
1.5
 71
     0
 72
     0
 73
     0
 74
     0
 75
     0
 76
     0
 77
     3
 78
     8
170
     0
171
     2
172
     1
173
     0
174
     0
175
     0
176
   256
177
   256
178
     2
270
     2
271
     2
272
     3
273
     2
274
     2
340
6B
275
     0
280
     0
281
     0
282
     0
283
     0
284
     0
285
     0
286
     0
287
     3
288
     0
  0
DIMSTYLE
105
63
330
A
100
AcDbSymbolTableRecord
100
AcDbDimStyleTableRecord
  2
AM_JIS$SF
 70
     0
  3

  4
"
  5
OPEN30
  6

  7

 40
1.0
 41
2.5
 42
1.0
 43
10.0
 44
1.0
 45
0.0
 46
0.0
 47
0.1
 48
0.1
140
3.2
141
0.0
142
0.0
143
0.0393701
144
1.0
145
0.0
146
0.71
147
1.5
 71
     0
 72
     0
 73
     0
 74
     0
 75
     1
 76
     1
 77
     3
 78
     8
170
     0
171
     2
172
     1
173
     0
174
     0
175
     0
176
   256
177
   256
178
     2
270
     2
271
     2
272
     2
273
     2
274
     2
340
6B
275
     0
280
     0
281
     0
282
     0
283
     0
284
     0
285
     0
286
     0
287
     3
288
     0
  0
DIMSTYLE
105
68
330
A
100
AcDbSymbolTableRecord
100
AcDbDimStyleTableRecord
  2
AM_JIS$SH
 70
     0
  3

  4
"
  5

  6
GENAXEH
  7
OPEN30
 40
1.0
 41
2.5
 42
1.0
 43
10.0
 44
1.0
 45
0.0
 46
0.0
 47
0.1
 48
0.1
140
3.2
141
0.0
142
0.0
143
0.0393701
144
2.0
145
0.0
146
0.71
147
1.5
 71
     0
 72
     0
 73
     0
 74
     0
 75
     1
 76
     1
 77
     3
 78
     8
170
     0
171
     2
172
     1
173
     1
174
     0
175
     0
176
   256
177
   256
178
     2
270
     2
271
     2
272
     2
273
     2
274
     2
340
6B
275
     0
280
     0
281
     0
282
     0
283
     0
284
     0
285
     0
286
     0
287
     3
288
     0
  0
DIMSTYLE
105
B34
330
A
100
AcDbSymbolTableRecord
100
AcDbDimStyleTableRecord
  2
AM_JIS$2
 70
     0
  3

  4
"
  5
OPEN30
  6

  7

 40
1.0
 41
2.5
 42
1.0
 43
12.0
 44
1.0
 45
0.0
 46
0.0
 47
0.1
 48
0.1
140
3.2
141
0.0
142
0.0
143
0.0393701
144
1.0
145
0.0
146
0.71
147
1.5
 71
     0
 72
     0
 73
     0
 74
     0
 75
     0
 76
     0
 77
     3
 78
     8
170
     0
171
     2
172
     1
173
     0
174
     0
175
     0
176
   256
177
   256
178
     2
270
     2
271
     3
272
     3
273
     2
274
     2
340
6B
275
     0
280
     0
281
     0
282
     0
283
     0
284
     0
285
     0
286
     0
287
     3
288
     0
  0
ENDTAB
  0
TABLE
  2
BLOCK_RECORD
  5
1
330
0
100
AcDbSymbolTable
 70
     9
  0
BLOCK_RECORD
  5
1F
102
{ACAD_XDICTIONARY
360
74
102
}
330
1
100
AcDbSymbolTableRecord
100
AcDbBlockTableRecord
  2
*MODEL_SPACE
  0
BLOCK_RECORD
  5
101
102
{ACAD_XDICTIONARY
360
232E
102
}
330
1
100
AcDbSymbolTableRecord
100
AcDbBlockTableRecord
  2
*PAPER_SPACE
  0
BLOCK_RECORD
  5
59
330
1
100
AcDbSymbolTableRecord
100
AcDbBlockTableRecord
  2
_OPEN30
  0
BLOCK_RECORD
  5
64
330
1
100
AcDbSymbolTableRecord
100
AcDbBlockTableRecord
  2
GENAXEH
  0
BLOCK_RECORD
  5
1060
330
1
100
AcDbSymbolTableRecord
100
AcDbBlockTableRecord
  2
*D5
  0
BLOCK_RECORD
  5
10F0
330
1
100
AcDbSymbolTableRecord
100
AcDbBlockTableRecord
  2
*D6
  0
BLOCK_RECORD
  5
1181
330
1
100
AcDbSymbolTableRecord
100
AcDbBlockTableRecord
  2
*D7
  0
BLOCK_RECORD
  5
1EB0
330
1
100
AcDbSymbolTableRecord
100
AcDbBlockTableRecord
  2
*D8
  0
ENDTAB
  0
ENDSEC
  0
SECTION
  2
BLOCKS
  0
BLOCK
  5
20
330
1F
100
AcDbEntity
  8
0
100
AcDbBlockBegin
  2
*MODEL_SPACE
 70
     0
 10
0.0
 20
0.0
 30
0.0
  3
*MODEL_SPACE
  1

  0
ENDBLK
  5
21
330
1F
100
AcDbEntity
  8
0
100
AcDbBlockEnd
  0
BLOCK
  5
103
330
101
100
AcDbEntity
 67
     1
  8
0
100
AcDbBlockBegin
  2
*PAPER_SPACE
 70
     0
 10
0.0
 20
0.0
 30
0.0
  3
*PAPER_SPACE
  1

  0
ENDBLK
  5
104
330
101
100
AcDbEntity
 67
     1
  8
0
100
AcDbBlockEnd
  0
BLOCK
  5
5D
330
59
100
AcDbEntity
  8
0
100
AcDbBlockBegin
  2
_OPEN30
 70
     0
 10
0.0
 20
0.0
 30
0.0
  3
_OPEN30
  1

  0
LINE
  5
5A
330
59
100
AcDbEntity
  8
0
 62
     0
100
AcDbLine
 10
-1.0
 20
0.26794919
 30
0.0
 11
0.0
 21
0.0
 31
0.0
  0
LINE
  5
5B
330
59
100
AcDbEntity
  8
0
 62
     0
100
AcDbLine
 10
0.0
 20
0.0
 30
0.0
 11
-1.0
 21
-0.26794919
 31
0.0
  0
LINE
  5
5C
330
59
100
AcDbEntity
  8
0
 62
     0
100
AcDbLine
 10
0.0
 20
0.0
 30
0.0
 11
-1.0
 21
0.0
 31
0.0
  0
ENDBLK
  5
5E
330
59
100
AcDbEntity
  8
0
100
AcDbBlockEnd
  0
BLOCK
  5
66
330
64
100
AcDbEntity
  8
0
100
AcDbBlockBegin
  2
GENAXEH
 70
     0
 10
0.0
 20
0.0
 30
0.0
  3
GENAXEH
  1

  0
LINE
  5
65
330
64
100
AcDbEntity
  8
0
100
AcDbLine
 10
-1.0
 20
0.0
 30
0.0
 11
1.0
 21
0.0
 31
0.0
  0
ENDBLK
  5
67
330
64
100
AcDbEntity
  8
0
100
AcDbBlockEnd
  0
BLOCK
  5
106A
330
1060
100
AcDbEntity
  8
0
100
AcDbBlockBegin
  2
*D5
 70
     1
 10
0.0
 20
0.0
 30
0.0
  3
*D5
  1

  0
LINE
  5
1FC2
330
1060
100
AcDbEntity
  8
AM_5
100
AcDbLine
 10
-80.0
 20
-9.99999999999982
 30
0.0
 11
-80.0
 21
-25.0000009999992
 31
0.0
  0
LINE
  5
1FC3
330
1060
100
AcDbEntity
  8
AM_5
100
AcDbLine
 10
-0.0000000000000001
 20
-9.999999999997886
 30
0.0
 11
-0.000000000000001
 21
-25.0000009999992
 31
0.0
  0
LINE
  5
1FC4
330
1060
100
AcDbEntity
  8
AM_5
100
AcDbLine
 10
-77.5
 20
-24.0000009999992
 30
0.0
 11
-2.5
 21
-24.0000009999992
 31
0.0
  0
INSERT
  5
1FC5
330
1060
100
AcDbEntity
  8
AM_5
100
AcDbBlockReference
  2
_OPEN30
 10
-80.0
 20
-24.0000009999992
 30
0.0
 41
2.5
 42
2.5
 43
2.5
 50
180.0
  0
INSERT
  5
1FC6
330
1060
100
AcDbEntity
  8
AM_5
100
AcDbBlockReference
  2
_OPEN30
 10
-0.0000000000000009
 20
-24.0000009999992
 30
0.0
 41
2.5
 42
2.5
 43
2.5
  0
MTEXT
  5
1FC7
330
1060
100
AcDbEntity
  8
AM_5
 62
     2
100
AcDbMText
 10
-40.0
 20
-20.9000009999992
 30
0.0
 40
3.2
 41
0.0
 71
     5
 72
     1
  1
80
  7
ASAMI
1001
ACAD
1000
MTEXTBEGIN
1070
    73
1070
     1
1070
    44
1040
1.0
1070
    74
1070
     0
1000
MTEXTEND
  0
POINT
  5
1FC8
330
1060
100
AcDbEntity
  8
DEFPOINTS
 62
     0
100
AcDbPoint
 10
-80.0
 20
-8.99999999999982
 30
0.0
  0
POINT
  5
1FC9
330
1060
100
AcDbEntity
  8
DEFPOINTS
 62
     0
100
AcDbPoint
 10
0.0
 20
-8.999999999997886
 30
0.0
  0
POINT
  5
1FCA
330
1060
100
AcDbEntity
  8
DEFPOINTS
 62
     0
100
AcDbPoint
 10
-0.0000000000000009
 20
-24.0000009999992
 30
0.0
  0
ENDBLK
  5
106B
330
1060
100
AcDbEntity
  8
0
100
AcDbBlockEnd
  0
BLOCK
  5
10FA
330
10F0
100
AcDbEntity
  8
0
100
AcDbBlockBegin
  2
*D6
 70
     1
 10
0.0
 20
0.0
 30
0.0
  3
*D6
  1

  0
LINE
  5
1FCB
330
10F0
100
AcDbEntity
  8
AM_5
100
AcDbLine
 10
-159.9999999999999
 20
-9.749999999997886
 30
0.0
 11
-159.9999999999999
 21
-37.0000009999992
 31
0.0
  0
LINE
  5
1FCC
330
10F0
100
AcDbEntity
  8
AM_5
100
AcDbLine
 10
0.000000000000778
 20
-9.999999999997886
 30
0.0
 11
0.0000000000007763
 21
-37.0000009999992
 31
0.0
  0
LINE
  5
1FCD
330
10F0
100
AcDbEntity
  8
AM_5
100
AcDbLine
 10
-157.4999999999999
 20
-36.0000009999992
 30
0.0
 11
-2.499999999999223
 21
-36.0000009999992
 31
0.0
  0
INSERT
  5
1FCE
330
10F0
100
AcDbEntity
  8
AM_5
100
AcDbBlockReference
  2
_OPEN30
 10
-159.9999999999999
 20
-36.0000009999992
 30
0.0
 41
2.5
 42
2.5
 43
2.5
 50
180.0
  0
INSERT
  5
1FCF
330
10F0
100
AcDbEntity
  8
AM_5
100
AcDbBlockReference
  2
_OPEN30
 10
0.0000000000007764
 20
-36.0000009999992
 30
0.0
 41
2.5
 42
2.5
 43
2.5
  0
MTEXT
  5
1FD0
330
10F0
100
AcDbEntity
  8
AM_5
 62
     2
100
AcDbMText
 10
-79.9999999999996
 20
-32.9000009999992
 30
0.0
 40
3.2
 41
0.0
 71
     5
 72
     1
  1
160
  7
ASAMI
1001
ACAD
1000
MTEXTBEGIN
1070
    73
1070
     1
1070
    44
1040
1.0
1070
    74
1070
     0
1000
MTEXTEND
  0
POINT
  5
1FD1
330
10F0
100
AcDbEntity
  8
DEFPOINTS
 62
     0
100
AcDbPoint
 10
-159.9999999999999
 20
-8.749999999997886
 30
0.0
  0
POINT
  5
1FD2
330
10F0
100
AcDbEntity
  8
DEFPOINTS
 62
     0
100
AcDbPoint
 10
0.000000000000778
 20
-8.999999999997886
 30
0.0
  0
POINT
  5
1FD3
330
10F0
100
AcDbEntity
  8
DEFPOINTS
 62
     0
100
AcDbPoint
 10
0.0000000000007764
 20
-36.0000009999992
 30
0.0
  0
ENDBLK
  5
10FB
330
10F0
100
AcDbEntity
  8
0
100
AcDbBlockEnd
  0
BLOCK
  5
118B
330
1181
100
AcDbEntity
  8
0
100
AcDbBlockBegin
  2
*D7
 70
     1
 10
0.0
 20
0.0
 30
0.0
  3
*D7
  1

  0
LINE
  5
22E2
330
1181
100
AcDbEntity
  8
AM_5
100
AcDbLine
 10
1.000000000000003
 20
9.0
 30
0.0
 11
15.72385206916658
 21
8.999999999999994
 31
0.0
  0
LINE
  5
22E3
330
1181
100
AcDbEntity
  8
AM_5
100
AcDbLine
 10
1.0
 20
-9.0
 30
0.0
 11
15.72385206916658
 21
-9.000000000000005
 31
0.0
  0
LINE
  5
22E4
330
1181
100
AcDbEntity
  8
AM_5
100
AcDbLine
 10
14.72385206916658
 20
6.499999999999994
 30
0.0
 11
14.72385206916658
 21
-6.500000000000005
 31
0.0
  0
INSERT
  5
22E5
330
1181
100
AcDbEntity
  8
AM_5
100
AcDbBlockReference
  2
_OPEN30
 10
14.72385206916658
 20
8.999999999999994
 30
0.0
 41
2.5
 42
2.5
 43
2.5
 50
90.0
  0
INSERT
  5
22E6
330
1181
100
AcDbEntity
  8
AM_5
100
AcDbBlockReference
  2
_OPEN30
 10
14.72385206916658
 20
-9.000000000000005
 30
0.0
 41
2.5
 42
2.5
 43
2.5
 50
270.0
  0
MTEXT
  5
22E7
330
1181
100
AcDbEntity
  8
AM_5
 62
     2
100
AcDbMText
 10
11.62385206916658
 20
-0.0000000000000023
 30
0.0
 40
3.2
 41
0.0
 71
     5
 72
     1
  1
%%c18
  7
ASAMI
 11
0.0000000000000001
 21
1.0
 31
0.0
1001
ACAD
1000
MTEXTBEGIN
1070
    73
1070
     1
1070
    44
1040
1.0
1070
    74
1070
     0
1000
MTEXTEND
  0
POINT
  5
22E8
330
1181
100
AcDbEntity
  8
DEFPOINTS
 62
     0
100
AcDbPoint
 10
0.0000000000000032
 20
9.0
 30
0.0
  0
POINT
  5
22E9
330
1181
100
AcDbEntity
  8
DEFPOINTS
 62
     0
100
AcDbPoint
 10
0.0
 20
-9.0
 30
0.0
  0
POINT
  5
22EA
330
1181
100
AcDbEntity
  8
DEFPOINTS
 62
     0
100
AcDbPoint
 10
14.72385206916658
 20
-9.000000000000005
 30
0.0
  0
ENDBLK
  5
118C
330
1181
100
AcDbEntity
  8
0
100
AcDbBlockEnd
  0
BLOCK
  5
1EBA
330
1EB0
100
AcDbEntity
  8
0
100
AcDbBlockBegin
  2
*D8
 70
     1
 10
0.0
 20
0.0
 30
0.0
  3
*D8
  1

  0
LINE
  5
1EDE
330
1EB0
100
AcDbEntity
  8
AM_5
100
AcDbLine
 10
-159.75
 20
9.999999999999543
 30
0.0
 11
-177.7882312597197
 21
9.999999999999548
 31
0.0
  0
LINE
  5
1EDF
330
1EB0
100
AcDbEntity
  8
AM_5
100
AcDbLine
 10
-159.75
 20
-9.999999999997934
 30
0.0
 11
-177.7882312597197
 21
-9.999999999997928
 31
0.0
  0
LINE
  5
1EE0
330
1EB0
100
AcDbEntity
  8
AM_5
100
AcDbLine
 10
-176.7882312597198
 20
7.499999999999548
 30
0.0
 11
-176.7882312597198
 21
-7.499999999997928
 31
0.0
  0
INSERT
  5
1EE1
330
1EB0
100
AcDbEntity
  8
AM_5
100
AcDbBlockReference
  2
_OPEN30
 10
-176.7882312597198
 20
9.999999999999548
 30
0.0
 41
2.5
 42
2.5
 43
2.5
 50
90.0
  0
INSERT
  5
1EE2
330
1EB0
100
AcDbEntity
  8
AM_5
100
AcDbBlockReference
  2
_OPEN30
 10
-176.7882312597198
 20
-9.999999999997928
 30
0.0
 41
2.5
 42
2.5
 43
2.5
 50
270.0
  0
MTEXT
  5
1EE3
330
1EB0
100
AcDbEntity
  8
AM_5
 62
     2
100
AcDbMText
 10
-179.8882312597197
 20
0.0000000000007821
 30
0.0
 40
3.2
 41
0.0
 71
     5
 72
     1
  1
%%c20
  7
ASAMI
 11
0.0000000000000001
 21
1.0
 31
0.0
1001
ACAD
1000
MTEXTBEGIN
1070
    73
1070
     1
1070
    44
1040
1.0
1070
    74
1070
     0
1000
MTEXTEND
  0
POINT
  5
1EE4
330
1EB0
100
AcDbEntity
  8
DEFPOINTS
 62
     0
100
AcDbPoint
 10
-158.75
 20
9.999999999999543
 30
0.0
  0
POINT
  5
1EE5
330
1EB0
100
AcDbEntity
  8
DEFPOINTS
 62
     0
100
AcDbPoint
 10
-158.75
 20
-9.999999999997934
 30
0.0
  0
POINT
  5
1EE6
330
1EB0
100
AcDbEntity
  8
DEFPOINTS
 62
     0
100
AcDbPoint
 10
-176.7882312597198
 20
-9.999999999997928
 30
0.0
  0
ENDBLK
  5
1EBB
330
1EB0
100
AcDbEntity
  8
0
100
AcDbBlockEnd
  0
ENDSEC
  0
SECTION
  2
ENTITIES
  0
TEXT
  5
E5A
330
1F
100
AcDbEntity
  8
AM_6
100
AcDbText
 10
-97.85714285714243
 20
-58.5000009999992
 30
0.0
 40
5.0
  1
ELSM4180
 72
     4
 11
-79.99999999999957
 21
-56.0000009999992
 31
0.0
100
AcDbText
  0
LINE
  5
F47
330
1F
100
AcDbEntity
  8
AM_7
  6
AM_ISO08W050X2
100
AcDbLine
 10
4.557768030854958
 20
0.0
 30
0.0
 11
-162.7882302597198
 21
-0.0000000000001168
 31
0.0
1001
GENIUS_GENODEF_13
1002
{
1000
HIER
1070
     0
1002
}
1002
{
1000
MANEDIT
1070
     0
1002
}
1002
{
1000
NOSEL
1070
     0
1002
}
1002
{
1000
BEHIND
1070
     0
1002
}
1002
{
1000
REACTOR
1002
}
1001
GENIUS_GENOBJ-N-CEN_13
1002
{
1000
OWNER
1000
GEN
1002
}
  0
DIMENSION
  5
105F
330
1F
100
AcDbEntity
  8
AM_5
100
AcDbDimension
  2
*D5
 10
-0.0000000000000009
 20
-24.0000009999992
 30
0.0
 11
-40.0
 21
-20.9000009999992
 31
0.0
 70
    32
  1
<>
  3
AM_JIS
100
AcDbAlignedDimension
 13
-80.0
 23
-8.99999999999982
 33
0.0
 14
0.0
 24
-8.999999999997886
 34
0.0
 50
0.0000000000001132
100
AcDbRotatedDimension
1001
GENIUS_GENDTOL_13
1000

1000
h7
1000

1040
0.0
  0
DIMENSION
  5
10EF
330
1F
100
AcDbEntity
  8
AM_5
100
AcDbDimension
  2
*D6
 10
0.0000000000007764
 20
-36.0000009999992
 30
0.0
 11
-79.9999999999996
 21
-32.9000009999992
 31
0.0
 70
    32
  1
<>
  3
AM_JIS
100
AcDbAlignedDimension
 13
-159.9999999999999
 23
-8.749999999997886
 33
0.0
 14
0.000000000000778
 24
-8.999999999997886
 34
0.0
 50
0.0000000000001132
100
AcDbRotatedDimension
1001
GENIUS_GENDTOL_13
1000

1000
h7
1000

1040
0.0
  0
DIMENSION
  5
1180
330
1F
100
AcDbEntity
  8
AM_5
100
AcDbDimension
  2
*D7
 10
14.72385206916658
 20
-9.000000000000005
 30
0.0
 11
11.62385206916658
 21
-0.0000000000000023
 31
0.0
 70
    32
  1
%%c<>
  3
AM_JIS
100
AcDbAlignedDimension
 13
0.0000000000000032
 23
9.0
 33
0.0
 14
0.0
 24
-9.0
 34
0.0
 50
90.0
100
AcDbRotatedDimension
1001
GENIUS_GENDTOL_13
1000

1000
h7
1000

1040
0.0
  0
LINE
  5
1EA9
330
1F
100
AcDbEntity
  8
AM_0
100
AcDbLine
 10
-93.99999999999996
 20
-9.99999999999939
 30
0.0
 11
-158.7499999999999
 21
-9.999999999997912
 31
0.0
  0
LINE
  5
1EAC
330
1F
100
AcDbEntity
  8
AM_0
100
AcDbLine
 10
-94.0
 20
9.999999999999692
 30
0.0
 11
-158.75
 21
9.999999999999545
 31
0.0
  0
LINE
  5
1EAD
330
1F
100
AcDbEntity
  8
AM_0
100
AcDbLine
 10
-160.0
 20
8.749999999999541
 30
0.0
 11
-159.9999999999999
 21
-8.749999999997884
 31
0.0
  0
LINE
  5
1EAE
330
1F
100
AcDbEntity
  8
AM_0
100
AcDbLine
 10
-158.75
 20
9.999999999999543
 30
0.0
 11
-158.75
 21
-9.999999999997934
 31
0.0
  0
DIMENSION
  5
1EAF
330
1F
100
AcDbEntity
  8
AM_5
100
AcDbDimension
  2
*D8
 10
-176.7882312597198
 20
-9.999999999997928
 30
0.0
 11
-179.8882312597197
 21
0.0000000000007821
 31
0.0
 70
    32
  1
%%c<>
  3
AM_JIS
100
AcDbAlignedDimension
 13
-158.75
 23
9.999999999999543
 33
0.0
 14
-158.75
 24
-9.999999999997934
 34
0.0
 50
270.0
100
AcDbRotatedDimension
1001
GENIUS_GENDTOL_13
1000

1000
h7
1000

1040
0.0
  0
LINE
  5
1EC7
330
1F
100
AcDbEntity
  8
AM_0
100
AcDbLine
 10
-158.75
 20
9.999999999999545
 30
0.0
 11
-160.0
 21
8.749999999999541
 31
0.0
1001
GENIUS_GENFIL_13
1070
     0
1040
1.25
1040
1.25
1040
20.0
1040
0.0
1002
{
1002
}
1001
GENIUS_GENODEF_13
1002
{
1000
HIER
1070
     0
1002
}
1002
{
1000
MANEDIT
1070
     0
1002
}
1002
{
1000
NOSEL
1070
     0
1002
}
1002
{
1000
BEHIND
1070
     0
1002
}
1002
{
1000
REACTOR
1002
}
1001
GENIUS_GENOBJ-N-CHA_13
1002
{
1000
OWNER
1000
GEN
1002
}
  0
LINE
  5
1ECA
330
1F
100
AcDbEntity
  8
AM_0
100
AcDbLine
 10
-159.9999999999999
 20
-8.749999999997884
 30
0.0
 11
-158.7499999999999
 21
-9.999999999997912
 31
0.0
1001
GENIUS_GENFIL_13
1070
     0
1040
1.25
1040
1.25
1040
20.0
1040
0.0
1002
{
1002
}
1001
GENIUS_GENODEF_13
1002
{
1000
HIER
1070
     0
1002
}
1002
{
1000
MANEDIT
1070
     0
1002
}
1002
{
1000
NOSEL
1070
     0
1002
}
1002
{
1000
BEHIND
1070
     0
1002
}
1002
{
1000
REACTOR
1002
}
1001
GENIUS_GENOBJ-N-CHA_13
1002
{
1000
OWNER
1000
GEN
1002
}
  0
LINE
  5
1F17
330
1F
100
AcDbEntity
  8
AM_0
100
AcDbLine
 10
-94.0
 20
9.999999999999692
 30
0.0
 11
-93.99999999999996
 21
-9.99999999999939
 31
0.0
  0
LINE
  5
1F72
330
1F
100
AcDbEntity
  8
AM_11
100
AcDbLine
 10
0.0
 20
-8.999999999997886
 30
0.0
 11
0.0
 21
8.999999999999854
 31
0.0
  0
LINE
  5
1F7B
330
1F
100
AcDbEntity
  8
AM_11
100
AcDbLine
 10
-80.0
 20
-8.999999999998937
 30
0.0
 11
-80.0
 21
8.99999999999882
 31
0.0
  0
LINE
  5
1F7E
330
1F
100
AcDbEntity
  8
AM_11
100
AcDbLine
 10
-80.0
 20
-8.999999999999818
 30
0.0
 11
-0.000000000001274
 21
-9.000000000000015
 31
0.0
  0
LINE
  5
1F7F
330
1F
100
AcDbEntity
  8
AM_11
100
AcDbLine
 10
-0.000000000002548
 20
8.999999999999982
 30
0.0
 11
-80.0
 21
8.999999999999927
 31
0.0
  0
LINE
  5
1FA6
330
1F
100
AcDbEntity
  8
AM_0
100
AcDbLine
 10
-87.45193700979191
 20
8.999999999999921
 30
0.0
 11
-91.25252258054601
 21
8.999999999999918
 31
0.0
  0
LINE
  5
1FA7
330
1F
100
AcDbEntity
  8
AM_0
100
AcDbLine
 10
-91.25252258054601
 20
8.999999999999918
 30
0.0
 11
-94.0
 21
9.999999999999692
 31
0.0
  0
LINE
  5
1FA8
330
1F
100
AcDbEntity
  8
AM_0
100
AcDbLine
 10
-87.51451617963855
 20
-8.999999999999937
 30
0.0
 11
-91.25252258054656
 21
-8.999999999999827
 31
0.0
  0
LINE
  5
1FA9
330
1F
100
AcDbEntity
  8
AM_0
100
AcDbLine
 10
-91.25252258054656
 20
-8.999999999999827
 30
0.0
 11
-91.25252258054601
 21
8.999999999999918
 31
0.0
  0
LINE
  5
1FAA
330
1F
100
AcDbEntity
  8
AM_0
100
AcDbLine
 10
-93.99999999999996
 20
-9.999999999999385
 30
0.0
 11
-91.25252258054656
 21
-8.999999999999829
 31
0.0
  0
LINE
  5
2271
330
1F
100
AcDbEntity
  8
AM_0
100
AcDbLine
 10
-1.488064033221481
 20
4.80085346521871
 30
0.0
 11
-3.284918867485051
 21
5.41521616055054
 31
0.0
  0
LINE
  5
2272
330
1F
100
AcDbEntity
  8
AM_0
100
AcDbLine
 10
-0.1463636363636169
 20
1.800000000000204
 30
0.0
 11
-1.488064033221481
 21
4.80085346521871
 31
0.0
  0
SPLINE
  5
2273
330
1F
100
AcDbEntity
  8
AM_0
100
AcDbSpline
210
0.0
220
0.0
230
1.0
 70
     8
 71
     3
 72
     8
 73
     4
 74
     0
 42
0.0000000001
 43
0.0000000001
 40
0.0
 40
0.0
 40
0.0
 40
0.0
 40
1.293282661808357
 40
1.293282661808357
 40
1.293282661808357
 40
1.293282661808357
 10
0.0
 20
7.334464836031133
 30
0.0
 10
-0.7712211970647142
 20
6.144197753071813
 30
0.0
 10
-2.094978703543498
 20
5.633052834463819
 30
0.0
 10
-3.284918867485051
 20
5.41521616055054
 30
0.0
  0
LINE
  5
2274
330
1F
100
AcDbEntity
  8
AM_0
100
AcDbLine
 10
-0.1463636363636169
 20
-2.388416138213733
 30
0.0
 11
0.0
 21
-1.8
 31
0.0
  0
LINE
  5
2275
330
1F
100
AcDbEntity
  8
AM_0
100
AcDbLine
 10
0.0
 20
-1.8
 30
0.0
 11
-0.804791284324968
 21
0.0000000000001023
 31
0.0
  0
LINE
  5
2276
330
1F
100
AcDbEntity
  8
AM_0
100
AcDbLine
 10
0.0
 20
0.0
 30
0.0
 11
-0.1238412127461288
 21
-1.523016156754351
 31
0.0
  0
LINE
  5
2277
330
1F
100
AcDbEntity
  8
AM_0
100
AcDbLine
 10
-3.284918867485051
 20
0.0
 30
0.0
 11
-3.284918867485051
 21
-1.44000000000002
 31
0.0
  0
LINE
  5
2278
330
1F
100
AcDbEntity
  8
AM_0
100
AcDbLine
 10
-3.284918867485051
 20
-1.44000000000002
 30
0.0
 11
-1.199426283084657
 21
-2.652578577299777
 31
0.0
  0
ELLIPSE
  5
2279
330
1F
100
AcDbEntity
  8
AM_0
100
AcDbEllipse
 10
2.767908071916707
 20
-4.578984296492229
 30
0.0
 11
0.0000000000000355
 21
5.473256607928814
 31
0.0
210
0.0
220
0.0
230
1.0
 40
0.7744107744107859
 41
1.211124581303827
 42
2.069278538290332
  0
LINE
  5
227A
330
1F
100
AcDbEntity
  8
AM_0
100
AcDbLine
 10
-1.199426283084657
 20
-2.652578577299777
 30
0.0
 11
-0.1463636363636169
 21
-2.388416138213733
 31
0.0
  0
LINE
  5
227B
330
1F
100
AcDbEntity
  8
AM_0
100
AcDbLine
 10
-3.284918867485051
 20
-1.44000000000002
 30
0.0
 11
-0.1609582568649822
 21
-1.44000000000002
 31
0.0
  0
LINE
  5
227C
330
1F
100
AcDbEntity
  8
AM_0
100
AcDbLine
 10
0.0
 20
0.0
 30
0.0
 11
-3.284918867485051
 21
0.0
 31
0.0
  0
LINE
  5
227D
330
1F
100
AcDbEntity
  8
AM_0
100
AcDbLine
 10
0.0
 20
0.0
 30
0.0
 11
-0.1463636363636169
 21
1.800000000000204
 31
0.0
  0
SPLINE
  5
227E
330
1F
100
AcDbEntity
  8
AM_0
100
AcDbSpline
210
0.0
220
0.0
230
1.0
 70
     8
 71
     3
 72
     8
 73
     4
 74
     0
 42
0.0000000001
 43
0.0000000001
 40
4.542668862435135
 40
4.542668862435135
 40
4.542668862435135
 40
4.542668862435135
 40
14.36247867694493
 40
14.36247867694493
 40
14.36247867694493
 40
14.36247867694493
 10
-0.9548484848465363
 20
-7.195709979821924
 30
0.0
 10
-5.324095530162272
 20
-5.682610235831146
 30
0.0
 10
-9.523493714704404
 20
-2.841305117915521
 30
0.0
 10
-13.72289189924655
 20
0.0000000000001023
 30
0.0
  0
SPLINE
  5
227F
330
1F
100
AcDbEntity
  8
AM_0
100
AcDbSpline
210
0.0
220
0.0
230
1.0
 70
     8
 71
     3
 72
     8
 73
     4
 74
     0
 42
0.0000000001
 43
0.0000000001
 40
0.7142832446738512
 40
0.7142832446738512
 40
0.7142832446738512
 40
0.7142832446738512
 40
9.361146747480315
 40
9.361146747480315
 40
9.361146747480315
 40
9.361146747480315
 10
-12.73110214344448
 20
8.281076021683725
 30
0.0
 10
-8.744399319962951
 20
8.038410190148852
 30
0.0
 10
-4.940736429291177
 20
6.364385789039329
 30
0.0
 10
-1.204147860999341
 20
4.165845209065707
 30
0.0
  0
SPLINE
  5
2280
330
1F
100
AcDbEntity
  8
AM_0
100
AcDbSpline
210
0.0
220
0.0
230
1.0
 70
     8
 71
     3
 72
     8
 73
     4
 74
     0
 42
0.0000000001
 43
0.0000000001
 40
0.3581103616548037
 40
0.3581103616548037
 40
0.3581103616548037
 40
0.3581103616548037
 40
12.40023413887867
 40
12.40023413887867
 40
12.40023413887867
 40
12.40023413887867
 10
-16.026411986934
 20
8.722521761134817
 30
0.0
 10
-10.45497309952109
 20
8.544175086713108
 30
0.0
 10
-5.280185799845469
 20
5.404862031273
 30
0.0
 10
-0.1628299530365969
 20
1.836828641896136
 30
0.0
  0
LINE
  5
2281
330
1F
100
AcDbEntity
  8
AM_0
100
AcDbLine
 10
0.0
 20
0.0
 30
0.0
 11
0.0
 21
9.0
 31
0.0
  0
SPLINE
  5
2282
330
1F
100
AcDbEntity
  8
AM_0
100
AcDbSpline
210
0.0
220
0.0
230
1.0
 70
     8
 71
     3
 72
     8
 73
     4
 74
     0
 42
0.0000000001
 43
0.0000000001
 40
0.0
 40
0.0
 40
0.0
 40
0.0
 40
5.635889483499127
 40
5.635889483499127
 40
5.635889483499127
 40
5.635889483499127
 10
0.0
 20
9.0
 30
0.0
 10
-2.61869612364605
 20
9.0
 30
0.0
 10
-5.143551687165484
 20
8.319229252162449
 30
0.0
 10
-7.611066010909572
 20
7.222473789068238
 30
0.0
  0
SPLINE
  5
2283
330
1F
100
AcDbEntity
  8
AM_0
100
AcDbSpline
210
0.0
220
0.0
230
1.0
 70
     8
 71
     3
 72
     8
 73
     4
 74
     0
 42
0.0000000001
 43
0.0000000001
 40
0.0
 40
0.0
 40
0.0
 40
0.0
 40
5.635889483499305
 40
5.635889483499305
 40
5.635889483499305
 40
5.635889483499305
 10
-18.95757575757602
 20
9.000000000000179
 30
0.0
 10
-21.57627188122218
 20
9.000000000000179
 30
0.0
 10
-24.10112744474167
 20
8.319229252162628
 30
0.0
 10
-26.65410384977514
 20
7.155862688957137
 30
0.0
  0
SPLINE
  5
2284
330
1F
100
AcDbEntity
  8
AM_0
100
AcDbSpline
210
0.0
220
0.0
230
1.0
 70
     8
 71
     3
 72
     8
 73
     4
 74
     0
 42
0.0000000001
 43
0.0000000001
 40
0.0
 40
0.0
 40
0.0
 40
0.0
 40
7.244998274671977
 40
7.244998274671977
 40
7.244998274671977
 40
7.244998274671977
 10
-37.91515151515189
 20
9.000000000000255
 30
0.0
 10
-31.18242584575974
 20
9.000000000000255
 30
0.0
 10
-25.07000080166793
 20
4.500000000000255
 30
0.0
 10
-18.95757575757613
 20
0.0000000000002814
 30
0.0
  0
SPLINE
  5
2285
330
1F
100
AcDbEntity
  8
AM_0
100
AcDbSpline
210
0.0
220
0.0
230
1.0
 70
     8
 71
     3
 72
     8
 73
     4
 74
     0
 42
0.0000000001
 43
0.0000000001
 40
0.3581103616548037
 40
0.3581103616548037
 40
0.3581103616548037
 40
0.3581103616548037
 40
12.40023413887867
 40
12.40023413887867
 40
12.40023413887867
 40
12.40023413887867
 10
-34.98398774451016
 20
8.722521761134869
 30
0.0
 10
-28.59311730382023
 20
8.257165711351843
 30
0.0
 10
-22.1785292264426
 20
4.752586105175453
 30
0.0
 10
-16.52452594024983
 20
0.0
 30
0.0
  0
SPLINE
  5
2286
330
1F
100
AcDbEntity
  8
AM_0
100
AcDbSpline
210
0.0
220
0.0
230
1.0
 70
     8
 71
     3
 72
     8
 73
     4
 74
     0
 42
0.0000000001
 43
0.0000000001
 40
0.7142832446738512
 40
0.7142832446738512
 40
0.7142832446738512
 40
0.7142832446738512
 40
9.361146747480315
 40
9.361146747480315
 40
9.361146747480315
 40
9.361146747480315
 10
-31.68867790102062
 20
8.281076021683777
 30
0.0
 10
-23.35589052252544
 20
7.052466276966083
 30
0.0
 10
-17.54429822894722
 20
2.898602746949285
 30
0.0
 10
-13.72289189924655
 20
0.0000000000001023
 30
0.0
  0
SPLINE
  5
2287
330
1F
100
AcDbEntity
  8
AM_0
100
AcDbSpline
210
0.0
220
0.0
230
1.0
 70
     8
 71
     3
 72
     8
 73
     4
 74
     0
 42
0.0000000001
 43
0.0000000001
 40
0.0
 40
0.0
 40
0.0
 40
0.0
 40
7.244998274671977
 40
7.244998274671977
 40
7.244998274671977
 40
7.244998274671977
 10
-18.95757575757573
 20
9.000000000000179
 30
0.0
 10
-12.2248500881836
 20
9.000000000000179
 30
0.0
 10
-6.112425044091783
 20
4.500000000000205
 30
0.0
 10
0.0
 20
0.0000000000002046
 30
0.0
  0
LINE
  5
2288
330
1F
100
AcDbEntity
  8
AM_0
100
AcDbLine
 10
0.0
 20
-9.0
 30
0.0
 11
-0.1463636363636169
 21
-8.520194083719287
 31
0.0
  0
SPLINE
  5
2289
330
1F
100
AcDbEntity
  8
AM_0
100
AcDbSpline
210
0.0
220
0.0
230
1.0
 70
     8
 71
     3
 72
     8
 73
     4
 74
     0
 42
0.0000000001
 43
0.0000000001
 40
0.0
 40
0.0
 40
0.0
 40
0.0
 40
2.130230809022907
 40
2.130230809022907
 40
2.130230809022907
 40
2.130230809022907
 10
-16.29090909090935
 20
-9.0
 30
0.0
 10
-15.30110487661585
 20
-9.0
 30
0.0
 10
-14.32470727238309
 20
-8.902741118076301
 30
0.0
 10
-13.35974532026788
 20
-8.722521761134613
 30
0.0
  0
SPLINE
  5
228A
330
1F
100
AcDbEntity
  8
AM_0
100
AcDbSpline
210
0.0
220
0.0
230
1.0
 70
     8
 71
     3
 72
     8
 73
     4
 74
     0
 42
0.0000000001
 43
0.0000000001
 40
0.0
 40
0.0
 40
0.0
 40
0.0
 40
2.764560748519282
 40
2.764560748519282
 40
2.764560748519282
 40
2.764560748519282
 10
-13.85785927358353
 20
-8.730510606603695
 30
0.0
 10
-12.57331589548368
 20
-8.730510606603695
 30
0.0
 10
-11.31020943338241
 20
-8.570486067318098
 30
0.0
 10
-10.06443547692492
 20
-8.281076021717593
 30
0.0
  0
SPLINE
  5
228B
330
1F
100
AcDbEntity
  8
AM_0
100
AcDbSpline
210
0.0
220
0.0
230
1.0
 70
     8
 71
     3
 72
     8
 73
     4
 74
     0
 42
0.0000000001
 43
0.0000000001
 40
0.0
 40
0.0
 40
0.0
 40
0.0
 40
3.33536911321369
 40
3.33536911321369
 40
3.33536911321369
 40
3.33536911321369
 10
-11.05622523258017
 20
-8.311400106844837
 30
0.0
 10
-9.506457765834397
 20
-8.311400106844837
 30
0.0
 10
-7.98534993115813
 20
-8.087283929933025
 30
0.0
 10
-6.486246160682412
 20
-7.691097618513078
 30
0.0
  0
SPLINE
  5
228C
330
1F
100
AcDbEntity
  8
AM_0
100
AcDbSpline
210
0.0
220
0.0
230
1.0
 70
     8
 71
     3
 72
     8
 73
     4
 74
     0
 42
0.0000000001
 43
0.0000000001
 40
0.0
 40
0.0
 40
0.0
 40
0.0
 40
3.872359523417441
 40
3.872359523417441
 40
3.872359523417441
 40
3.872359523417441
 10
-28.07818504010462
 20
-8.31140010684494
 30
0.0
 10
-26.27890687770862
 20
-8.31140010684494
 30
0.0
 10
-24.51825955508327
 20
-8.009309832297715
 30
0.0
 10
-22.78582756501373
 20
-7.486577769769269
 30
0.0
  0
SPLINE
  5
228D
330
1F
100
AcDbEntity
  8
AM_0
100
AcDbSpline
210
0.0
220
0.0
230
1.0
 70
     8
 71
     3
 72
     8
 73
     4
 74
     0
 42
0.0000000001
 43
0.0000000001
 40
0.0
 40
0.0
 40
0.0
 40
0.0
 40
2.130230809022907
 40
2.130230809022907
 40
2.130230809022907
 40
2.130230809022907
 10
-33.31286889843392
 20
-9.0
 30
0.0
 10
-32.32306468414041
 20
-9.0
 30
0.0
 10
-31.34666707990766
 20
-8.902741118076301
 30
0.0
 10
-30.38170512779244
 20
-8.722521761134613
 30
0.0
  0
SPLINE
  5
228E
330
1F
100
AcDbEntity
  8
AM_0
100
AcDbSpline
210
0.0
220
0.0
230
1.0
 70
     8
 71
     3
 72
     8
 73
     4
 74
     0
 42
0.0000000001
 43
0.0000000001
 40
0.0
 40
0.0
 40
0.0
 40
0.0
 40
2.764560748519282
 40
2.764560748519282
 40
2.764560748519282
 40
2.764560748519282
 10
-30.87981908110808
 20
-8.730510606603695
 30
0.0
 10
-29.59527570300824
 20
-8.730510606603695
 30
0.0
 10
-28.33216924090697
 20
-8.570486067318098
 30
0.0
 10
-27.08639528444948
 20
-8.281076021717593
 30
0.0
  0
SPLINE
  5
228F
330
1F
100
AcDbEntity
  8
AM_0
100
AcDbSpline
210
0.0
220
0.0
230
1.0
 70
     8
 71
     3
 72
     8
 73
     4
 74
     0
 42
0.0000000001
 43
0.0000000001
 40
0.0
 40
0.0
 40
0.0
 40
0.0
 40
11.45610476152127
 40
11.45610476152127
 40
11.45610476152127
 40
11.45610476152127
 10
-13.85785927358353
 20
-8.730510606603491
 30
0.0
 10
-19.18089784964392
 20
-8.730510606603516
 30
0.0
 10
-24.13582102785936
 20
-5.982564169349044
 30
0.0
 10
-33.54648574777441
 20
0.0
 30
0.0
  0
SPLINE
  5
2290
330
1F
100
AcDbEntity
  8
AM_0
100
AcDbSpline
210
0.0
220
0.0
230
1.0
 70
     8
 71
     3
 72
     8
 73
     4
 74
     0
 42
0.0000000001
 43
0.0000000001
 40
0.0
 40
0.0
 40
0.0
 40
0.0
 40
9.068166399416787
 40
9.068166399416787
 40
9.068166399416787
 40
9.068166399416787
 10
-16.29090909090935
 20
-8.999999999999795
 30
0.0
 10
-20.50440054922421
 20
-8.99999999999982
 30
0.0
 10
-24.47494888095557
 20
-7.237557685683728
 30
0.0
 10
-35.97953556510005
 20
0.0
 30
0.0
  0
SPLINE
  5
2291
330
1F
100
AcDbEntity
  8
AM_0
100
AcDbSpline
210
0.0
220
0.0
230
1.0
 70
     8
 71
     3
 72
     8
 73
     4
 74
     0
 42
0.0000000001
 43
0.0000000001
 40
0.0
 40
0.0
 40
0.0
 40
0.0
 40
12.79333816032526
 40
12.79333816032526
 40
12.79333816032526
 40
12.79333816032526
 10
-11.05622523258017
 20
-8.311400106844633
 30
0.0
 10
-17.00060457980201
 20
-8.311400106844633
 30
0.0
 10
-22.52333542251935
 20
-5.014140372281795
 30
0.0
 10
-30.744851706771
 20
0.0
 30
0.0
  0
LINE
  5
2292
330
1F
100
AcDbEntity
  8
AM_0
100
AcDbLine
 10
0.0
 20
-9.0
 30
0.0
 11
0.0
 21
-1.8
 31
0.0
  0
LINE
  5
2293
330
1F
100
AcDbEntity
  8
AM_0
100
AcDbLine
 10
-0.1463636363636169
 20
-8.520194083719287
 30
0.0
 11
-0.1463636363636169
 21
-2.388416138213733
 31
0.0
  0
SPLINE
  5
2294
330
1F
100
AcDbEntity
  8
AM_0
100
AcDbSpline
210
0.0
220
0.0
230
1.0
 70
     8
 71
     3
 72
     8
 73
     4
 74
     0
 42
0.0000000001
 43
0.0000000001
 40
0.0
 40
0.0
 40
0.0
 40
0.0
 40
7.244998274671978
 40
7.244998274671978
 40
7.244998274671978
 40
7.244998274671978
 10
0.0
 20
-9.0
 30
0.0
 10
-6.732725669392133
 20
-9.0
 30
0.0
 10
-12.84515071348393
 20
-4.5
 30
0.0
 10
-18.95757575757573
 20
0.0
 30
0.0
  0
SPLINE
  5
2295
330
1F
100
AcDbEntity
  8
AM_0
100
AcDbSpline
210
0.0
220
0.0
230
1.0
 70
     8
 71
     3
 72
     8
 73
     4
 74
     0
 42
0.0000000001
 43
0.0000000001
 40
1.870660592686466
 40
1.870660592686466
 40
1.870660592686466
 40
1.870660592686466
 40
14.43901837670146
 40
14.43901837670146
 40
14.43901837670146
 40
14.43901837670146
 10
-0.1463636363636169
 20
-8.520194083719184
 30
0.0
 10
-5.862859733228049
 20
-7.599421101782661
 30
0.0
 10
-11.193692836739
 20
-3.799710550891279
 30
0.0
 10
-16.52452594024996
 20
0.0000000000001023
 30
0.0
  0
LINE
  5
2296
330
1F
100
AcDbEntity
  8
AM_0
100
AcDbLine
 10
-0.1463636363636169
 20
-8.520194083719184
 30
0.0
 11
-0.9548484848484878
 21
-7.19570997983144
 31
0.0
  0
SPLINE
  5
2297
330
1F
100
AcDbEntity
  8
AM_0
100
AcDbSpline
210
0.0
220
0.0
230
1.0
 70
     8
 71
     3
 72
     8
 73
     4
 74
     0
 42
0.0000000001
 43
0.0000000001
 40
0.0
 40
0.0
 40
0.0
 40
0.0
 40
5.095367048666267
 40
5.095367048666267
 40
5.095367048666267
 40
5.095367048666267
 10
-54.93711132267647
 20
9.000000000000051
 30
0.0
 10
-57.30465560791538
 20
9.000000000000051
 30
0.0
 10
-59.59549614202198
 20
8.443549037326949
 30
0.0
 10
-61.89976127588276
 20
7.477096559184963
 30
0.0
  0
LINE
  5
2298
330
1F
100
AcDbEntity
  8
AM_0
100
AcDbLine
 10
-80.50523391642494
 20
7.626667724299529
 30
0.0
 11
-80.0
 21
7.847068137290813
 31
0.0
  0
LINE
  5
2299
330
1F
100
AcDbEntity
  8
AM_0
100
AcDbLine
 10
-80.0313916284559
 20
6.446163093839749
 30
0.0
 11
-80.50523391642494
 21
7.626667724299529
 31
0.0
  0
ELLIPSE
  5
229A
330
1F
100
AcDbEntity
  8
AM_0
100
AcDbEllipse
 10
-87.6226899008534
 20
-23.65494929447645
 30
0.0
 11
0.0000000000000204
 21
21.06319056903307
 31
0.0
210
0.0
220
0.0
230
1.0
 40
0.7744107744107739
 41
-0.4587681791449505
 42
-0.2312569029271185
  0
LINE
  5
229B
330
1F
100
AcDbEntity
  8
AM_0
100
AcDbLine
 10
-80.00000000000001
 20
-1.293553227080173
 30
0.0
 11
-81.01469634722169
 21
-2.603835031970783
 31
0.0
  0
LINE
  5
229C
330
1F
100
AcDbEntity
  8
AM_0
100
AcDbLine
 10
-81.01469634722169
 20
-2.603835031970783
 30
0.0
 11
-80.00000000000012
 21
-4.97188987009012
 31
0.0
  0
SPLINE
  5
229D
330
1F
100
AcDbEntity
  8
AM_0
100
AcDbSpline
210
0.0
220
0.0
230
1.0
 70
     8
 71
     3
 72
     8
 73
     4
 74
     0
 42
0.0000000001
 43
0.0000000001
 40
5.360156850992435
 40
5.360156850992435
 40
5.360156850992435
 40
5.360156850992435
 40
14.48999654934396
 40
14.48999654934396
 40
14.48999654934396
 40
14.48999654934396
 10
-83.06587942257284
 20
7.645692205207171
 30
0.0
 10
-77.83794693415384
 20
5.932297960192397
 30
0.0
 10
-73.87476464255667
 20
2.835354618800275
 30
0.0
 10
-70.02345518014866
 20
0.0000000000000256
 30
0.0
  0
SPLINE
  5
229E
330
1F
100
AcDbEntity
  8
AM_0
100
AcDbSpline
210
0.0
220
0.0
230
1.0
 70
     8
 71
     3
 72
     8
 73
     4
 74
     0
 42
0.0000000001
 43
0.0000000001
 40
4.760897075498665
 40
4.760897075498665
 40
4.760897075498665
 40
4.760897075498665
 40
14.43901837670146
 40
14.43901837670146
 40
14.43901837670146
 40
14.43901837670146
 10
-80.50523391642494
 20
7.626667724299529
 30
0.0
 10
-75.7668694259198
 20
5.930018703951552
 30
0.0
 10
-71.69535290639647
 20
2.92592399523798
 30
0.0
 10
-67.59040536282289
 20
-0.0000000000000767
 30
0.0
  0
SPLINE
  5
229F
330
1F
100
AcDbEntity
  8
AM_0
100
AcDbSpline
210
0.0
220
0.0
230
1.0
 70
     8
 71
     3
 72
     8
 73
     4
 74
     0
 42
0.0000000001
 43
0.0000000001
 40
0.0
 40
0.0
 40
0.0
 40
0.0
 40
4.557835794433954
 40
4.557835794433954
 40
4.557835794433954
 40
4.557835794433954
 10
-71.95907113020078
 20
9.000000000000076
 30
0.0
 10
-74.07685341852364
 20
9.000000000000076
 30
0.0
 10
-76.31007691802854
 20
8.703305231945206
 30
0.0
 10
-78.55541664646705
 20
7.432132378252805
 30
0.0
  0
SPLINE
  5
22A0
330
1F
100
AcDbEntity
  8
AM_0
100
AcDbSpline
210
0.0
220
0.0
230
1.0
 70
     8
 71
     3
 72
     8
 73
     4
 74
     0
 42
0.0000000001
 43
0.0000000001
 40
0.0
 40
0.0
 40
0.0
 40
0.0
 40
7.244998274671977
 40
7.244998274671977
 40
7.244998274671977
 40
7.244998274671977
 10
-71.95907113020064
 20
9.000000000000179
 30
0.0
 10
-65.2263454608085
 20
9.000000000000179
 30
0.0
 10
-59.11392041671668
 20
4.500000000000179
 30
0.0
 10
-53.00149537262488
 20
0.0000000000002046
 30
0.0
  0
SPLINE
  5
22A1
330
1F
100
AcDbEntity
  8
AM_0
100
AcDbSpline
210
0.0
220
0.0
230
1.0
 70
     8
 71
     3
 72
     8
 73
     4
 74
     0
 42
0.0000000001
 43
0.0000000001
 40
0.7142832446738512
 40
0.7142832446738512
 40
0.7142832446738512
 40
0.7142832446738512
 40
9.361146747480315
 40
9.361146747480315
 40
9.361146747480315
 40
9.361146747480315
 10
-65.73259751606937
 20
8.2810760216837
 30
0.0
 10
-57.39981013757418
 20
7.052466276965981
 30
0.0
 10
-51.58821784399596
 20
2.898602746949183
 30
0.0
 10
-47.7668115142953
 20
0.0
 30
0.0
  0
SPLINE
  5
22A2
330
1F
100
AcDbEntity
  8
AM_0
100
AcDbSpline
210
0.0
220
0.0
230
1.0
 70
     8
 71
     3
 72
     8
 73
     4
 74
     0
 42
0.0000000001
 43
0.0000000001
 40
0.3581103616548037
 40
0.3581103616548037
 40
0.3581103616548037
 40
0.3581103616548037
 40
12.40023413887867
 40
12.40023413887867
 40
12.40023413887867
 40
12.40023413887867
 10
-69.02790735955889
 20
8.722521761134791
 30
0.0
 10
-62.63703691886898
 20
8.25716571135174
 30
0.0
 10
-56.22244884149135
 20
4.752586105175351
 30
0.0
 10
-50.5684455552986
 20
-0.0000000000000767
 30
0.0
  0
SPLINE
  5
22A3
330
1F
100
AcDbEntity
  8
AM_0
100
AcDbSpline
210
0.0
220
0.0
230
1.0
 70
     8
 71
     3
 72
     8
 73
     4
 74
     0
 42
0.0000000001
 43
0.0000000001
 40
1.090140354492627
 40
1.090140354492627
 40
1.090140354492627
 40
1.090140354492627
 40
14.36247867694493
 40
14.36247867694493
 40
14.36247867694493
 40
14.36247867694493
 10
-87.45193700979191
 20
8.999999999999872
 30
0.0
 10
-75.76349849356862
 20
8.15990746801283
 30
0.0
 10
-70.46462803480597
 20
3.84027425323126
 30
0.0
 10
-64.78877132181948
 20
-0.0000000000000767
 30
0.0
  0
ELLIPSE
  5
22A4
330
1F
100
AcDbEntity
  8
AM_0
100
AcDbEllipse
 10
-86.09360761455151
 20
-6.871257076243607
 30
0.0
 11
0.0000000000000025
 21
15.08140992922811
 31
0.0
210
0.0
220
0.0
230
1.0
 40
0.740740740740735
 41
-0.2744573092303522
 42
-0.0464778851483769
  0
ELLIPSE
  5
22A5
330
1F
100
AcDbEntity
  8
AM_0
100
AcDbEllipse
 10
-85.80774419138396
 20
-5.135986432926687
 30
0.0
 11
0.0000000000000253
 21
13.33356912418498
 31
0.0
210
0.0
220
0.0
230
1.0
 40
0.7407407407407442
 41
-0.0236105820360688
 42
0.069913488760021
  0
ELLIPSE
  5
22A6
330
1F
100
AcDbEntity
  8
AM_0
100
AcDbEllipse
 10
-86.24890296016749
 20
2.997443640942122
 30
0.0
 11
-0.0000000000000375
 21
5.178469516192645
 31
0.0
210
0.0
220
0.0
230
1.0
 40
0.7407407407407322
 41
0.0649050273208471
 42
0.2818753373284755
  0
ELLIPSE
  5
22A7
330
1F
100
AcDbEntity
  8
AM_0
100
AcDbEllipse
 10
-87.29450464018329
 20
7.868022818419945
 30
0.0
 11
0.0000000000000443
 21
0.1074740881513094
 31
0.0
210
0.0
220
0.0
230
1.0
 40
0.7407407407407166
 41
0.2719407122502324
 42
1.93441839839664
  0
ELLIPSE
  5
22A8
330
1F
100
AcDbEntity
  8
AM_0
100
AcDbEllipse
 10
-86.93302349617814
 20
8.078990204409857
 30
0.0
 11
0.0000000000003106
 21
0.6390350046123548
 31
0.0
210
0.0
220
0.0
230
1.0
 40
0.7407407407408828
 41
1.9713738134823
 42
2.242223107841502
  0
ELLIPSE
  5
22A9
330
1F
100
AcDbEntity
  8
AM_0
100
AcDbEllipse
 10
-51.01185057177392
 20
46.80263211211676
 30
0.0
 11
0.0000000000417232
 21
62.69665217388782
 31
0.0
210
0.0
220
0.0
230
1.0
 40
0.7407407407407958
 41
2.244616404321996
 42
2.271962905899375
  0
ELLIPSE
  5
22AA
330
1F
100
AcDbEntity
  8
AM_0
100
AcDbEllipse
 10
-28.83200778257183
 20
72.11227721429978
 30
0.0
 11
0.0000000000835038
 21
101.9031358675898
 31
0.0
210
0.0
220
0.0
230
1.0
 40
0.740740740740792
 41
2.27218344278091
 42
2.296769164365046
  0
ELLIPSE
  5
22AB
330
1F
100
AcDbEntity
  8
AM_0
100
AcDbEllipse
 10
46.43143618321523
 20
162.3483755625488
 30
0.0
 11
0.000000000011588
 21
237.7937573601244
 31
0.0
210
0.0
220
0.0
230
1.0
 40
0.7407407407407422
 41
2.296900205350871
 42
2.313001663165284
  0
ELLIPSE
  5
22AC
330
1F
100
AcDbEntity
  8
AM_0
100
AcDbEllipse
 10
-79.85797790458767
 20
5.984129209664318
 30
0.0
 11
-0.000000000000178
 21
6.456645337622032
 31
0.0
210
0.0
220
0.0
230
1.0
 40
0.740740740740741
 41
2.312989308184983
 42
2.550375734847211
  0
ELLIPSE
  5
22AD
330
1F
100
AcDbEntity
  8
AM_0
100
AcDbEllipse
 10
-69.84291418749987
 20
26.00001785007476
 30
0.0
 11
0.0000000000020836
 21
30.61102953011301
 31
0.0
210
0.0
220
0.0
230
1.0
 40
0.7407407407407227
 41
2.54811696718981
 42
2.657335277493669
  0
SPLINE
  5
22AE
330
1F
100
AcDbEntity
  8
AM_0
100
AcDbSpline
210
0.0
220
0.0
230
1.0
 70
     8
 71
     3
 72
     8
 73
     4
 74
     0
 42
0.0000000001
 43
0.0000000001
 40
0.0
 40
0.0
 40
0.0
 40
0.0
 40
2.130230809022907
 40
2.130230809022907
 40
2.130230809022907
 40
2.130230809022907
 10
-50.33482870595819
 20
-9.0
 30
0.0
 10
-49.34502449166469
 20
-9.0
 30
0.0
 10
-48.36862688743194
 20
-8.902741118076301
 30
0.0
 10
-47.40366493531673
 20
-8.722521761134613
 30
0.0
  0
SPLINE
  5
22AF
330
1F
100
AcDbEntity
  8
AM_0
100
AcDbSpline
210
0.0
220
0.0
230
1.0
 70
     8
 71
     3
 72
     8
 73
     4
 74
     0
 42
0.0000000001
 43
0.0000000001
 40
0.0
 40
0.0
 40
0.0
 40
0.0
 40
2.764560748519282
 40
2.764560748519282
 40
2.764560748519282
 40
2.764560748519282
 10
-47.90177888863236
 20
-8.730510606603695
 30
0.0
 10
-46.61723551053252
 20
-8.730510606603695
 30
0.0
 10
-45.35412904843125
 20
-8.570486067318098
 30
0.0
 10
-44.10835509197376
 20
-8.281076021717593
 30
0.0
  0
SPLINE
  5
22B0
330
1F
100
AcDbEntity
  8
AM_0
100
AcDbSpline
210
0.0
220
0.0
230
1.0
 70
     8
 71
     3
 72
     8
 73
     4
 74
     0
 42
0.0000000001
 43
0.0000000001
 40
0.0
 40
0.0
 40
0.0
 40
0.0
 40
3.872359523417654
 40
3.872359523417654
 40
3.872359523417654
 40
3.872359523417654
 10
-62.12210465515387
 20
-8.311400106844837
 30
0.0
 10
-60.32282649275778
 20
-8.311400106844837
 30
0.0
 10
-58.56217917013236
 20
-8.009309832297587
 30
0.0
 10
-56.82974718006272
 20
-7.486577769769115
 30
0.0
  0
SPLINE
  5
22B1
330
1F
100
AcDbEntity
  8
AM_0
100
AcDbSpline
210
0.0
220
0.0
230
1.0
 70
     8
 71
     3
 72
     8
 73
     4
 74
     0
 42
0.0000000001
 43
0.0000000001
 40
0.0
 40
0.0
 40
0.0
 40
0.0
 40
2.130230809022907
 40
2.130230809022907
 40
2.130230809022907
 40
2.130230809022907
 10
-67.35678851348305
 20
-9.0
 30
0.0
 10
-66.36698429918955
 20
-9.0
 30
0.0
 10
-65.3905866949568
 20
-8.902741118076301
 30
0.0
 10
-64.42562474284159
 20
-8.722521761134613
 30
0.0
  0
SPLINE
  5
22B2
330
1F
100
AcDbEntity
  8
AM_0
100
AcDbSpline
210
0.0
220
0.0
230
1.0
 70
     8
 71
     3
 72
     8
 73
     4
 74
     0
 42
0.0000000001
 43
0.0000000001
 40
0.0
 40
0.0
 40
0.0
 40
0.0
 40
2.764560748519282
 40
2.764560748519282
 40
2.764560748519282
 40
2.764560748519282
 10
-64.92373869615723
 20
-8.730510606603695
 30
0.0
 10
-63.63919531805739
 20
-8.730510606603695
 30
0.0
 10
-62.37608885595612
 20
-8.570486067318098
 30
0.0
 10
-61.13031489949863
 20
-8.281076021717593
 30
0.0
  0
ELLIPSE
  5
22B3
330
1F
100
AcDbEntity
  8
AM_0
100
AcDbEllipse
 10
-87.63326485551351
 20
8.415335922597227
 30
0.0
 11
0.8504475379000027
 21
17.41881432316447
 31
0.0
210
0.0
220
0.0
230
1.0
 40
0.7280937395168285
 41
3.21789135753954
 42
3.5079596906688
  0
SPLINE
  5
22B4
330
1F
100
AcDbEntity
  8
AM_0
100
AcDbSpline
210
0.0
220
0.0
230
1.0
 70
     8
 71
     3
 72
     8
 73
     4
 74
     0
 42
0.0000000001
 43
0.0000000001
 40
0.0
 40
0.0
 40
0.0
 40
0.0
 40
11.45610476152127
 40
11.45610476152127
 40
11.45610476152127
 40
11.45610476152127
 10
-64.92373869615723
 20
-8.730510606603491
 30
0.0
 10
-70.24677727221763
 20
-8.730510606603516
 30
0.0
 10
-75.20170045043304
 20
-5.982564169349044
 30
0.0
 10
-81.01469634722169
 20
-2.603835031970783
 30
0.0
  0
SPLINE
  5
22B5
330
1F
100
AcDbEntity
  8
AM_0
100
AcDbSpline
210
0.0
220
0.0
230
1.0
 70
     8
 71
     3
 72
     8
 73
     4
 74
     0
 42
0.0000000001
 43
0.0000000001
 40
0.0
 40
0.0
 40
0.0
 40
0.0
 40
12.79333816032526
 40
12.79333816032526
 40
12.79333816032526
 40
12.79333816032526
 10
-62.12210465515387
 20
-8.311400106844633
 30
0.0
 10
-68.06648400237572
 20
-8.311400106844633
 30
0.0
 10
-73.58921484509304
 20
-5.014140372281795
 30
0.0
 10
-80.39921275590691
 20
-1.091383746517968
 30
0.0
  0
SPLINE
  5
22B6
330
1F
100
AcDbEntity
  8
AM_0
100
AcDbSpline
210
0.0
220
0.0
230
1.0
 70
     8
 71
     3
 72
     8
 73
     4
 74
     0
 42
0.0000000001
 43
0.0000000001
 40
0.0
 40
0.0
 40
0.0
 40
0.0
 40
11.45610476152127
 40
11.45610476152127
 40
11.45610476152127
 40
11.45610476152127
 10
-47.90177888863214
 20
-8.730510606603491
 30
0.0
 10
-53.22481746469254
 20
-8.730510606603491
 30
0.0
 10
-58.17974064290797
 20
-5.982564169349018
 30
0.0
 10
-67.59040536282302
 20
0.0000000000000256
 30
0.0
  0
SPLINE
  5
22B7
330
1F
100
AcDbEntity
  8
AM_0
100
AcDbSpline
210
0.0
220
0.0
230
1.0
 70
     8
 71
     3
 72
     8
 73
     4
 74
     0
 42
0.0000000001
 43
0.0000000001
 40
0.0
 40
0.0
 40
0.0
 40
0.0
 40
9.068166399416787
 40
9.068166399416787
 40
9.068166399416787
 40
9.068166399416787
 10
-50.33482870595797
 20
-8.999999999999795
 30
0.0
 10
-54.54832016427282
 20
-8.999999999999795
 30
0.0
 10
-58.51886849600418
 20
-7.237557685683703
 30
0.0
 10
-70.02345518014866
 20
0.0000000000000256
 30
0.0
  0
SPLINE
  5
22B8
330
1F
100
AcDbEntity
  8
AM_0
100
AcDbSpline
210
0.0
220
0.0
230
1.0
 70
     8
 71
     3
 72
     8
 73
     4
 74
     0
 42
0.0000000001
 43
0.0000000001
 40
0.0
 40
0.0
 40
0.0
 40
0.0
 40
9.068166399416787
 40
9.068166399416787
 40
9.068166399416787
 40
9.068166399416787
 10
-67.35678851348305
 20
-8.999999999999795
 30
0.0
 10
-71.5702799717979
 20
-8.99999999999982
 30
0.0
 10
-75.54082830352925
 20
-7.237557685683728
 30
0.0
 10
-80.39921275590691
 20
-4.769720389528248
 30
0.0
  0
POLYLINE
  5
22B9
330
1F
100
AcDbEntity
  8
AM_0
100
AcDb2dPolyline
 66
     1
 10
0.0
 20
0.0
 30
0.0
 70
     2
  0
VERTEX
  5
22BA
330
22B9
100
AcDbEntity
  8
AM_0
100
AcDbVertex
100
AcDb2dVertex
 10
-83.88406124075519
 20
-8.069292975102928
 30
0.0
 42
-0.0230918143391583
  0
VERTEX
  5
22BB
330
22B9
100
AcDbEntity
  8
AM_0
100
AcDbVertex
100
AcDb2dVertex
 10
-84.68769203723736
 20
-7.806300116638112
 30
0.0
 42
-0.0355587143075394
 70
     1
  0
VERTEX
  5
22BC
330
22B9
100
AcDbEntity
  8
AM_0
100
AcDbVertex
100
AcDb2dVertex
 10
-85.19087942257336
 20
-7.557661155133541
 30
0.0
 42
-0.0216088548285507
  0
VERTEX
  5
22BD
330
22B9
100
AcDbEntity
  8
AM_0
100
AcDbVertex
100
AcDb2dVertex
 10
-86.36488894532353
 20
-6.768863972400038
 30
0.0
 42
-0.0414110700152503
 70
     1
  0
VERTEX
  5
22BE
330
22B9
100
AcDbEntity
  8
AM_0
100
AcDbVertex
100
AcDb2dVertex
 10
-86.93330366499761
 20
-6.260487586779214
 30
0.0
 42
-0.0653031023268945
  0
VERTEX
  5
22BF
330
22B9
100
AcDbEntity
  8
AM_0
100
AcDbVertex
100
AcDb2dVertex
 10
-87.29945712736443
 20
-5.754832415634825
 30
0.0
 42
-0.1569363594221426
 70
     1
  0
VERTEX
  5
22C0
330
22B9
100
AcDbEntity
  8
AM_0
100
AcDbVertex
100
AcDb2dVertex
 10
-87.36890972560368
 20
-5.474945838394222
 30
0.0
 42
-0.1617045000652558
  0
VERTEX
  5
22C1
330
22B9
100
AcDbEntity
  8
AM_0
100
AcDbVertex
100
AcDb2dVertex
 10
-87.2982574471534
 20
-5.20135644143919
 30
0.0
 42
-0.0680210806811403
 70
     1
  0
VERTEX
  5
22C2
330
22B9
100
AcDbEntity
  8
AM_0
100
AcDbVertex
100
AcDb2dVertex
 10
-86.93330366499761
 20
-4.723389280909145
 30
0.0
 42
-0.0450747416233525
  0
VERTEX
  5
22C3
330
22B9
100
AcDbEntity
  8
AM_0
100
AcDbVertex
100
AcDb2dVertex
 10
-86.37023926135203
 20
-4.26089484838684
 30
0.0
 42
-0.0231467319857815
 70
     1
  0
VERTEX
  5
22C4
330
22B9
100
AcDbEntity
  8
AM_0
100
AcDbVertex
100
AcDb2dVertex
 10
-85.19087942257336
 20
-3.562156476154734
 30
0.0
 42
-0.0364444523572374
  0
VERTEX
  5
22C5
330
22B9
100
AcDbEntity
  8
AM_0
100
AcDbVertex
100
AcDb2dVertex
 10
-84.67868863950767
 20
-3.349549511103464
 30
0.0
 42
-0.0242139410122645
 70
     1
  0
VERTEX
  5
22C6
330
22B9
100
AcDbEntity
  8
AM_0
100
AcDbVertex
100
AcDb2dVertex
 10
-83.88406124075519
 20
-3.152480228885246
 30
0.0
  0
SEQEND
  5
22C7
330
22B9
100
AcDbEntity
  8
AM_0
  0
SPLINE
  5
22C8
330
1F
100
AcDbEntity
  8
AM_0
100
AcDbSpline
210
0.0
220
0.0
230
1.0
 70
     8
 71
     3
 72
     8
 73
     4
 74
     0
 42
0.0000000001
 43
0.0000000001
 40
0.0
 40
0.0
 40
0.0
 40
0.0
 40
4.451443990518192
 40
4.451443990518192
 40
4.451443990518192
 40
4.451443990518192
 10
-83.88406124075519
 20
-8.069292975102928
 30
0.0
 10
-80.34466603329658
 20
-8.046137960613657
 30
0.0
 10
-78.32736701406478
 20
-7.646940999414209
 30
0.0
 10
-75.77386177286655
 20
-6.972272441831068
 30
0.0
  0
SPLINE
  5
22C9
330
1F
100
AcDbEntity
  8
AM_0
100
AcDbSpline
210
0.0
220
0.0
230
1.0
 70
     8
 71
     3
 72
     8
 73
     4
 74
     0
 42
0.0000000001
 43
0.0000000001
 40
0.0
 40
0.0
 40
0.0
 40
0.0
 40
12.79333816032526
 40
12.79333816032526
 40
12.79333816032526
 40
12.79333816032526
 10
-45.10014484762878
 20
-8.311400106844633
 30
0.0
 10
-51.04452419485062
 20
-8.311400106844633
 30
0.0
 10
-56.56725503756797
 20
-5.01414037228177
 30
0.0
 10
-64.78877132181961
 20
0.0000000000000256
 30
0.0
  0
SPLINE
  5
22CA
330
1F
100
AcDbEntity
  8
AM_0
100
AcDbSpline
210
0.0
220
0.0
230
1.0
 70
     8
 71
     3
 72
     8
 73
     4
 74
     0
 42
0.0000000001
 43
0.0000000001
 40
0.0
 40
0.0
 40
0.0
 40
0.0
 40
5.095367048666426
 40
5.095367048666426
 40
5.095367048666426
 40
5.095367048666426
 10
-37.91515151515204
 20
9.000000000000154
 30
0.0
 10
-40.282695800391
 20
9.000000000000154
 30
0.0
 10
-42.57353633449768
 20
8.443549037327001
 30
0.0
 10
-44.87780146835854
 20
7.477096559184963
 30
0.0
  0
SPLINE
  5
22CB
330
1F
100
AcDbEntity
  8
AM_0
100
AcDbSpline
210
0.0
220
0.0
230
1.0
 70
     8
 71
     3
 72
     8
 73
     4
 74
     0
 42
0.0000000001
 43
0.0000000001
 40
0.7142832446738512
 40
0.7142832446738512
 40
0.7142832446738512
 40
0.7142832446738512
 40
9.361146747480315
 40
9.361146747480315
 40
9.361146747480315
 40
9.361146747480315
 10
-48.71063770854506
 20
8.281076021683674
 30
0.0
 10
-40.37785033004989
 20
7.052466276965981
 30
0.0
 10
-34.56625803647166
 20
2.898602746949183
 30
0.0
 10
-30.744851706771
 20
0.0
 30
0.0
  0
SPLINE
  5
22CC
330
1F
100
AcDbEntity
  8
AM_0
100
AcDbSpline
210
0.0
220
0.0
230
1.0
 70
     8
 71
     3
 72
     8
 73
     4
 74
     0
 42
0.0000000001
 43
0.0000000001
 40
0.0
 40
0.0
 40
0.0
 40
0.0
 40
3.872359523417452
 40
3.872359523417452
 40
3.872359523417452
 40
3.872359523417452
 10
-45.1001448476289
 20
-8.31140010684494
 30
0.0
 10
-43.3008666852329
 20
-8.31140010684494
 30
0.0
 10
-41.54021936260756
 20
-8.009309832297715
 30
0.0
 10
-39.80778737253801
 20
-7.486577769769269
 30
0.0
  0
SPLINE
  5
22CD
330
1F
100
AcDbEntity
  8
AM_0
100
AcDbSpline
210
0.0
220
0.0
230
1.0
 70
     8
 71
     3
 72
     8
 73
     4
 74
     0
 42
0.0000000001
 43
0.0000000001
 40
0.0
 40
0.0
 40
0.0
 40
0.0
 40
11.45610476152127
 40
11.45610476152127
 40
11.45610476152127
 40
11.45610476152127
 10
-30.87981908110784
 20
-8.730510606603491
 30
0.0
 10
-36.20285765716824
 20
-8.730510606603491
 30
0.0
 10
-41.15778083538367
 20
-5.982564169349018
 30
0.0
 10
-50.5684455552987
 20
0.0
 30
0.0
  0
SPLINE
  5
22CE
330
1F
100
AcDbEntity
  8
AM_0
100
AcDbSpline
210
0.0
220
0.0
230
1.0
 70
     8
 71
     3
 72
     8
 73
     4
 74
     0
 42
0.0000000001
 43
0.0000000001
 40
0.0
 40
0.0
 40
0.0
 40
0.0
 40
12.79333816032526
 40
12.79333816032526
 40
12.79333816032526
 40
12.79333816032526
 10
-28.07818504010448
 20
-8.311400106844633
 30
0.0
 10
-34.02256438732632
 20
-8.311400106844633
 30
0.0
 10
-39.54529523004367
 20
-5.01414037228177
 30
0.0
 10
-47.7668115142953
 20
0.0
 30
0.0
  0
SPLINE
  5
22CF
330
1F
100
AcDbEntity
  8
AM_0
100
AcDbSpline
210
0.0
220
0.0
230
1.0
 70
     8
 71
     3
 72
     8
 73
     4
 74
     0
 42
0.0000000001
 43
0.0000000001
 40
0.3581103616548037
 40
0.3581103616548037
 40
0.3581103616548037
 40
0.3581103616548037
 40
12.40023413887867
 40
12.40023413887867
 40
12.40023413887867
 40
12.40023413887867
 10
-52.00594755203458
 20
8.722521761134766
 30
0.0
 10
-45.61507711134468
 20
8.25716571135174
 30
0.0
 10
-39.20048903396705
 20
4.752586105175351
 30
0.0
 10
-33.54648574777428
 20
-0.0000000000001023
 30
0.0
  0
SPLINE
  5
22D0
330
1F
100
AcDbEntity
  8
AM_0
100
AcDbSpline
210
0.0
220
0.0
230
1.0
 70
     8
 71
     3
 72
     8
 73
     4
 74
     0
 42
0.0000000001
 43
0.0000000001
 40
0.0
 40
0.0
 40
0.0
 40
0.0
 40
7.244998274671977
 40
7.244998274671977
 40
7.244998274671977
 40
7.244998274671977
 10
-54.93711132267632
 20
9.000000000000154
 30
0.0
 10
-48.20438565328419
 20
9.000000000000154
 30
0.0
 10
-42.09196060919237
 20
4.500000000000179
 30
0.0
 10
-35.97953556510058
 20
0.0000000000001791
 30
0.0
  0
SPLINE
  5
22D1
330
1F
100
AcDbEntity
  8
AM_0
100
AcDbSpline
210
0.0
220
0.0
230
1.0
 70
     8
 71
     3
 72
     8
 73
     4
 74
     0
 42
0.0000000001
 43
0.0000000001
 40
0.0
 40
0.0
 40
0.0
 40
0.0
 40
9.068166399416787
 40
9.068166399416787
 40
9.068166399416787
 40
9.068166399416787
 10
-33.31286889843367
 20
-8.999999999999795
 30
0.0
 10
-37.52636035674852
 20
-8.999999999999795
 30
0.0
 10
-41.49690868847989
 20
-7.237557685683703
 30
0.0
 10
-53.00149537262434
 20
0.0
 30
0.0
  0
VIEWPORT
  5
110
330
101
100
AcDbEntity
 67
     1
  8
0
100
AcDbViewport
 10
420.5
 20
297.0
 30
0.0
 40
948.9782706766916
 41
628.452
 68
     1
 69
     1
1001
ACAD
1000
MVIEW
1002
{
1070
    16
1010
0.0
1020
0.0
1030
0.0
1010
0.0
1020
0.0
1030
1.0
1040
0.0
1040
628.452
1040
420.5
1040
297.0
1040
50.0
1040
0.0
1040
0.0
1070
     0
1070
   100
1070
     1
1070
     1
1070
     0
1070
     0
1070
     0
1070
     0
1040
0.0
1040
0.0
1040
0.0
1040
10.0
1040
10.0
1040
10.0
1040
10.0
1070
     0
1002
{
1002
}
1002
}
  0
ENDSEC
  0
SECTION
  2
OBJECTS
  0
DICTIONARY
  5
C
330
0
100
AcDbDictionary
  3
ACAD_GROUP
350
D
  3
ACAD_LAYOUT
350
1A
  3
ACAD_MLINESTYLE
350
17
  3
ACAD_PLOTSETTINGS
350
19
  3
ACAD_PLOTSTYLENAME
350
E
  3
ACDBVARIABLEDICTIONARY
350
34
  3
ACMDICTIONARY
350
43
  3
AMG
350
2B
  3
AMGSNAPSETTINGS
350
6E
  3
DWGPROPS
350
22FA
  3
ACDBHEADERROUNDTRIPXREC
350
2306
  0
DICTIONARY
  5
74
330
1F
100
AcDbDictionary
280
     1
  3
ACAD_INDEX
360
22FC
  3
ACAD_LAYOUTSELFREF
360
2329
  0
DICTIONARY
  5
232E
330
101
100
AcDbDictionary
280
     1
  3
ACAD_LAYOUTSELFREF
360
232F
  0
DICTIONARY
  5
D
102
{ACAD_REACTORS
330
C
102
}
330
C
100
AcDbDictionary
  0
DICTIONARY
  5
1A
102
{ACAD_REACTORS
330
C
102
}
330
C
100
AcDbDictionary
  0
DICTIONARY
  5
17
102
{ACAD_REACTORS
330
C
102
}
330
C
100
AcDbDictionary
  3
STANDARD
350
18
  0
DICTIONARY
  5
19
102
{ACAD_REACTORS
330
C
102
}
330
C
100
AcDbDictionary
  0
ACDBDICTIONARYWDFLT
  5
E
102
{ACAD_REACTORS
330
C
102
}
330
C
100
AcDbDictionary
281
     1
  3
Normal
350
F
100
AcDbDictionaryWithDefault
340
F
  0
DICTIONARY
  5
34
102
{ACAD_REACTORS
330
C
102
}
330
C
100
AcDbDictionary
  3
INDEXCTL
350
35
  3
SORTENTS
350
B5E
  0
DICTIONARY
  5
43
102
{ACAD_REACTORS
330
C
102
}
330
C
100
AcDbDictionary
  3
ACMSTDDICTIONARY
350
260
  0
DICTIONARY
  5
2B
102
{ACAD_REACTORS
330
C
102
}
330
C
100
AcDbDictionary
  3
ACMGSETTINGS
350
2C
  0
DICTIONARY
  5
6E
102
{ACAD_REACTORS
330
C
102
}
330
C
100
AcDbDictionary
  0
XRECORD
  5
22FA
102
{ACAD_REACTORS
330
C
102
}
330
C
100
AcDbXrecord
  1
DWGPROPS COOKIE
  2

  3

  4

  6

  7

  8

  9

300
AmdtFileType=82
301
=
302
=
303
=
304
=
305
=
306
=
307
=
308
=
309
=
 40
0.0616190972222222
 41
2452836.771637361
 42
2453045.466767512
  1

 90
        1
  0
DICTIONARY
  5
2306
102
{ACAD_REACTORS
330
C
102
}
330
C
100
AcDbDictionary
  3
TSTACKALIGN
350
2307
  3
TSTACKSIZE
350
2308
  3
HYPERLINKBASE
350
2309
  3
STYLESHEET
350
230A
  3
LAYOUTDICT
350
230B
  3
PLOTSETDICT
350
230C
  3
PLOTSTYLNAMDICT
350
230D
  3
LWETCUNION
350
230E
  3
INSUNITS
350
230F
  3
CEPSNTYPE
350
2310
  3
FINGERPRINTGUID
350
2311
  3
VERSIONGUID
350
2312
  3
PSVPSCALE
350
2313
  3
DIMSTYLEDATA
350
2314
  3
PUCSORTHOREF
350
2315
  3
PUCSORTHOVIEW
350
2316
  3
PUCSBASE
350
2317
  3
PUCSORGTOP
350
2318
  3
PUCSORGBOTTOM
350
2319
  3
PUCSORGLEFT
350
231A
  3
PUCSORGRIGHT
350
231B
  3
PUCSORGFRONT
350
231C
  3
PUCSORGBACK
350
231D
  3
UCSORTHOREF
350
231E
  3
UCSORTHOVIEW
350
231F
  3
UCSBASE
350
2320
  3
UCSORGTOP
350
2321
  3
UCSORGBOTTOM
350
2322
  3
UCSORGLEFT
350
2323
  3
UCSORGRIGHT
350
2324
  3
UCSORGFRONT
350
2325
  3
UCSORGBACK
350
2326
  0
DICTIONARY
  5
22FC
102
{ACAD_REACTORS
330
74
102
}
330
74
100
AcDbDictionary
  3
*A1
350
22FD
  0
XRECORD
  5
2329
102
{ACAD_REACTORS
330
74
102
}
330
74
100
AcDbXrecord
340
1F
  0
XRECORD
  5
232F
102
{ACAD_REACTORS
330
232E
102
}
330
232E
100
AcDbXrecord
340
101
  0
MLINESTYLE
  5
18
102
{ACAD_REACTORS
330
17
102
}
330
17
100
AcDbMlineStyle
  2
STANDARD
 70
     0
  3

 62
   256
 51
90.0
 52
90.0
 71
     2
 49
0.5
 62
   256
  6
BYLAYER
 49
-0.5
 62
   256
  6
BYLAYER
  0
ACDBPLACEHOLDER
  5
F
102
{ACAD_REACTORS
330
E
102
}
330
E
100
AcDbPlaceHolder
280
     0
  0
DICTIONARYVAR
  5
35
102
{ACAD_REACTORS
330
34
102
}
330
34
100
DictionaryVariables
280
     0
  1
1
  0
DICTIONARYVAR
  5
B5E
102
{ACAD_REACTORS
330
34
102
}
330
34
100
DictionaryVariables
280
     0
  1
96
  0
DICTIONARY
  5
260
102
{ACAD_REACTORS
330
43
102
}
330
43
100
AcDbDictionary
  0
DICTIONARY
  5
2C
102
{ACAD_REACTORS
330
2B
102
}
330
2B
100
AcDbDictionary
  3
DWGSETTINGS
350
2D
  0
XRECORD
  5
2307
102
{ACAD_REACTORS
330
2306
102
}
330
2306
100
AcDbXrecord
 90
        1
  0
XRECORD
  5
2308
102
{ACAD_REACTORS
330
2306
102
}
330
2306
100
AcDbXrecord
 90
       70
  0
XRECORD
  5
2309
102
{ACAD_REACTORS
330
2306
102
}
330
2306
100
AcDbXrecord
  1

  0
XRECORD
  5
230A
102
{ACAD_REACTORS
330
2306
102
}
330
2306
100
AcDbXrecord
  1
ASAMI.ctb
  0
XRECORD
  5
230B
102
{ACAD_REACTORS
330
2306
102
}
330
2306
100
AcDbXrecord
340
1A
  0
XRECORD
  5
230C
102
{ACAD_REACTORS
330
2306
102
}
330
2306
100
AcDbXrecord
340
19
  0
XRECORD
  5
230D
102
{ACAD_REACTORS
330
2306
102
}
330
2306
100
AcDbXrecord
340
E
  0
XRECORD
  5
230E
102
{ACAD_REACTORS
330
2306
102
}
330
2306
100
AcDbXrecord
 90
    10781
  0
XRECORD
  5
230F
102
{ACAD_REACTORS
330
2306
102
}
330
2306
100
AcDbXrecord
 90
        4
  0
XRECORD
  5
2310
102
{ACAD_REACTORS
330
2306
102
}
330
2306
100
AcDbXrecord
 90
        0
  0
XRECORD
  5
2311
102
{ACAD_REACTORS
330
2306
102
}
330
2306
100
AcDbXrecord
  1
{AFB28963-8C59-40AE-9337-C84526B81ACE}
  0
XRECORD
  5
2312
102
{ACAD_REACTORS
330
2306
102
}
330
2306
100
AcDbXrecord
  1
{2CAEC32F-054C-4996-BCAA-FA7D569157BD}
  0
XRECORD
  5
2313
102
{ACAD_REACTORS
330
2306
102
}
330
2306
100
AcDbXrecord
 40
0.0
  0
XRECORD
  5
2314
102
{ACAD_REACTORS
330
2306
102
}
330
2306
100
AcDbXrecord
1000
DSTYLE
1002
{
1070
    79
 70
     2
1070
   341
340
59
1070
   342
340
59
1070
   371
 70
    -1
1070
   372
 70
    -1
1002
}
  0
XRECORD
  5
2315
102
{ACAD_REACTORS
330
2306
102
}
330
2306
100
AcDbXrecord
340
0
  0
XRECORD
  5
2316
102
{ACAD_REACTORS
330
2306
102
}
330
2306
100
AcDbXrecord
 70
     0
  0
XRECORD
  5
2317
102
{ACAD_REACTORS
330
2306
102
}
330
2306
100
AcDbXrecord
340
0
  0
XRECORD
  5
2318
102
{ACAD_REACTORS
330
2306
102
}
330
2306
100
AcDbXrecord
 10
0.0
 20
0.0
 30
0.0
  0
XRECORD
  5
2319
102
{ACAD_REACTORS
330
2306
102
}
330
2306
100
AcDbXrecord
 10
0.0
 20
0.0
 30
0.0
  0
XRECORD
  5
231A
102
{ACAD_REACTORS
330
2306
102
}
330
2306
100
AcDbXrecord
 10
0.0
 20
0.0
 30
0.0
  0
XRECORD
  5
231B
102
{ACAD_REACTORS
330
2306
102
}
330
2306
100
AcDbXrecord
 10
0.0
 20
0.0
 30
0.0
  0
XRECORD
  5
231C
102
{ACAD_REACTORS
330
2306
102
}
330
2306
100
AcDbXrecord
 10
0.0
 20
0.0
 30
0.0
  0
XRECORD
  5
231D
102
{ACAD_REACTORS
330
2306
102
}
330
2306
100
AcDbXrecord
 10
0.0
 20
0.0
 30
0.0
  0
XRECORD
  5
231E
102
{ACAD_REACTORS
330
2306
102
}
330
2306
100
AcDbXrecord
340
0
  0
XRECORD
  5
231F
102
{ACAD_REACTORS
330
2306
102
}
330
2306
100
AcDbXrecord
 70
     0
  0
XRECORD
  5
2320
102
{ACAD_REACTORS
330
2306
102
}
330
2306
100
AcDbXrecord
340
0
  0
XRECORD
  5
2321
102
{ACAD_REACTORS
330
2306
102
}
330
2306
100
AcDbXrecord
 10
0.0
 20
0.0
 30
0.0
  0
XRECORD
  5
2322
102
{ACAD_REACTORS
330
2306
102
}
330
2306
100
AcDbXrecord
 10
0.0
 20
0.0
 30
0.0
  0
XRECORD
  5
2323
102
{ACAD_REACTORS
330
2306
102
}
330
2306
100
AcDbXrecord
 10
0.0
 20
0.0
 30
0.0
  0
XRECORD
  5
2324
102
{ACAD_REACTORS
330
2306
102
}
330
2306
100
AcDbXrecord
 10
0.0
 20
0.0
 30
0.0
  0
XRECORD
  5
2325
102
{ACAD_REACTORS
330
2306
102
}
330
2306
100
AcDbXrecord
 10
0.0
 20
0.0
 30
0.0
  0
XRECORD
  5
2326
102
{ACAD_REACTORS
330
2306
102
}
330
2306
100
AcDbXrecord
 10
0.0
 20
0.0
 30
0.0
  0
LAYER_INDEX
  5
22FD
102
{ACAD_REACTORS
330
22FC
102
}
330
22FC
100
AcDbIndex
 40
2453152.35772721
100
AcDbLayerIndex
  8
0
360
22FE
 90
        0
  8
AM_0
360
22FF
 90
       95
  8
AM_11
360
2300
 90
        4
  8
AM_7
360
2301
 90
        1
  8
AM_5
360
2302
 90
        4
  8
Defpoints
360
2303
 90
        0
  8
AM_6
360
2304
 90
        1
  0
XRECORD
  5
2D
102
{ACAD_REACTORS
330
2C
102
}
330
2C
100
AcDbXrecord
  1
VERSION
140
15.0
  1
PRODUCT
  2
AutoCAD Mechanical 2000
  0
IDBUFFER
  5
22FE
330
0
100
AcDbIdBuffer
  0
IDBUFFER
  5
22FF
330
0
100
AcDbIdBuffer
330
2295
330
2296
330
2297
330
2298
330
2299
330
229A
330
229B
330
229C
330
229D
330
229E
330
229F
330
22A0
330
22A1
330
22A2
330
22A3
330
22A4
330
22A5
330
22A6
330
22A7
330
22A8
330
22A9
330
22AA
330
22AB
330
22AC
330
22AD
330
22AE
330
22AF
330
22B0
330
22B1
330
22B2
330
22B3
330
22B4
330
22B5
330
22B6
330
22B7
330
22B8
330
22B9
330
22C8
330
22C9
330
22CA
330
22CB
330
22CC
330
22CD
330
22CE
330
22CF
330
22D0
330
22D1
330
1EA9
330
1EAC
330
1EAD
330
1EAE
330
1EC7
330
1ECA
330
1F17
330
1FA6
330
1FA7
330
1FA8
330
1FA9
330
1FAA
330
2271
330
2272
330
2273
330
2274
330
2275
330
2276
330
2277
330
2278
330
2279
330
227A
330
227B
330
227C
330
227D
330
227E
330
227F
330
2280
330
2281
330
2282
330
2283
330
2284
330
2285
330
2286
330
2287
330
2288
330
2289
330
228A
330
228B
330
228C
330
228D
330
228E
330
228F
330
2290
330
2291
330
2292
330
2293
330
2294
  0
IDBUFFER
  5
2300
330
0
100
AcDbIdBuffer
330
1F72
330
1F7B
330
1F7E
330
1F7F
  0
IDBUFFER
  5
2301
330
0
100
AcDbIdBuffer
330
F47
  0
IDBUFFER
  5
2302
330
0
100
AcDbIdBuffer
330
105F
330
10EF
330
1180
330
1EAF
  0
IDBUFFER
  5
2303
330
0
100
AcDbIdBuffer
  0
IDBUFFER
  5
2304
330
0
100
AcDbIdBuffer
330
E5A
  0
ENDSEC
  0
EOF
