  0
SECTION
  2
HEADER
  9
$ACADVER
  1
AC1014
  9
$ACADMAINTVER
 70
     9
  9
$DWGCODEPAGE
  3
ANSI_932
  9
$INSBASE
 10
0.0
 20
0.0
 30
0.0
  9
$EXTMIN
 10
-124.1192914140725
 20
-40.57796600715046
 30
-0.00000001
  9
$EXTMAX
 10
10.15831679456914
 20
6.951011956635609
 30
0.00000001
  9
$LIMMIN
 10
-138.7398400054645
 20
-56.21370407569441
  9
$LIMMAX
 10
25.91231481489529
 20
29.7779819746581
  9
$ORTHOMODE
 70
     0
  9
$REGENMODE
 70
     1
  9
$FILLMODE
 70
     1
  9
$QTEXTMODE
 70
     0
  9
$MIRRTEXT
 70
     0
  9
$DRAGMODE
 70
     2
  9
$LTSCALE
 40
0.3
  9
$OSMODE
 70
    55
  9
$ATTMODE
 70
     1
  9
$TEXTSIZE
 40
2.5
  9
$TRACEWID
 40
1.0
  9
$TEXTSTYLE
  7
STANDARD
  9
$CLAYER
  8
AM_0
  9
$CELTYPE
  6
BYLAYER
  9
$CECOLOR
 62
   256
  9
$CELTSCALE
 40
1.0
  9
$DELOBJ
 70
     1
  9
$DISPSILH
 70
     0
  9
$DIMSCALE
 40
0.5
  9
$DIMASZ
 40
2.5
  9
$DIMEXO
 40
1.0
  9
$DIMDLI
 40
12.0
  9
$DIMRND
 40
0.0
  9
$DIMDLE
 40
0.0
  9
$DIMEXE
 40
1.0
  9
$DIMTP
 40
0.1
  9
$DIMTM
 40
0.1
  9
$DIMTXT
 40
3.2
  9
$DIMCEN
 40
0.0
  9
$DIMTSZ
 40
0.0
  9
$DIMTOL
 70
     0
  9
$DIMLIM
 70
     0
  9
$DIMTIH
 70
     0
  9
$DIMTOH
 70
     0
  9
$DIMSE1
 70
     0
  9
$DIMSE2
 70
     0
  9
$DIMTAD
 70
     3
  9
$DIMZIN
 70
     8
  9
$DIMBLK
  1
OPEN30
  9
$DIMASO
 70
     1
  9
$DIMSHO
 70
     1
  9
$DIMPOST
  1

  9
$DIMAPOST
  1
"
  9
$DIMALT
 70
     0
  9
$DIMALTD
 70
     2
  9
$DIMALTF
 40
0.0393701
  9
$DIMLFAC
 40
1.0
  9
$DIMTOFL
 70
     1
  9
$DIMTVP
 40
0.0
  9
$DIMTIX
 70
     0
  9
$DIMSOXD
 70
     0
  9
$DIMSAH
 70
     0
  9
$DIMBLK1
  1

  9
$DIMBLK2
  1

  9
$DIMSTYLE
  2
AM_JIS
  9
$DIMCLRD
 70
   256
  9
$DIMCLRE
 70
   256
  9
$DIMCLRT
 70
     2
  9
$DIMTFAC
 40
0.71
  9
$DIMGAP
 40
1.5
  9
$DIMJUST
 70
     0
  9
$DIMSD1
 70
     0
  9
$DIMSD2
 70
     0
  9
$DIMTOLJ
 70
     0
  9
$DIMTZIN
 70
     0
  9
$DIMALTZ
 70
     0
  9
$DIMALTTZ
 70
     0
  9
$DIMFIT
 70
     3
  9
$DIMUPT
 70
     0
  9
$DIMUNIT
 70
     2
  9
$DIMDEC
 70
     3
  9
$DIMTDEC
 70
     3
  9
$DIMALTU
 70
     2
  9
$DIMALTTD
 70
     2
  9
$DIMTXSTY
  7
ASAMI
  9
$DIMAUNIT
 70
     0
  9
$LUNITS
 70
     2
  9
$LUPREC
 70
     2
  9
$SKETCHINC
 40
1.0
  9
$FILLETRAD
 40
0.5
  9
$AUNITS
 70
     0
  9
$AUPREC
 70
     0
  9
$MENU
  1
.
  9
$ELEVATION
 40
0.0
  9
$PELEVATION
 40
0.0
  9
$THICKNESS
 40
0.0
  9
$LIMCHECK
 70
     0
  9
$BLIPMODE
 70
     0
  9
$CHAMFERA
 40
2.5
  9
$CHAMFERB
 40
2.5
  9
$CHAMFERC
 40
20.0
  9
$CHAMFERD
 40
0.0
  9
$SKPOLY
 70
     0
  9
$TDCREATE
 40
2452838.620506898
  9
$TDUPDATE
 40
2453152.356230138
  9
$TDINDWG
 40
0.3179747454
  9
$TDUSRTIMER
 40
0.3179747454
  9
$USRTIMER
 70
     1
  9
$ANGBASE
 50
0.0
  9
$ANGDIR
 70
     0
  9
$PDMODE
 70
     0
  9
$PDSIZE
 40
0.0
  9
$PLINEWID
 40
0.0
  9
$COORDS
 70
     1
  9
$SPLFRAME
 70
     0
  9
$SPLINETYPE
 70
     6
  9
$SPLINESEGS
 70
     8
  9
$ATTDIA
 70
     1
  9
$ATTREQ
 70
     1
  9
$HANDLING
 70
 12289
  9
$HANDSEED
  5
2CDA
  9
$SURFTAB1
 70
     6
  9
$SURFTAB2
 70
     6
  9
$SURFTYPE
 70
     6
  9
$SURFU
 70
     6
  9
$SURFV
 70
     6
  9
$UCSNAME
  2

  9
$UCSORG
 10
-0.0000000000000568
 20
-0.0000000000000036
 30
0.0
  9
$UCSXDIR
 10
1.0
 20
0.0
 30
0.0
  9
$UCSYDIR
 10
0.0
 20
1.0
 30
0.0
  9
$PUCSNAME
  2

  9
$PUCSORG
 10
0.0
 20
0.0
 30
0.0
  9
$PUCSXDIR
 10
1.0
 20
0.0
 30
0.0
  9
$PUCSYDIR
 10
0.0
 20
1.0
 30
0.0
  9
$USERI1
 70
     0
  9
$USERI2
 70
     0
  9
$USERI3
 70
     0
  9
$USERI4
 70
     0
  9
$USERI5
 70
     0
  9
$USERR1
 40
0.0
  9
$USERR2
 40
0.0
  9
$USERR3
 40
0.0
  9
$USERR4
 40
0.0
  9
$USERR5
 40
0.0
  9
$WORLDVIEW
 70
     1
  9
$SHADEDGE
 70
     3
  9
$SHADEDIF
 70
    70
  9
$TILEMODE
 70
     1
  9
$MAXACTVP
 70
    64
  9
$PINSBASE
 10
0.0
 20
0.0
 30
0.0
  9
$PLIMCHECK
 70
     0
  9
$PEXTMIN
 10
1.000000000000000E+20
 20
1.000000000000000E+20
 30
1.000000000000000E+20
  9
$PEXTMAX
 10
-1.000000000000000E+20
 20
-1.000000000000000E+20
 30
-1.000000000000000E+20
  9
$PLIMMIN
 10
0.0
 20
0.0
  9
$PLIMMAX
 10
841.0
 20
594.0
  9
$UNITMODE
 70
     0
  9
$VISRETAIN
 70
     1
  9
$PLINEGEN
 70
     0
  9
$PSLTSCALE
 70
     0
  9
$TREEDEPTH
 70
  3020
  9
$PICKSTYLE
 70
     0
  9
$CMLSTYLE
  2
STANDARD
  9
$CMLJUST
 70
     0
  9
$CMLSCALE
 40
20.0
  9
$PROXYGRAPHICS
 70
     1
  9
$MEASUREMENT
 70
     1
  0
ENDSEC
  0
SECTION
  2
CLASSES
  0
CLASS
  1
ACDBDICTIONARYWDFLT
  2
AcDbDictionaryWithDefault
  3
AutoCAD 2000
 90
        0
280
     0
281
     0
  0
CLASS
  1
ACDBPLACEHOLDER
  2
AcDbPlaceHolder
  3
AutoCAD 2000
 90
        0
280
     0
281
     0
  0
CLASS
  1
LAYOUT
  2
AcDbLayout
  3
AutoCAD 2000
 90
        0
280
     0
281
     0
  0
CLASS
  1
AMGSETTINGSOBJ
  2
AmgSettingsObj
  3
"AcadM|Product Description: AutoCAD Mechanical 2000|Company: Autodesk"
 90
        0
280
     0
281
     0
  0
CLASS
  1
ACME_DOCUMENT
  2
AcMeDbDoc
  3
AcMeServices
 90
        0
280
     0
281
     0
  0
CLASS
  1
ACMESCOPE
  2
AcMeScope
  3
AcMeServices
 90
        0
280
     0
281
     0
  0
CLASS
  1
ACMECOMMANDHISTORY
  2
AcMeCommandHistory
  3
AcMeServices
 90
        0
280
     0
281
     0
  0
CLASS
  1
DICTIONARYVAR
  2
AcDbDictionaryVar
  3
AutoCAD 2000
 90
        0
280
     0
281
     0
  0
CLASS
  1
ACIMSYSVARMAN
  2
AcImSysVarManager
  3
AcMeServices
 90
        0
280
     0
281
     0
  0
CLASS
  1
ACIMREALSYSVAR
  2
AcImRealSysVar
  3
AcMeServices
 90
        0
280
     0
281
     0
  0
CLASS
  1
ACIMINTSYSVAR
  2
AcImIntSysVar
  3
AcMeServices
 90
        0
280
     0
281
     0
  0
CLASS
  1
ACMEDRAWINGMAN
  2
AcMeDrawingMan
  3
AcMeServices
 90
        0
280
     0
281
     0
  0
CLASS
  1
ACMEVIEW
  2
AcMeView
  3
AcMeServices
 90
        0
280
     0
281
     0
  0
CLASS
  1
ACDBENTITYCACHE
  2
AcMeEntityCache
  3
AcMeServices
 90
        0
280
     0
281
     0
  0
CLASS
  1
GSMANAGER
  2
AcMeGSManager
  3
AcMeServices
 90
        0
280
     0
281
     0
  0
CLASS
  1
AmdtInternalReactor
  2
AmdtInternalReactor
  3
AcMeServices
 90
        0
280
     0
281
     0
  0
CLASS
  1
ACMESTATEMGR
  2
AcMeStateMgr
  3
AcMeServices
 90
        0
280
     0
281
     0
  0
CLASS
  1
ACME_DATABASE
  2
AcMeDbDatabase
  3
AcMeServices
 90
        0
280
     0
281
     0
  0
CLASS
  1
ACRFINSADJUSTERMGR
  2
AcRfInsAdjusterMgr
  3
AcMeServices
 90
        0
280
     0
281
     0
  0
CLASS
  1
ACMDATADICTIONARY
  2
AcmDataDictionary
  3
"AcmSymBB|Product Description: AutoCAD Mechanical 2000|Company: Autodesk"
 90
        0
280
     0
281
     0
  0
CLASS
  1
ACMDATAENTRYBLOCK
  2
AcmDataEntryBlock
  3
"AcmSymBB|Product Description: AutoCAD Mechanical 2000|Company: Autodesk"
 90
        0
280
     0
281
     0
  0
CLASS
  1
AMGOBJPROPCFG
  2
AmgObjPropCfg
  3
"AmgLay|Product Description: AutoCAD Mechanical 2000|Company: Autodesk"
 90
        1
280
     0
281
     0
  0
CLASS
  1
ACAMGFILTERDAT
  2
AcAmgFilterDat
  3
"AcadM|Product Description: AutoCAD Mechanical 2000|Company: Autodesk"
 90
        0
280
     0
281
     0
  0
CLASS
  1
LAYER_INDEX
  2
AcDbLayerIndex
  3
AutoCAD 2000
 90
        0
280
     0
281
     0
  0
CLASS
  1
IDBUFFER
  2
AcDbIdBuffer
  3
AutoCAD 2000
 90
        0
280
     0
281
     0
  0
CLASS
  1
ACIMSTRSYSVAR
  2
AcImStrSysVar
  3
AcMeServices
 90
        0
280
     0
281
     0
  0
CLASS
  1
ACMSTANDARDJIS
  2
AcmStandardJIS
  3
"AcmSymBB|Product Description: AutoCAD Mechanical 2000|Company: Autodesk"
 90
        0
280
     0
281
     0
  0
CLASS
  1
ACMSURFSTANDARDJIS
  2
AcmSurfTextStdJIS
  3
"AcmSymBB|Product Description: AutoCAD Mechanical 2000|Company: Autodesk"
 90
        0
280
     0
281
     0
  0
CLASS
  1
ACMFCFSTANDARDJIS
  2
AcmFCFStdJIS
  3
"AcmSymBB|Product Description: AutoCAD Mechanical 2000|Company: Autodesk"
 90
        0
280
     0
281
     0
  0
CLASS
  1
ACMWELDSTANDARDJIS
  2
AcmWeldingStdJIS
  3
"AcmSymBB|Product Description: AutoCAD Mechanical 2000|Company: Autodesk"
 90
        0
280
     0
281
     0
  0
CLASS
  1
ACMIDSTANDARDJIS
  2
AcmIdStdJIS
  3
"AcmSymBB|Product Description: AutoCAD Mechanical 2000|Company: Autodesk"
 90
        0
280
     0
281
     0
  0
CLASS
  1
ACMDATUMSTANDARDJIS
  2
AcmDatumStdJIS
  3
"AcmSymBB|Product Description: AutoCAD Mechanical 2000|Company: Autodesk"
 90
        0
280
     0
281
     0
  0
CLASS
  1
ACMBOMSTANDARDJIS
  2
AcmBOMStdJIS
  3
"AcmSymBB|Product Description: AutoCAD Mechanical 2000|Company: Autodesk"
 90
        0
280
     0
281
     0
  0
CLASS
  1
ACMSTANDARDANSI
  2
AcmStandardANSI
  3
"AcmSymBB|Product Description: AutoCAD Mechanical 2000|Company: Autodesk"
 90
        0
280
     0
281
     0
  0
CLASS
  1
ACMSURFSTANDARDANSI
  2
AcmSurfTextStdANSI
  3
"AcmSymBB|Product Description: AutoCAD Mechanical 2000|Company: Autodesk"
 90
        0
280
     0
281
     0
  0
CLASS
  1
ACMFCFSTANDARDANSI
  2
AcmFCFStdANSI
  3
"AcmSymBB|Product Description: AutoCAD Mechanical 2000|Company: Autodesk"
 90
        0
280
     0
281
     0
  0
CLASS
  1
ACMWELDSTANDARDANSI
  2
AcmWeldingStdANSI
  3
"AcmSymBB|Product Description: AutoCAD Mechanical 2000|Company: Autodesk"
 90
        0
280
     0
281
     0
  0
CLASS
  1
ACMIDSTANDARDANSI
  2
AcmIdStdANSI
  3
"AcmSymBB|Product Description: AutoCAD Mechanical 2000|Company: Autodesk"
 90
        0
280
     0
281
     0
  0
CLASS
  1
ACMDATUMSTANDARDANSI
  2
AcmDatumStdANSI
  3
"AcmSymBB|Product Description: AutoCAD Mechanical 2000|Company: Autodesk"
 90
        0
280
     0
281
     0
  0
CLASS
  1
ACMBOMSTANDARDANSI
  2
AcmBOMStdANSI
  3
"AcmSymBB|Product Description: AutoCAD Mechanical 2000|Company: Autodesk"
 90
        0
280
     0
281
     0
  0
CLASS
  1
ACMSTANDARDBSI
  2
AcmStandardBSI
  3
"AcmSymBB|Product Description: AutoCAD Mechanical 2000|Company: Autodesk"
 90
        0
280
     0
281
     0
  0
CLASS
  1
ACMSURFSTANDARDBSI
  2
AcmSurfTextStdBSI
  3
"AcmSymBB|Product Description: AutoCAD Mechanical 2000|Company: Autodesk"
 90
        0
280
     0
281
     0
  0
CLASS
  1
ACMFCFSTANDARDBSI
  2
AcmFCFStdBSI
  3
"AcmSymBB|Product Description: AutoCAD Mechanical 2000|Company: Autodesk"
 90
        0
280
     0
281
     0
  0
CLASS
  1
ACMWELDSTANDARDBSI
  2
AcmWeldingStdBSI
  3
"AcmSymBB|Product Description: AutoCAD Mechanical 2000|Company: Autodesk"
 90
        0
280
     0
281
     0
  0
CLASS
  1
ACMIDSTANDARDBSI
  2
AcmIdStdBSI
  3
"AcmSymBB|Product Description: AutoCAD Mechanical 2000|Company: Autodesk"
 90
        0
280
     0
281
     0
  0
CLASS
  1
ACMDATUMSTANDARDBSI
  2
AcmDatumStdBSI
  3
"AcmSymBB|Product Description: AutoCAD Mechanical 2000|Company: Autodesk"
 90
        0
280
     0
281
     0
  0
CLASS
  1
ACMBOMSTANDARDBSI
  2
AcmBOMStdBSI
  3
"AcmSymBB|Product Description: AutoCAD Mechanical 2000|Company: Autodesk"
 90
        0
280
     0
281
     0
  0
CLASS
  1
LONG_TRANSACTION
  2
AcDbLongTransaction
  3
AutoCAD 2000
 90
        0
280
     0
281
     0
  0
CLASS
  1
LWPOLYLINE
  2
AcDbPolyline
  3
AutoCAD 2000
 90
        0
280
     0
281
     1
  0
CLASS
  1
HATCH
  2
AcDbHatch
  3
AutoCAD 2000
 90
        0
280
     0
281
     1
  0
CLASS
  1
XRECORD
  2
AcDbXrecord
  3
AutoCAD 2000
 90
        0
280
     0
281
     0
  0
ENDSEC
  0
SECTION
  2
TABLES
  0
TABLE
  2
VPORT
  5
8
330
0
100
AcDbSymbolTable
 70
     3
  0
VPORT
  5
2CAF
330
8
100
AcDbSymbolTableRecord
100
AcDbViewportTableRecord
  2
*ACTIVE
 70
     0
 10
0.0
 20
0.0
 11
1.0
 21
1.0
 12
-71.93287509225779
 22
2.909159776770806
 13
0.0
 23
0.0
 14
2.5
 24
2.5
 15
10.0
 25
10.0
 16
0.0
 26
0.0
 36
1.0
 17
0.0
 27
0.0
 37
0.0
 40
138.2985250804102
 41
1.56570841889117
 42
50.0
 43
0.0
 44
0.0
 50
0.0
 51
0.0
 71
     0
 72
   100
 73
     1
 74
     3
 75
     0
 76
     0
 77
     0
 78
     0
  0
ENDTAB
  0
TABLE
  2
LTYPE
  5
5
330
0
100
AcDbSymbolTable
 70
    10
  0
LTYPE
  5
14
330
5
100
AcDbSymbolTableRecord
100
AcDbLinetypeTableRecord
  2
BYBLOCK
 70
     0
  3

 72
    65
 73
     0
 40
0.0
  0
LTYPE
  5
15
330
5
100
AcDbSymbolTableRecord
100
AcDbLinetypeTableRecord
  2
BYLAYER
 70
     0
  3

 72
    65
 73
     0
 40
0.0
  0
LTYPE
  5
16
330
5
100
AcDbSymbolTableRecord
100
AcDbLinetypeTableRecord
  2
CONTINUOUS
 70
     0
  3
Solid line
 72
    65
 73
     0
 40
0.0
  0
LTYPE
  5
4B
330
5
100
AcDbSymbolTableRecord
100
AcDbLinetypeTableRecord
  2
AM_ISO02W050
 70
     0
  3
__ __ __ __ __ __ __ __ __ __ __ __ __ __ __
 72
    65
 73
     2
 40
7.5
 49
6.0
 74
     0
 49
-1.5
 74
     0
  0
LTYPE
  5
4C
330
5
100
AcDbSymbolTableRecord
100
AcDbLinetypeTableRecord
  2
AM_ISO08W050
 70
     0
  3
____ . ____ . ____ . ____ . ____ . ____ . ____
 72
    65
 73
     4
 40
18.0
 49
12.0
 74
     0
 49
-1.5
 74
     0
 49
3.0
 74
     0
 49
-1.5
 74
     0
  0
LTYPE
  5
4D
330
5
100
AcDbSymbolTableRecord
100
AcDbLinetypeTableRecord
  2
AM_ISO09W050
 70
     0
  3
_____ . . _____ . . _____ . . ____ .. ____
 72
    65
 73
     6
 40
22.5
 49
12.0
 74
     0
 49
-1.5
 74
     0
 49
3.0
 74
     0
 49
-1.5
 74
     0
 49
3.0
 74
     0
 49
-1.5
 74
     0
  0
LTYPE
  5
4E
330
5
100
AcDbSymbolTableRecord
100
AcDbLinetypeTableRecord
  2
AMCONSTR
 70
     0
  3
_______________________
 72
    65
 73
     2
 40
9999.0
 49
9999.0
 74
     0
 49
0.0
 74
     0
  0
LTYPE
  5
4F
330
5
100
AcDbSymbolTableRecord
100
AcDbLinetypeTableRecord
  2
AM_ISO02W050X2
 70
     0
  3
 _ _ _ _ _ _ _ _ _ _ _ _
 72
    65
 73
     2
 40
3.75
 49
3.0
 74
     0
 49
-0.75
 74
     0
  0
LTYPE
  5
50
330
5
100
AcDbSymbolTableRecord
100
AcDbLinetypeTableRecord
  2
AM_ISO08W050X2
 70
     0
  3
__ . __ . __ . __ . __ . __
 72
    65
 73
     4
 40
9.0
 49
6.0
 74
     0
 49
-0.75
 74
     0
 49
1.5
 74
     0
 49
-0.75
 74
     0
  0
LTYPE
  5
53
330
5
100
AcDbSymbolTableRecord
100
AcDbLinetypeTableRecord
  2
AMZIGZAG
 70
     0
  3
/\/-/\/-/\/-/\/-/\/-/\/
 72
    65
 73
     2
 40
11.00009999999999
 49
0.0001
 74
     4
 75
   135
340
52
 46
0.04
 50
0.0
 44
0.0
 45
0.0
 49
-11.0
 74
     0
  0
LTYPE
  5
166
330
5
100
AcDbSymbolTableRecord
100
AcDbLinetypeTableRecord
  2
ACJISTGL
 70
     0
  3
_ _ _ _ _
 72
    65
 73
     2
 40
3.0
 49
2.0
 74
     0
 49
-1.0
 74
     0
  0
LTYPE
  5
26A
330
5
100
AcDbSymbolTableRecord
100
AcDbLinetypeTableRecord
  2
ACJISTGB
 70
     0
  3
__ . . __ . .
 72
    65
 73
     6
 40
9.0
 49
4.0
 74
     0
 49
-1.0
 74
     0
 49
1.0
 74
     0
 49
-1.0
 74
     0
 49
1.0
 74
     0
 49
-1.0
 74
     0
  0
ENDTAB
  0
TABLE
  2
LAYER
  5
2
330
0
100
AcDbSymbolTable
 70
     8
  0
LAYER
  5
10
330
2
100
AcDbSymbolTableRecord
100
AcDbLayerTableRecord
  2
0
 70
     0
 62
     7
  6
CONTINUOUS
  0
LAYER
  5
3F9
330
2
100
AcDbSymbolTableRecord
100
AcDbLayerTableRecord
  2
AM_0
 70
     0
 62
     7
  6
CONTINUOUS
  0
LAYER
  5
BD6
330
2
100
AcDbSymbolTableRecord
100
AcDbLayerTableRecord
  2
AM_11
 70
     0
 62
     3
  6
AM_ISO09W050
  0
LAYER
  5
BD7
330
2
100
AcDbSymbolTableRecord
100
AcDbLayerTableRecord
  2
AM_7
 70
     0
 62
     4
  6
AM_ISO08W050
  0
LAYER
  5
BD8
330
2
100
AcDbSymbolTableRecord
100
AcDbLayerTableRecord
  2
AM_5
 70
     0
 62
     3
  6
CONTINUOUS
  0
LAYER
  5
BD9
330
2
100
AcDbSymbolTableRecord
100
AcDbLayerTableRecord
  2
DEFPOINTS
 70
     0
 62
     7
  6
CONTINUOUS
  0
LAYER
  5
BDA
330
2
100
AcDbSymbolTableRecord
100
AcDbLayerTableRecord
  2
AM_6
 70
     0
 62
     2
  6
CONTINUOUS
  0
LAYER
  5
22A6
330
2
100
AcDbSymbolTableRecord
100
AcDbLayerTableRecord
  2
AM_CL
 70
     0
 62
     1
  6
AMCONSTR
  0
ENDTAB
  0
TABLE
  2
STYLE
  5
3
330
0
100
AcDbSymbolTable
 70
     5
  0
STYLE
  5
11
330
3
100
AcDbSymbolTableRecord
100
AcDbTextStyleTableRecord
  2
STANDARD
 70
     0
 40
0.0
 41
1.0
 50
0.0
 71
     0
 42
2.5
  3
simplex.shx
  4
EXTFONT.SHX
  0
STYLE
  5
52
330
3
100
AcDbSymbolTableRecord
100
AcDbTextStyleTableRecord
  2

 70
     1
 40
0.0
 41
1.0
 50
0.0
 71
     0
 42
2.5
  3
ltypeshp.shx
  4

  0
STYLE
  5
6B
330
3
100
AcDbSymbolTableRecord
100
AcDbTextStyleTableRecord
  2
ASAMI
 70
     0
 40
0.0
 41
1.0
 50
0.0
 71
     0
 42
2.5
  3
simplex.shx
  4
EXTFONT.SHX
  0
STYLE
  5
262
330
3
100
AcDbSymbolTableRecord
100
AcDbTextStyleTableRecord
  2
ACJISTS
 70
     0
 40
1.0
 41
1.0
 50
0.0
 71
     0
 42
2.5
  3
simplex.shx
  4
bigfont.shx
  0
STYLE
  5
269
330
3
100
AcDbSymbolTableRecord
100
AcDbTextStyleTableRecord
  2
ACJISGDT
 70
     0
 40
0.0
 41
1.0
 50
0.0
 71
     0
 42
2.5
  3
amgdtans.shx
  4

  0
ENDTAB
  0
TABLE
  2
VIEW
  5
6
330
0
100
AcDbSymbolTable
 70
     0
  0
ENDTAB
  0
TABLE
  2
UCS
  5
7
330
0
100
AcDbSymbolTable
 70
     0
  0
ENDTAB
  0
TABLE
  2
APPID
  5
9
330
0
100
AcDbSymbolTable
 70
    13
  0
APPID
  5
12
330
9
100
AcDbSymbolTableRecord
100
AcDbRegAppTableRecord
  2
ACAD
 70
     0
  0
APPID
  5
30
330
9
100
AcDbSymbolTableRecord
100
AcDbRegAppTableRecord
  2
MCAD_NO_VIS
 70
     0
  0
APPID
  5
31
330
9
100
AcDbSymbolTableRecord
100
AcDbRegAppTableRecord
  2
ACAD_TEMP_GRAPHIC
 70
     0
  0
APPID
  5
2C2
330
9
100
AcDbSymbolTableRecord
100
AcDbRegAppTableRecord
  2
GENIUS_GENDTOL_13
 70
     0
  0
APPID
  5
339
330
9
100
AcDbSymbolTableRecord
100
AcDbRegAppTableRecord
  2
GENIUS_GENODEF_13
 70
     0
  0
APPID
  5
33A
330
9
100
AcDbSymbolTableRecord
100
AcDbRegAppTableRecord
  2
GENIUS_GENOBJ-N-RSBK_13
 70
     0
  0
APPID
  5
33B
330
9
100
AcDbSymbolTableRecord
100
AcDbRegAppTableRecord
  2
GENIUS_GENOBJ-N-LIB_13
 70
     0
  0
APPID
  5
33C
330
9
100
AcDbSymbolTableRecord
100
AcDbRegAppTableRecord
  2
GENIUS_GENSCALE_13
 70
     0
  0
APPID
  5
378
330
9
100
AcDbSymbolTableRecord
100
AcDbRegAppTableRecord
  2
GENIUS_GENDIMSH_14
 70
     0
  0
APPID
  5
BDB
330
9
100
AcDbSymbolTableRecord
100
AcDbRegAppTableRecord
  2
GENIUS_GENOBJ-N-CEN_13
 70
     0
  0
APPID
  5
BDC
330
9
100
AcDbSymbolTableRecord
100
AcDbRegAppTableRecord
  2
GENIUS_GENFIL_13
 70
     0
  0
APPID
  5
BDD
330
9
100
AcDbSymbolTableRecord
100
AcDbRegAppTableRecord
  2
GENIUS_GENOBJ-N-FIL_13
 70
     0
  0
APPID
  5
12AD
330
9
100
AcDbSymbolTableRecord
100
AcDbRegAppTableRecord
  2
GENIUS_GENOREF_13
 70
     0
  0
ENDTAB
  0
TABLE
  2
DIMSTYLE
  5
A
330
0
100
AcDbSymbolTable
 70
     8
  0
DIMSTYLE
105
58
102
{ACAD_REACTORS
330
195B
330
1E6A
330
C4F
330
194C
102
}
330
A
100
AcDbSymbolTableRecord
100
AcDbDimStyleTableRecord
  2
AM_JIS
 70
     0
  3

  4
"
  5
OPEN30
  6

  7

 40
0.5
 41
2.5
 42
1.0
 43
12.0
 44
1.0
 45
0.0
 46
0.0
 47
0.1
 48
0.1
140
3.2
141
0.0
142
0.0
143
0.0393701
144
1.0
145
0.0
146
0.71
147
1.5
 71
     0
 72
     0
 73
     0
 74
     0
 75
     0
 76
     0
 77
     3
 78
     8
170
     0
171
     2
172
     1
173
     0
174
     0
175
     0
176
   256
177
   256
178
     2
270
     2
271
     3
272
     3
273
     2
274
     2
340
6B
275
     0
280
     0
281
     0
282
     0
283
     0
284
     0
285
     0
286
     0
287
     3
288
     0
  0
DIMSTYLE
105
5F
330
A
100
AcDbSymbolTableRecord
100
AcDbDimStyleTableRecord
  2
AM_JIS$3
 70
     0
  3

  4
"
  5
OPEN30
  6

  7

 40
0.5
 41
2.5
 42
1.0
 43
10.0
 44
1.0
 45
0.0
 46
0.0
 47
0.1
 48
0.1
140
3.2
141
0.0
142
0.0
143
0.0393701
144
1.0
145
0.0
146
0.71
147
1.5
 71
     0
 72
     0
 73
     0
 74
     1
 75
     0
 76
     0
 77
     3
 78
     8
170
     0
171
     2
172
     0
173
     0
174
     0
175
     0
176
   256
177
   256
178
     2
270
     2
271
     2
272
     3
273
     2
274
     2
340
6B
275
     0
280
     0
281
     0
282
     0
283
     0
284
     0
285
     0
286
     0
287
     0
288
     1
  0
DIMSTYLE
105
60
102
{ACAD_REACTORS
330
2C05
102
}
330
A
100
AcDbSymbolTableRecord
100
AcDbDimStyleTableRecord
  2
AM_JIS$4
 70
     0
  3

  4
"
  5
OPEN30
  6

  7

 40
0.5
 41
2.5
 42
1.0
 43
10.0
 44
1.0
 45
0.0
 46
0.0
 47
0.1
 48
0.1
140
3.2
141
0.0
142
0.0
143
0.0393701
144
1.0
145
0.0
146
0.71
147
1.5
 71
     0
 72
     0
 73
     0
 74
     1
 75
     0
 76
     0
 77
     3
 78
     8
170
     0
171
     2
172
     0
173
     0
174
     0
175
     0
176
   256
177
   256
178
     2
270
     2
271
     2
272
     3
273
     2
274
     2
340
6B
275
     0
280
     0
281
     0
282
     0
283
     0
284
     0
285
     0
286
     0
287
     0
288
     1
  0
DIMSTYLE
105
61
330
A
100
AcDbSymbolTableRecord
100
AcDbDimStyleTableRecord
  2
AM_JIS$6
 70
     0
  3

  4
"
  5
OPEN30
  6

  7

 40
0.5
 41
2.5
 42
1.0
 43
10.0
 44
1.0
 45
0.0
 46
0.0
 47
0.1
 48
0.1
140
3.2
141
0.0
142
0.0
143
0.0393701
144
1.0
145
0.0
146
0.71
147
1.5
 71
     0
 72
     0
 73
     0
 74
     0
 75
     0
 76
     0
 77
     0
 78
     8
170
     0
171
     2
172
     1
173
     0
174
     0
175
     0
176
   256
177
   256
178
     2
270
     2
271
     2
272
     2
273
     2
274
     2
340
6B
275
     0
280
     0
281
     0
282
     0
283
     0
284
     0
285
     0
286
     0
287
     3
288
     0
  0
DIMSTYLE
105
62
330
A
100
AcDbSymbolTableRecord
100
AcDbDimStyleTableRecord
  2
AM_JIS$7
 70
     0
  3

  4
"
  5
OPEN30
  6

  7

 40
0.5
 41
2.5
 42
1.0
 43
10.0
 44
1.0
 45
0.0
 46
0.0
 47
0.1
 48
0.1
140
3.2
141
0.0
142
0.0
143
0.0393701
144
1.0
145
0.0
146
0.71
147
1.5
 71
     0
 72
     0
 73
     0
 74
     0
 75
     0
 76
     0
 77
     3
 78
     8
170
     0
171
     2
172
     1
173
     0
174
     0
175
     0
176
   256
177
   256
178
     2
270
     2
271
     2
272
     3
273
     2
274
     2
340
6B
275
     0
280
     0
281
     0
282
     0
283
     0
284
     0
285
     0
286
     0
287
     3
288
     0
  0
DIMSTYLE
105
63
330
A
100
AcDbSymbolTableRecord
100
AcDbDimStyleTableRecord
  2
AM_JIS$SF
 70
     0
  3

  4
"
  5
OPEN30
  6

  7

 40
0.5
 41
2.5
 42
1.0
 43
10.0
 44
1.0
 45
0.0
 46
0.0
 47
0.1
 48
0.1
140
3.2
141
0.0
142
0.0
143
0.0393701
144
1.0
145
0.0
146
0.71
147
1.5
 71
     0
 72
     0
 73
     0
 74
     0
 75
     1
 76
     1
 77
     3
 78
     8
170
     0
171
     2
172
     1
173
     0
174
     0
175
     0
176
   256
177
   256
178
     2
270
     2
271
     2
272
     2
273
     2
274
     2
340
6B
275
     0
280
     0
281
     0
282
     0
283
     0
284
     0
285
     0
286
     0
287
     3
288
     0
  0
DIMSTYLE
105
68
330
A
100
AcDbSymbolTableRecord
100
AcDbDimStyleTableRecord
  2
AM_JIS$SH
 70
     0
  3

  4
"
  5

  6
GENAXEH
  7
OPEN30
 40
0.5
 41
2.5
 42
1.0
 43
10.0
 44
1.0
 45
0.0
 46
0.0
 47
0.1
 48
0.1
140
3.2
141
0.0
142
0.0
143
0.0393701
144
2.0
145
0.0
146
0.71
147
1.5
 71
     0
 72
     0
 73
     0
 74
     0
 75
     1
 76
     1
 77
     3
 78
     8
170
     0
171
     2
172
     1
173
     1
174
     0
175
     0
176
   256
177
   256
178
     2
270
     2
271
     2
272
     2
273
     2
274
     2
340
6B
275
     0
280
     0
281
     0
282
     0
283
     0
284
     0
285
     0
286
     0
287
     3
288
     0
  0
DIMSTYLE
105
B34
330
A
100
AcDbSymbolTableRecord
100
AcDbDimStyleTableRecord
  2
AM_JIS$2
 70
     0
  3

  4
"
  5
OPEN30
  6

  7

 40
0.5
 41
2.5
 42
1.0
 43
12.0
 44
1.0
 45
0.0
 46
0.0
 47
0.1
 48
0.1
140
3.2
141
0.0
142
0.0
143
0.0393701
144
1.0
145
0.0
146
0.71
147
1.5
 71
     0
 72
     0
 73
     0
 74
     0
 75
     0
 76
     0
 77
     3
 78
     8
170
     0
171
     2
172
     1
173
     0
174
     0
175
     0
176
   256
177
   256
178
     2
270
     2
271
     3
272
     3
273
     2
274
     2
340
6B
275
     0
280
     0
281
     0
282
     0
283
     0
284
     0
285
     0
286
     0
287
     3
288
     0
  0
ENDTAB
  0
TABLE
  2
BLOCK_RECORD
  5
1
330
0
100
AcDbSymbolTable
 70
    10
  0
BLOCK_RECORD
  5
1F
102
{ACAD_XDICTIONARY
360
74
102
}
330
1
100
AcDbSymbolTableRecord
100
AcDbBlockTableRecord
  2
*MODEL_SPACE
  0
BLOCK_RECORD
  5
101
102
{ACAD_XDICTIONARY
360
2CD8
102
}
330
1
100
AcDbSymbolTableRecord
100
AcDbBlockTableRecord
  2
*PAPER_SPACE
  0
BLOCK_RECORD
  5
59
330
1
100
AcDbSymbolTableRecord
100
AcDbBlockTableRecord
  2
_OPEN30
  0
BLOCK_RECORD
  5
64
330
1
100
AcDbSymbolTableRecord
100
AcDbBlockTableRecord
  2
GENAXEH
  0
BLOCK_RECORD
  5
C75
330
1
100
AcDbSymbolTableRecord
100
AcDbBlockTableRecord
  2
*D5
  0
BLOCK_RECORD
  5
194D
330
1
100
AcDbSymbolTableRecord
100
AcDbBlockTableRecord
  2
*D6
  0
BLOCK_RECORD
  5
195C
330
1
100
AcDbSymbolTableRecord
100
AcDbBlockTableRecord
  2
*D7
  0
BLOCK_RECORD
  5
1E6B
330
1
100
AcDbSymbolTableRecord
100
AcDbBlockTableRecord
  2
*D8
  0
BLOCK_RECORD
  5
2C06
330
1
100
AcDbSymbolTableRecord
100
AcDbBlockTableRecord
  2
*D9
  0
ENDTAB
  0
ENDSEC
  0
SECTION
  2
BLOCKS
  0
BLOCK
  5
20
330
1F
100
AcDbEntity
  8
0
100
AcDbBlockBegin
  2
*MODEL_SPACE
 70
     0
 10
0.0
 20
0.0
 30
0.0
  3
*MODEL_SPACE
  1

  0
ENDBLK
  5
21
330
1F
100
AcDbEntity
  8
0
100
AcDbBlockEnd
  0
BLOCK
  5
103
330
101
100
AcDbEntity
 67
     1
  8
0
100
AcDbBlockBegin
  2
*PAPER_SPACE
 70
     0
 10
0.0
 20
0.0
 30
0.0
  3
*PAPER_SPACE
  1

  0
ENDBLK
  5
104
330
101
100
AcDbEntity
 67
     1
  8
0
100
AcDbBlockEnd
  0
BLOCK
  5
5D
330
59
100
AcDbEntity
  8
0
100
AcDbBlockBegin
  2
_OPEN30
 70
     0
 10
0.0
 20
0.0
 30
0.0
  3
_OPEN30
  1

  0
LINE
  5
5A
330
59
100
AcDbEntity
  8
0
 62
     0
100
AcDbLine
 10
-1.0
 20
0.26794919
 30
0.0
 11
0.0
 21
0.0
 31
0.0
  0
LINE
  5
5B
330
59
100
AcDbEntity
  8
0
 62
     0
100
AcDbLine
 10
0.0
 20
0.0
 30
0.0
 11
-1.0
 21
-0.26794919
 31
0.0
  0
LINE
  5
5C
330
59
100
AcDbEntity
  8
0
 62
     0
100
AcDbLine
 10
0.0
 20
0.0
 30
0.0
 11
-1.0
 21
0.0
 31
0.0
  0
ENDBLK
  5
5E
330
59
100
AcDbEntity
  8
0
100
AcDbBlockEnd
  0
BLOCK
  5
66
330
64
100
AcDbEntity
  8
0
100
AcDbBlockBegin
  2
GENAXEH
 70
     0
 10
0.0
 20
0.0
 30
0.0
  3
GENAXEH
  1

  0
LINE
  5
65
330
64
100
AcDbEntity
  8
0
100
AcDbLine
 10
-1.0
 20
0.0
 30
0.0
 11
1.0
 21
0.0
 31
0.0
  0
ENDBLK
  5
67
330
64
100
AcDbEntity
  8
0
100
AcDbBlockEnd
  0
BLOCK
  5
C7F
330
C75
100
AcDbEntity
  8
0
100
AcDbBlockBegin
  2
*D5
 70
     1
 10
0.0
 20
0.0
 30
0.0
  3
*D5
  1

  0
LINE
  5
2AD0
330
C75
100
AcDbEntity
  8
AM_5
100
AcDbLine
 10
-109.9995439835799
 20
-5.000000000000009
 30
0.0
 11
-109.9995439835799
 21
-29.82796600715042
 31
0.0
  0
LINE
  5
2AD1
330
C75
100
AcDbEntity
  8
AM_5
100
AcDbLine
 10
-0.0000000000000587
 20
-0.5000000000000036
 30
0.0
 11
-0.0000000000000604
 21
-29.82796600715042
 31
0.0
  0
LINE
  5
2AD2
330
C75
100
AcDbEntity
  8
AM_5
100
AcDbLine
 10
-108.7495439835799
 20
-29.32796600715042
 30
0.0
 11
-1.25000000000006
 21
-29.32796600715042
 31
0.0
  0
INSERT
  5
2AD3
330
C75
100
AcDbEntity
  8
AM_5
100
AcDbBlockReference
  2
_OPEN30
 10
-109.9995439835799
 20
-29.32796600715042
 30
0.0
 41
1.25
 42
1.25
 43
1.25
 50
180.0
  0
INSERT
  5
2AD4
330
C75
100
AcDbEntity
  8
AM_5
100
AcDbBlockReference
  2
_OPEN30
 10
-0.0000000000000604
 20
-29.32796600715042
 30
0.0
 41
1.25
 42
1.25
 43
1.25
  0
MTEXT
  5
2AD5
330
C75
100
AcDbEntity
  8
AM_5
 62
     2
100
AcDbMText
 10
-54.99977199178999
 20
-27.77796600715042
 30
0.0
 40
1.6
 41
0.0
 71
     5
 72
     1
  1
110
  7
ASAMI
1001
ACAD
1000
MTEXTBEGIN
1070
    73
1070
     1
1070
    44
1040
1.0
1070
    74
1070
     0
1000
MTEXTEND
  0
POINT
  5
2AD6
330
C75
100
AcDbEntity
  8
DEFPOINTS
 62
     0
100
AcDbPoint
 10
-109.9995439835799
 20
-4.500000000000009
 30
0.0
  0
POINT
  5
2AD7
330
C75
100
AcDbEntity
  8
DEFPOINTS
 62
     0
100
AcDbPoint
 10
-0.0000000000000586
 20
-0.0000000000000036
 30
0.0
  0
POINT
  5
2AD8
330
C75
100
AcDbEntity
  8
DEFPOINTS
 62
     0
100
AcDbPoint
 10
-0.0000000000000604
 20
-29.32796600715042
 30
0.0
  0
ENDBLK
  5
C80
330
C75
100
AcDbEntity
  8
0
100
AcDbBlockEnd
  0
BLOCK
  5
1959
330
194D
100
AcDbEntity
  8
0
100
AcDbBlockBegin
  2
*D6
 70
     1
 10
0.0
 20
0.0
 30
0.0
  3
*D6
  1

  0
LINE
  5
2A94
330
194D
100
AcDbEntity
  8
AM_5
100
AcDbLine
 10
-5.496992506834381
 20
-5.990517506638894
 30
0.0
 11
10.15831679456913
 21
-5.990517506638899
 31
0.0
  0
LINE
  5
2A95
330
194D
100
AcDbEntity
  8
AM_5
100
AcDbLine
 10
-5.496992506834381
 20
6.009482493319107
 30
0.0
 11
10.15831679456914
 21
6.009482493319103
 31
0.0
  0
LINE
  5
2A96
330
194D
100
AcDbEntity
  8
AM_5
100
AcDbLine
 10
9.65831679456914
 20
-4.740517506638898
 30
0.0
 11
9.658316794569143
 21
4.759482493319104
 31
0.0
  0
INSERT
  5
2A97
330
194D
100
AcDbEntity
  8
AM_5
100
AcDbBlockReference
  2
_OPEN30
 10
9.65831679456914
 20
-5.990517506638898
 30
0.0
 41
1.25
 42
1.25
 43
1.25
 50
270.0
  0
INSERT
  5
2A98
330
194D
100
AcDbEntity
  8
AM_5
100
AcDbBlockReference
  2
_OPEN30
 10
9.658316794569143
 20
6.009482493319104
 30
0.0
 41
1.25
 42
1.25
 43
1.25
 50
90.0
  0
MTEXT
  5
2A99
330
194D
100
AcDbEntity
  8
AM_5
 62
     2
100
AcDbMText
 10
8.108316794569141
 20
0.0094824933401041
 30
0.0
 40
1.6
 41
0.0
 71
     5
 72
     1
  1
%%c12
  7
ASAMI
 11
0.0000000000000001
 21
1.0
 31
0.0
1001
ACAD
1000
MTEXTBEGIN
1070
    73
1070
     1
1070
    44
1040
1.0
1070
    74
1070
     0
1000
MTEXTEND
  0
POINT
  5
2A9A
330
194D
100
AcDbEntity
  8
DEFPOINTS
 62
     0
100
AcDbPoint
 10
-5.996992506834381
 20
-5.990517506638894
 30
0.0
  0
POINT
  5
2A9B
330
194D
100
AcDbEntity
  8
DEFPOINTS
 62
     0
100
AcDbPoint
 10
-5.996992506834381
 20
6.009482493319107
 30
0.0
  0
POINT
  5
2A9C
330
194D
100
AcDbEntity
  8
DEFPOINTS
 62
     0
100
AcDbPoint
 10
9.658316794569143
 20
6.009482493319104
 30
0.0
  0
ENDBLK
  5
195A
330
194D
100
AcDbEntity
  8
0
100
AcDbBlockEnd
  0
BLOCK
  5
1968
330
195C
100
AcDbEntity
  8
0
100
AcDbBlockBegin
  2
*D7
 70
     1
 10
0.0
 20
0.0
 30
0.0
  3
*D7
  1

  0
LINE
  5
2BD8
330
195C
100
AcDbEntity
  8
AM_5
100
AcDbLine
 10
-20.99961972194226
 20
-6.490517506638893
 30
0.0
 11
-20.99961972194226
 21
-20.86605325753642
 31
0.0
  0
LINE
  5
2BD9
330
195C
100
AcDbEntity
  8
AM_5
100
AcDbLine
 10
-0.0000000000000587
 20
-0.5000000000000036
 30
0.0
 11
-0.0000000000000599
 21
-20.86605325753642
 31
0.0
  0
LINE
  5
2BDA
330
195C
100
AcDbEntity
  8
AM_5
100
AcDbLine
 10
-19.74961972194226
 20
-20.36605325753642
 30
0.0
 11
-1.250000000000059
 21
-20.36605325753642
 31
0.0
  0
INSERT
  5
2BDB
330
195C
100
AcDbEntity
  8
AM_5
100
AcDbBlockReference
  2
_OPEN30
 10
-20.99961972194226
 20
-20.36605325753642
 30
0.0
 41
1.25
 42
1.25
 43
1.25
 50
180.0
  0
INSERT
  5
2BDC
330
195C
100
AcDbEntity
  8
AM_5
100
AcDbBlockReference
  2
_OPEN30
 10
-0.0000000000000599
 20
-20.36605325753642
 30
0.0
 41
1.25
 42
1.25
 43
1.25
  0
MTEXT
  5
2BDD
330
195C
100
AcDbEntity
  8
AM_5
 62
     2
100
AcDbMText
 10
-10.49980986097116
 20
-18.81605325753642
 30
0.0
 40
1.6
 41
0.0
 71
     5
 72
     1
  1
21
  7
ASAMI
1001
ACAD
1000
MTEXTBEGIN
1070
    73
1070
     1
1070
    44
1040
1.0
1070
    74
1070
     0
1000
MTEXTEND
  0
POINT
  5
2BDE
330
195C
100
AcDbEntity
  8
DEFPOINTS
 62
     0
100
AcDbPoint
 10
-20.99961972194226
 20
-5.990517506638893
 30
0.0
  0
POINT
  5
2BDF
330
195C
100
AcDbEntity
  8
DEFPOINTS
 62
     0
100
AcDbPoint
 10
-0.0000000000000586
 20
-0.0000000000000036
 30
0.0
  0
POINT
  5
2BE0
330
195C
100
AcDbEntity
  8
DEFPOINTS
 62
     0
100
AcDbPoint
 10
-0.0000000000000599
 20
-20.36605325753642
 30
0.0
  0
ENDBLK
  5
1969
330
195C
100
AcDbEntity
  8
0
100
AcDbBlockEnd
  0
BLOCK
  5
1E77
330
1E6B
100
AcDbEntity
  8
0
100
AcDbBlockBegin
  2
*D8
 70
     1
 10
0.0
 20
0.0
 30
0.0
  3
*D8
  1

  0
LINE
  5
2AC7
330
1E6B
100
AcDbEntity
  8
AM_5
100
AcDbLine
 10
-109.4995439835799
 20
-6.000000000000009
 30
0.0
 11
-122.2692914140725
 21
-6.000000000000005
 31
0.0
  0
LINE
  5
2AC8
330
1E6B
100
AcDbEntity
  8
AM_5
100
AcDbLine
 10
-109.4995439835799
 20
5.999999999999997
 30
0.0
 11
-122.2692914140725
 21
6.000000000000001
 31
0.0
  0
LINE
  5
2AC9
330
1E6B
100
AcDbEntity
  8
AM_5
100
AcDbLine
 10
-121.7692914140725
 20
-4.750000000000006
 30
0.0
 11
-121.7692914140725
 21
4.75
 31
0.0
  0
INSERT
  5
2ACA
330
1E6B
100
AcDbEntity
  8
AM_5
100
AcDbBlockReference
  2
_OPEN30
 10
-121.7692914140725
 20
-6.000000000000006
 30
0.0
 41
1.25
 42
1.25
 43
1.25
 50
270.0
  0
INSERT
  5
2ACB
330
1E6B
100
AcDbEntity
  8
AM_5
100
AcDbBlockReference
  2
_OPEN30
 10
-121.7692914140725
 20
6.0
 30
0.0
 41
1.25
 42
1.25
 43
1.25
 50
90.0
  0
MTEXT
  5
2ACC
330
1E6B
100
AcDbEntity
  8
AM_5
 62
     2
100
AcDbMText
 10
-123.3192914140725
 20
-0.0000000000000331
 30
0.0
 40
1.6
 41
0.0
 71
     5
 72
     1
  1
%%c12
  7
ASAMI
 11
0.0000000000000001
 21
1.0
 31
0.0
1001
ACAD
1000
MTEXTBEGIN
1070
    73
1070
     1
1070
    44
1040
1.0
1070
    74
1070
     0
1000
MTEXTEND
  0
POINT
  5
2ACD
330
1E6B
100
AcDbEntity
  8
DEFPOINTS
 62
     0
100
AcDbPoint
 10
-108.9995439835799
 20
-6.000000000000009
 30
0.0
  0
POINT
  5
2ACE
330
1E6B
100
AcDbEntity
  8
DEFPOINTS
 62
     0
100
AcDbPoint
 10
-108.9995439835799
 20
5.999999999999997
 30
0.0
  0
POINT
  5
2ACF
330
1E6B
100
AcDbEntity
  8
DEFPOINTS
 62
     0
100
AcDbPoint
 10
-121.7692914140725
 20
6.0
 30
0.0
  0
ENDBLK
  5
1E78
330
1E6B
100
AcDbEntity
  8
0
100
AcDbBlockEnd
  0
BLOCK
  5
2C0D
330
2C06
100
AcDbEntity
  8
0
100
AcDbBlockBegin
  2
*D9
 70
     1
 10
0.0
 20
0.0
 30
0.0
  3
*D9
  1

  0
LINE
  5
2C6A
330
2C06
100
AcDbEntity
  8
AM_5
100
AcDbLine
 10
-0.9132027498134821
 20
-5.156470464978684
 30
0.0
 11
8.010963706909109
 21
-14.21951932482288
 31
0.0
  0
INSERT
  5
2C6B
330
2C06
100
AcDbEntity
  8
AM_5
100
AcDbBlockReference
  2
_OPEN30
 10
-1.790235466543765
 20
-4.265788920438382
 30
0.0
 41
1.25
 42
1.25
 43
1.25
 50
134.5576181591878
  0
MTEXT
  5
2C6C
330
2C06
100
AcDbEntity
  8
AM_5
 62
     2
100
AcDbMText
 10
6.851829143720929
 20
-10.83319210302569
 30
0.0
 40
1.6
 41
0.0
 71
     5
 72
     1
  1
R6.0
  7
ASAMI
 11
0.7016261733842259
 21
-0.7125452356322427
 31
0.0
1001
ACAD
1000
MTEXTBEGIN
1070
    73
1070
     1
1070
    44
1040
1.0
1070
    74
1070
     0
1000
MTEXTEND
  0
POINT
  5
2C6D
330
2C06
100
AcDbEntity
  8
DEFPOINTS
 62
     0
100
AcDbPoint
 10
-1.790235466543765
 20
-4.265788920438382
 30
0.0
  0
POINT
  5
2C6E
330
2C06
100
AcDbEntity
  8
DEFPOINTS
 62
     0
100
AcDbPoint
 10
-5.999992506834384
 20
0.0094824933401108
 30
0.0
  0
ENDBLK
  5
2C0E
330
2C06
100
AcDbEntity
  8
0
100
AcDbBlockEnd
  0
ENDSEC
  0
SECTION
  2
ENTITIES
  0
DIMENSION
  5
C4F
330
1F
100
AcDbEntity
  8
AM_5
100
AcDbDimension
  2
*D5
 10
-0.0000000000000604
 20
-29.32796600715042
 30
0.0
 11
-54.99977199178999
 21
-27.77796600715042
 31
0.0
 70
    32
  1
<>
  3
AM_JIS
100
AcDbAlignedDimension
 13
-109.9995439835799
 23
-4.500000000000009
 33
0.0
 14
-0.0000000000000586
 24
-0.0000000000000036
 34
0.0
 50
0.0000000000002036
100
AcDbRotatedDimension
1001
GENIUS_GENDTOL_13
1000

1000
H7
1000

1040
0.0
  0
LINE
  5
C50
330
1F
100
AcDbEntity
  8
AM_7
100
AcDbLine
 10
-114.7692904140726
 20
-0.0000000000000036
 30
0.0
 11
2.658315794569177
 21
-0.0000000000000036
 31
0.0
1001
GENIUS_GENODEF_13
1002
{
1000
HIER
1070
     0
1002
}
1002
{
1000
MANEDIT
1070
     0
1002
}
1002
{
1000
NOSEL
1070
     0
1002
}
1002
{
1000
BEHIND
1070
     0
1002
}
1002
{
1000
REACTOR
1002
}
1001
GENIUS_GENOBJ-N-CEN_13
1002
{
1000
OWNER
1000
GEN
1002
}
  0
TEXT
  5
C58
330
1F
100
AcDbEntity
  8
AM_6
100
AcDbText
 10
-64.99977199178999
 20
-40.57796600715046
 30
0.0
 40
2.5
  1
GLB2120SF
 50
0.0000000000002036
 72
     4
 11
-54.99977199178999
 21
-39.32796600715042
 31
0.0
100
AcDbText
  0
DIMENSION
  5
194C
330
1F
100
AcDbEntity
  8
AM_5
100
AcDbDimension
  2
*D6
 10
9.658316794569143
 20
6.009482493319104
 30
0.0
 11
8.108316794569141
 21
0.0094824933401041
 31
0.0
 70
    32
  1
%%c<>
  3
AM_JIS
100
AcDbAlignedDimension
 13
-5.996992506834381
 23
-5.990517506638894
 33
0.0
 14
-5.996992506834381
 24
6.009482493319107
 34
0.0
 50
90.0
100
AcDbRotatedDimension
1001
GENIUS_GENDTOL_13
1000

1000
H7
1000

1040
0.0
  0
DIMENSION
  5
195B
330
1F
100
AcDbEntity
  8
AM_5
100
AcDbDimension
  2
*D7
 10
-0.0000000000000599
 20
-20.36605325753642
 30
0.0
 11
-10.49980986097116
 21
-18.81605325753642
 31
0.0
 70
    32
  1
<>
  3
AM_JIS
100
AcDbAlignedDimension
 13
-20.99961972194226
 23
-5.990517506638893
 33
0.0
 14
-0.0000000000000586
 24
-0.0000000000000036
 34
0.0
 50
359.9999999999988
100
AcDbRotatedDimension
1001
GENIUS_GENDTOL_13
1000

1000
H7
1000

1040
0.0
  0
SPLINE
  5
1C99
330
1F
100
AcDbEntity
  8
AM_0
100
AcDbSpline
210
0.0
220
0.0
230
1.0
 70
     8
 71
     3
 72
     8
 73
     4
 74
     2
 42
0.0000000001
 43
0.0000000001
 44
0.0000000001
 12
-0.9063077870366491
 22
0.4226182617407012
 32
0.0
 13
0.9900295272873
 23
-0.1408599840241551
 33
0.0
 40
0.0
 40
0.0
 40
0.0
 40
0.0
 40
4.664065259525107
 40
4.664065259525107
 40
4.664065259525107
 40
4.664065259525107
 10
-5.111739403348174
 20
1.515038290015559
 30
0.0
 10
-6.520765624666412
 20
2.172078007557457
 30
0.0
 10
-9.873285790529722
 20
5.105961030163396
 30
0.0
 10
-8.334098349154801
 20
4.886967644181956
 30
0.0
 11
-5.111739403348174
 21
1.515038290015559
 31
0.0
 11
-8.334098349154801
 21
4.886967644181956
 31
0.0
  0
ARC
  5
1C9A
330
1F
100
AcDbEntity
  8
AM_5
100
AcDbCircle
 10
-5.999992506834384
 20
0.0094824933401103
 30
0.0
 40
5.999999999978999
100
AcDbArc
 50
270.0
 51
90.0
  0
ARC
  5
1C9B
330
1F
100
AcDbEntity
  8
AM_0
100
AcDbCircle
 10
-12.54747954081784
 20
-12.18858386742407
 30
0.0
 40
17.53517392815177
100
AcDbArc
 50
44.33711907809952
 51
76.82999214053889
  0
ARC
  5
1C9C
330
1F
100
AcDbEntity
  8
AM_0
100
AcDbCircle
 10
-5.973605119090165
 20
-0.5526139029306787
 30
0.0
 40
5.999999999979004
100
AcDbArc
 50
5.375507822153808
 51
90.25198180382437
  0
ARC
  5
1C9D
330
1F
100
AcDbEntity
  8
AM_0
100
AcDbCircle
 10
-5.973605119090165
 20
0.5715788896106009
 30
0.0
 40
5.999999999979004
100
AcDbArc
 50
269.7480181961756
 51
354.6244921778462
  0
ARC
  5
1C9E
330
1F
100
AcDbEntity
  8
AM_0
100
AcDbCircle
 10
-5.909531968126858
 20
1.015704931735635
 30
0.0
 40
5.787722599519068
100
AcDbArc
 50
272.7326936991946
 51
346.7452639699606
  0
ARC
  5
1C9F
330
1F
100
AcDbEntity
  8
AM_0
100
AcDbCircle
 10
-5.137920725875182
 20
1.715430460378167
 30
0.0
 40
4.683201809952508
100
AcDbArc
 50
278.6696104128122
 51
332.9129476995508
  0
LINE
  5
1CA0
330
1F
100
AcDbEntity
  8
AM_0
100
AcDbLine
 10
-5.045880092889709
 20
1.484327589188206
 30
0.0
 11
-0.9683925068521324
 21
-0.4170360982129378
 31
0.0
  0
LINE
  5
1CA1
330
1F
100
AcDbEntity
  8
AM_11
 48
0.5
100
AcDbLine
 10
-20.99961972194226
 20
-5.990517506638893
 30
0.0
 11
-5.999992725835848
 21
-5.990517506638893
 31
0.0
1001
GENIUS_GENODEF_13
1002
{
1000
HIER
1070
     0
1002
}
1002
{
1000
MANEDIT
1070
     0
1002
}
1002
{
1000
NOSEL
1070
     0
1002
}
1002
{
1000
BEHIND
1070
     0
1002
}
1002
{
1000
REACTOR
1002
}
1001
GENIUS_GENOBJ-N-CEN_13
1002
{
1000
OWNER
1000
GEN
1002
}
  0
ARC
  5
1CAA
330
1F
100
AcDbEntity
  8
AM_0
100
AcDbCircle
 10
-5.087314716174545
 20
-5.500080922340321
 30
0.0
 40
0.9154912329975054
100
AcDbArc
 50
126.6343629894024
 51
175.5069543864119
  0
SPLINE
  5
1CAB
330
1F
100
AcDbEntity
  8
AM_0
100
AcDbSpline
210
0.0
220
0.0
230
1.0
 70
     8
 71
     3
 72
     8
 73
     4
 74
     2
 42
0.0000000001
 43
0.0000000001
 44
0.0000000001
 12
0.0000000000000001
 22
1.0
 32
0.0
 40
0.0
 40
0.0
 40
0.0
 40
0.0
 40
1.299592567846441
 40
1.299592567846441
 40
1.299592567846441
 40
1.299592567846441
 10
-5.633594061583128
 20
-4.765436059515059
 30
0.0
 10
-5.633594061583128
 20
-4.332238536899579
 30
0.0
 10
-5.465414407872843
 20
-3.921182285737637
 30
0.0
 10
-5.297234754162559
 20
-3.510126034575697
 30
0.0
 11
-5.633594061583128
 21
-4.765436059515059
 31
0.0
 11
-5.297234754162559
 21
-3.510126034575697
 31
0.0
  0
SPLINE
  5
1CAC
330
1F
100
AcDbEntity
  8
AM_0
100
AcDbSpline
210
0.0
220
0.0
230
1.0
 70
     8
 71
     3
 72
     8
 73
     4
 74
     2
 42
0.0000000001
 43
0.0000000001
 44
0.0000000001
 12
-0.0000000000000001
 22
-1.0
 32
0.0
 13
-1.0
 23
0.0000000000000001
 33
0.0
 40
0.0
 40
0.0
 40
0.0
 40
0.0
 40
1.050571974683377
 40
1.050571974683377
 40
1.050571974683377
 40
1.050571974683377
 10
-4.431991260026065
 20
-2.91426097447853
 30
0.0
 10
-4.431991260026065
 20
-3.264451632706322
 30
0.0
 10
-4.947044095934766
 20
-3.510126034575697
 30
0.0
 10
-5.297234754162559
 20
-3.510126034575697
 30
0.0
 11
-4.431991260026065
 21
-2.91426097447853
 31
0.0
 11
-5.297234754162559
 21
-3.510126034575697
 31
0.0
  0
ARC
  5
1CAD
330
1F
100
AcDbEntity
  8
AM_0
100
AcDbCircle
 10
-0.6889465946346461
 20
-0.1497301321972824
 30
0.0
 40
4.653279934093704
100
AcDbArc
 50
159.4415606715376
 51
216.4487634976257
  0
LINE
  5
1CAF
330
1F
100
AcDbEntity
  8
AM_0
100
AcDbLine
 10
0.0000074931443317
 20
0.0094824933401103
 30
0.0
 11
-0.2759925068545987
 21
-0.3113090196864956
 31
0.0
  0
LINE
  5
1CB0
330
1F
100
AcDbEntity
  8
AM_0
100
AcDbLine
 10
-0.2759925068545987
 20
-0.3113090196864956
 30
0.0
 11
-0.9683925068521324
 21
-0.4170360982129378
 31
0.0
  0
LINE
  5
1CB1
330
1F
100
AcDbEntity
  8
AM_11
 48
0.5
100
AcDbLine
 10
-20.99961972194226
 20
6.009482493361106
 30
0.0
 11
-5.999992506834384
 21
6.009482493361106
 31
0.0
1001
GENIUS_GENODEF_13
1002
{
1000
HIER
1070
     0
1002
}
1002
{
1000
MANEDIT
1070
     0
1002
}
1002
{
1000
NOSEL
1070
     0
1002
}
1002
{
1000
BEHIND
1070
     0
1002
}
1002
{
1000
REACTOR
1002
}
1001
GENIUS_GENOBJ-N-CEN_13
1002
{
1000
OWNER
1000
GEN
1002
}
  0
LINE
  5
1CB2
330
1F
100
AcDbEntity
  8
AM_0
100
AcDbLine
 10
-25.84961604464967
 20
5.087068760276737
 30
0.0
 11
-8.33409834915426
 21
4.886967644181959
 31
0.0
  0
SPLINE
  5
1CB4
330
1F
100
AcDbEntity
  8
AM_0
100
AcDbSpline
210
0.0
220
0.0
230
1.0
 70
     8
 71
     3
 72
     8
 73
     4
 74
     0
 42
0.0000000001
 43
0.0000000001
 40
3.790408995970492
 40
3.790408995970492
 40
3.790408995970492
 40
3.790408995970492
 40
5.485524909568358
 40
5.485524909568358
 40
5.485524909568358
 40
5.485524909568358
 10
-5.999992506818557
 20
5.447328072248614
 30
0.0
 10
-6.64963083693571
 20
5.287731749430937
 30
0.0
 10
-7.293872811383759
 20
5.097818704185888
 30
0.0
 10
-7.933573364833743
 20
4.882391958908078
 30
0.0
  0
SPLINE
  5
1CB5
330
1F
100
AcDbEntity
  8
AM_0
100
AcDbSpline
210
0.0
220
0.0
230
1.0
 70
     8
 71
     3
 72
     8
 73
     4
 74
     2
 42
0.0000000001
 43
0.0000000001
 44
0.0000000001
 12
0.6039933128154179
 22
-0.7969893839156561
 32
0.0
 40
0.0
 40
0.0
 40
0.0
 40
0.0
 40
2.400427856148001
 40
2.400427856148001
 40
2.400427856148001
 40
2.400427856148001
 10
-5.999992506818003
 20
5.447328072248614
 30
0.0
 10
-5.516711715814922
 20
4.80962289951349
 30
0.0
 10
-6.925405032484591
 20
4.848295271847723
 30
0.0
 10
-8.334098349154258
 20
4.886967644181956
 30
0.0
 11
-5.999992506818003
 21
5.447328072248614
 31
0.0
 11
-8.334098349154258
 21
4.886967644181956
 31
0.0
  0
LINE
  5
1E64
330
1F
100
AcDbEntity
  8
AM_0
100
AcDbLine
 10
-108.9995439835799
 20
5.999999999999985
 30
0.0
 11
-32.98321708798729
 21
5.999999999999985
 31
0.0
1001
GENIUS_GENODEF_13
1002
{
1000
HIER
1070
     0
1002
}
1002
{
1000
MANEDIT
1070
     0
1002
}
1002
{
1000
NOSEL
1070
     0
1002
}
1002
{
1000
BEHIND
1070
     0
1002
}
1002
{
1000
REACTOR
1002
}
1001
GENIUS_GENOBJ-N-CEN_13
1002
{
1000
OWNER
1000
GEN
1002
}
  0
LINE
  5
1E65
330
1F
100
AcDbEntity
  8
AM_0
100
AcDbLine
 10
-108.9995439835799
 20
-6.000000000000009
 30
0.0
 11
-33.07822018736944
 21
-6.000000000000009
 31
0.0
1001
GENIUS_GENODEF_13
1002
{
1000
HIER
1070
     0
1002
}
1002
{
1000
MANEDIT
1070
     0
1002
}
1002
{
1000
NOSEL
1070
     0
1002
}
1002
{
1000
BEHIND
1070
     0
1002
}
1002
{
1000
REACTOR
1002
}
1001
GENIUS_GENOBJ-N-CEN_13
1002
{
1000
OWNER
1000
GEN
1002
}
  0
LINE
  5
1E66
330
1F
100
AcDbEntity
  8
AM_0
100
AcDbLine
 10
-109.9995439835799
 20
4.499999999999988
 30
0.0
 11
-108.9995439835799
 21
5.999999999999985
 31
0.0
1001
GENIUS_GENFIL_13
1070
     0
1040
0.5
1040
0.5
1040
0.4999999999999716
1040
45.0
1002
{
1002
}
  0
LINE
  5
1E67
330
1F
100
AcDbEntity
  8
AM_0
100
AcDbLine
 10
-109.9995439835799
 20
-4.500000000000009
 30
0.0
 11
-108.9995439835799
 21
-6.000000000000009
 31
0.0
1001
GENIUS_GENFIL_13
1070
     0
1040
0.5
1040
0.5
1040
0.4999999999999716
1040
45.00000000000036
1002
{
1002
}
  0
LINE
  5
1E68
330
1F
100
AcDbEntity
  8
0
100
AcDbLine
 10
-108.9995439835799
 20
-6.000000000000009
 30
0.0
 11
-108.9995439835799
 21
5.999999999999985
 31
0.0
  0
LINE
  5
1E69
330
1F
100
AcDbEntity
  8
AM_0
100
AcDbLine
 10
-109.9995439835799
 20
-4.500000000000009
 30
0.0
 11
-109.9995439835799
 21
4.499999999999988
 31
0.0
  0
DIMENSION
  5
1E6A
330
1F
100
AcDbEntity
  8
AM_5
100
AcDbDimension
  2
*D8
 10
-121.7692914140725
 20
6.0
 30
0.0
 11
-121.7692914140725
 21
-0.0000000000000333
 31
0.0
 70
   160
  1
%%c<>
  3
AM_JIS
100
AcDbAlignedDimension
 13
-108.9995439835799
 23
-6.000000000000009
 33
0.0
 14
-108.9995439835799
 24
5.999999999999997
 34
0.0
 50
270.0
100
AcDbRotatedDimension
1001
ACAD
1000
DSTYLE
1002
{
1070
    48
1040
0.1
1070
    47
1040
0.1
1070
   274
1070
     2
1070
   272
1070
     3
1002
}
1001
GENIUS_GENDTOL_13
1000

1000
h6
1000

1040
0.0
  0
LINE
  5
2AF1
330
1F
100
AcDbEntity
  8
AM_11
 48
0.5
100
AcDbLine
 10
-20.99961972194226
 20
6.009482493361106
 30
0.0
 11
-20.99961972194226
 21
-5.990517506638893
 31
0.0
  0
SPLINE
  5
2B72
330
1F
100
AcDbEntity
  8
AM_0
100
AcDbSpline
210
0.0
220
0.0
230
1.0
 70
     8
 71
     3
 72
     8
 73
     4
 74
     0
 42
0.0000000001
 43
0.0000000001
 40
3.7904089959839
 40
3.7904089959839
 40
3.7904089959839
 40
3.7904089959839
 40
14.48999654934396
 40
14.48999654934396
 40
14.48999654934396
 40
14.48999654934396
 10
-5.994678997679598
 20
-5.381867790786644
 30
0.0
 10
-11.20281625703279
 20
-3.998889965272683
 30
0.0
 10
-15.26744476931886
 20
-1.787706121632023
 30
0.0
 10
-19.68505914526086
 20
0.9888568198298949
 30
0.0
  0
SPLINE
  5
2B73
330
1F
100
AcDbEntity
  8
AM_0
100
AcDbSpline
210
0.0
220
0.0
230
1.0
 70
     8
 71
     3
 72
     8
 73
     4
 74
     0
 42
0.0000000001
 43
0.0000000001
 40
5.336187364352841
 40
5.336187364352841
 40
5.336187364352841
 40
5.336187364352841
 40
14.43905044399483
 40
14.43905044399483
 40
14.43905044399483
 40
14.43905044399483
 10
-5.542360521283137
 20
-4.733401027947476
 30
0.0
 10
-9.853463462250438
 20
-3.329363180514724
 30
0.0
 10
-13.79250475252476
 20
-1.21195421309364
 30
0.0
 10
-17.13534824931514
 20
0.8083405180165641
 30
0.0
  0
SPLINE
  5
2B74
330
1F
100
AcDbEntity
  8
AM_0
100
AcDbSpline
210
0.0
220
0.0
230
1.0
 70
     8
 71
     3
 72
     8
 73
     4
 74
     0
 42
0.0000000001
 43
0.0000000001
 40
7.981245920543044
 40
7.981245920543044
 40
7.981245920543044
 40
7.981245920543044
 40
14.43905044399483
 40
14.43905044399483
 40
14.43905044399483
 40
14.43905044399483
 10
-5.122289706471622
 20
-3.510126034575697
 30
0.0
 10
-8.02795379747123
 20
-2.303805324042833
 30
0.0
 10
-10.85475535089133
 20
-0.8409056307348437
 30
0.0
 10
-13.70912400238512
 20
0.5006215747708898
 30
0.0
  0
SPLINE
  5
2B75
330
1F
100
AcDbEntity
  8
AM_0
100
AcDbSpline
210
0.0
220
0.0
230
1.0
 70
     8
 71
     3
 72
     8
 73
     4
 74
     0
 42
0.0000000001
 43
0.0000000001
 40
0.0
 40
0.0
 40
0.0
 40
0.0
 40
11.51199025993078
 40
11.51199025993078
 40
11.51199025993078
 40
11.51199025993078
 10
-30.29841989967712
 20
5.627485798919765
 30
0.0
 10
-25.51997939631574
 20
5.293040445050406
 30
0.0
 10
-21.33001423541924
 20
3.130241746231697
 30
0.0
 10
-17.13534824931514
 20
0.8083405180165641
 30
0.0
  0
LINE
  5
2B76
330
1F
100
AcDbEntity
  8
AM_0
100
AcDbLine
 10
-15.64551464563401
 20
-4.63430531807784
 30
0.0
 11
-19.59472369189393
 21
-4.826651601108379
 31
0.0
  0
SPLINE
  5
2B77
330
1F
100
AcDbEntity
  8
AM_0
100
AcDbSpline
210
0.0
220
0.0
230
1.0
 70
     8
 71
     3
 72
     8
 73
     4
 74
     0
 42
0.0000000001
 43
0.0000000001
 40
0.3950956770951979
 40
0.3950956770951979
 40
0.3950956770951979
 40
0.3950956770951979
 40
1.389839699216864
 40
1.389839699216864
 40
1.389839699216864
 40
1.389839699216864
 10
-27.11978871677735
 20
-5.740376722952136
 30
0.0
 10
-26.15326875287967
 20
-5.699648122282058
 30
0.0
 10
-25.19742999348216
 20
-5.609062307626311
 30
0.0
 10
-24.25074641853433
 20
-5.475742362173152
 30
0.0
  0
SPLINE
  5
2B78
330
1F
100
AcDbEntity
  8
AM_0
100
AcDbSpline
210
0.0
220
0.0
230
1.0
 70
     8
 71
     3
 72
     8
 73
     4
 74
     0
 42
0.0000000001
 43
0.0000000001
 40
0.0
 40
0.0
 40
0.0
 40
0.0
 40
1.293721832890842
 40
1.293721832890842
 40
1.293721832890842
 40
1.293721832890842
 10
-33.07822880131503
 20
-6.00000000000001
 30
0.0
 10
-29.59876203314648
 20
-6.000000151679987
 30
0.0
 10
-28.35084269096682
 20
-5.908097186644321
 30
0.0
 10
-27.11978871677737
 20
-5.740376722952079
 30
0.0
  0
SPLINE
  5
2B79
330
1F
100
AcDbEntity
  8
AM_0
100
AcDbSpline
210
0.0
220
0.0
230
1.0
 70
     8
 71
     3
 72
     8
 73
     4
 74
     0
 42
0.0000000001
 43
0.0000000001
 40
0.3443266156513821
 40
0.3443266156513821
 40
0.3443266156513821
 40
0.3443266156513821
 40
1.748655602797241
 40
1.748655602797241
 40
1.748655602797241
 40
1.748655602797241
 10
-24.25074641915289
 20
-5.475742362194759
 30
0.0
 10
-22.88385371050793
 20
-5.427332872496439
 30
0.0
 10
-21.53668162206614
 20
-5.282582532251931
 30
0.0
 10
-17.62011916876398
 20
-4.730478459593109
 30
0.0
  0
SPLINE
  5
2B7A
330
1F
100
AcDbEntity
  8
AM_0
100
AcDbSpline
210
0.0
220
0.0
230
1.0
 70
     8
 71
     3
 72
     8
 73
     4
 74
     0
 42
0.0000000001
 43
0.0000000001
 40
4.071346735624547
 40
4.071346735624547
 40
4.071346735624547
 40
4.071346735624547
 40
6.91280490763674
 40
6.91280490763674
 40
6.91280490763674
 40
6.91280490763674
 10
-33.07822880131505
 20
-6.00000000000001
 30
0.0
 10
-37.16258235475313
 20
-6.00000000000001
 30
0.0
 10
-39.69097142574104
 20
-5.518979879017132
 30
0.0
 10
-40.140046131722
 20
-3.523233713070651
 30
0.0
  0
SPLINE
  5
2B7B
330
1F
100
AcDbEntity
  8
AM_0
100
AcDbSpline
210
0.0
220
0.0
230
1.0
 70
     8
 71
     3
 72
     8
 73
     4
 74
     0
 42
0.0000000001
 43
0.0000000001
 40
0.0
 40
0.0
 40
0.0
 40
0.0
 40
17.64836150091755
 40
17.64836150091755
 40
17.64836150091755
 40
17.64836150091755
 10
-19.59472369189393
 20
-4.826651601108375
 30
0.0
 10
-26.94377523678701
 20
-4.621345289773103
 30
0.0
 10
-33.34310518503347
 20
-1.129814985470628
 30
0.0
 10
-39.74243513327991
 20
2.361715318831846
 30
0.0
  0
ELLIPSE
  5
2B7C
330
1F
100
AcDbEntity
  8
AM_0
100
AcDbEllipse
 10
-32.7297440371254
 20
-9.610038071470958
 30
0.0
 11
-10.62086036009244
 21
0.000000000000036
 31
0.0
210
0.0
220
0.0
230
1.0
 40
0.7999948695506843
 41
-1.5379790867995
 42
-0.7985976127715342
  0
SPLINE
  5
2B7D
330
1F
100
AcDbEntity
  8
AM_0
100
AcDbSpline
210
0.0
220
0.0
230
1.0
 70
     8
 71
     3
 72
     8
 73
     4
 74
     0
 42
0.0000000001
 43
0.0000000001
 40
0.0
 40
0.0
 40
0.0
 40
0.0
 40
11.69088918922736
 40
11.69088918922736
 40
11.69088918922736
 40
11.69088918922736
 10
-32.88820537465937
 20
5.999999999999989
 30
0.0
 10
-28.03550682638509
 20
5.660357289777426
 30
0.0
 10
-23.86028298582298
 20
3.32460705480366
 30
0.0
 10
-19.68505914526086
 20
0.9888568198298944
 30
0.0
  0
ELLIPSE
  5
2B7E
330
1F
100
AcDbEntity
  8
AM_0
100
AcDbEllipse
 10
-32.98321708798728
 20
0.1633674855639029
 30
0.0
 11
7.296456061367663
 21
0.0000000000000183
 31
0.0
210
0.0
220
0.0
230
1.0
 40
0.7999948695506831
 41
1.55777433395239
 42
2.755453484347745
  0
SPLINE
  5
2B7F
330
1F
100
AcDbEntity
  8
AM_0
100
AcDbSpline
210
0.0
220
0.0
230
1.0
 70
     8
 71
     3
 72
     8
 73
     4
 74
     0
 42
0.0000000001
 43
0.0000000001
 40
0.0
 40
0.0
 40
0.0
 40
0.0
 40
2.238610194515266
 40
2.238610194515266
 40
2.238610194515266
 40
2.238610194515266
 10
-17.46891750581008
 20
-4.685244696174898
 30
0.0
 10
-15.27418755358816
 20
-4.685244696174898
 30
0.0
 10
-13.11922539762257
 20
-4.459517518451285
 30
0.0
 10
-10.99169904474446
 20
-4.078061158258272
 30
0.0
  0
SPLINE
  5
2B80
330
1F
100
AcDbEntity
  8
AM_0
100
AcDbSpline
210
0.0
220
0.0
230
1.0
 70
     8
 71
     3
 72
     8
 73
     4
 74
     0
 42
0.0000000001
 43
0.0000000001
 40
0.0
 40
0.0
 40
0.0
 40
0.0
 40
12.33082961416466
 40
12.33082961416466
 40
12.33082961416466
 40
12.33082961416466
 10
-27.84692897579335
 20
5.294975838484262
 30
0.0
 10
-22.72156596778697
 20
5.008257441076338
 30
0.0
 10
-18.15025733407133
 20
2.819082452971925
 30
0.0
 10
-13.70912400238512
 20
0.5006215747708893
 30
0.0
  0
DIMENSION
  5
2C05
330
1F
100
AcDbEntity
  8
AM_5
100
AcDbDimension
  2
*D9
 10
-5.999992506834384
 20
0.0094824933401108
 30
0.0
 11
5.747384028490953
 21
-11.92071267177124
 31
0.0
 70
   164
  1
<>
  3
AM_JIS$4
100
AcDbRadialDimension
 15
-1.790235466543765
 25
-4.265788920438382
 35
0.0
 40
0.0
1001
GENIUS_GENDTOL_13
1000

1000
h7
1000

1040
0.0
1001
ACAD
1000
DSTYLE
1002
{
1070
    78
1070
     0
1070
   271
1070
     1
1070
   288
1070
     1
1070
   289
1070
     0
1070
    74
1070
     0
1002
}
  0
VIEWPORT
  5
110
330
101
100
AcDbEntity
 67
     1
  8
0
100
AcDbViewport
 10
420.5
 20
297.0
 30
0.0
 40
948.9782706766916
 41
628.452
 68
     1
 69
     1
1001
ACAD
1000
MVIEW
1002
{
1070
    16
1010
0.0
1020
0.0
1030
0.0
1010
0.0
1020
0.0
1030
1.0
1040
0.0
1040
628.452
1040
420.5
1040
297.0
1040
50.0
1040
0.0
1040
0.0
1070
     0
1070
   100
1070
     1
1070
     1
1070
     0
1070
     0
1070
     0
1070
     0
1040
0.0
1040
0.0
1040
0.0
1040
10.0
1040
10.0
1040
10.0
1040
10.0
1070
     0
1002
{
1002
}
1002
}
  0
ENDSEC
  0
SECTION
  2
OBJECTS
  0
DICTIONARY
  5
C
330
0
100
AcDbDictionary
  3
ACAD_GROUP
350
D
  3
ACAD_LAYOUT
350
1A
  3
ACAD_MLINESTYLE
350
17
  3
ACAD_PLOTSETTINGS
350
19
  3
ACAD_PLOTSTYLENAME
350
E
  3
ACDBVARIABLEDICTIONARY
350
34
  3
ACMDICTIONARY
350
43
  3
AMG
350
2B
  3
AMGSNAPSETTINGS
350
6E
  3
DWGPROPS
350
2CA3
  3
ACDBHEADERROUNDTRIPXREC
350
2CB0
  0
DICTIONARY
  5
74
330
1F
100
AcDbDictionary
280
     1
  3
ACAD_INDEX
360
2CA5
  3
ACAD_LAYOUTSELFREF
360
2CD3
  0
DICTIONARY
  5
2CD8
330
101
100
AcDbDictionary
280
     1
  3
ACAD_LAYOUTSELFREF
360
2CD9
  0
DICTIONARY
  5
D
102
{ACAD_REACTORS
330
C
102
}
330
C
100
AcDbDictionary
  0
DICTIONARY
  5
1A
102
{ACAD_REACTORS
330
C
102
}
330
C
100
AcDbDictionary
  0
DICTIONARY
  5
17
102
{ACAD_REACTORS
330
C
102
}
330
C
100
AcDbDictionary
  3
STANDARD
350
18
  0
DICTIONARY
  5
19
102
{ACAD_REACTORS
330
C
102
}
330
C
100
AcDbDictionary
  0
ACDBDICTIONARYWDFLT
  5
E
102
{ACAD_REACTORS
330
C
102
}
330
C
100
AcDbDictionary
281
     1
  3
Normal
350
F
100
AcDbDictionaryWithDefault
340
F
  0
DICTIONARY
  5
34
102
{ACAD_REACTORS
330
C
102
}
330
C
100
AcDbDictionary
  3
INDEXCTL
350
35
  3
SORTENTS
350
B5E
  0
DICTIONARY
  5
43
102
{ACAD_REACTORS
330
C
102
}
330
C
100
AcDbDictionary
  3
ACMSTDDICTIONARY
350
260
  0
DICTIONARY
  5
2B
102
{ACAD_REACTORS
330
C
102
}
330
C
100
AcDbDictionary
  3
ACMGSETTINGS
350
2C
  0
DICTIONARY
  5
6E
102
{ACAD_REACTORS
330
C
102
}
330
C
100
AcDbDictionary
  0
XRECORD
  5
2CA3
102
{ACAD_REACTORS
330
C
102
}
330
C
100
AcDbXrecord
  1
DWGPROPS COOKIE
  2

  3

  4

  6

  7

  8

  9

300
AmdtFileType=82
301
=
302
=
303
=
304
=
305
=
306
=
307
=
308
=
309
=
 40
0.3179320717592593
 41
2452838.620506898
 42
2452846.388951111
  1

 90
        1
  0
DICTIONARY
  5
2CB0
102
{ACAD_REACTORS
330
C
102
}
330
C
100
AcDbDictionary
  3
TSTACKALIGN
350
2CB1
  3
TSTACKSIZE
350
2CB2
  3
HYPERLINKBASE
350
2CB3
  3
STYLESHEET
350
2CB4
  3
LAYOUTDICT
350
2CB5
  3
PLOTSETDICT
350
2CB6
  3
PLOTSTYLNAMDICT
350
2CB7
  3
LWETCUNION
350
2CB8
  3
INSUNITS
350
2CB9
  3
CEPSNTYPE
350
2CBA
  3
FINGERPRINTGUID
350
2CBB
  3
VERSIONGUID
350
2CBC
  3
PSVPSCALE
350
2CBD
  3
DIMSTYLEDATA
350
2CBE
  3
PUCSORTHOREF
350
2CBF
  3
PUCSORTHOVIEW
350
2CC0
  3
PUCSBASE
350
2CC1
  3
PUCSORGTOP
350
2CC2
  3
PUCSORGBOTTOM
350
2CC3
  3
PUCSORGLEFT
350
2CC4
  3
PUCSORGRIGHT
350
2CC5
  3
PUCSORGFRONT
350
2CC6
  3
PUCSORGBACK
350
2CC7
  3
UCSORTHOREF
350
2CC8
  3
UCSORTHOVIEW
350
2CC9
  3
UCSBASE
350
2CCA
  3
UCSORGTOP
350
2CCB
  3
UCSORGBOTTOM
350
2CCC
  3
UCSORGLEFT
350
2CCD
  3
UCSORGRIGHT
350
2CCE
  3
UCSORGFRONT
350
2CCF
  3
UCSORGBACK
350
2CD0
  0
DICTIONARY
  5
2CA5
102
{ACAD_REACTORS
330
74
102
}
330
74
100
AcDbDictionary
  3
*A1
350
2CA6
  0
XRECORD
  5
2CD3
102
{ACAD_REACTORS
330
74
102
}
330
74
100
AcDbXrecord
340
1F
  0
XRECORD
  5
2CD9
102
{ACAD_REACTORS
330
2CD8
102
}
330
2CD8
100
AcDbXrecord
340
101
  0
MLINESTYLE
  5
18
102
{ACAD_REACTORS
330
17
102
}
330
17
100
AcDbMlineStyle
  2
STANDARD
 70
     0
  3

 62
   256
 51
90.0
 52
90.0
 71
     2
 49
0.5
 62
   256
  6
BYLAYER
 49
-0.5
 62
   256
  6
BYLAYER
  0
ACDBPLACEHOLDER
  5
F
102
{ACAD_REACTORS
330
E
102
}
330
E
100
AcDbPlaceHolder
280
     0
  0
DICTIONARYVAR
  5
35
102
{ACAD_REACTORS
330
34
102
}
330
34
100
DictionaryVariables
280
     0
  1
1
  0
DICTIONARYVAR
  5
B5E
102
{ACAD_REACTORS
330
34
102
}
330
34
100
DictionaryVariables
280
     0
  1
96
  0
DICTIONARY
  5
260
102
{ACAD_REACTORS
330
43
102
}
330
43
100
AcDbDictionary
  0
DICTIONARY
  5
2C
102
{ACAD_REACTORS
330
2B
102
}
330
2B
100
AcDbDictionary
  3
DWGSETTINGS
350
2D
  0
XRECORD
  5
2CB1
102
{ACAD_REACTORS
330
2CB0
102
}
330
2CB0
100
AcDbXrecord
 90
        1
  0
XRECORD
  5
2CB2
102
{ACAD_REACTORS
330
2CB0
102
}
330
2CB0
100
AcDbXrecord
 90
       70
  0
XRECORD
  5
2CB3
102
{ACAD_REACTORS
330
2CB0
102
}
330
2CB0
100
AcDbXrecord
  1

  0
XRECORD
  5
2CB4
102
{ACAD_REACTORS
330
2CB0
102
}
330
2CB0
100
AcDbXrecord
  1
ASAMI.ctb
  0
XRECORD
  5
2CB5
102
{ACAD_REACTORS
330
2CB0
102
}
330
2CB0
100
AcDbXrecord
340
1A
  0
XRECORD
  5
2CB6
102
{ACAD_REACTORS
330
2CB0
102
}
330
2CB0
100
AcDbXrecord
340
19
  0
XRECORD
  5
2CB7
102
{ACAD_REACTORS
330
2CB0
102
}
330
2CB0
100
AcDbXrecord
340
E
  0
XRECORD
  5
2CB8
102
{ACAD_REACTORS
330
2CB0
102
}
330
2CB0
100
AcDbXrecord
 90
    10781
  0
XRECORD
  5
2CB9
102
{ACAD_REACTORS
330
2CB0
102
}
330
2CB0
100
AcDbXrecord
 90
        4
  0
XRECORD
  5
2CBA
102
{ACAD_REACTORS
330
2CB0
102
}
330
2CB0
100
AcDbXrecord
 90
        0
  0
XRECORD
  5
2CBB
102
{ACAD_REACTORS
330
2CB0
102
}
330
2CB0
100
AcDbXrecord
  1
{AFB28963-8C59-40AE-9337-C84526B81ACE}
  0
XRECORD
  5
2CBC
102
{ACAD_REACTORS
330
2CB0
102
}
330
2CB0
100
AcDbXrecord
  1
{0F437BD0-C792-489F-8043-C407EC258E7E}
  0
XRECORD
  5
2CBD
102
{ACAD_REACTORS
330
2CB0
102
}
330
2CB0
100
AcDbXrecord
 40
0.0
  0
XRECORD
  5
2CBE
102
{ACAD_REACTORS
330
2CB0
102
}
330
2CB0
100
AcDbXrecord
1000
DSTYLE
1002
{
1070
    79
 70
     2
1070
   341
340
59
1070
   342
340
59
1070
   371
 70
    -1
1070
   372
 70
    -1
1002
}
  0
XRECORD
  5
2CBF
102
{ACAD_REACTORS
330
2CB0
102
}
330
2CB0
100
AcDbXrecord
340
0
  0
XRECORD
  5
2CC0
102
{ACAD_REACTORS
330
2CB0
102
}
330
2CB0
100
AcDbXrecord
 70
     0
  0
XRECORD
  5
2CC1
102
{ACAD_REACTORS
330
2CB0
102
}
330
2CB0
100
AcDbXrecord
340
0
  0
XRECORD
  5
2CC2
102
{ACAD_REACTORS
330
2CB0
102
}
330
2CB0
100
AcDbXrecord
 10
0.0
 20
0.0
 30
0.0
  0
XRECORD
  5
2CC3
102
{ACAD_REACTORS
330
2CB0
102
}
330
2CB0
100
AcDbXrecord
 10
0.0
 20
0.0
 30
0.0
  0
XRECORD
  5
2CC4
102
{ACAD_REACTORS
330
2CB0
102
}
330
2CB0
100
AcDbXrecord
 10
0.0
 20
0.0
 30
0.0
  0
XRECORD
  5
2CC5
102
{ACAD_REACTORS
330
2CB0
102
}
330
2CB0
100
AcDbXrecord
 10
0.0
 20
0.0
 30
0.0
  0
XRECORD
  5
2CC6
102
{ACAD_REACTORS
330
2CB0
102
}
330
2CB0
100
AcDbXrecord
 10
0.0
 20
0.0
 30
0.0
  0
XRECORD
  5
2CC7
102
{ACAD_REACTORS
330
2CB0
102
}
330
2CB0
100
AcDbXrecord
 10
0.0
 20
0.0
 30
0.0
  0
XRECORD
  5
2CC8
102
{ACAD_REACTORS
330
2CB0
102
}
330
2CB0
100
AcDbXrecord
340
0
  0
XRECORD
  5
2CC9
102
{ACAD_REACTORS
330
2CB0
102
}
330
2CB0
100
AcDbXrecord
 70
     0
  0
XRECORD
  5
2CCA
102
{ACAD_REACTORS
330
2CB0
102
}
330
2CB0
100
AcDbXrecord
340
0
  0
XRECORD
  5
2CCB
102
{ACAD_REACTORS
330
2CB0
102
}
330
2CB0
100
AcDbXrecord
 10
0.0
 20
0.0
 30
0.0
  0
XRECORD
  5
2CCC
102
{ACAD_REACTORS
330
2CB0
102
}
330
2CB0
100
AcDbXrecord
 10
0.0
 20
0.0
 30
0.0
  0
XRECORD
  5
2CCD
102
{ACAD_REACTORS
330
2CB0
102
}
330
2CB0
100
AcDbXrecord
 10
0.0
 20
0.0
 30
0.0
  0
XRECORD
  5
2CCE
102
{ACAD_REACTORS
330
2CB0
102
}
330
2CB0
100
AcDbXrecord
 10
0.0
 20
0.0
 30
0.0
  0
XRECORD
  5
2CCF
102
{ACAD_REACTORS
330
2CB0
102
}
330
2CB0
100
AcDbXrecord
 10
0.0
 20
0.0
 30
0.0
  0
XRECORD
  5
2CD0
102
{ACAD_REACTORS
330
2CB0
102
}
330
2CB0
100
AcDbXrecord
 10
0.0
 20
0.0
 30
0.0
  0
LAYER_INDEX
  5
2CA6
102
{ACAD_REACTORS
330
2CA5
102
}
330
2CA5
100
AcDbIndex
 40
2453152.356230138
100
AcDbLayerIndex
  8
0
360
2CA7
 90
        1
  8
AM_0
360
2CA8
 90
       36
  8
AM_11
360
2CA9
 90
        3
  8
AM_7
360
2CAA
 90
        1
  8
AM_5
360
2CAB
 90
        6
  8
Defpoints
360
2CAC
 90
        0
  8
AM_6
360
2CAD
 90
        1
  8
AM_CL
360
2CAE
 90
        0
  0
XRECORD
  5
2D
102
{ACAD_REACTORS
330
2C
102
}
330
2C
100
AcDbXrecord
  1
VERSION
140
15.0
  1
PRODUCT
  2
AutoCAD Mechanical 2000
  0
IDBUFFER
  5
2CA7
330
0
100
AcDbIdBuffer
330
1E68
  0
IDBUFFER
  5
2CA8
330
0
100
AcDbIdBuffer
330
1E64
330
1E65
330
1E66
330
1E67
330
1E69
330
2B72
330
2B73
330
2B74
330
2B75
330
2B76
330
2B77
330
2B78
330
2B79
330
2B7A
330
2B7B
330
2B7C
330
2B7D
330
2B7E
330
2B7F
330
2B80
330
1C99
330
1C9B
330
1C9C
330
1C9D
330
1C9E
330
1C9F
330
1CA0
330
1CAA
330
1CAB
330
1CAC
330
1CAD
330
1CAF
330
1CB0
330
1CB2
330
1CB4
330
1CB5
  0
IDBUFFER
  5
2CA9
330
0
100
AcDbIdBuffer
330
1CA1
330
1CB1
330
2AF1
  0
IDBUFFER
  5
2CAA
330
0
100
AcDbIdBuffer
330
C50
  0
IDBUFFER
  5
2CAB
330
0
100
AcDbIdBuffer
330
C4F
330
194C
330
195B
330
1C9A
330
1E6A
330
2C05
  0
IDBUFFER
  5
2CAC
330
0
100
AcDbIdBuffer
  0
IDBUFFER
  5
2CAD
330
0
100
AcDbIdBuffer
330
C58
  0
IDBUFFER
  5
2CAE
330
0
100
AcDbIdBuffer
  0
ENDSEC
  0
EOF
