  0
SECTION
  2
HEADER
  9
$ACADVER
  1
AC1014
  9
$ACADMAINTVER
 70
     9
  9
$DWGCODEPAGE
  3
ANSI_932
  9
$INSBASE
 10
0.0
 20
0.0
 30
0.0
  9
$EXTMIN
 10
-59.35000099999999
 20
-27.25000000000005
 30
-0.00000001
  9
$EXTMAX
 10
5.227428229665076
 20
5.50000000000237
 30
0.00000001
  9
$LIMMIN
 10
-63.80936315404685
 20
-42.38809789562484
  9
$LIMMAX
 10
9.974356200594598
 20
8.473225797498059
  9
$ORTHOMODE
 70
     0
  9
$REGENMODE
 70
     1
  9
$FILLMODE
 70
     1
  9
$QTEXTMODE
 70
     0
  9
$MIRRTEXT
 70
     0
  9
$DRAGMODE
 70
     2
  9
$LTSCALE
 40
1.0
  9
$OSMODE
 70
  2103
  9
$ATTMODE
 70
     1
  9
$TEXTSIZE
 40
2.5
  9
$TRACEWID
 40
1.0
  9
$TEXTSTYLE
  7
ACJISGDT
  9
$CLAYER
  8
AM_11
  9
$CELTYPE
  6
BYLAYER
  9
$CECOLOR
 62
   256
  9
$CELTSCALE
 40
1.0
  9
$DELOBJ
 70
     1
  9
$DISPSILH
 70
     0
  9
$DIMSCALE
 40
0.5
  9
$DIMASZ
 40
2.5
  9
$DIMEXO
 40
1.0
  9
$DIMDLI
 40
12.0
  9
$DIMRND
 40
0.0
  9
$DIMDLE
 40
0.0
  9
$DIMEXE
 40
1.0
  9
$DIMTP
 40
0.1
  9
$DIMTM
 40
0.1
  9
$DIMTXT
 40
3.2
  9
$DIMCEN
 40
0.0
  9
$DIMTSZ
 40
0.0
  9
$DIMTOL
 70
     0
  9
$DIMLIM
 70
     0
  9
$DIMTIH
 70
     0
  9
$DIMTOH
 70
     0
  9
$DIMSE1
 70
     0
  9
$DIMSE2
 70
     0
  9
$DIMTAD
 70
     3
  9
$DIMZIN
 70
     8
  9
$DIMBLK
  1
OPEN30
  9
$DIMASO
 70
     1
  9
$DIMSHO
 70
     1
  9
$DIMPOST
  1

  9
$DIMAPOST
  1
"
  9
$DIMALT
 70
     0
  9
$DIMALTD
 70
     2
  9
$DIMALTF
 40
0.0393701
  9
$DIMLFAC
 40
1.0
  9
$DIMTOFL
 70
     1
  9
$DIMTVP
 40
0.0
  9
$DIMTIX
 70
     0
  9
$DIMSOXD
 70
     0
  9
$DIMSAH
 70
     0
  9
$DIMBLK1
  1

  9
$DIMBLK2
  1

  9
$DIMSTYLE
  2
AM_JIS
  9
$DIMCLRD
 70
   256
  9
$DIMCLRE
 70
   256
  9
$DIMCLRT
 70
     2
  9
$DIMTFAC
 40
0.71
  9
$DIMGAP
 40
1.5
  9
$DIMJUST
 70
     0
  9
$DIMSD1
 70
     0
  9
$DIMSD2
 70
     0
  9
$DIMTOLJ
 70
     0
  9
$DIMTZIN
 70
     0
  9
$DIMALTZ
 70
     0
  9
$DIMALTTZ
 70
     0
  9
$DIMFIT
 70
     3
  9
$DIMUPT
 70
     0
  9
$DIMUNIT
 70
     2
  9
$DIMDEC
 70
     3
  9
$DIMTDEC
 70
     3
  9
$DIMALTU
 70
     2
  9
$DIMALTTD
 70
     2
  9
$DIMTXSTY
  7
ASAMI
  9
$DIMAUNIT
 70
     0
  9
$LUNITS
 70
     2
  9
$LUPREC
 70
     2
  9
$SKETCHINC
 40
1.0
  9
$FILLETRAD
 40
2.5
  9
$AUNITS
 70
     0
  9
$AUPREC
 70
     0
  9
$MENU
  1
.
  9
$ELEVATION
 40
0.0
  9
$PELEVATION
 40
0.0
  9
$THICKNESS
 40
0.0
  9
$LIMCHECK
 70
     0
  9
$BLIPMODE
 70
     0
  9
$CHAMFERA
 40
0.5
  9
$CHAMFERB
 40
0.5
  9
$CHAMFERC
 40
20.0
  9
$CHAMFERD
 40
0.0
  9
$SKPOLY
 70
     0
  9
$TDCREATE
 40
2452808.406212557
  9
$TDUPDATE
 40
2452839.677811770
  9
$TDINDWG
 40
0.0415896296
  9
$TDUSRTIMER
 40
0.0415896296
  9
$USRTIMER
 70
     1
  9
$ANGBASE
 50
0.0
  9
$ANGDIR
 70
     0
  9
$PDMODE
 70
     0
  9
$PDSIZE
 40
0.0
  9
$PLINEWID
 40
0.0
  9
$COORDS
 70
     2
  9
$SPLFRAME
 70
     0
  9
$SPLINETYPE
 70
     6
  9
$SPLINESEGS
 70
     8
  9
$ATTDIA
 70
     1
  9
$ATTREQ
 70
     1
  9
$HANDLING
 70
 12289
  9
$HANDSEED
  5
1528
  9
$SURFTAB1
 70
     6
  9
$SURFTAB2
 70
     6
  9
$SURFTYPE
 70
     6
  9
$SURFU
 70
     6
  9
$SURFV
 70
     6
  9
$UCSNAME
  2

  9
$UCSORG
 10
0.0000000000000142
 20
0.000000000000004
 30
0.0
  9
$UCSXDIR
 10
1.0
 20
0.0
 30
0.0
  9
$UCSYDIR
 10
0.0
 20
1.0
 30
0.0
  9
$PUCSNAME
  2

  9
$PUCSORG
 10
0.0
 20
0.0
 30
0.0
  9
$PUCSXDIR
 10
1.0
 20
0.0
 30
0.0
  9
$PUCSYDIR
 10
0.0
 20
1.0
 30
0.0
  9
$USERI1
 70
     0
  9
$USERI2
 70
     0
  9
$USERI3
 70
     0
  9
$USERI4
 70
     0
  9
$USERI5
 70
     0
  9
$USERR1
 40
0.0
  9
$USERR2
 40
0.0
  9
$USERR3
 40
0.0
  9
$USERR4
 40
0.0
  9
$USERR5
 40
0.0
  9
$WORLDVIEW
 70
     1
  9
$SHADEDGE
 70
     3
  9
$SHADEDIF
 70
    70
  9
$TILEMODE
 70
     1
  9
$MAXACTVP
 70
    64
  9
$PINSBASE
 10
0.0
 20
0.0
 30
0.0
  9
$PLIMCHECK
 70
     0
  9
$PEXTMIN
 10
1.000000000000000E+20
 20
1.000000000000000E+20
 30
1.000000000000000E+20
  9
$PEXTMAX
 10
-1.000000000000000E+20
 20
-1.000000000000000E+20
 30
-1.000000000000000E+20
  9
$PLIMMIN
 10
0.0
 20
0.0
  9
$PLIMMAX
 10
841.0
 20
594.0
  9
$UNITMODE
 70
     0
  9
$VISRETAIN
 70
     1
  9
$PLINEGEN
 70
     0
  9
$PSLTSCALE
 70
     0
  9
$TREEDEPTH
 70
  3020
  9
$PICKSTYLE
 70
     0
  9
$CMLSTYLE
  2
STANDARD
  9
$CMLJUST
 70
     0
  9
$CMLSCALE
 40
20.0
  9
$PROXYGRAPHICS
 70
     1
  9
$MEASUREMENT
 70
     1
  0
ENDSEC
  0
SECTION
  2
CLASSES
  0
CLASS
  1
ACDBDICTIONARYWDFLT
  2
AcDbDictionaryWithDefault
  3
AutoCAD 2000
 90
        0
280
     0
281
     0
  0
CLASS
  1
ACDBPLACEHOLDER
  2
AcDbPlaceHolder
  3
AutoCAD 2000
 90
        0
280
     0
281
     0
  0
CLASS
  1
LAYOUT
  2
AcDbLayout
  3
AutoCAD 2000
 90
        0
280
     0
281
     0
  0
CLASS
  1
AMGSETTINGSOBJ
  2
AmgSettingsObj
  3
"AcadM|Product Description: AutoCAD Mechanical 2000|Company: Autodesk"
 90
        0
280
     0
281
     0
  0
CLASS
  1
ACME_DOCUMENT
  2
AcMeDbDoc
  3
AcMeServices
 90
        0
280
     0
281
     0
  0
CLASS
  1
ACMESCOPE
  2
AcMeScope
  3
AcMeServices
 90
        0
280
     0
281
     0
  0
CLASS
  1
ACMECOMMANDHISTORY
  2
AcMeCommandHistory
  3
AcMeServices
 90
        0
280
     0
281
     0
  0
CLASS
  1
DICTIONARYVAR
  2
AcDbDictionaryVar
  3
AutoCAD 2000
 90
        0
280
     0
281
     0
  0
CLASS
  1
ACIMSYSVARMAN
  2
AcImSysVarManager
  3
AcMeServices
 90
        0
280
     0
281
     0
  0
CLASS
  1
ACIMREALSYSVAR
  2
AcImRealSysVar
  3
AcMeServices
 90
        0
280
     0
281
     0
  0
CLASS
  1
ACIMINTSYSVAR
  2
AcImIntSysVar
  3
AcMeServices
 90
        0
280
     0
281
     0
  0
CLASS
  1
ACMEDRAWINGMAN
  2
AcMeDrawingMan
  3
AcMeServices
 90
        0
280
     0
281
     0
  0
CLASS
  1
ACMEVIEW
  2
AcMeView
  3
AcMeServices
 90
        0
280
     0
281
     0
  0
CLASS
  1
ACDBENTITYCACHE
  2
AcMeEntityCache
  3
AcMeServices
 90
        0
280
     0
281
     0
  0
CLASS
  1
GSMANAGER
  2
AcMeGSManager
  3
AcMeServices
 90
        0
280
     0
281
     0
  0
CLASS
  1
AmdtInternalReactor
  2
AmdtInternalReactor
  3
AcMeServices
 90
        0
280
     0
281
     0
  0
CLASS
  1
ACMESTATEMGR
  2
AcMeStateMgr
  3
AcMeServices
 90
        0
280
     0
281
     0
  0
CLASS
  1
ACME_DATABASE
  2
AcMeDbDatabase
  3
AcMeServices
 90
        0
280
     0
281
     0
  0
CLASS
  1
ACRFINSADJUSTERMGR
  2
AcRfInsAdjusterMgr
  3
AcMeServices
 90
        0
280
     0
281
     0
  0
CLASS
  1
ACMDATADICTIONARY
  2
AcmDataDictionary
  3
"AcmSymBB|Product Description: AutoCAD Mechanical 2000|Company: Autodesk"
 90
        0
280
     0
281
     0
  0
CLASS
  1
ACMDATAENTRYBLOCK
  2
AcmDataEntryBlock
  3
"AcmSymBB|Product Description: AutoCAD Mechanical 2000|Company: Autodesk"
 90
        0
280
     0
281
     0
  0
CLASS
  1
AMGOBJPROPCFG
  2
AmgObjPropCfg
  3
"AmgLay|Product Description: AutoCAD Mechanical 2000|Company: Autodesk"
 90
        1
280
     0
281
     0
  0
CLASS
  1
ACAMGFILTERDAT
  2
AcAmgFilterDat
  3
"AcadM|Product Description: AutoCAD Mechanical 2000|Company: Autodesk"
 90
        0
280
     0
281
     0
  0
CLASS
  1
LAYER_INDEX
  2
AcDbLayerIndex
  3
AutoCAD 2000
 90
        0
280
     0
281
     0
  0
CLASS
  1
IDBUFFER
  2
AcDbIdBuffer
  3
AutoCAD 2000
 90
        0
280
     0
281
     0
  0
CLASS
  1
ACIMSTRSYSVAR
  2
AcImStrSysVar
  3
AcMeServices
 90
        0
280
     0
281
     0
  0
CLASS
  1
ACMSTANDARDJIS
  2
AcmStandardJIS
  3
"AcmSymBB|Product Description: AutoCAD Mechanical 2000|Company: Autodesk"
 90
        0
280
     0
281
     0
  0
CLASS
  1
ACMSURFSTANDARDJIS
  2
AcmSurfTextStdJIS
  3
"AcmSymBB|Product Description: AutoCAD Mechanical 2000|Company: Autodesk"
 90
        0
280
     0
281
     0
  0
CLASS
  1
ACMFCFSTANDARDJIS
  2
AcmFCFStdJIS
  3
"AcmSymBB|Product Description: AutoCAD Mechanical 2000|Company: Autodesk"
 90
        0
280
     0
281
     0
  0
CLASS
  1
ACMWELDSTANDARDJIS
  2
AcmWeldingStdJIS
  3
"AcmSymBB|Product Description: AutoCAD Mechanical 2000|Company: Autodesk"
 90
        0
280
     0
281
     0
  0
CLASS
  1
ACMIDSTANDARDJIS
  2
AcmIdStdJIS
  3
"AcmSymBB|Product Description: AutoCAD Mechanical 2000|Company: Autodesk"
 90
        0
280
     0
281
     0
  0
CLASS
  1
ACMDATUMSTANDARDJIS
  2
AcmDatumStdJIS
  3
"AcmSymBB|Product Description: AutoCAD Mechanical 2000|Company: Autodesk"
 90
        0
280
     0
281
     0
  0
CLASS
  1
ACMBOMSTANDARDJIS
  2
AcmBOMStdJIS
  3
"AcmSymBB|Product Description: AutoCAD Mechanical 2000|Company: Autodesk"
 90
        0
280
     0
281
     0
  0
CLASS
  1
ACMSTANDARDANSI
  2
AcmStandardANSI
  3
"AcmSymBB|Product Description: AutoCAD Mechanical 2000|Company: Autodesk"
 90
        0
280
     0
281
     0
  0
CLASS
  1
ACMSURFSTANDARDANSI
  2
AcmSurfTextStdANSI
  3
"AcmSymBB|Product Description: AutoCAD Mechanical 2000|Company: Autodesk"
 90
        0
280
     0
281
     0
  0
CLASS
  1
ACMFCFSTANDARDANSI
  2
AcmFCFStdANSI
  3
"AcmSymBB|Product Description: AutoCAD Mechanical 2000|Company: Autodesk"
 90
        0
280
     0
281
     0
  0
CLASS
  1
ACMWELDSTANDARDANSI
  2
AcmWeldingStdANSI
  3
"AcmSymBB|Product Description: AutoCAD Mechanical 2000|Company: Autodesk"
 90
        0
280
     0
281
     0
  0
CLASS
  1
ACMIDSTANDARDANSI
  2
AcmIdStdANSI
  3
"AcmSymBB|Product Description: AutoCAD Mechanical 2000|Company: Autodesk"
 90
        0
280
     0
281
     0
  0
CLASS
  1
ACMDATUMSTANDARDANSI
  2
AcmDatumStdANSI
  3
"AcmSymBB|Product Description: AutoCAD Mechanical 2000|Company: Autodesk"
 90
        0
280
     0
281
     0
  0
CLASS
  1
ACMBOMSTANDARDANSI
  2
AcmBOMStdANSI
  3
"AcmSymBB|Product Description: AutoCAD Mechanical 2000|Company: Autodesk"
 90
        0
280
     0
281
     0
  0
CLASS
  1
ACMSTANDARDBSI
  2
AcmStandardBSI
  3
"AcmSymBB|Product Description: AutoCAD Mechanical 2000|Company: Autodesk"
 90
        0
280
     0
281
     0
  0
CLASS
  1
ACMSURFSTANDARDBSI
  2
AcmSurfTextStdBSI
  3
"AcmSymBB|Product Description: AutoCAD Mechanical 2000|Company: Autodesk"
 90
        0
280
     0
281
     0
  0
CLASS
  1
ACMFCFSTANDARDBSI
  2
AcmFCFStdBSI
  3
"AcmSymBB|Product Description: AutoCAD Mechanical 2000|Company: Autodesk"
 90
        0
280
     0
281
     0
  0
CLASS
  1
ACMWELDSTANDARDBSI
  2
AcmWeldingStdBSI
  3
"AcmSymBB|Product Description: AutoCAD Mechanical 2000|Company: Autodesk"
 90
        0
280
     0
281
     0
  0
CLASS
  1
ACMIDSTANDARDBSI
  2
AcmIdStdBSI
  3
"AcmSymBB|Product Description: AutoCAD Mechanical 2000|Company: Autodesk"
 90
        0
280
     0
281
     0
  0
CLASS
  1
ACMDATUMSTANDARDBSI
  2
AcmDatumStdBSI
  3
"AcmSymBB|Product Description: AutoCAD Mechanical 2000|Company: Autodesk"
 90
        0
280
     0
281
     0
  0
CLASS
  1
ACMBOMSTANDARDBSI
  2
AcmBOMStdBSI
  3
"AcmSymBB|Product Description: AutoCAD Mechanical 2000|Company: Autodesk"
 90
        0
280
     0
281
     0
  0
CLASS
  1
LONG_TRANSACTION
  2
AcDbLongTransaction
  3
AutoCAD 2000
 90
        0
280
     0
281
     0
  0
CLASS
  1
LWPOLYLINE
  2
AcDbPolyline
  3
AutoCAD 2000
 90
        0
280
     0
281
     1
  0
CLASS
  1
HATCH
  2
AcDbHatch
  3
AutoCAD 2000
 90
        0
280
     0
281
     1
  0
CLASS
  1
XRECORD
  2
AcDbXrecord
  3
AutoCAD 2000
 90
        0
280
     0
281
     0
  0
ENDSEC
  0
SECTION
  2
TABLES
  0
TABLE
  2
VPORT
  5
8
330
0
100
AcDbSymbolTable
 70
     3
  0
VPORT
  5
14FD
330
8
100
AcDbSymbolTableRecord
100
AcDbViewportTableRecord
  2
*ACTIVE
 70
     0
 10
0.0
 20
0.0
 11
1.0
 21
1.0
 12
-27.06066153115661
 22
-15.8748214067342
 13
0.0
 23
0.0
 14
2.5
 24
2.5
 15
10.0
 25
10.0
 16
0.0
 26
0.0
 36
1.0
 17
0.0
 27
0.0
 37
0.0
 40
43.02437688531796
 41
1.56570841889117
 42
50.0
 43
0.0
 44
0.0
 50
0.0
 51
0.0
 71
     0
 72
   100
 73
     1
 74
     3
 75
     0
 76
     0
 77
     0
 78
     0
  0
ENDTAB
  0
TABLE
  2
LTYPE
  5
5
330
0
100
AcDbSymbolTable
 70
    10
  0
LTYPE
  5
14
330
5
100
AcDbSymbolTableRecord
100
AcDbLinetypeTableRecord
  2
BYBLOCK
 70
     0
  3

 72
    65
 73
     0
 40
0.0
  0
LTYPE
  5
15
330
5
100
AcDbSymbolTableRecord
100
AcDbLinetypeTableRecord
  2
BYLAYER
 70
     0
  3

 72
    65
 73
     0
 40
0.0
  0
LTYPE
  5
16
330
5
100
AcDbSymbolTableRecord
100
AcDbLinetypeTableRecord
  2
CONTINUOUS
 70
     0
  3
Solid line
 72
    65
 73
     0
 40
0.0
  0
LTYPE
  5
4B
330
5
100
AcDbSymbolTableRecord
100
AcDbLinetypeTableRecord
  2
AM_ISO02W050
 70
     0
  3
__ __ __ __ __ __ __ __ __ __ __ __ __ __ __
 72
    65
 73
     2
 40
7.5
 49
6.0
 74
     0
 49
-1.5
 74
     0
  0
LTYPE
  5
4C
330
5
100
AcDbSymbolTableRecord
100
AcDbLinetypeTableRecord
  2
AM_ISO08W050
 70
     0
  3
____ . ____ . ____ . ____ . ____ . ____ . ____
 72
    65
 73
     4
 40
18.0
 49
12.0
 74
     0
 49
-1.5
 74
     0
 49
3.0
 74
     0
 49
-1.5
 74
     0
  0
LTYPE
  5
4D
330
5
100
AcDbSymbolTableRecord
100
AcDbLinetypeTableRecord
  2
AM_ISO09W050
 70
     0
  3
_____ . . _____ . . _____ . . ____ .. ____
 72
    65
 73
     6
 40
22.5
 49
12.0
 74
     0
 49
-1.5
 74
     0
 49
3.0
 74
     0
 49
-1.5
 74
     0
 49
3.0
 74
     0
 49
-1.5
 74
     0
  0
LTYPE
  5
4E
330
5
100
AcDbSymbolTableRecord
100
AcDbLinetypeTableRecord
  2
AMCONSTR
 70
     0
  3
_______________________
 72
    65
 73
     2
 40
9999.0
 49
9999.0
 74
     0
 49
0.0
 74
     0
  0
LTYPE
  5
4F
330
5
100
AcDbSymbolTableRecord
100
AcDbLinetypeTableRecord
  2
AM_ISO02W050X2
 70
     0
  3
 _ _ _ _ _ _ _ _ _ _ _ _
 72
    65
 73
     2
 40
3.75
 49
3.0
 74
     0
 49
-0.75
 74
     0
  0
LTYPE
  5
50
330
5
100
AcDbSymbolTableRecord
100
AcDbLinetypeTableRecord
  2
AM_ISO08W050X2
 70
     0
  3
__ . __ . __ . __ . __ . __
 72
    65
 73
     4
 40
9.0
 49
6.0
 74
     0
 49
-0.75
 74
     0
 49
1.5
 74
     0
 49
-0.75
 74
     0
  0
LTYPE
  5
53
330
5
100
AcDbSymbolTableRecord
100
AcDbLinetypeTableRecord
  2
AMZIGZAG
 70
     0
  3
/\/-/\/-/\/-/\/-/\/-/\/
 72
    65
 73
     2
 40
11.00009999999999
 49
0.0001
 74
     4
 75
   135
340
52
 46
0.04
 50
0.0
 44
0.0
 45
0.0
 49
-11.0
 74
     0
  0
LTYPE
  5
166
330
5
100
AcDbSymbolTableRecord
100
AcDbLinetypeTableRecord
  2
ACJISTGL
 70
     0
  3
_ _ _ _ _
 72
    65
 73
     2
 40
3.0
 49
2.0
 74
     0
 49
-1.0
 74
     0
  0
LTYPE
  5
26A
330
5
100
AcDbSymbolTableRecord
100
AcDbLinetypeTableRecord
  2
ACJISTGB
 70
     0
  3
__ . . __ . .
 72
    65
 73
     6
 40
9.0
 49
4.0
 74
     0
 49
-1.0
 74
     0
 49
1.0
 74
     0
 49
-1.0
 74
     0
 49
1.0
 74
     0
 49
-1.0
 74
     0
  0
ENDTAB
  0
TABLE
  2
LAYER
  5
2
330
0
100
AcDbSymbolTable
 70
     7
  0
LAYER
  5
10
330
2
100
AcDbSymbolTableRecord
100
AcDbLayerTableRecord
  2
0
 70
     0
 62
     7
  6
CONTINUOUS
  0
LAYER
  5
3F9
330
2
100
AcDbSymbolTableRecord
100
AcDbLayerTableRecord
  2
AM_0
 70
     0
 62
     7
  6
CONTINUOUS
  0
LAYER
  5
BA4
330
2
100
AcDbSymbolTableRecord
100
AcDbLayerTableRecord
  2
AM_11
 70
     0
 62
     3
  6
AM_ISO09W050
  0
LAYER
  5
BA5
330
2
100
AcDbSymbolTableRecord
100
AcDbLayerTableRecord
  2
AM_7
 70
     0
 62
     4
  6
AM_ISO08W050
  0
LAYER
  5
E75
330
2
100
AcDbSymbolTableRecord
100
AcDbLayerTableRecord
  2
AM_5
 70
     0
 62
     3
  6
CONTINUOUS
  0
LAYER
  5
E77
330
2
100
AcDbSymbolTableRecord
100
AcDbLayerTableRecord
  2
DEFPOINTS
 70
     0
 62
     7
  6
CONTINUOUS
  0
LAYER
  5
1039
330
2
100
AcDbSymbolTableRecord
100
AcDbLayerTableRecord
  2
AM_6
 70
     0
 62
     2
  6
CONTINUOUS
  0
ENDTAB
  0
TABLE
  2
STYLE
  5
3
330
0
100
AcDbSymbolTable
 70
     5
  0
STYLE
  5
11
330
3
100
AcDbSymbolTableRecord
100
AcDbTextStyleTableRecord
  2
STANDARD
 70
     0
 40
0.0
 41
1.0
 50
0.0
 71
     0
 42
2.5
  3
simplex.shx
  4
EXTFONT.SHX
  0
STYLE
  5
52
330
3
100
AcDbSymbolTableRecord
100
AcDbTextStyleTableRecord
  2

 70
     1
 40
0.0
 41
1.0
 50
0.0
 71
     0
 42
2.5
  3
ltypeshp.shx
  4

  0
STYLE
  5
6B
330
3
100
AcDbSymbolTableRecord
100
AcDbTextStyleTableRecord
  2
ASAMI
 70
     0
 40
0.0
 41
1.0
 50
0.0
 71
     0
 42
2.5
  3
simplex.shx
  4
EXTFONT.SHX
  0
STYLE
  5
262
330
3
100
AcDbSymbolTableRecord
100
AcDbTextStyleTableRecord
  2
ACJISTS
 70
     0
 40
1.0
 41
1.0
 50
0.0
 71
     0
 42
2.5
  3
simplex.shx
  4
bigfont.shx
  0
STYLE
  5
269
330
3
100
AcDbSymbolTableRecord
100
AcDbTextStyleTableRecord
  2
ACJISGDT
 70
     0
 40
0.0
 41
1.0
 50
0.0
 71
     0
 42
2.5
  3
amgdtans.shx
  4

  0
ENDTAB
  0
TABLE
  2
VIEW
  5
6
330
0
100
AcDbSymbolTable
 70
     0
  0
ENDTAB
  0
TABLE
  2
UCS
  5
7
330
0
100
AcDbSymbolTable
 70
     0
  0
ENDTAB
  0
TABLE
  2
APPID
  5
9
330
0
100
AcDbSymbolTable
 70
    12
  0
APPID
  5
12
330
9
100
AcDbSymbolTableRecord
100
AcDbRegAppTableRecord
  2
ACAD
 70
     0
  0
APPID
  5
30
330
9
100
AcDbSymbolTableRecord
100
AcDbRegAppTableRecord
  2
MCAD_NO_VIS
 70
     0
  0
APPID
  5
31
330
9
100
AcDbSymbolTableRecord
100
AcDbRegAppTableRecord
  2
ACAD_TEMP_GRAPHIC
 70
     0
  0
APPID
  5
2C2
330
9
100
AcDbSymbolTableRecord
100
AcDbRegAppTableRecord
  2
GENIUS_GENDTOL_13
 70
     0
  0
APPID
  5
339
330
9
100
AcDbSymbolTableRecord
100
AcDbRegAppTableRecord
  2
GENIUS_GENODEF_13
 70
     0
  0
APPID
  5
33A
330
9
100
AcDbSymbolTableRecord
100
AcDbRegAppTableRecord
  2
GENIUS_GENOBJ-N-RSBK_13
 70
     0
  0
APPID
  5
33B
330
9
100
AcDbSymbolTableRecord
100
AcDbRegAppTableRecord
  2
GENIUS_GENOBJ-N-LIB_13
 70
     0
  0
APPID
  5
33C
330
9
100
AcDbSymbolTableRecord
100
AcDbRegAppTableRecord
  2
GENIUS_GENSCALE_13
 70
     0
  0
APPID
  5
378
330
9
100
AcDbSymbolTableRecord
100
AcDbRegAppTableRecord
  2
GENIUS_GENDIMSH_14
 70
     0
  0
APPID
  5
E5F
330
9
100
AcDbSymbolTableRecord
100
AcDbRegAppTableRecord
  2
GENIUS_GENFIL_13
 70
     0
  0
APPID
  5
E60
330
9
100
AcDbSymbolTableRecord
100
AcDbRegAppTableRecord
  2
GENIUS_GENOBJ-N-CHA_13
 70
     0
  0
APPID
  5
E6C
330
9
100
AcDbSymbolTableRecord
100
AcDbRegAppTableRecord
  2
GENIUS_GENOBJ-N-CEN_13
 70
     0
  0
ENDTAB
  0
TABLE
  2
DIMSTYLE
  5
A
330
0
100
AcDbSymbolTable
 70
     8
  0
DIMSTYLE
105
58
102
{ACAD_REACTORS
330
134E
330
1364
330
1387
330
143A
102
}
330
A
100
AcDbSymbolTableRecord
100
AcDbDimStyleTableRecord
  2
AM_JIS
 70
     0
  3

  4
"
  5
OPEN30
  6

  7

 40
0.5
 41
2.5
 42
1.0
 43
12.0
 44
1.0
 45
0.0
 46
0.0
 47
0.1
 48
0.1
140
3.2
141
0.0
142
0.0
143
0.0393701
144
1.0
145
0.0
146
0.71
147
1.5
 71
     0
 72
     0
 73
     0
 74
     0
 75
     0
 76
     0
 77
     3
 78
     8
170
     0
171
     2
172
     1
173
     0
174
     0
175
     0
176
   256
177
   256
178
     2
270
     2
271
     3
272
     3
273
     2
274
     2
340
6B
275
     0
280
     0
281
     0
282
     0
283
     0
284
     0
285
     0
286
     0
287
     3
288
     0
  0
DIMSTYLE
105
5F
330
A
100
AcDbSymbolTableRecord
100
AcDbDimStyleTableRecord
  2
AM_JIS$3
 70
     0
  3

  4
"
  5
OPEN30
  6

  7

 40
0.5
 41
2.5
 42
1.0
 43
10.0
 44
1.0
 45
0.0
 46
0.0
 47
0.1
 48
0.1
140
3.2
141
0.0
142
0.0
143
0.0393701
144
1.0
145
0.0
146
0.71
147
1.5
 71
     0
 72
     0
 73
     0
 74
     1
 75
     0
 76
     0
 77
     3
 78
     8
170
     0
171
     2
172
     0
173
     0
174
     0
175
     0
176
   256
177
   256
178
     2
270
     2
271
     2
272
     3
273
     2
274
     2
340
6B
275
     0
280
     0
281
     0
282
     0
283
     0
284
     0
285
     0
286
     0
287
     0
288
     1
  0
DIMSTYLE
105
60
330
A
100
AcDbSymbolTableRecord
100
AcDbDimStyleTableRecord
  2
AM_JIS$4
 70
     0
  3

  4
"
  5
OPEN30
  6

  7

 40
0.5
 41
2.5
 42
1.0
 43
10.0
 44
1.0
 45
0.0
 46
0.0
 47
0.1
 48
0.1
140
3.2
141
0.0
142
0.0
143
0.0393701
144
1.0
145
0.0
146
0.71
147
1.5
 71
     0
 72
     0
 73
     0
 74
     1
 75
     0
 76
     0
 77
     3
 78
     8
170
     0
171
     2
172
     0
173
     0
174
     0
175
     0
176
   256
177
   256
178
     2
270
     2
271
     2
272
     3
273
     2
274
     2
340
6B
275
     0
280
     0
281
     0
282
     0
283
     0
284
     0
285
     0
286
     0
287
     0
288
     1
  0
DIMSTYLE
105
61
330
A
100
AcDbSymbolTableRecord
100
AcDbDimStyleTableRecord
  2
AM_JIS$6
 70
     0
  3

  4
"
  5
OPEN30
  6

  7

 40
0.5
 41
2.5
 42
1.0
 43
10.0
 44
1.0
 45
0.0
 46
0.0
 47
0.1
 48
0.1
140
3.2
141
0.0
142
0.0
143
0.0393701
144
1.0
145
0.0
146
0.71
147
1.5
 71
     0
 72
     0
 73
     0
 74
     0
 75
     0
 76
     0
 77
     0
 78
     8
170
     0
171
     2
172
     1
173
     0
174
     0
175
     0
176
   256
177
   256
178
     2
270
     2
271
     2
272
     2
273
     2
274
     2
340
6B
275
     0
280
     0
281
     0
282
     0
283
     0
284
     0
285
     0
286
     0
287
     3
288
     0
  0
DIMSTYLE
105
62
330
A
100
AcDbSymbolTableRecord
100
AcDbDimStyleTableRecord
  2
AM_JIS$7
 70
     0
  3

  4
"
  5
OPEN30
  6

  7

 40
0.5
 41
2.5
 42
1.0
 43
10.0
 44
1.0
 45
0.0
 46
0.0
 47
0.1
 48
0.1
140
3.2
141
0.0
142
0.0
143
0.0393701
144
1.0
145
0.0
146
0.71
147
1.5
 71
     0
 72
     0
 73
     0
 74
     0
 75
     0
 76
     0
 77
     3
 78
     8
170
     0
171
     2
172
     1
173
     0
174
     0
175
     0
176
   256
177
   256
178
     2
270
     2
271
     2
272
     3
273
     2
274
     2
340
6B
275
     0
280
     0
281
     0
282
     0
283
     0
284
     0
285
     0
286
     0
287
     3
288
     0
  0
DIMSTYLE
105
63
330
A
100
AcDbSymbolTableRecord
100
AcDbDimStyleTableRecord
  2
AM_JIS$SF
 70
     0
  3

  4
"
  5
OPEN30
  6

  7

 40
0.5
 41
2.5
 42
1.0
 43
10.0
 44
1.0
 45
0.0
 46
0.0
 47
0.1
 48
0.1
140
3.2
141
0.0
142
0.0
143
0.0393701
144
1.0
145
0.0
146
0.71
147
1.5
 71
     0
 72
     0
 73
     0
 74
     0
 75
     1
 76
     1
 77
     3
 78
     8
170
     0
171
     2
172
     1
173
     0
174
     0
175
     0
176
   256
177
   256
178
     2
270
     2
271
     2
272
     2
273
     2
274
     2
340
6B
275
     0
280
     0
281
     0
282
     0
283
     0
284
     0
285
     0
286
     0
287
     3
288
     0
  0
DIMSTYLE
105
68
330
A
100
AcDbSymbolTableRecord
100
AcDbDimStyleTableRecord
  2
AM_JIS$SH
 70
     0
  3

  4
"
  5

  6
GENAXEH
  7
OPEN30
 40
0.5
 41
2.5
 42
1.0
 43
10.0
 44
1.0
 45
0.0
 46
0.0
 47
0.1
 48
0.1
140
3.2
141
0.0
142
0.0
143
0.0393701
144
2.0
145
0.0
146
0.71
147
1.5
 71
     0
 72
     0
 73
     0
 74
     0
 75
     1
 76
     1
 77
     3
 78
     8
170
     0
171
     2
172
     1
173
     1
174
     0
175
     0
176
   256
177
   256
178
     2
270
     2
271
     2
272
     2
273
     2
274
     2
340
6B
275
     0
280
     0
281
     0
282
     0
283
     0
284
     0
285
     0
286
     0
287
     3
288
     0
  0
DIMSTYLE
105
B34
330
A
100
AcDbSymbolTableRecord
100
AcDbDimStyleTableRecord
  2
AM_JIS$2
 70
     0
  3

  4
"
  5
OPEN30
  6

  7

 40
0.5
 41
2.5
 42
1.0
 43
12.0
 44
1.0
 45
0.0
 46
0.0
 47
0.1
 48
0.1
140
3.2
141
0.0
142
0.0
143
0.0393701
144
1.0
145
0.0
146
0.71
147
1.5
 71
     0
 72
     0
 73
     0
 74
     0
 75
     0
 76
     0
 77
     3
 78
     8
170
     0
171
     2
172
     1
173
     0
174
     0
175
     0
176
   256
177
   256
178
     2
270
     2
271
     3
272
     3
273
     2
274
     2
340
6B
275
     0
280
     0
281
     0
282
     0
283
     0
284
     0
285
     0
286
     0
287
     3
288
     0
  0
ENDTAB
  0
TABLE
  2
BLOCK_RECORD
  5
1
330
0
100
AcDbSymbolTable
 70
     9
  0
BLOCK_RECORD
  5
1F
102
{ACAD_XDICTIONARY
360
74
102
}
330
1
100
AcDbSymbolTableRecord
100
AcDbBlockTableRecord
  2
*MODEL_SPACE
  0
BLOCK_RECORD
  5
101
102
{ACAD_XDICTIONARY
360
1526
102
}
330
1
100
AcDbSymbolTableRecord
100
AcDbBlockTableRecord
  2
*PAPER_SPACE
  0
BLOCK_RECORD
  5
59
330
1
100
AcDbSymbolTableRecord
100
AcDbBlockTableRecord
  2
_OPEN30
  0
BLOCK_RECORD
  5
64
330
1
100
AcDbSymbolTableRecord
100
AcDbBlockTableRecord
  2
GENAXEH
  0
BLOCK_RECORD
  5
134F
330
1
100
AcDbSymbolTableRecord
100
AcDbBlockTableRecord
  2
*D5
  0
BLOCK_RECORD
  5
1365
330
1
100
AcDbSymbolTableRecord
100
AcDbBlockTableRecord
  2
*D6
  0
BLOCK_RECORD
  5
1388
330
1
100
AcDbSymbolTableRecord
100
AcDbBlockTableRecord
  2
*D7
  0
BLOCK_RECORD
  5
143B
330
1
100
AcDbSymbolTableRecord
100
AcDbBlockTableRecord
  2
*D8
  0
ENDTAB
  0
ENDSEC
  0
SECTION
  2
BLOCKS
  0
BLOCK
  5
20
330
1F
100
AcDbEntity
  8
0
100
AcDbBlockBegin
  2
*MODEL_SPACE
 70
     0
 10
0.0
 20
0.0
 30
0.0
  3
*MODEL_SPACE
  1

  0
ENDBLK
  5
21
330
1F
100
AcDbEntity
  8
0
100
AcDbBlockEnd
  0
BLOCK
  5
103
330
101
100
AcDbEntity
 67
     1
  8
0
100
AcDbBlockBegin
  2
*PAPER_SPACE
 70
     0
 10
0.0
 20
0.0
 30
0.0
  3
*PAPER_SPACE
  1

  0
ENDBLK
  5
104
330
101
100
AcDbEntity
 67
     1
  8
0
100
AcDbBlockEnd
  0
BLOCK
  5
5D
330
59
100
AcDbEntity
  8
0
100
AcDbBlockBegin
  2
_OPEN30
 70
     0
 10
0.0
 20
0.0
 30
0.0
  3
_OPEN30
  1

  0
LINE
  5
5A
330
59
100
AcDbEntity
  8
0
 62
     0
100
AcDbLine
 10
-1.0
 20
0.26794919
 30
0.0
 11
0.0
 21
0.0
 31
0.0
  0
LINE
  5
5B
330
59
100
AcDbEntity
  8
0
 62
     0
100
AcDbLine
 10
0.0
 20
0.0
 30
0.0
 11
-1.0
 21
-0.26794919
 31
0.0
  0
LINE
  5
5C
330
59
100
AcDbEntity
  8
0
 62
     0
100
AcDbLine
 10
0.0
 20
0.0
 30
0.0
 11
-1.0
 21
0.0
 31
0.0
  0
ENDBLK
  5
5E
330
59
100
AcDbEntity
  8
0
100
AcDbBlockEnd
  0
BLOCK
  5
66
330
64
100
AcDbEntity
  8
0
100
AcDbBlockBegin
  2
GENAXEH
 70
     0
 10
0.0
 20
0.0
 30
0.0
  3
GENAXEH
  1

  0
LINE
  5
65
330
64
100
AcDbEntity
  8
0
100
AcDbLine
 10
-1.0
 20
0.0
 30
0.0
 11
1.0
 21
0.0
 31
0.0
  0
ENDBLK
  5
67
330
64
100
AcDbEntity
  8
0
100
AcDbBlockEnd
  0
BLOCK
  5
135B
330
134F
100
AcDbEntity
  8
0
100
AcDbBlockBegin
  2
*D5
 70
     1
 10
0.0
 20
0.0
 30
0.0
  3
*D5
  1

  0
LINE
  5
1394
330
134F
100
AcDbEntity
  8
AM_5
100
AcDbLine
 10
0.5000000000000227
 20
-3.000000000000083
 30
0.0
 11
5.227428229665075
 21
-3.000000000000084
 31
0.0
  0
LINE
  5
1395
330
134F
100
AcDbEntity
  8
AM_5
100
AcDbLine
 10
0.5000000000000206
 20
3.000000000002371
 30
0.0
 11
5.227428229665076
 21
3.000000000002369
 31
0.0
  0
LINE
  5
1396
330
134F
100
AcDbEntity
  8
AM_5
100
AcDbLine
 10
4.727428229665075
 20
-4.250000000000084
 30
0.0
 11
4.727428229665075
 21
-5.500000000000084
 31
0.0
  0
LINE
  5
1397
330
134F
100
AcDbEntity
  8
AM_5
100
AcDbLine
 10
4.727428229665076
 20
4.25000000000237
 30
0.0
 11
4.727428229665076
 21
5.50000000000237
 31
0.0
  0
LINE
  5
1398
330
134F
100
AcDbEntity
  8
AM_5
100
AcDbLine
 10
4.727428229665075
 20
-3.000000000000084
 30
0.0
 11
4.727428229665076
 21
3.00000000000237
 31
0.0
  0
INSERT
  5
1399
330
134F
100
AcDbEntity
  8
AM_5
100
AcDbBlockReference
  2
_OPEN30
 10
4.727428229665075
 20
-3.000000000000084
 30
0.0
 41
1.25
 42
1.25
 43
1.25
 50
90.0
  0
INSERT
  5
139A
330
134F
100
AcDbEntity
  8
AM_5
100
AcDbBlockReference
  2
_OPEN30
 10
4.727428229665076
 20
3.00000000000237
 30
0.0
 41
1.25
 42
1.25
 43
1.25
 50
270.0
  0
MTEXT
  5
139B
330
134F
100
AcDbEntity
  8
AM_5
 62
     2
100
AcDbMText
 10
3.177428229665075
 20
0.0000000000011444
 30
0.0
 40
1.6
 41
0.0
 71
     5
 72
     1
  1
%%c6
  7
ASAMI
 11
0.0000000000000001
 21
1.0
 31
0.0
1001
ACAD
1000
MTEXTBEGIN
1070
    73
1070
     1
1070
    44
1040
1.0
1070
    74
1070
     0
1000
MTEXTEND
  0
POINT
  5
139C
330
134F
100
AcDbEntity
  8
DEFPOINTS
 62
     0
100
AcDbPoint
 10
0.0000000000000226
 20
-3.000000000000083
 30
0.0
  0
POINT
  5
139D
330
134F
100
AcDbEntity
  8
DEFPOINTS
 62
     0
100
AcDbPoint
 10
0.0000000000000205
 20
3.000000000002371
 30
0.0
  0
POINT
  5
139E
330
134F
100
AcDbEntity
  8
DEFPOINTS
 62
     0
100
AcDbPoint
 10
4.727428229665076
 20
3.00000000000237
 30
0.0
  0
ENDBLK
  5
135C
330
134F
100
AcDbEntity
  8
0
100
AcDbBlockEnd
  0
BLOCK
  5
136F
330
1365
100
AcDbEntity
  8
0
100
AcDbBlockBegin
  2
*D6
 70
     1
 10
0.0
 20
0.0
 30
0.0
  3
*D6
  1

  0
LINE
  5
1410
330
1365
100
AcDbEntity
  8
AM_5
100
AcDbLine
 10
-12.99999999999998
 20
-3.500000000000097
 30
0.0
 11
-12.99999999999998
 21
-10.50000000000006
 31
0.0
  0
LINE
  5
1411
330
1365
100
AcDbEntity
  8
AM_5
100
AcDbLine
 10
0.0000000000000226
 20
-3.500000000000083
 30
0.0
 11
0.0000000000000221
 21
-10.50000000000006
 31
0.0
  0
LINE
  5
1412
330
1365
100
AcDbEntity
  8
AM_5
100
AcDbLine
 10
-11.74999999999997
 20
-10.00000000000005
 30
0.0
 11
-1.249999999999977
 21
-10.00000000000005
 31
0.0
  0
INSERT
  5
1413
330
1365
100
AcDbEntity
  8
AM_5
100
AcDbBlockReference
  2
_OPEN30
 10
-12.99999999999998
 20
-10.00000000000005
 30
0.0
 41
1.25
 42
1.25
 43
1.25
 50
180.0
  0
INSERT
  5
1414
330
1365
100
AcDbEntity
  8
AM_5
100
AcDbBlockReference
  2
_OPEN30
 10
0.0000000000000222
 20
-10.00000000000005
 30
0.0
 41
1.25
 42
1.25
 43
1.25
  0
MTEXT
  5
1415
330
1365
100
AcDbEntity
  8
AM_5
 62
     2
100
AcDbMText
 10
-6.499999999999978
 20
-8.450000000000059
 30
0.0
 40
1.6
 41
0.0
 71
     5
 72
     1
  1
13
  7
ASAMI
1001
ACAD
1000
MTEXTBEGIN
1070
    73
1070
     1
1070
    44
1040
1.0
1070
    74
1070
     0
1000
MTEXTEND
  0
POINT
  5
1416
330
1365
100
AcDbEntity
  8
DEFPOINTS
 62
     0
100
AcDbPoint
 10
-12.99999999999998
 20
-3.000000000000097
 30
0.0
  0
POINT
  5
1417
330
1365
100
AcDbEntity
  8
DEFPOINTS
 62
     0
100
AcDbPoint
 10
0.0000000000000226
 20
-3.000000000000083
 30
0.0
  0
POINT
  5
1418
330
1365
100
AcDbEntity
  8
DEFPOINTS
 62
     0
100
AcDbPoint
 10
0.0000000000000222
 20
-10.00000000000005
 30
0.0
  0
ENDBLK
  5
1370
330
1365
100
AcDbEntity
  8
0
100
AcDbBlockEnd
  0
BLOCK
  5
1392
330
1388
100
AcDbEntity
  8
0
100
AcDbBlockBegin
  2
*D7
 70
     1
 10
0.0
 20
0.0
 30
0.0
  3
*D7
  1

  0
LINE
  5
13CF
330
1388
100
AcDbEntity
  8
AM_5
100
AcDbLine
 10
-49.99999999999998
 20
-3.20000000000015
 30
0.0
 11
-49.99999999999998
 21
-16.50000000000006
 31
0.0
  0
LINE
  5
13D0
330
1388
100
AcDbEntity
  8
AM_5
100
AcDbLine
 10
0.0000000000000226
 20
-3.500000000000083
 30
0.0
 11
0.0000000000000218
 21
-16.50000000000006
 31
0.0
  0
LINE
  5
13D1
330
1388
100
AcDbEntity
  8
AM_5
100
AcDbLine
 10
-48.74999999999998
 20
-16.00000000000006
 30
0.0
 11
-1.249999999999978
 21
-16.00000000000006
 31
0.0
  0
INSERT
  5
13D2
330
1388
100
AcDbEntity
  8
AM_5
100
AcDbBlockReference
  2
_OPEN30
 10
-49.99999999999998
 20
-16.00000000000006
 30
0.0
 41
1.25
 42
1.25
 43
1.25
 50
180.0
  0
INSERT
  5
13D3
330
1388
100
AcDbEntity
  8
AM_5
100
AcDbBlockReference
  2
_OPEN30
 10
0.0000000000000218
 20
-16.00000000000006
 30
0.0
 41
1.25
 42
1.25
 43
1.25
  0
MTEXT
  5
13D4
330
1388
100
AcDbEntity
  8
AM_5
 62
     2
100
AcDbMText
 10
-24.99999999999998
 20
-14.45000000000006
 30
0.0
 40
1.6
 41
0.0
 71
     5
 72
     1
  1
50
  7
ASAMI
1001
ACAD
1000
MTEXTBEGIN
1070
    73
1070
     1
1070
    44
1040
1.0
1070
    74
1070
     0
1000
MTEXTEND
  0
POINT
  5
13D5
330
1388
100
AcDbEntity
  8
DEFPOINTS
 62
     0
100
AcDbPoint
 10
-49.99999999999998
 20
-2.70000000000015
 30
0.0
  0
POINT
  5
13D6
330
1388
100
AcDbEntity
  8
DEFPOINTS
 62
     0
100
AcDbPoint
 10
0.0000000000000226
 20
-3.000000000000083
 30
0.0
  0
POINT
  5
13D7
330
1388
100
AcDbEntity
  8
DEFPOINTS
 62
     0
100
AcDbPoint
 10
0.0000000000000218
 20
-16.00000000000006
 30
0.0
  0
ENDBLK
  5
1393
330
1388
100
AcDbEntity
  8
0
100
AcDbBlockEnd
  0
BLOCK
  5
1445
330
143B
100
AcDbEntity
  8
0
100
AcDbBlockBegin
  2
*D8
 70
     1
 10
0.0
 20
0.0
 30
0.0
  3
*D8
  1

  0
LINE
  5
14B4
330
143B
100
AcDbEntity
  8
AM_5
100
AcDbLine
 10
-50.24999999999997
 20
-3.00000000000015
 30
0.0
 11
-57.500001
 21
-3.000000000000148
 31
0.0
  0
LINE
  5
14B5
330
143B
100
AcDbEntity
  8
AM_5
100
AcDbLine
 10
-50.25000000000001
 20
2.99999999999984
 30
0.0
 11
-57.500001
 21
2.999999999999842
 31
0.0
  0
LINE
  5
14B6
330
143B
100
AcDbEntity
  8
AM_5
100
AcDbLine
 10
-57.000001
 20
-1.750000000000148
 30
0.0
 11
-57.000001
 21
1.749999999999842
 31
0.0
  0
INSERT
  5
14B7
330
143B
100
AcDbEntity
  8
AM_5
100
AcDbBlockReference
  2
_OPEN30
 10
-57.000001
 20
-3.000000000000148
 30
0.0
 41
1.25
 42
1.25
 43
1.25
 50
270.0
  0
INSERT
  5
14B8
330
143B
100
AcDbEntity
  8
AM_5
100
AcDbBlockReference
  2
_OPEN30
 10
-57.000001
 20
2.999999999999842
 30
0.0
 41
1.25
 42
1.25
 43
1.25
 50
90.0
  0
MTEXT
  5
14B9
330
143B
100
AcDbEntity
  8
AM_5
 62
     2
100
AcDbMText
 10
-58.55000099999999
 20
-0.000000000000162
 30
0.0
 40
1.6
 41
0.0
 71
     5
 72
     1
  1
%%c6
  7
ASAMI
 11
0.0000000000000001
 21
1.0
 31
0.0
1001
ACAD
1000
MTEXTBEGIN
1070
    73
1070
     1
1070
    44
1040
1.0
1070
    74
1070
     0
1000
MTEXTEND
  0
POINT
  5
14BA
330
143B
100
AcDbEntity
  8
DEFPOINTS
 62
     0
100
AcDbPoint
 10
-49.74999999999997
 20
-3.00000000000015
 30
0.0
  0
POINT
  5
14BB
330
143B
100
AcDbEntity
  8
DEFPOINTS
 62
     0
100
AcDbPoint
 10
-49.75000000000001
 20
2.99999999999984
 30
0.0
  0
POINT
  5
14BC
330
143B
100
AcDbEntity
  8
DEFPOINTS
 62
     0
100
AcDbPoint
 10
-57.000001
 20
2.999999999999842
 30
0.0
  0
ENDBLK
  5
1446
330
143B
100
AcDbEntity
  8
0
100
AcDbBlockEnd
  0
ENDSEC
  0
SECTION
  2
ENTITIES
  0
TEXT
  5
103F
330
1F
100
AcDbEntity
  8
AM_6
100
AcDbText
 10
-35.41666666666665
 20
-27.25000000000005
 30
0.0
 40
2.5
  1
GLM2060SF
 72
     4
 11
-24.99999999999998
 21
-26.00000000000005
 31
0.0
100
AcDbText
  0
LINE
  5
1346
330
1F
100
AcDbEntity
  8
AM_0
100
AcDbLine
 10
0.0000000000000058
 20
-0.19517200579334
 30
0.0
 11
-0.0620454545454595
 21
-0.19517200579334
 31
0.0
  0
LINE
  5
1347
330
1F
100
AcDbEntity
  8
AM_0
100
AcDbLine
 10
-0.0620454545454595
 20
-0.19517200579334
 30
0.0
 11
-0.5131764732569809
 21
0.1401490795174667
 31
0.0
  0
LINE
  5
1348
330
1F
100
AcDbEntity
  8
AM_0
100
AcDbLine
 10
-0.0620454545454427
 20
-2.88110113887241
 30
0.0
 11
0.0000000000000226
 21
-3.000000000000083
 31
0.0
  0
LINE
  5
1349
330
1F
100
AcDbEntity
  8
AM_0
100
AcDbLine
 10
-0.0620454545454427
 20
-2.88110113887241
 30
0.0
 11
-0.2198181818180668
 21
-2.425087453482221
 31
0.0
  0
LINE
  5
134A
330
1F
100
AcDbEntity
  8
AM_0
100
AcDbLine
 10
-0.2198181818180668
 20
-2.425087453482221
 30
0.0
 11
-0.244636363636216
 21
-2.271469678191298
 31
0.0
  0
LINE
  5
134B
330
1F
100
AcDbEntity
  8
AM_0
100
AcDbLine
 10
-0.0620454545454427
 20
-2.88110113887241
 30
0.0
 11
-0.0620454545454595
 21
-0.19517200579334
 31
0.0
  0
LINE
  5
134C
330
1F
100
AcDbEntity
  8
AM_0
100
AcDbLine
 10
0.0000000000000226
 20
-3.000000000000083
 30
0.0
 11
0.0000000000000058
 21
2.999999999999916
 31
0.0
  0
LINE
  5
134D
330
1F
100
AcDbEntity
  8
AM_0
100
AcDbLine
 10
0.0000000000000058
 20
-0.19517200579334
 30
0.0
 11
-1.773941953850489
 21
1.951454332247028
 31
0.0
  0
DIMENSION
  5
134E
330
1F
100
AcDbEntity
  8
AM_5
100
AcDbDimension
  2
*D5
 10
4.727428229665076
 20
3.00000000000237
 30
0.0
 11
4.727428229665076
 21
0.0000000000011442
 31
0.0
 70
   160
  1
%%c<>
  3
AM_JIS
100
AcDbAlignedDimension
 13
0.0000000000000226
 23
-3.000000000000083
 33
0.0
 14
0.0000000000000205
 24
3.000000000002371
 34
0.0
 50
90.0
100
AcDbRotatedDimension
1001
GENIUS_GENDTOL_13
1000

1000
h7
1000

1040
0.0
  0
LINE
  5
135D
330
1F
100
AcDbEntity
  8
AM_0
100
AcDbLine
 10
-19.75678415915295
 20
1.997673162140644
 30
0.0
 11
-16.07272727271614
 21
3.000000000002355
 31
0.0
  0
LINE
  5
135E
330
1F
100
AcDbEntity
  8
AM_0
100
AcDbLine
 10
-11.16182570133363
 20
-2.374260458112767
 30
0.0
 11
-4.128582236784552
 21
-2.057501271324637
 31
0.0
  0
LINE
  5
135F
330
1F
100
AcDbEntity
  8
AM_0
100
AcDbLine
 10
-19.75678415916639
 20
-1.082763709632454
 30
0.0
 11
-17.56424888681476
 21
-0.4862373762581781
 31
0.0
  0
LINE
  5
1360
330
1F
100
AcDbEntity
  8
AM_11
100
AcDbLine
 10
-12.99999999999998
 20
3.000000000002358
 30
0.0
 11
-12.99999999999998
 21
-3.000000000000097
 31
0.0
  0
LINE
  5
1361
330
1F
100
AcDbEntity
  8
AM_0
100
AcDbLine
 10
-11.30364082371504
 20
2.374260458112565
 30
0.0
 11
-1.503419847949373
 21
1.939270712739796
 31
0.0
  0
LINE
  5
1362
330
1F
100
AcDbEntity
  8
AM_11
100
AcDbLine
 10
-12.99999999999998
 20
3.000000000002358
 30
0.0
 11
0.0000000000000058
 21
3.000000000002371
 31
0.0
  0
LINE
  5
1363
330
1F
100
AcDbEntity
  8
AM_11
100
AcDbLine
 10
-12.99999999999998
 20
-3.000000000000097
 30
0.0
 11
0.0000000000000226
 21
-3.000000000000083
 31
0.0
  0
DIMENSION
  5
1364
330
1F
100
AcDbEntity
  8
AM_5
100
AcDbDimension
  2
*D6
 10
0.0000000000000222
 20
-10.00000000000005
 30
0.0
 11
-6.499999999999978
 21
-8.450000000000059
 31
0.0
 70
    32
  1
<>
  3
AM_JIS
100
AcDbAlignedDimension
 13
-12.99999999999998
 23
-3.000000000000097
 33
0.0
 14
0.0000000000000226
 24
-3.000000000000083
 34
0.0
 50
0.0000000000001149
100
AcDbRotatedDimension
1001
GENIUS_GENDTOL_13
1000

1000
h7
1000

1040
0.0
  0
ELLIPSE
  5
1371
330
1F
100
AcDbEntity
  8
AM_0
100
AcDbEllipse
 10
5.408019101180821
 20
-0.4012909939911266
 30
0.0
 11
0.0000000000000768
 21
6.03662149805791
 31
0.0
210
0.0
220
0.0
230
1.0
 40
0.9848484848484924
 41
1.480983063974046
 42
1.885784812688505
  0
SPLINE
  5
1372
330
1F
100
AcDbEntity
  8
AM_0
100
AcDbSpline
210
0.0
220
0.0
230
1.0
 70
     8
 71
     3
 72
     8
 73
     4
 74
     0
 42
0.0000000001
 43
0.0000000001
 40
0.0
 40
0.0
 40
0.0
 40
0.0
 40
14.48999654934389
 40
14.48999654934389
 40
14.48999654934389
 40
14.48999654934389
 10
0.0000000000000226
 20
-3.000000000000083
 30
0.0
 10
-2.854090229416198
 20
-3.000000000000086
 30
0.0
 10
-5.445226932889887
 20
-1.500000000000093
 30
0.0
 10
-8.036363636363576
 20
-0.0000000000001009
 30
0.0
  0
SPLINE
  5
1373
330
1F
100
AcDbEntity
  8
AM_0
100
AcDbSpline
210
0.0
220
0.0
230
1.0
 70
     8
 71
     3
 72
     8
 73
     4
 74
     0
 42
0.0000000001
 43
0.0000000001
 40
4.269576567053861
 40
4.269576567053861
 40
4.269576567053861
 40
4.269576567053861
 40
14.35388886087876
 40
14.35388886087876
 40
14.35388886087876
 40
14.35388886087876
 10
-0.2198181818180668
 20
-2.425087453482084
 30
0.0
 10
-2.126873884571972
 20
-1.935096992607433
 30
0.0
 10
-3.956692102275253
 20
-0.967548496303827
 30
0.0
 10
-5.786510319978535
 20
-0.0000000000000838
 30
0.0
  0
SPLINE
  5
1374
330
1F
100
AcDbEntity
  8
AM_0
100
AcDbSpline
210
0.0
220
0.0
230
1.0
 70
     8
 71
     3
 72
     8
 73
     4
 74
     0
 42
0.0000000001
 43
0.0000000001
 40
0.0
 40
0.0
 40
0.0
 40
0.0
 40
4.607356481513744
 40
4.607356481513744
 40
4.607356481513744
 40
4.607356481513744
 10
-13.8228739563421
 20
-2.7543937908306
 30
0.0
 10
-12.91536434634696
 20
-2.7543937908306
 30
0.0
 10
-12.03080366816208
 20
-2.612500941997823
 30
0.0
 10
-11.16182570133363
 20
-2.374260458112767
 30
0.0
  0
SPLINE
  5
1375
330
1F
100
AcDbEntity
  8
AM_0
100
AcDbSpline
210
0.0
220
0.0
230
1.0
 70
     8
 71
     3
 72
     8
 73
     4
 74
     0
 42
0.0000000001
 43
0.0000000001
 40
0.0
 40
0.0
 40
0.0
 40
0.0
 40
14.68462643510734
 40
14.68462643510734
 40
14.68462643510734
 40
14.68462643510734
 10
-14.02887939918012
 20
2.754393790830398
 30
0.0
 10
-11.13645298014382
 20
2.754393790830402
 30
0.0
 10
-8.461481650061179
 20
1.377196895415158
 30
0.0
 10
-5.786510319978535
 20
-0.0000000000000838
 30
0.0
  0
SPLINE
  5
1376
330
1F
100
AcDbEntity
  8
AM_0
100
AcDbSpline
210
0.0
220
0.0
230
1.0
 70
     8
 71
     3
 72
     8
 73
     4
 74
     0
 42
0.0000000001
 43
0.0000000001
 40
0.0
 40
0.0
 40
0.0
 40
0.0
 40
3.696710677011538
 40
3.696710677011538
 40
3.696710677011538
 40
3.696710677011538
 10
-0.5131764732569809
 20
0.1401490795174667
 30
0.0
 10
-1.074511560933285
 20
0.6110629129780683
 30
0.0
 10
-2.483308601485771
 20
1.784650427559885
 30
0.0
 10
-1.773941953850489
 20
1.951454332247028
 30
0.0
  0
SPLINE
  5
1377
330
1F
100
AcDbEntity
  8
AM_0
100
AcDbSpline
210
0.0
220
0.0
230
1.0
 70
     8
 71
     3
 72
     8
 73
     4
 74
     0
 42
0.0000000001
 43
0.0000000001
 40
0.0
 40
0.0
 40
0.0
 40
0.0
 40
7.266438349726817
 40
7.266438349726817
 40
7.266438349726817
 40
7.266438349726817
 10
0.0000000000000058
 20
2.999999999999507
 30
0.0
 10
-1.431268159794476
 20
2.999999999999507
 30
0.0
 10
-2.796408284097687
 20
2.622777245972163
 30
0.0
 10
-4.128582236782402
 20
2.057501271320786
 30
0.0
  0
SPLINE
  5
1378
330
1F
100
AcDbEntity
  8
AM_0
100
AcDbSpline
210
0.0
220
0.0
230
1.0
 70
     8
 71
     3
 72
     8
 73
     4
 74
     0
 42
0.0000000001
 43
0.0000000001
 40
0.0
 40
0.0
 40
0.0
 40
0.0
 40
2.657601517946371
 40
2.657601517946371
 40
2.657601517946371
 40
2.657601517946371
 10
-1.503419847949373
 20
1.939270712739796
 30
0.0
 10
-0.9799528822932698
 20
1.939270712739797
 30
0.0
 10
-0.4133097533010966
 20
2.073821679693395
 30
0.0
 10
0.0000000000000058
 20
2.39999999999978
 30
0.0
  0
SPLINE
  5
1379
330
1F
100
AcDbEntity
  8
AM_0
100
AcDbSpline
210
0.0
220
0.0
230
1.0
 70
     8
 71
     3
 72
     8
 73
     4
 74
     0
 42
0.0000000001
 43
0.0000000001
 40
1.53702008085691
 40
1.53702008085691
 40
1.53702008085691
 40
1.53702008085691
 40
1.900993527181806
 40
1.900993527181806
 40
1.900993527181806
 40
1.900993527181806
 10
-14.13348251892569
 20
-2.778317472292255
 30
0.0
 10
-14.06303437904815
 20
-2.770966750108491
 30
0.0
 10
-13.99272519936006
 20
-2.762794656008018
 30
0.0
 10
-13.92255105607199
 20
-2.753824382893308
 30
0.0
  0
ELLIPSE
  5
137A
330
1F
100
AcDbEntity
  8
AM_0
100
AcDbEllipse
 10
-17.01228404445458
 20
-1.78012734285845
 30
0.0
 11
-0.0000000000000357
 21
1.410057749323069
 31
0.0
210
0.0
220
0.0
230
1.0
 40
0.9848484848484908
 41
-0.5173038785515418
 42
0.4087587856088526
  0
ELLIPSE
  5
137B
330
1F
100
AcDbEntity
  8
AM_0
100
AcDbEllipse
 10
-7.80101279904494
 20
10.63855813842897
 30
0.0
 11
0.0000000000065059
 21
14.90091817048468
 31
0.0
210
0.0
220
0.0
230
1.0
 40
0.9848484848484847
 41
2.189389294070035
 42
2.413709760007674
  0
SPLINE
  5
137C
330
1F
100
AcDbEntity
  8
AM_0
100
AcDbSpline
210
0.0
220
0.0
230
1.0
 70
     8
 71
     3
 72
     8
 73
     4
 74
     0
 42
0.0000000001
 43
0.0000000001
 40
0.0
 40
0.0
 40
0.0
 40
0.0
 40
14.48999654934388
 40
14.48999654934388
 40
14.48999654934388
 40
14.48999654934388
 10
-16.07272727272716
 20
2.999999999999899
 30
0.0
 10
-13.21863704331094
 20
2.999999999999901
 30
0.0
 10
-10.62750033983726
 20
1.4999999999999
 30
0.0
 10
-8.036363636363576
 20
-0.0000000000001009
 30
0.0
  0
SPLINE
  5
137D
330
1F
100
AcDbEntity
  8
AM_0
100
AcDbSpline
210
0.0
220
0.0
230
1.0
 70
     8
 71
     3
 72
     8
 73
     4
 74
     0
 42
0.0000000001
 43
0.0000000001
 40
0.0
 40
0.0
 40
0.0
 40
0.0
 40
3.347564375695247
 40
3.347564375695247
 40
3.347564375695247
 40
3.347564375695247
 10
-16.07272727272714
 20
-3.000000000000099
 30
0.0
 10
-15.41335853205983
 20
-3.000000000000099
 30
0.0
 10
-14.76802440012587
 20
-2.919940555943422
 30
0.0
 10
-14.13348251892543
 20
-2.778317472294166
 30
0.0
  0
SPLINE
  5
137E
330
1F
100
AcDbEntity
  8
AM_0
100
AcDbSpline
210
0.0
220
0.0
230
1.0
 70
     8
 71
     3
 72
     8
 73
     4
 74
     0
 42
0.0000000001
 43
0.0000000001
 40
0.0
 40
0.0
 40
0.0
 40
0.0
 40
10.49953388088627
 40
10.49953388088627
 40
10.49953388088627
 40
10.49953388088627
 10
-13.8228739563421
 20
-2.7543937908306
 30
0.0
 10
-15.89096396318351
 20
-2.7543937908306
 30
0.0
 10
-17.83987520457197
 20
-2.017513543406367
 30
0.0
 10
-19.75678415915295
 20
-1.082763709639003
 30
0.0
  0
ELLIPSE
  5
137F
330
1F
100
AcDbEntity
  8
AM_0
100
AcDbEllipse
 10
-9.460387306561182
 20
12.61532155679645
 30
0.0
 11
0.0000000000006574
 21
14.90091817048477
 31
0.0
210
0.0
220
0.0
230
1.0
 40
0.9848484848484851
 41
2.363922219269102
 42
2.856273467352039
  0
LINE
  5
1380
330
1F
100
AcDbEntity
  8
AM_0
100
AcDbLine
 10
-50.0
 20
2.69999999999984
 30
0.0
 11
-49.75000000000001
 21
2.99999999999984
 31
0.0
1001
GENIUS_GENFIL_13
1070
     0
1040
0.5
1040
0.5
1040
20.0
1040
0.0
1002
{
1002
}
1001
GENIUS_GENODEF_13
1002
{
1000
HIER
1070
     0
1002
}
1002
{
1000
MANEDIT
1070
     0
1002
}
1002
{
1000
NOSEL
1070
     0
1002
}
1002
{
1000
BEHIND
1070
     0
1002
}
1002
{
1000
REACTOR
1002
}
1001
GENIUS_GENOBJ-N-CHA_13
1002
{
1000
OWNER
1000
GEN
1002
}
  0
LINE
  5
1381
330
1F
100
AcDbEntity
  8
AM_0
100
AcDbLine
 10
-49.99999999999998
 20
-2.70000000000015
 30
0.0
 11
-49.74999999999997
 21
-3.00000000000015
 31
0.0
1001
GENIUS_GENFIL_13
1070
     0
1040
0.5
1040
0.5
1040
20.0
1040
0.0
1002
{
1002
}
1001
GENIUS_GENODEF_13
1002
{
1000
HIER
1070
     0
1002
}
1002
{
1000
MANEDIT
1070
     0
1002
}
1002
{
1000
NOSEL
1070
     0
1002
}
1002
{
1000
BEHIND
1070
     0
1002
}
1002
{
1000
REACTOR
1002
}
1001
GENIUS_GENOBJ-N-CHA_13
1002
{
1000
OWNER
1000
GEN
1002
}
  0
LINE
  5
1382
330
1F
100
AcDbEntity
  8
AM_0
100
AcDbLine
 10
-49.99999999999998
 20
-2.70000000000015
 30
0.0
 11
-50.0
 21
2.69999999999984
 31
0.0
  0
LINE
  5
1383
330
1F
100
AcDbEntity
  8
AM_0
100
AcDbLine
 10
-49.74999999999997
 20
-3.00000000000015
 30
0.0
 11
-49.75000000000001
 21
2.99999999999984
 31
0.0
  0
LINE
  5
1384
330
1F
100
AcDbEntity
  8
AM_7
100
AcDbLine
 10
-51.28402965545783
 20
-0.0000000000001654
 30
0.0
 11
1.772727272727312
 21
0.00000000000001
 31
0.0
1001
GENIUS_GENODEF_13
1002
{
1000
HIER
1070
     0
1002
}
1002
{
1000
MANEDIT
1070
     0
1002
}
1002
{
1000
NOSEL
1070
     0
1002
}
1002
{
1000
BEHIND
1070
     0
1002
}
1002
{
1000
REACTOR
1002
}
1001
GENIUS_GENOBJ-N-CEN_13
1002
{
1000
OWNER
1000
GEN
1002
}
  0
LINE
  5
1385
330
1F
100
AcDbEntity
  8
AM_0
100
AcDbLine
 10
-16.07272727272679
 20
-3.000000000000101
 30
0.0
 11
-49.74999999999997
 21
-3.00000000000015
 31
0.0
  0
LINE
  5
1386
330
1F
100
AcDbEntity
  8
AM_0
100
AcDbLine
 10
-16.07272727272678
 20
2.999999999999897
 30
0.0
 11
-49.75000000000001
 21
2.99999999999984
 31
0.0
  0
DIMENSION
  5
1387
330
1F
100
AcDbEntity
  8
AM_5
100
AcDbDimension
  2
*D7
 10
0.0000000000000218
 20
-16.00000000000006
 30
0.0
 11
-24.99999999999998
 21
-14.45000000000006
 31
0.0
 70
    32
  1
<>
  3
AM_JIS
100
AcDbAlignedDimension
 13
-49.99999999999998
 23
-2.70000000000015
 33
0.0
 14
0.0000000000000226
 24
-3.000000000000083
 34
0.0
 50
0.0000000000001149
100
AcDbRotatedDimension
1001
GENIUS_GENDTOL_13
1000

1000
h7
1000

1040
0.0
  0
LINE
  5
13F4
330
1F
100
AcDbEntity
  8
AM_11
100
AcDbLine
 10
0.0000000000000226
 20
-3.000000000000083
 30
0.0
 11
0.0000000000000058
 21
3.000000000002371
 31
0.0
  0
DIMENSION
  5
143A
330
1F
100
AcDbEntity
  8
AM_5
100
AcDbDimension
  2
*D8
 10
-57.000001
 20
2.999999999999842
 30
0.0
 11
-58.55000099999999
 21
-0.000000000000162
 31
0.0
 70
    32
  1
%%c<>
  3
AM_JIS
100
AcDbAlignedDimension
 13
-49.74999999999997
 23
-3.00000000000015
 33
0.0
 14
-49.75000000000001
 24
2.99999999999984
 34
0.0
 50
270.0000000000001
100
AcDbRotatedDimension
1001
GENIUS_GENDTOL_13
1000

1000
h7
1000

1040
0.0
  0
VIEWPORT
  5
110
330
101
100
AcDbEntity
 67
     1
  8
0
100
AcDbViewport
 10
420.5
 20
297.0
 30
0.0
 40
948.9782706766916
 41
628.452
 68
     1
 69
     1
1001
ACAD
1000
MVIEW
1002
{
1070
    16
1010
0.0
1020
0.0
1030
0.0
1010
0.0
1020
0.0
1030
1.0
1040
0.0
1040
628.452
1040
420.5
1040
297.0
1040
50.0
1040
0.0
1040
0.0
1070
     0
1070
   100
1070
     1
1070
     1
1070
     0
1070
     0
1070
     0
1070
     0
1040
0.0
1040
0.0
1040
0.0
1040
10.0
1040
10.0
1040
10.0
1040
10.0
1070
     0
1002
{
1002
}
1002
}
  0
ENDSEC
  0
SECTION
  2
OBJECTS
  0
DICTIONARY
  5
C
330
0
100
AcDbDictionary
  3
ACAD_GROUP
350
D
  3
ACAD_LAYOUT
350
1A
  3
ACAD_MLINESTYLE
350
17
  3
ACAD_PLOTSETTINGS
350
19
  3
ACAD_PLOTSTYLENAME
350
E
  3
ACDBVARIABLEDICTIONARY
350
34
  3
ACMDICTIONARY
350
43
  3
AMG
350
2B
  3
AMGSNAPSETTINGS
350
6E
  3
DWGPROPS
350
14F2
  3
ACDBHEADERROUNDTRIPXREC
350
14FE
  0
DICTIONARY
  5
74
330
1F
100
AcDbDictionary
280
     1
  3
ACAD_INDEX
360
14F4
  3
ACAD_LAYOUTSELFREF
360
1521
  0
DICTIONARY
  5
1526
330
101
100
AcDbDictionary
280
     1
  3
ACAD_LAYOUTSELFREF
360
1527
  0
DICTIONARY
  5
D
102
{ACAD_REACTORS
330
C
102
}
330
C
100
AcDbDictionary
  0
DICTIONARY
  5
1A
102
{ACAD_REACTORS
330
C
102
}
330
C
100
AcDbDictionary
  0
DICTIONARY
  5
17
102
{ACAD_REACTORS
330
C
102
}
330
C
100
AcDbDictionary
  3
STANDARD
350
18
  0
DICTIONARY
  5
19
102
{ACAD_REACTORS
330
C
102
}
330
C
100
AcDbDictionary
  0
ACDBDICTIONARYWDFLT
  5
E
102
{ACAD_REACTORS
330
C
102
}
330
C
100
AcDbDictionary
281
     1
  3
Normal
350
F
100
AcDbDictionaryWithDefault
340
F
  0
DICTIONARY
  5
34
102
{ACAD_REACTORS
330
C
102
}
330
C
100
AcDbDictionary
  3
INDEXCTL
350
35
  3
SORTENTS
350
B5E
  0
DICTIONARY
  5
43
102
{ACAD_REACTORS
330
C
102
}
330
C
100
AcDbDictionary
  3
ACMSTDDICTIONARY
350
260
  0
DICTIONARY
  5
2B
102
{ACAD_REACTORS
330
C
102
}
330
C
100
AcDbDictionary
  3
ACMGSETTINGS
350
2C
  0
DICTIONARY
  5
6E
102
{ACAD_REACTORS
330
C
102
}
330
C
100
AcDbDictionary
  0
XRECORD
  5
14F2
102
{ACAD_REACTORS
330
C
102
}
330
C
100
AcDbXrecord
  1
DWGPROPS COOKIE
  2

  3

  4

  6

  7

  8

  9

300
AmdtFileType=82
301
=
302
=
303
=
304
=
305
=
306
=
307
=
308
=
309
=
 40
0.0415420717592593
 41
2452808.406212557
 42
2452839.599597071
  1

 90
        1
  0
DICTIONARY
  5
14FE
102
{ACAD_REACTORS
330
C
102
}
330
C
100
AcDbDictionary
  3
TSTACKALIGN
350
14FF
  3
TSTACKSIZE
350
1500
  3
HYPERLINKBASE
350
1501
  3
STYLESHEET
350
1502
  3
LAYOUTDICT
350
1503
  3
PLOTSETDICT
350
1504
  3
PLOTSTYLNAMDICT
350
1505
  3
LWETCUNION
350
1506
  3
INSUNITS
350
1507
  3
CEPSNTYPE
350
1508
  3
FINGERPRINTGUID
350
1509
  3
VERSIONGUID
350
150A
  3
PSVPSCALE
350
150B
  3
DIMSTYLEDATA
350
150C
  3
PUCSORTHOREF
350
150D
  3
PUCSORTHOVIEW
350
150E
  3
PUCSBASE
350
150F
  3
PUCSORGTOP
350
1510
  3
PUCSORGBOTTOM
350
1511
  3
PUCSORGLEFT
350
1512
  3
PUCSORGRIGHT
350
1513
  3
PUCSORGFRONT
350
1514
  3
PUCSORGBACK
350
1515
  3
UCSORTHOREF
350
1516
  3
UCSORTHOVIEW
350
1517
  3
UCSBASE
350
1518
  3
UCSORGTOP
350
1519
  3
UCSORGBOTTOM
350
151A
  3
UCSORGLEFT
350
151B
  3
UCSORGRIGHT
350
151C
  3
UCSORGFRONT
350
151D
  3
UCSORGBACK
350
151E
  0
DICTIONARY
  5
14F4
102
{ACAD_REACTORS
330
74
102
}
330
74
100
AcDbDictionary
  3
*A1
350
14F5
  0
XRECORD
  5
1521
102
{ACAD_REACTORS
330
74
102
}
330
74
100
AcDbXrecord
340
1F
  0
XRECORD
  5
1527
102
{ACAD_REACTORS
330
1526
102
}
330
1526
100
AcDbXrecord
340
101
  0
MLINESTYLE
  5
18
102
{ACAD_REACTORS
330
17
102
}
330
17
100
AcDbMlineStyle
  2
STANDARD
 70
     0
  3

 62
   256
 51
90.0
 52
90.0
 71
     2
 49
0.5
 62
   256
  6
BYLAYER
 49
-0.5
 62
   256
  6
BYLAYER
  0
ACDBPLACEHOLDER
  5
F
102
{ACAD_REACTORS
330
E
102
}
330
E
100
AcDbPlaceHolder
280
     0
  0
DICTIONARYVAR
  5
35
102
{ACAD_REACTORS
330
34
102
}
330
34
100
DictionaryVariables
280
     0
  1
1
  0
DICTIONARYVAR
  5
B5E
102
{ACAD_REACTORS
330
34
102
}
330
34
100
DictionaryVariables
280
     0
  1
96
  0
DICTIONARY
  5
260
102
{ACAD_REACTORS
330
43
102
}
330
43
100
AcDbDictionary
  0
DICTIONARY
  5
2C
102
{ACAD_REACTORS
330
2B
102
}
330
2B
100
AcDbDictionary
  3
DWGSETTINGS
350
2D
  0
XRECORD
  5
14FF
102
{ACAD_REACTORS
330
14FE
102
}
330
14FE
100
AcDbXrecord
 90
        1
  0
XRECORD
  5
1500
102
{ACAD_REACTORS
330
14FE
102
}
330
14FE
100
AcDbXrecord
 90
       70
  0
XRECORD
  5
1501
102
{ACAD_REACTORS
330
14FE
102
}
330
14FE
100
AcDbXrecord
  1

  0
XRECORD
  5
1502
102
{ACAD_REACTORS
330
14FE
102
}
330
14FE
100
AcDbXrecord
  1
ASAMI.ctb
  0
XRECORD
  5
1503
102
{ACAD_REACTORS
330
14FE
102
}
330
14FE
100
AcDbXrecord
340
1A
  0
XRECORD
  5
1504
102
{ACAD_REACTORS
330
14FE
102
}
330
14FE
100
AcDbXrecord
340
19
  0
XRECORD
  5
1505
102
{ACAD_REACTORS
330
14FE
102
}
330
14FE
100
AcDbXrecord
340
E
  0
XRECORD
  5
1506
102
{ACAD_REACTORS
330
14FE
102
}
330
14FE
100
AcDbXrecord
 90
    10781
  0
XRECORD
  5
1507
102
{ACAD_REACTORS
330
14FE
102
}
330
14FE
100
AcDbXrecord
 90
        4
  0
XRECORD
  5
1508
102
{ACAD_REACTORS
330
14FE
102
}
330
14FE
100
AcDbXrecord
 90
        0
  0
XRECORD
  5
1509
102
{ACAD_REACTORS
330
14FE
102
}
330
14FE
100
AcDbXrecord
  1
{AFB28963-8C59-40AE-9337-C84526B81ACE}
  0
XRECORD
  5
150A
102
{ACAD_REACTORS
330
14FE
102
}
330
14FE
100
AcDbXrecord
  1
{556BA24D-AB42-49C9-B2B0-BFB089405293}
  0
XRECORD
  5
150B
102
{ACAD_REACTORS
330
14FE
102
}
330
14FE
100
AcDbXrecord
 40
0.0
  0
XRECORD
  5
150C
102
{ACAD_REACTORS
330
14FE
102
}
330
14FE
100
AcDbXrecord
1000
DSTYLE
1002
{
1070
    79
 70
     2
1070
   341
340
59
1070
   342
340
59
1070
   371
 70
    -1
1070
   372
 70
    -1
1002
}
  0
XRECORD
  5
150D
102
{ACAD_REACTORS
330
14FE
102
}
330
14FE
100
AcDbXrecord
340
0
  0
XRECORD
  5
150E
102
{ACAD_REACTORS
330
14FE
102
}
330
14FE
100
AcDbXrecord
 70
     0
  0
XRECORD
  5
150F
102
{ACAD_REACTORS
330
14FE
102
}
330
14FE
100
AcDbXrecord
340
0
  0
XRECORD
  5
1510
102
{ACAD_REACTORS
330
14FE
102
}
330
14FE
100
AcDbXrecord
 10
0.0
 20
0.0
 30
0.0
  0
XRECORD
  5
1511
102
{ACAD_REACTORS
330
14FE
102
}
330
14FE
100
AcDbXrecord
 10
0.0
 20
0.0
 30
0.0
  0
XRECORD
  5
1512
102
{ACAD_REACTORS
330
14FE
102
}
330
14FE
100
AcDbXrecord
 10
0.0
 20
0.0
 30
0.0
  0
XRECORD
  5
1513
102
{ACAD_REACTORS
330
14FE
102
}
330
14FE
100
AcDbXrecord
 10
0.0
 20
0.0
 30
0.0
  0
XRECORD
  5
1514
102
{ACAD_REACTORS
330
14FE
102
}
330
14FE
100
AcDbXrecord
 10
0.0
 20
0.0
 30
0.0
  0
XRECORD
  5
1515
102
{ACAD_REACTORS
330
14FE
102
}
330
14FE
100
AcDbXrecord
 10
0.0
 20
0.0
 30
0.0
  0
XRECORD
  5
1516
102
{ACAD_REACTORS
330
14FE
102
}
330
14FE
100
AcDbXrecord
340
0
  0
XRECORD
  5
1517
102
{ACAD_REACTORS
330
14FE
102
}
330
14FE
100
AcDbXrecord
 70
     0
  0
XRECORD
  5
1518
102
{ACAD_REACTORS
330
14FE
102
}
330
14FE
100
AcDbXrecord
340
0
  0
XRECORD
  5
1519
102
{ACAD_REACTORS
330
14FE
102
}
330
14FE
100
AcDbXrecord
 10
0.0
 20
0.0
 30
0.0
  0
XRECORD
  5
151A
102
{ACAD_REACTORS
330
14FE
102
}
330
14FE
100
AcDbXrecord
 10
0.0
 20
0.0
 30
0.0
  0
XRECORD
  5
151B
102
{ACAD_REACTORS
330
14FE
102
}
330
14FE
100
AcDbXrecord
 10
0.0
 20
0.0
 30
0.0
  0
XRECORD
  5
151C
102
{ACAD_REACTORS
330
14FE
102
}
330
14FE
100
AcDbXrecord
 10
0.0
 20
0.0
 30
0.0
  0
XRECORD
  5
151D
102
{ACAD_REACTORS
330
14FE
102
}
330
14FE
100
AcDbXrecord
 10
0.0
 20
0.0
 30
0.0
  0
XRECORD
  5
151E
102
{ACAD_REACTORS
330
14FE
102
}
330
14FE
100
AcDbXrecord
 10
0.0
 20
0.0
 30
0.0
  0
LAYER_INDEX
  5
14F5
102
{ACAD_REACTORS
330
14F4
102
}
330
14F4
100
AcDbIndex
 40
2452839.67781177
100
AcDbLayerIndex
  8
0
360
14F6
 90
        0
  8
AM_0
360
14F7
 90
       33
  8
AM_11
360
14F8
 90
        4
  8
AM_7
360
14F9
 90
        1
  8
AM_5
360
14FA
 90
        4
  8
Defpoints
360
14FB
 90
        0
  8
AM_6
360
14FC
 90
        1
  0
XRECORD
  5
2D
102
{ACAD_REACTORS
330
2C
102
}
330
2C
100
AcDbXrecord
  1
VERSION
140
15.0
  1
PRODUCT
  2
AutoCAD Mechanical 2000
  0
IDBUFFER
  5
14F6
330
0
100
AcDbIdBuffer
  0
IDBUFFER
  5
14F7
330
0
100
AcDbIdBuffer
330
1375
330
1376
330
1377
330
1378
330
1379
330
137A
330
137B
330
137C
330
137D
330
137E
330
137F
330
1380
330
1381
330
1382
330
1383
330
1385
330
1386
330
1346
330
1347
330
1348
330
1349
330
134A
330
134B
330
134C
330
134D
330
135D
330
135E
330
135F
330
1361
330
1371
330
1372
330
1373
330
1374
  0
IDBUFFER
  5
14F8
330
0
100
AcDbIdBuffer
330
1360
330
1362
330
1363
330
13F4
  0
IDBUFFER
  5
14F9
330
0
100
AcDbIdBuffer
330
1384
  0
IDBUFFER
  5
14FA
330
0
100
AcDbIdBuffer
330
134E
330
1364
330
1387
330
143A
  0
IDBUFFER
  5
14FB
330
0
100
AcDbIdBuffer
  0
IDBUFFER
  5
14FC
330
0
100
AcDbIdBuffer
330
103F
  0
ENDSEC
  0
EOF
