  0
SECTION
  2
HEADER
  9
$ACADVER
  1
AC1014
  9
$ACADMAINTVER
 70
     9
  9
$DWGCODEPAGE
  3
ANSI_932
  9
$INSBASE
 10
0.0
 20
0.0
 30
0.0
  9
$EXTMIN
 10
-69.35000099999999
 20
-30.11022934105777
 30
-0.00000001
  9
$EXTMAX
 10
10.09091009090913
 20
4.858903349340573
 30
0.00000001
  9
$LIMMIN
 10
-73.49792609374657
 20
-48.06982780968218
  9
$LIMMAX
 10
16.93771589744392
 20
8.782107614514131
  9
$ORTHOMODE
 70
     0
  9
$REGENMODE
 70
     1
  9
$FILLMODE
 70
     1
  9
$QTEXTMODE
 70
     0
  9
$MIRRTEXT
 70
     0
  9
$DRAGMODE
 70
     2
  9
$LTSCALE
 40
1.0
  9
$OSMODE
 70
  2103
  9
$ATTMODE
 70
     1
  9
$TEXTSIZE
 40
2.5
  9
$TRACEWID
 40
1.0
  9
$TEXTSTYLE
  7
ACJISGDT
  9
$CLAYER
  8
AM_11
  9
$CELTYPE
  6
BYLAYER
  9
$CECOLOR
 62
   256
  9
$CELTSCALE
 40
1.0
  9
$DELOBJ
 70
     1
  9
$DISPSILH
 70
     0
  9
$DIMSCALE
 40
0.5
  9
$DIMASZ
 40
2.5
  9
$DIMEXO
 40
1.0
  9
$DIMDLI
 40
12.0
  9
$DIMRND
 40
0.0
  9
$DIMDLE
 40
0.0
  9
$DIMEXE
 40
1.0
  9
$DIMTP
 40
0.1
  9
$DIMTM
 40
0.1
  9
$DIMTXT
 40
3.2
  9
$DIMCEN
 40
0.0
  9
$DIMTSZ
 40
0.0
  9
$DIMTOL
 70
     0
  9
$DIMLIM
 70
     0
  9
$DIMTIH
 70
     0
  9
$DIMTOH
 70
     0
  9
$DIMSE1
 70
     0
  9
$DIMSE2
 70
     0
  9
$DIMTAD
 70
     3
  9
$DIMZIN
 70
     8
  9
$DIMBLK
  1
OPEN30
  9
$DIMASO
 70
     1
  9
$DIMSHO
 70
     1
  9
$DIMPOST
  1

  9
$DIMAPOST
  1
"
  9
$DIMALT
 70
     0
  9
$DIMALTD
 70
     2
  9
$DIMALTF
 40
0.0393701
  9
$DIMLFAC
 40
1.0
  9
$DIMTOFL
 70
     1
  9
$DIMTVP
 40
0.0
  9
$DIMTIX
 70
     0
  9
$DIMSOXD
 70
     0
  9
$DIMSAH
 70
     0
  9
$DIMBLK1
  1

  9
$DIMBLK2
  1

  9
$DIMSTYLE
  2
AM_JIS
  9
$DIMCLRD
 70
   256
  9
$DIMCLRE
 70
   256
  9
$DIMCLRT
 70
     2
  9
$DIMTFAC
 40
0.71
  9
$DIMGAP
 40
1.5
  9
$DIMJUST
 70
     0
  9
$DIMSD1
 70
     0
  9
$DIMSD2
 70
     0
  9
$DIMTOLJ
 70
     0
  9
$DIMTZIN
 70
     0
  9
$DIMALTZ
 70
     0
  9
$DIMALTTZ
 70
     0
  9
$DIMFIT
 70
     3
  9
$DIMUPT
 70
     0
  9
$DIMUNIT
 70
     2
  9
$DIMDEC
 70
     3
  9
$DIMTDEC
 70
     3
  9
$DIMALTU
 70
     2
  9
$DIMALTTD
 70
     2
  9
$DIMTXSTY
  7
ASAMI
  9
$DIMAUNIT
 70
     0
  9
$LUNITS
 70
     2
  9
$LUPREC
 70
     2
  9
$SKETCHINC
 40
1.0
  9
$FILLETRAD
 40
2.5
  9
$AUNITS
 70
     0
  9
$AUPREC
 70
     0
  9
$MENU
  1
.
  9
$ELEVATION
 40
0.0
  9
$PELEVATION
 40
0.0
  9
$THICKNESS
 40
0.0
  9
$LIMCHECK
 70
     0
  9
$BLIPMODE
 70
     0
  9
$CHAMFERA
 40
0.5
  9
$CHAMFERB
 40
0.5
  9
$CHAMFERC
 40
20.0
  9
$CHAMFERD
 40
0.0
  9
$SKPOLY
 70
     0
  9
$TDCREATE
 40
2452808.406212557
  9
$TDUPDATE
 40
2452839.677895683
  9
$TDINDWG
 40
0.0314648611
  9
$TDUSRTIMER
 40
0.0314648611
  9
$USRTIMER
 70
     1
  9
$ANGBASE
 50
0.0
  9
$ANGDIR
 70
     0
  9
$PDMODE
 70
     0
  9
$PDSIZE
 40
0.0
  9
$PLINEWID
 40
0.0
  9
$COORDS
 70
     2
  9
$SPLFRAME
 70
     0
  9
$SPLINETYPE
 70
     6
  9
$SPLINESEGS
 70
     8
  9
$ATTDIA
 70
     1
  9
$ATTREQ
 70
     1
  9
$HANDLING
 70
 12289
  9
$HANDSEED
  5
1495
  9
$SURFTAB1
 70
     6
  9
$SURFTAB2
 70
     6
  9
$SURFTYPE
 70
     6
  9
$SURFU
 70
     6
  9
$SURFV
 70
     6
  9
$UCSNAME
  2

  9
$UCSORG
 10
0.0000000000000142
 20
0.000000000000004
 30
0.0
  9
$UCSXDIR
 10
1.0
 20
0.0
 30
0.0
  9
$UCSYDIR
 10
0.0
 20
1.0
 30
0.0
  9
$PUCSNAME
  2

  9
$PUCSORG
 10
0.0
 20
0.0
 30
0.0
  9
$PUCSXDIR
 10
1.0
 20
0.0
 30
0.0
  9
$PUCSYDIR
 10
0.0
 20
1.0
 30
0.0
  9
$USERI1
 70
     0
  9
$USERI2
 70
     0
  9
$USERI3
 70
     0
  9
$USERI4
 70
     0
  9
$USERI5
 70
     0
  9
$USERR1
 40
0.0
  9
$USERR2
 40
0.0
  9
$USERR3
 40
0.0
  9
$USERR4
 40
0.0
  9
$USERR5
 40
0.0
  9
$WORLDVIEW
 70
     1
  9
$SHADEDGE
 70
     3
  9
$SHADEDIF
 70
    70
  9
$TILEMODE
 70
     1
  9
$MAXACTVP
 70
    64
  9
$PINSBASE
 10
0.0
 20
0.0
 30
0.0
  9
$PLIMCHECK
 70
     0
  9
$PEXTMIN
 10
1.000000000000000E+20
 20
1.000000000000000E+20
 30
1.000000000000000E+20
  9
$PEXTMAX
 10
-1.000000000000000E+20
 20
-1.000000000000000E+20
 30
-1.000000000000000E+20
  9
$PLIMMIN
 10
0.0
 20
0.0
  9
$PLIMMAX
 10
841.0
 20
594.0
  9
$UNITMODE
 70
     0
  9
$VISRETAIN
 70
     1
  9
$PLINEGEN
 70
     0
  9
$PSLTSCALE
 70
     0
  9
$TREEDEPTH
 70
  3020
  9
$PICKSTYLE
 70
     0
  9
$CMLSTYLE
  2
STANDARD
  9
$CMLJUST
 70
     0
  9
$CMLSCALE
 40
20.0
  9
$PROXYGRAPHICS
 70
     1
  9
$MEASUREMENT
 70
     1
  0
ENDSEC
  0
SECTION
  2
CLASSES
  0
CLASS
  1
ACDBDICTIONARYWDFLT
  2
AcDbDictionaryWithDefault
  3
AutoCAD 2000
 90
        0
280
     0
281
     0
  0
CLASS
  1
ACDBPLACEHOLDER
  2
AcDbPlaceHolder
  3
AutoCAD 2000
 90
        0
280
     0
281
     0
  0
CLASS
  1
LAYOUT
  2
AcDbLayout
  3
AutoCAD 2000
 90
        0
280
     0
281
     0
  0
CLASS
  1
AMGSETTINGSOBJ
  2
AmgSettingsObj
  3
"AcadM|Product Description: AutoCAD Mechanical 2000|Company: Autodesk"
 90
        0
280
     0
281
     0
  0
CLASS
  1
ACME_DOCUMENT
  2
AcMeDbDoc
  3
AcMeServices
 90
        0
280
     0
281
     0
  0
CLASS
  1
ACMESCOPE
  2
AcMeScope
  3
AcMeServices
 90
        0
280
     0
281
     0
  0
CLASS
  1
ACMECOMMANDHISTORY
  2
AcMeCommandHistory
  3
AcMeServices
 90
        0
280
     0
281
     0
  0
CLASS
  1
DICTIONARYVAR
  2
AcDbDictionaryVar
  3
AutoCAD 2000
 90
        0
280
     0
281
     0
  0
CLASS
  1
ACIMSYSVARMAN
  2
AcImSysVarManager
  3
AcMeServices
 90
        0
280
     0
281
     0
  0
CLASS
  1
ACIMREALSYSVAR
  2
AcImRealSysVar
  3
AcMeServices
 90
        0
280
     0
281
     0
  0
CLASS
  1
ACIMINTSYSVAR
  2
AcImIntSysVar
  3
AcMeServices
 90
        0
280
     0
281
     0
  0
CLASS
  1
ACMEDRAWINGMAN
  2
AcMeDrawingMan
  3
AcMeServices
 90
        0
280
     0
281
     0
  0
CLASS
  1
ACMEVIEW
  2
AcMeView
  3
AcMeServices
 90
        0
280
     0
281
     0
  0
CLASS
  1
ACDBENTITYCACHE
  2
AcMeEntityCache
  3
AcMeServices
 90
        0
280
     0
281
     0
  0
CLASS
  1
GSMANAGER
  2
AcMeGSManager
  3
AcMeServices
 90
        0
280
     0
281
     0
  0
CLASS
  1
AmdtInternalReactor
  2
AmdtInternalReactor
  3
AcMeServices
 90
        0
280
     0
281
     0
  0
CLASS
  1
ACMESTATEMGR
  2
AcMeStateMgr
  3
AcMeServices
 90
        0
280
     0
281
     0
  0
CLASS
  1
ACME_DATABASE
  2
AcMeDbDatabase
  3
AcMeServices
 90
        0
280
     0
281
     0
  0
CLASS
  1
ACRFINSADJUSTERMGR
  2
AcRfInsAdjusterMgr
  3
AcMeServices
 90
        0
280
     0
281
     0
  0
CLASS
  1
ACMDATADICTIONARY
  2
AcmDataDictionary
  3
"AcmSymBB|Product Description: AutoCAD Mechanical 2000|Company: Autodesk"
 90
        0
280
     0
281
     0
  0
CLASS
  1
ACMDATAENTRYBLOCK
  2
AcmDataEntryBlock
  3
"AcmSymBB|Product Description: AutoCAD Mechanical 2000|Company: Autodesk"
 90
        0
280
     0
281
     0
  0
CLASS
  1
AMGOBJPROPCFG
  2
AmgObjPropCfg
  3
"AmgLay|Product Description: AutoCAD Mechanical 2000|Company: Autodesk"
 90
        1
280
     0
281
     0
  0
CLASS
  1
ACAMGFILTERDAT
  2
AcAmgFilterDat
  3
"AcadM|Product Description: AutoCAD Mechanical 2000|Company: Autodesk"
 90
        0
280
     0
281
     0
  0
CLASS
  1
LAYER_INDEX
  2
AcDbLayerIndex
  3
AutoCAD 2000
 90
        0
280
     0
281
     0
  0
CLASS
  1
IDBUFFER
  2
AcDbIdBuffer
  3
AutoCAD 2000
 90
        0
280
     0
281
     0
  0
CLASS
  1
ACIMSTRSYSVAR
  2
AcImStrSysVar
  3
AcMeServices
 90
        0
280
     0
281
     0
  0
CLASS
  1
ACMSTANDARDJIS
  2
AcmStandardJIS
  3
"AcmSymBB|Product Description: AutoCAD Mechanical 2000|Company: Autodesk"
 90
        0
280
     0
281
     0
  0
CLASS
  1
ACMSURFSTANDARDJIS
  2
AcmSurfTextStdJIS
  3
"AcmSymBB|Product Description: AutoCAD Mechanical 2000|Company: Autodesk"
 90
        0
280
     0
281
     0
  0
CLASS
  1
ACMFCFSTANDARDJIS
  2
AcmFCFStdJIS
  3
"AcmSymBB|Product Description: AutoCAD Mechanical 2000|Company: Autodesk"
 90
        0
280
     0
281
     0
  0
CLASS
  1
ACMWELDSTANDARDJIS
  2
AcmWeldingStdJIS
  3
"AcmSymBB|Product Description: AutoCAD Mechanical 2000|Company: Autodesk"
 90
        0
280
     0
281
     0
  0
CLASS
  1
ACMIDSTANDARDJIS
  2
AcmIdStdJIS
  3
"AcmSymBB|Product Description: AutoCAD Mechanical 2000|Company: Autodesk"
 90
        0
280
     0
281
     0
  0
CLASS
  1
ACMDATUMSTANDARDJIS
  2
AcmDatumStdJIS
  3
"AcmSymBB|Product Description: AutoCAD Mechanical 2000|Company: Autodesk"
 90
        0
280
     0
281
     0
  0
CLASS
  1
ACMBOMSTANDARDJIS
  2
AcmBOMStdJIS
  3
"AcmSymBB|Product Description: AutoCAD Mechanical 2000|Company: Autodesk"
 90
        0
280
     0
281
     0
  0
CLASS
  1
ACMSTANDARDANSI
  2
AcmStandardANSI
  3
"AcmSymBB|Product Description: AutoCAD Mechanical 2000|Company: Autodesk"
 90
        0
280
     0
281
     0
  0
CLASS
  1
ACMSURFSTANDARDANSI
  2
AcmSurfTextStdANSI
  3
"AcmSymBB|Product Description: AutoCAD Mechanical 2000|Company: Autodesk"
 90
        0
280
     0
281
     0
  0
CLASS
  1
ACMFCFSTANDARDANSI
  2
AcmFCFStdANSI
  3
"AcmSymBB|Product Description: AutoCAD Mechanical 2000|Company: Autodesk"
 90
        0
280
     0
281
     0
  0
CLASS
  1
ACMWELDSTANDARDANSI
  2
AcmWeldingStdANSI
  3
"AcmSymBB|Product Description: AutoCAD Mechanical 2000|Company: Autodesk"
 90
        0
280
     0
281
     0
  0
CLASS
  1
ACMIDSTANDARDANSI
  2
AcmIdStdANSI
  3
"AcmSymBB|Product Description: AutoCAD Mechanical 2000|Company: Autodesk"
 90
        0
280
     0
281
     0
  0
CLASS
  1
ACMDATUMSTANDARDANSI
  2
AcmDatumStdANSI
  3
"AcmSymBB|Product Description: AutoCAD Mechanical 2000|Company: Autodesk"
 90
        0
280
     0
281
     0
  0
CLASS
  1
ACMBOMSTANDARDANSI
  2
AcmBOMStdANSI
  3
"AcmSymBB|Product Description: AutoCAD Mechanical 2000|Company: Autodesk"
 90
        0
280
     0
281
     0
  0
CLASS
  1
ACMSTANDARDBSI
  2
AcmStandardBSI
  3
"AcmSymBB|Product Description: AutoCAD Mechanical 2000|Company: Autodesk"
 90
        0
280
     0
281
     0
  0
CLASS
  1
ACMSURFSTANDARDBSI
  2
AcmSurfTextStdBSI
  3
"AcmSymBB|Product Description: AutoCAD Mechanical 2000|Company: Autodesk"
 90
        0
280
     0
281
     0
  0
CLASS
  1
ACMFCFSTANDARDBSI
  2
AcmFCFStdBSI
  3
"AcmSymBB|Product Description: AutoCAD Mechanical 2000|Company: Autodesk"
 90
        0
280
     0
281
     0
  0
CLASS
  1
ACMWELDSTANDARDBSI
  2
AcmWeldingStdBSI
  3
"AcmSymBB|Product Description: AutoCAD Mechanical 2000|Company: Autodesk"
 90
        0
280
     0
281
     0
  0
CLASS
  1
ACMIDSTANDARDBSI
  2
AcmIdStdBSI
  3
"AcmSymBB|Product Description: AutoCAD Mechanical 2000|Company: Autodesk"
 90
        0
280
     0
281
     0
  0
CLASS
  1
ACMDATUMSTANDARDBSI
  2
AcmDatumStdBSI
  3
"AcmSymBB|Product Description: AutoCAD Mechanical 2000|Company: Autodesk"
 90
        0
280
     0
281
     0
  0
CLASS
  1
ACMBOMSTANDARDBSI
  2
AcmBOMStdBSI
  3
"AcmSymBB|Product Description: AutoCAD Mechanical 2000|Company: Autodesk"
 90
        0
280
     0
281
     0
  0
CLASS
  1
LONG_TRANSACTION
  2
AcDbLongTransaction
  3
AutoCAD 2000
 90
        0
280
     0
281
     0
  0
CLASS
  1
LWPOLYLINE
  2
AcDbPolyline
  3
AutoCAD 2000
 90
        0
280
     0
281
     1
  0
CLASS
  1
HATCH
  2
AcDbHatch
  3
AutoCAD 2000
 90
        0
280
     0
281
     1
  0
CLASS
  1
XRECORD
  2
AcDbXrecord
  3
AutoCAD 2000
 90
        0
280
     0
281
     0
  0
ENDSEC
  0
SECTION
  2
TABLES
  0
TABLE
  2
VPORT
  5
8
330
0
100
AcDbSymbolTable
 70
     3
  0
VPORT
  5
146A
330
8
100
AcDbSymbolTableRecord
100
AcDbViewportTableRecord
  2
*ACTIVE
 70
     0
 10
0.0
 20
0.0
 11
1.0
 21
1.0
 12
-29.63095298555661
 22
-17.62483583057351
 13
0.0
 23
0.0
 14
2.5
 24
2.5
 15
10.0
 25
10.0
 16
0.0
 26
0.0
 36
1.0
 17
0.0
 27
0.0
 37
0.0
 40
50.94958078219917
 41
1.56570841889117
 42
50.0
 43
0.0
 44
0.0
 50
0.0
 51
0.0
 71
     0
 72
   100
 73
     1
 74
     3
 75
     0
 76
     0
 77
     0
 78
     0
  0
ENDTAB
  0
TABLE
  2
LTYPE
  5
5
330
0
100
AcDbSymbolTable
 70
    10
  0
LTYPE
  5
14
330
5
100
AcDbSymbolTableRecord
100
AcDbLinetypeTableRecord
  2
BYBLOCK
 70
     0
  3

 72
    65
 73
     0
 40
0.0
  0
LTYPE
  5
15
330
5
100
AcDbSymbolTableRecord
100
AcDbLinetypeTableRecord
  2
BYLAYER
 70
     0
  3

 72
    65
 73
     0
 40
0.0
  0
LTYPE
  5
16
330
5
100
AcDbSymbolTableRecord
100
AcDbLinetypeTableRecord
  2
CONTINUOUS
 70
     0
  3
Solid line
 72
    65
 73
     0
 40
0.0
  0
LTYPE
  5
4B
330
5
100
AcDbSymbolTableRecord
100
AcDbLinetypeTableRecord
  2
AM_ISO02W050
 70
     0
  3
__ __ __ __ __ __ __ __ __ __ __ __ __ __ __
 72
    65
 73
     2
 40
7.5
 49
6.0
 74
     0
 49
-1.5
 74
     0
  0
LTYPE
  5
4C
330
5
100
AcDbSymbolTableRecord
100
AcDbLinetypeTableRecord
  2
AM_ISO08W050
 70
     0
  3
____ . ____ . ____ . ____ . ____ . ____ . ____
 72
    65
 73
     4
 40
18.0
 49
12.0
 74
     0
 49
-1.5
 74
     0
 49
3.0
 74
     0
 49
-1.5
 74
     0
  0
LTYPE
  5
4D
330
5
100
AcDbSymbolTableRecord
100
AcDbLinetypeTableRecord
  2
AM_ISO09W050
 70
     0
  3
_____ . . _____ . . _____ . . ____ .. ____
 72
    65
 73
     6
 40
22.5
 49
12.0
 74
     0
 49
-1.5
 74
     0
 49
3.0
 74
     0
 49
-1.5
 74
     0
 49
3.0
 74
     0
 49
-1.5
 74
     0
  0
LTYPE
  5
4E
330
5
100
AcDbSymbolTableRecord
100
AcDbLinetypeTableRecord
  2
AMCONSTR
 70
     0
  3
_______________________
 72
    65
 73
     2
 40
9999.0
 49
9999.0
 74
     0
 49
0.0
 74
     0
  0
LTYPE
  5
4F
330
5
100
AcDbSymbolTableRecord
100
AcDbLinetypeTableRecord
  2
AM_ISO02W050X2
 70
     0
  3
 _ _ _ _ _ _ _ _ _ _ _ _
 72
    65
 73
     2
 40
3.75
 49
3.0
 74
     0
 49
-0.75
 74
     0
  0
LTYPE
  5
50
330
5
100
AcDbSymbolTableRecord
100
AcDbLinetypeTableRecord
  2
AM_ISO08W050X2
 70
     0
  3
__ . __ . __ . __ . __ . __
 72
    65
 73
     4
 40
9.0
 49
6.0
 74
     0
 49
-0.75
 74
     0
 49
1.5
 74
     0
 49
-0.75
 74
     0
  0
LTYPE
  5
53
330
5
100
AcDbSymbolTableRecord
100
AcDbLinetypeTableRecord
  2
AMZIGZAG
 70
     0
  3
/\/-/\/-/\/-/\/-/\/-/\/
 72
    65
 73
     2
 40
11.00009999999999
 49
0.0001
 74
     4
 75
   135
340
52
 46
0.04
 50
0.0
 44
0.0
 45
0.0
 49
-11.0
 74
     0
  0
LTYPE
  5
166
330
5
100
AcDbSymbolTableRecord
100
AcDbLinetypeTableRecord
  2
ACJISTGL
 70
     0
  3
_ _ _ _ _
 72
    65
 73
     2
 40
3.0
 49
2.0
 74
     0
 49
-1.0
 74
     0
  0
LTYPE
  5
26A
330
5
100
AcDbSymbolTableRecord
100
AcDbLinetypeTableRecord
  2
ACJISTGB
 70
     0
  3
__ . . __ . .
 72
    65
 73
     6
 40
9.0
 49
4.0
 74
     0
 49
-1.0
 74
     0
 49
1.0
 74
     0
 49
-1.0
 74
     0
 49
1.0
 74
     0
 49
-1.0
 74
     0
  0
ENDTAB
  0
TABLE
  2
LAYER
  5
2
330
0
100
AcDbSymbolTable
 70
     7
  0
LAYER
  5
10
330
2
100
AcDbSymbolTableRecord
100
AcDbLayerTableRecord
  2
0
 70
     0
 62
     7
  6
CONTINUOUS
  0
LAYER
  5
3F9
330
2
100
AcDbSymbolTableRecord
100
AcDbLayerTableRecord
  2
AM_0
 70
     0
 62
     7
  6
CONTINUOUS
  0
LAYER
  5
BA4
330
2
100
AcDbSymbolTableRecord
100
AcDbLayerTableRecord
  2
AM_11
 70
     0
 62
     3
  6
AM_ISO09W050
  0
LAYER
  5
BA5
330
2
100
AcDbSymbolTableRecord
100
AcDbLayerTableRecord
  2
AM_7
 70
     0
 62
     4
  6
AM_ISO08W050
  0
LAYER
  5
E75
330
2
100
AcDbSymbolTableRecord
100
AcDbLayerTableRecord
  2
AM_5
 70
     0
 62
     3
  6
CONTINUOUS
  0
LAYER
  5
E77
330
2
100
AcDbSymbolTableRecord
100
AcDbLayerTableRecord
  2
DEFPOINTS
 70
     0
 62
     7
  6
CONTINUOUS
  0
LAYER
  5
1039
330
2
100
AcDbSymbolTableRecord
100
AcDbLayerTableRecord
  2
AM_6
 70
     0
 62
     2
  6
CONTINUOUS
  0
ENDTAB
  0
TABLE
  2
STYLE
  5
3
330
0
100
AcDbSymbolTable
 70
     5
  0
STYLE
  5
11
330
3
100
AcDbSymbolTableRecord
100
AcDbTextStyleTableRecord
  2
STANDARD
 70
     0
 40
0.0
 41
1.0
 50
0.0
 71
     0
 42
2.5
  3
simplex.shx
  4
EXTFONT.SHX
  0
STYLE
  5
52
330
3
100
AcDbSymbolTableRecord
100
AcDbTextStyleTableRecord
  2

 70
     1
 40
0.0
 41
1.0
 50
0.0
 71
     0
 42
2.5
  3
ltypeshp.shx
  4

  0
STYLE
  5
6B
330
3
100
AcDbSymbolTableRecord
100
AcDbTextStyleTableRecord
  2
ASAMI
 70
     0
 40
0.0
 41
1.0
 50
0.0
 71
     0
 42
2.5
  3
simplex.shx
  4
EXTFONT.SHX
  0
STYLE
  5
262
330
3
100
AcDbSymbolTableRecord
100
AcDbTextStyleTableRecord
  2
ACJISTS
 70
     0
 40
1.0
 41
1.0
 50
0.0
 71
     0
 42
2.5
  3
simplex.shx
  4
bigfont.shx
  0
STYLE
  5
269
330
3
100
AcDbSymbolTableRecord
100
AcDbTextStyleTableRecord
  2
ACJISGDT
 70
     0
 40
0.0
 41
1.0
 50
0.0
 71
     0
 42
2.5
  3
amgdtans.shx
  4

  0
ENDTAB
  0
TABLE
  2
VIEW
  5
6
330
0
100
AcDbSymbolTable
 70
     0
  0
ENDTAB
  0
TABLE
  2
UCS
  5
7
330
0
100
AcDbSymbolTable
 70
     0
  0
ENDTAB
  0
TABLE
  2
APPID
  5
9
330
0
100
AcDbSymbolTable
 70
    12
  0
APPID
  5
12
330
9
100
AcDbSymbolTableRecord
100
AcDbRegAppTableRecord
  2
ACAD
 70
     0
  0
APPID
  5
30
330
9
100
AcDbSymbolTableRecord
100
AcDbRegAppTableRecord
  2
MCAD_NO_VIS
 70
     0
  0
APPID
  5
31
330
9
100
AcDbSymbolTableRecord
100
AcDbRegAppTableRecord
  2
ACAD_TEMP_GRAPHIC
 70
     0
  0
APPID
  5
2C2
330
9
100
AcDbSymbolTableRecord
100
AcDbRegAppTableRecord
  2
GENIUS_GENDTOL_13
 70
     0
  0
APPID
  5
339
330
9
100
AcDbSymbolTableRecord
100
AcDbRegAppTableRecord
  2
GENIUS_GENODEF_13
 70
     0
  0
APPID
  5
33A
330
9
100
AcDbSymbolTableRecord
100
AcDbRegAppTableRecord
  2
GENIUS_GENOBJ-N-RSBK_13
 70
     0
  0
APPID
  5
33B
330
9
100
AcDbSymbolTableRecord
100
AcDbRegAppTableRecord
  2
GENIUS_GENOBJ-N-LIB_13
 70
     0
  0
APPID
  5
33C
330
9
100
AcDbSymbolTableRecord
100
AcDbRegAppTableRecord
  2
GENIUS_GENSCALE_13
 70
     0
  0
APPID
  5
378
330
9
100
AcDbSymbolTableRecord
100
AcDbRegAppTableRecord
  2
GENIUS_GENDIMSH_14
 70
     0
  0
APPID
  5
E5F
330
9
100
AcDbSymbolTableRecord
100
AcDbRegAppTableRecord
  2
GENIUS_GENFIL_13
 70
     0
  0
APPID
  5
E60
330
9
100
AcDbSymbolTableRecord
100
AcDbRegAppTableRecord
  2
GENIUS_GENOBJ-N-CHA_13
 70
     0
  0
APPID
  5
E6C
330
9
100
AcDbSymbolTableRecord
100
AcDbRegAppTableRecord
  2
GENIUS_GENOBJ-N-CEN_13
 70
     0
  0
ENDTAB
  0
TABLE
  2
DIMSTYLE
  5
A
330
0
100
AcDbSymbolTable
 70
     8
  0
DIMSTYLE
105
58
102
{ACAD_REACTORS
330
126F
330
1280
330
12A6
330
1326
102
}
330
A
100
AcDbSymbolTableRecord
100
AcDbDimStyleTableRecord
  2
AM_JIS
 70
     0
  3

  4
"
  5
OPEN30
  6

  7

 40
0.5
 41
2.5
 42
1.0
 43
12.0
 44
1.0
 45
0.0
 46
0.0
 47
0.1
 48
0.1
140
3.2
141
0.0
142
0.0
143
0.0393701
144
1.0
145
0.0
146
0.71
147
1.5
 71
     0
 72
     0
 73
     0
 74
     0
 75
     0
 76
     0
 77
     3
 78
     8
170
     0
171
     2
172
     1
173
     0
174
     0
175
     0
176
   256
177
   256
178
     2
270
     2
271
     3
272
     3
273
     2
274
     2
340
6B
275
     0
280
     0
281
     0
282
     0
283
     0
284
     0
285
     0
286
     0
287
     3
288
     0
  0
DIMSTYLE
105
5F
330
A
100
AcDbSymbolTableRecord
100
AcDbDimStyleTableRecord
  2
AM_JIS$3
 70
     0
  3

  4
"
  5
OPEN30
  6

  7

 40
0.5
 41
2.5
 42
1.0
 43
10.0
 44
1.0
 45
0.0
 46
0.0
 47
0.1
 48
0.1
140
3.2
141
0.0
142
0.0
143
0.0393701
144
1.0
145
0.0
146
0.71
147
1.5
 71
     0
 72
     0
 73
     0
 74
     1
 75
     0
 76
     0
 77
     3
 78
     8
170
     0
171
     2
172
     0
173
     0
174
     0
175
     0
176
   256
177
   256
178
     2
270
     2
271
     2
272
     3
273
     2
274
     2
340
6B
275
     0
280
     0
281
     0
282
     0
283
     0
284
     0
285
     0
286
     0
287
     0
288
     1
  0
DIMSTYLE
105
60
330
A
100
AcDbSymbolTableRecord
100
AcDbDimStyleTableRecord
  2
AM_JIS$4
 70
     0
  3

  4
"
  5
OPEN30
  6

  7

 40
0.5
 41
2.5
 42
1.0
 43
10.0
 44
1.0
 45
0.0
 46
0.0
 47
0.1
 48
0.1
140
3.2
141
0.0
142
0.0
143
0.0393701
144
1.0
145
0.0
146
0.71
147
1.5
 71
     0
 72
     0
 73
     0
 74
     1
 75
     0
 76
     0
 77
     3
 78
     8
170
     0
171
     2
172
     0
173
     0
174
     0
175
     0
176
   256
177
   256
178
     2
270
     2
271
     2
272
     3
273
     2
274
     2
340
6B
275
     0
280
     0
281
     0
282
     0
283
     0
284
     0
285
     0
286
     0
287
     0
288
     1
  0
DIMSTYLE
105
61
330
A
100
AcDbSymbolTableRecord
100
AcDbDimStyleTableRecord
  2
AM_JIS$6
 70
     0
  3

  4
"
  5
OPEN30
  6

  7

 40
0.5
 41
2.5
 42
1.0
 43
10.0
 44
1.0
 45
0.0
 46
0.0
 47
0.1
 48
0.1
140
3.2
141
0.0
142
0.0
143
0.0393701
144
1.0
145
0.0
146
0.71
147
1.5
 71
     0
 72
     0
 73
     0
 74
     0
 75
     0
 76
     0
 77
     0
 78
     8
170
     0
171
     2
172
     1
173
     0
174
     0
175
     0
176
   256
177
   256
178
     2
270
     2
271
     2
272
     2
273
     2
274
     2
340
6B
275
     0
280
     0
281
     0
282
     0
283
     0
284
     0
285
     0
286
     0
287
     3
288
     0
  0
DIMSTYLE
105
62
330
A
100
AcDbSymbolTableRecord
100
AcDbDimStyleTableRecord
  2
AM_JIS$7
 70
     0
  3

  4
"
  5
OPEN30
  6

  7

 40
0.5
 41
2.5
 42
1.0
 43
10.0
 44
1.0
 45
0.0
 46
0.0
 47
0.1
 48
0.1
140
3.2
141
0.0
142
0.0
143
0.0393701
144
1.0
145
0.0
146
0.71
147
1.5
 71
     0
 72
     0
 73
     0
 74
     0
 75
     0
 76
     0
 77
     3
 78
     8
170
     0
171
     2
172
     1
173
     0
174
     0
175
     0
176
   256
177
   256
178
     2
270
     2
271
     2
272
     3
273
     2
274
     2
340
6B
275
     0
280
     0
281
     0
282
     0
283
     0
284
     0
285
     0
286
     0
287
     3
288
     0
  0
DIMSTYLE
105
63
330
A
100
AcDbSymbolTableRecord
100
AcDbDimStyleTableRecord
  2
AM_JIS$SF
 70
     0
  3

  4
"
  5
OPEN30
  6

  7

 40
0.5
 41
2.5
 42
1.0
 43
10.0
 44
1.0
 45
0.0
 46
0.0
 47
0.1
 48
0.1
140
3.2
141
0.0
142
0.0
143
0.0393701
144
1.0
145
0.0
146
0.71
147
1.5
 71
     0
 72
     0
 73
     0
 74
     0
 75
     1
 76
     1
 77
     3
 78
     8
170
     0
171
     2
172
     1
173
     0
174
     0
175
     0
176
   256
177
   256
178
     2
270
     2
271
     2
272
     2
273
     2
274
     2
340
6B
275
     0
280
     0
281
     0
282
     0
283
     0
284
     0
285
     0
286
     0
287
     3
288
     0
  0
DIMSTYLE
105
68
330
A
100
AcDbSymbolTableRecord
100
AcDbDimStyleTableRecord
  2
AM_JIS$SH
 70
     0
  3

  4
"
  5

  6
GENAXEH
  7
OPEN30
 40
0.5
 41
2.5
 42
1.0
 43
10.0
 44
1.0
 45
0.0
 46
0.0
 47
0.1
 48
0.1
140
3.2
141
0.0
142
0.0
143
0.0393701
144
2.0
145
0.0
146
0.71
147
1.5
 71
     0
 72
     0
 73
     0
 74
     0
 75
     1
 76
     1
 77
     3
 78
     8
170
     0
171
     2
172
     1
173
     1
174
     0
175
     0
176
   256
177
   256
178
     2
270
     2
271
     2
272
     2
273
     2
274
     2
340
6B
275
     0
280
     0
281
     0
282
     0
283
     0
284
     0
285
     0
286
     0
287
     3
288
     0
  0
DIMSTYLE
105
B34
330
A
100
AcDbSymbolTableRecord
100
AcDbDimStyleTableRecord
  2
AM_JIS$2
 70
     0
  3

  4
"
  5
OPEN30
  6

  7

 40
0.5
 41
2.5
 42
1.0
 43
12.0
 44
1.0
 45
0.0
 46
0.0
 47
0.1
 48
0.1
140
3.2
141
0.0
142
0.0
143
0.0393701
144
1.0
145
0.0
146
0.71
147
1.5
 71
     0
 72
     0
 73
     0
 74
     0
 75
     0
 76
     0
 77
     3
 78
     8
170
     0
171
     2
172
     1
173
     0
174
     0
175
     0
176
   256
177
   256
178
     2
270
     2
271
     3
272
     3
273
     2
274
     2
340
6B
275
     0
280
     0
281
     0
282
     0
283
     0
284
     0
285
     0
286
     0
287
     3
288
     0
  0
ENDTAB
  0
TABLE
  2
BLOCK_RECORD
  5
1
330
0
100
AcDbSymbolTable
 70
     9
  0
BLOCK_RECORD
  5
1F
102
{ACAD_XDICTIONARY
360
74
102
}
330
1
100
AcDbSymbolTableRecord
100
AcDbBlockTableRecord
  2
*MODEL_SPACE
  0
BLOCK_RECORD
  5
101
102
{ACAD_XDICTIONARY
360
1493
102
}
330
1
100
AcDbSymbolTableRecord
100
AcDbBlockTableRecord
  2
*PAPER_SPACE
  0
BLOCK_RECORD
  5
59
330
1
100
AcDbSymbolTableRecord
100
AcDbBlockTableRecord
  2
_OPEN30
  0
BLOCK_RECORD
  5
64
330
1
100
AcDbSymbolTableRecord
100
AcDbBlockTableRecord
  2
GENAXEH
  0
BLOCK_RECORD
  5
1270
330
1
100
AcDbSymbolTableRecord
100
AcDbBlockTableRecord
  2
*D5
  0
BLOCK_RECORD
  5
1281
330
1
100
AcDbSymbolTableRecord
100
AcDbBlockTableRecord
  2
*D6
  0
BLOCK_RECORD
  5
12A7
330
1
100
AcDbSymbolTableRecord
100
AcDbBlockTableRecord
  2
*D7
  0
BLOCK_RECORD
  5
1327
330
1
100
AcDbSymbolTableRecord
100
AcDbBlockTableRecord
  2
*D8
  0
ENDTAB
  0
ENDSEC
  0
SECTION
  2
BLOCKS
  0
BLOCK
  5
20
330
1F
100
AcDbEntity
  8
0
100
AcDbBlockBegin
  2
*MODEL_SPACE
 70
     0
 10
0.0
 20
0.0
 30
0.0
  3
*MODEL_SPACE
  1

  0
ENDBLK
  5
21
330
1F
100
AcDbEntity
  8
0
100
AcDbBlockEnd
  0
BLOCK
  5
103
330
101
100
AcDbEntity
 67
     1
  8
0
100
AcDbBlockBegin
  2
*PAPER_SPACE
 70
     0
 10
0.0
 20
0.0
 30
0.0
  3
*PAPER_SPACE
  1

  0
ENDBLK
  5
104
330
101
100
AcDbEntity
 67
     1
  8
0
100
AcDbBlockEnd
  0
BLOCK
  5
5D
330
59
100
AcDbEntity
  8
0
100
AcDbBlockBegin
  2
_OPEN30
 70
     0
 10
0.0
 20
0.0
 30
0.0
  3
_OPEN30
  1

  0
LINE
  5
5A
330
59
100
AcDbEntity
  8
0
 62
     0
100
AcDbLine
 10
-1.0
 20
0.26794919
 30
0.0
 11
0.0
 21
0.0
 31
0.0
  0
LINE
  5
5B
330
59
100
AcDbEntity
  8
0
 62
     0
100
AcDbLine
 10
0.0
 20
0.0
 30
0.0
 11
-1.0
 21
-0.26794919
 31
0.0
  0
LINE
  5
5C
330
59
100
AcDbEntity
  8
0
 62
     0
100
AcDbLine
 10
0.0
 20
0.0
 30
0.0
 11
-1.0
 21
0.0
 31
0.0
  0
ENDBLK
  5
5E
330
59
100
AcDbEntity
  8
0
100
AcDbBlockEnd
  0
BLOCK
  5
66
330
64
100
AcDbEntity
  8
0
100
AcDbBlockBegin
  2
GENAXEH
 70
     0
 10
0.0
 20
0.0
 30
0.0
  3
GENAXEH
  1

  0
LINE
  5
65
330
64
100
AcDbEntity
  8
0
100
AcDbLine
 10
-1.0
 20
0.0
 30
0.0
 11
1.0
 21
0.0
 31
0.0
  0
ENDBLK
  5
67
330
64
100
AcDbEntity
  8
0
100
AcDbBlockEnd
  0
BLOCK
  5
127A
330
1270
100
AcDbEntity
  8
0
100
AcDbBlockBegin
  2
*D5
 70
     1
 10
0.0
 20
0.0
 30
0.0
  3
*D5
  1

  0
LINE
  5
13E6
330
1270
100
AcDbEntity
  8
AM_5
100
AcDbLine
 10
0.5000000000000266
 20
-4.000000000000112
 30
0.0
 11
10.09091009090913
 21
-4.000000000000116
 31
0.0
  0
LINE
  5
13E7
330
1270
100
AcDbEntity
  8
AM_5
100
AcDbLine
 10
0.5000000000000235
 20
4.00000000000316
 30
0.0
 11
10.09091009090913
 21
4.000000000003156
 31
0.0
  0
LINE
  5
13E8
330
1270
100
AcDbEntity
  8
AM_5
100
AcDbLine
 10
9.590910090909133
 20
-2.750000000000115
 30
0.0
 11
9.590910090909133
 21
2.750000000003157
 31
0.0
  0
INSERT
  5
13E9
330
1270
100
AcDbEntity
  8
AM_5
100
AcDbBlockReference
  2
_OPEN30
 10
9.590910090909131
 20
-4.000000000000115
 30
0.0
 41
1.25
 42
1.25
 43
1.25
 50
270.0
  0
INSERT
  5
13EA
330
1270
100
AcDbEntity
  8
AM_5
100
AcDbBlockReference
  2
_OPEN30
 10
9.590910090909135
 20
4.000000000003157
 30
0.0
 41
1.25
 42
1.25
 43
1.25
 50
90.0
  0
MTEXT
  5
13EB
330
1270
100
AcDbEntity
  8
AM_5
 62
     2
100
AcDbMText
 10
8.040910090909132
 20
0.0000000000015244
 30
0.0
 40
1.6
 41
0.0
 71
     5
 72
     1
  1
%%c8
  7
ASAMI
 11
0.0000000000000001
 21
1.0
 31
0.0
1001
ACAD
1000
MTEXTBEGIN
1070
    73
1070
     1
1070
    44
1040
1.0
1070
    74
1070
     0
1000
MTEXTEND
  0
POINT
  5
13EC
330
1270
100
AcDbEntity
  8
DEFPOINTS
 62
     0
100
AcDbPoint
 10
0.0000000000000265
 20
-4.000000000000112
 30
0.0
  0
POINT
  5
13ED
330
1270
100
AcDbEntity
  8
DEFPOINTS
 62
     0
100
AcDbPoint
 10
0.0000000000000234
 20
4.00000000000316
 30
0.0
  0
POINT
  5
13EE
330
1270
100
AcDbEntity
  8
DEFPOINTS
 62
     0
100
AcDbPoint
 10
9.590910090909135
 20
4.000000000003157
 30
0.0
  0
ENDBLK
  5
127B
330
1270
100
AcDbEntity
  8
0
100
AcDbBlockEnd
  0
BLOCK
  5
128B
330
1281
100
AcDbEntity
  8
0
100
AcDbBlockBegin
  2
*D6
 70
     1
 10
0.0
 20
0.0
 30
0.0
  3
*D6
  1

  0
LINE
  5
13EF
330
1281
100
AcDbEntity
  8
AM_5
100
AcDbLine
 10
-18.99999999999997
 20
-4.50000000000013
 30
0.0
 11
-18.99999999999997
 21
-13.36022934105777
 31
0.0
  0
LINE
  5
13F0
330
1281
100
AcDbEntity
  8
AM_5
100
AcDbLine
 10
0.0000000000000265
 20
-4.500000000000112
 30
0.0
 11
0.0000000000000259
 21
-13.36022934105777
 31
0.0
  0
LINE
  5
13F1
330
1281
100
AcDbEntity
  8
AM_5
100
AcDbLine
 10
-17.74999999999997
 20
-12.86022934105777
 30
0.0
 11
-1.249999999999974
 21
-12.86022934105777
 31
0.0
  0
INSERT
  5
13F2
330
1281
100
AcDbEntity
  8
AM_5
100
AcDbBlockReference
  2
_OPEN30
 10
-18.99999999999997
 20
-12.86022934105777
 30
0.0
 41
1.25
 42
1.25
 43
1.25
 50
180.0
  0
INSERT
  5
13F3
330
1281
100
AcDbEntity
  8
AM_5
100
AcDbBlockReference
  2
_OPEN30
 10
0.0000000000000259
 20
-12.86022934105777
 30
0.0
 41
1.25
 42
1.25
 43
1.25
  0
MTEXT
  5
13F4
330
1281
100
AcDbEntity
  8
AM_5
 62
     2
100
AcDbMText
 10
-9.499999999999973
 20
-11.31022934105777
 30
0.0
 40
1.6
 41
0.0
 71
     5
 72
     1
  1
19
  7
ASAMI
1001
ACAD
1000
MTEXTBEGIN
1070
    73
1070
     1
1070
    44
1040
1.0
1070
    74
1070
     0
1000
MTEXTEND
  0
POINT
  5
13F5
330
1281
100
AcDbEntity
  8
DEFPOINTS
 62
     0
100
AcDbPoint
 10
-18.99999999999997
 20
-4.00000000000013
 30
0.0
  0
POINT
  5
13F6
330
1281
100
AcDbEntity
  8
DEFPOINTS
 62
     0
100
AcDbPoint
 10
0.0000000000000265
 20
-4.000000000000112
 30
0.0
  0
POINT
  5
13F7
330
1281
100
AcDbEntity
  8
DEFPOINTS
 62
     0
100
AcDbPoint
 10
0.0000000000000259
 20
-12.86022934105777
 30
0.0
  0
ENDBLK
  5
128C
330
1281
100
AcDbEntity
  8
0
100
AcDbBlockEnd
  0
BLOCK
  5
12B1
330
12A7
100
AcDbEntity
  8
0
100
AcDbBlockBegin
  2
*D7
 70
     1
 10
0.0
 20
0.0
 30
0.0
  3
*D7
  1

  0
LINE
  5
13CB
330
12A7
100
AcDbEntity
  8
AM_5
100
AcDbLine
 10
-59.99999999999996
 20
-4.100000000000161
 30
0.0
 11
-59.99999999999996
 21
-19.36022934105777
 31
0.0
  0
LINE
  5
13CC
330
12A7
100
AcDbEntity
  8
AM_5
100
AcDbLine
 10
0.0000000000000265
 20
-4.500000000000112
 30
0.0
 11
0.0000000000000255
 21
-19.36022934105777
 31
0.0
  0
LINE
  5
13CD
330
12A7
100
AcDbEntity
  8
AM_5
100
AcDbLine
 10
-58.74999999999996
 20
-18.86022934105777
 30
0.0
 11
-1.249999999999974
 21
-18.86022934105777
 31
0.0
  0
INSERT
  5
13CE
330
12A7
100
AcDbEntity
  8
AM_5
100
AcDbBlockReference
  2
_OPEN30
 10
-59.99999999999996
 20
-18.86022934105777
 30
0.0
 41
1.25
 42
1.25
 43
1.25
 50
180.0
  0
INSERT
  5
13CF
330
12A7
100
AcDbEntity
  8
AM_5
100
AcDbBlockReference
  2
_OPEN30
 10
0.0000000000000256
 20
-18.86022934105777
 30
0.0
 41
1.25
 42
1.25
 43
1.25
  0
MTEXT
  5
13D0
330
12A7
100
AcDbEntity
  8
AM_5
 62
     2
100
AcDbMText
 10
-29.99999999999996
 20
-17.31022934105777
 30
0.0
 40
1.6
 41
0.0
 71
     5
 72
     1
  1
60
  7
ASAMI
1001
ACAD
1000
MTEXTBEGIN
1070
    73
1070
     1
1070
    44
1040
1.0
1070
    74
1070
     0
1000
MTEXTEND
  0
POINT
  5
13D1
330
12A7
100
AcDbEntity
  8
DEFPOINTS
 62
     0
100
AcDbPoint
 10
-59.99999999999996
 20
-3.600000000000161
 30
0.0
  0
POINT
  5
13D2
330
12A7
100
AcDbEntity
  8
DEFPOINTS
 62
     0
100
AcDbPoint
 10
0.0000000000000265
 20
-4.000000000000112
 30
0.0
  0
POINT
  5
13D3
330
12A7
100
AcDbEntity
  8
DEFPOINTS
 62
     0
100
AcDbPoint
 10
0.0000000000000256
 20
-18.86022934105777
 30
0.0
  0
ENDBLK
  5
12B2
330
12A7
100
AcDbEntity
  8
0
100
AcDbBlockEnd
  0
BLOCK
  5
1331
330
1327
100
AcDbEntity
  8
0
100
AcDbBlockBegin
  2
*D8
 70
     1
 10
0.0
 20
0.0
 30
0.0
  3
*D8
  1

  0
LINE
  5
13D4
330
1327
100
AcDbEntity
  8
AM_5
100
AcDbLine
 10
-60.13461538461534
 20
-4.000000000000162
 30
0.0
 11
-67.500001
 21
-4.000000000000159
 31
0.0
  0
LINE
  5
13D5
330
1327
100
AcDbEntity
  8
AM_5
100
AcDbLine
 10
-60.13461538461534
 20
3.999999999999826
 30
0.0
 11
-67.500001
 21
3.999999999999828
 31
0.0
  0
LINE
  5
13D6
330
1327
100
AcDbEntity
  8
AM_5
100
AcDbLine
 10
-67.000001
 20
-2.750000000000159
 30
0.0
 11
-67.000001
 21
2.749999999999828
 31
0.0
  0
INSERT
  5
13D7
330
1327
100
AcDbEntity
  8
AM_5
100
AcDbBlockReference
  2
_OPEN30
 10
-67.000001
 20
-4.000000000000159
 30
0.0
 41
1.25
 42
1.25
 43
1.25
 50
270.0
  0
INSERT
  5
13D8
330
1327
100
AcDbEntity
  8
AM_5
100
AcDbBlockReference
  2
_OPEN30
 10
-67.000001
 20
3.999999999999828
 30
0.0
 41
1.25
 42
1.25
 43
1.25
 50
90.0
  0
MTEXT
  5
13D9
330
1327
100
AcDbEntity
  8
AM_5
 62
     2
100
AcDbMText
 10
-68.55000099999999
 20
-0.0000000000001765
 30
0.0
 40
1.6
 41
0.0
 71
     5
 72
     1
  1
%%c8
  7
ASAMI
 11
0.0000000000000001
 21
1.0
 31
0.0
1001
ACAD
1000
MTEXTBEGIN
1070
    73
1070
     1
1070
    44
1040
1.0
1070
    74
1070
     0
1000
MTEXTEND
  0
POINT
  5
13DA
330
1327
100
AcDbEntity
  8
DEFPOINTS
 62
     0
100
AcDbPoint
 10
-59.63461538461534
 20
-4.000000000000162
 30
0.0
  0
POINT
  5
13DB
330
1327
100
AcDbEntity
  8
DEFPOINTS
 62
     0
100
AcDbPoint
 10
-59.63461538461534
 20
3.999999999999826
 30
0.0
  0
POINT
  5
13DC
330
1327
100
AcDbEntity
  8
DEFPOINTS
 62
     0
100
AcDbPoint
 10
-67.000001
 20
3.999999999999828
 30
0.0
  0
ENDBLK
  5
1332
330
1327
100
AcDbEntity
  8
0
100
AcDbBlockEnd
  0
ENDSEC
  0
SECTION
  2
ENTITIES
  0
TEXT
  5
103F
330
1F
100
AcDbEntity
  8
AM_6
100
AcDbText
 10
-40.41666666666661
 20
-30.11022934105777
 30
0.0
 40
2.5
  1
GLM2080SF
 72
     4
 11
-29.99999999999994
 21
-28.86022934105777
 31
0.0
100
AcDbText
  0
LINE
  5
1268
330
1F
100
AcDbEntity
  8
AM_0
100
AcDbLine
 10
0.0000000000000019
 20
-0.260229341057788
 30
0.0
 11
-0.090681818181832
 21
-0.260229341057788
 31
0.0
  0
LINE
  5
1269
330
1F
100
AcDbEntity
  8
AM_0
100
AcDbLine
 10
-0.090681818181832
 20
-0.260229341057788
 30
0.0
 11
-0.7500271532217479
 21
0.1868654393566209
 31
0.0
  0
LINE
  5
126A
330
1F
100
AcDbEntity
  8
AM_0
100
AcDbLine
 10
-0.3212727272725657
 20
-3.233449937976295
 30
0.0
 11
-0.3575454545452453
 21
-3.028626237588399
 31
0.0
  0
LINE
  5
126B
330
1F
100
AcDbEntity
  8
AM_0
100
AcDbLine
 10
-0.0906818181818074
 20
-3.841468185163215
 30
0.0
 11
0.0000000000000265
 21
-4.000000000000112
 31
0.0
  0
LINE
  5
126C
330
1F
100
AcDbEntity
  8
AM_0
100
AcDbLine
 10
-0.0906818181818074
 20
-3.841468185163215
 30
0.0
 11
-0.3212727272725657
 21
-3.233449937976295
 31
0.0
  0
LINE
  5
126D
330
1F
100
AcDbEntity
  8
AM_0
100
AcDbLine
 10
-0.0906818181818074
 20
-3.841468185163215
 30
0.0
 11
-0.090681818181832
 21
-0.260229341057788
 31
0.0
  0
LINE
  5
126E
330
1F
100
AcDbEntity
  8
AM_0
100
AcDbLine
 10
0.0000000000000265
 20
-4.000000000000112
 30
0.0
 11
0.0000000000000019
 21
3.999999999999887
 31
0.0
  0
DIMENSION
  5
126F
330
1F
100
AcDbEntity
  8
AM_5
100
AcDbDimension
  2
*D5
 10
9.590910090909135
 20
4.000000000003157
 30
0.0
 11
9.590910090909133
 21
0.0000000000015242
 31
0.0
 70
   160
  1
%%c<>
  3
AM_JIS
100
AcDbAlignedDimension
 13
0.0000000000000265
 23
-4.000000000000112
 33
0.0
 14
0.0000000000000234
 24
4.00000000000316
 34
0.0
 50
90.0
100
AcDbRotatedDimension
1001
GENIUS_GENDTOL_13
1000

1000
h7
1000

1040
0.0
  0
LINE
  5
127C
330
1F
100
AcDbEntity
  8
AM_0
100
AcDbLine
 10
-16.31343756348762
 20
-3.165680610817025
 30
0.0
 11
-6.034081730685121
 21
-2.743335028432851
 31
0.0
  0
LINE
  5
127D
330
1F
100
AcDbEntity
  8
AM_11
100
AcDbLine
 10
-18.99999999999997
 20
4.000000000003142
 30
0.0
 11
-18.99999999999997
 21
-4.00000000000013
 31
0.0
  0
LINE
  5
127E
330
1F
100
AcDbEntity
  8
AM_0
100
AcDbLine
 10
0.0000000000000019
 20
-0.260229341057788
 30
0.0
 11
-2.592684394089182
 21
2.601939109662703
 31
0.0
  0
LINE
  5
127F
330
1F
100
AcDbEntity
  8
AM_0
100
AcDbLine
 10
-16.52070581927583
 20
3.165680610816753
 30
0.0
 11
-2.197305931618321
 21
2.58569428365306
 31
0.0
  0
DIMENSION
  5
1280
330
1F
100
AcDbEntity
  8
AM_5
100
AcDbDimension
  2
*D6
 10
0.0000000000000259
 20
-12.86022934105777
 30
0.0
 11
-9.499999999999973
 21
-11.31022934105777
 31
0.0
 70
    32
  1
<>
  3
AM_JIS
100
AcDbAlignedDimension
 13
-18.99999999999997
 23
-4.00000000000013
 33
0.0
 14
0.0000000000000265
 24
-4.000000000000112
 34
0.0
 50
0.0000000000001048
100
AcDbRotatedDimension
1001
GENIUS_GENDTOL_13
1000

1000
h7
1000

1040
0.0
  0
ELLIPSE
  5
128D
330
1F
100
AcDbEntity
  8
AM_0
100
AcDbEllipse
 10
7.904027917110424
 20
-0.5350546586548369
 30
0.0
 11
-8.689076398719786
 21
0.0000000000000102
 31
0.0
210
0.0
220
0.0
230
1.0
 40
0.9263157894736803
 41
-0.0898132628208612
 42
0.3149884858935963
  0
SPLINE
  5
128E
330
1F
100
AcDbEntity
  8
AM_0
100
AcDbSpline
210
0.0
220
0.0
230
1.0
 70
     8
 71
     3
 72
     8
 73
     4
 74
     0
 42
0.0000000001
 43
0.0000000001
 40
0.0
 40
0.0
 40
0.0
 40
0.0
 40
14.48999654934389
 40
14.48999654934389
 40
14.48999654934389
 40
14.48999654934389
 10
0.0000000000000265
 20
-4.000000000000112
 30
0.0
 10
-4.171362642992912
 20
-4.000000000000117
 30
0.0
 10
-7.958408594223688
 20
-2.000000000000126
 30
0.0
 10
-11.74545454545446
 20
-0.0000000000001358
 30
0.0
  0
SPLINE
  5
128F
330
1F
100
AcDbEntity
  8
AM_0
100
AcDbSpline
210
0.0
220
0.0
230
1.0
 70
     8
 71
     3
 72
     8
 73
     4
 74
     0
 42
0.0000000001
 43
0.0000000001
 40
4.269576567053861
 40
4.269576567053861
 40
4.269576567053861
 40
4.269576567053861
 40
14.35388886087876
 40
14.35388886087876
 40
14.35388886087876
 40
14.35388886087876
 10
-0.3212727272725657
 20
-3.233449937976114
 30
0.0
 10
-3.108507985143658
 20
-2.580129323476579
 30
0.0
 10
-5.782857687940761
 20
-1.290064661738437
 30
0.0
 10
-8.457207390737865
 20
-0.0000000000001131
 30
0.0
  0
SPLINE
  5
1290
330
1F
100
AcDbEntity
  8
AM_0
100
AcDbSpline
210
0.0
220
0.0
230
1.0
 70
     8
 71
     3
 72
     8
 73
     4
 74
     0
 42
0.0000000001
 43
0.0000000001
 40
0.0
 40
0.0
 40
0.0
 40
0.0
 40
4.607356481513744
 40
4.607356481513744
 40
4.607356481513744
 40
4.607356481513744
 10
-20.2026619361923
 20
-3.672525054440801
 30
0.0
 10
-18.87630173696864
 20
-3.672525054440801
 30
0.0
 10
-17.58348228423689
 20
-3.483334589330432
 30
0.0
 10
-16.31343756348762
 20
-3.165680610817025
 30
0.0
  0
SPLINE
  5
1291
330
1F
100
AcDbEntity
  8
AM_0
100
AcDbSpline
210
0.0
220
0.0
230
1.0
 70
     8
 71
     3
 72
     8
 73
     4
 74
     0
 42
0.0000000001
 43
0.0000000001
 40
0.0
 40
0.0
 40
0.0
 40
0.0
 40
14.68462643510734
 40
14.68462643510734
 40
14.68462643510734
 40
14.68462643510734
 10
-20.50374681418633
 20
3.67252505444053
 30
0.0
 10
-16.27635435559482
 20
3.672525054440535
 30
0.0
 10
-12.36678087316634
 20
1.83626252722021
 30
0.0
 10
-8.457207390737865
 20
-0.0000000000001131
 30
0.0
  0
SPLINE
  5
1292
330
1F
100
AcDbEntity
  8
AM_0
100
AcDbSpline
210
0.0
220
0.0
230
1.0
 70
     8
 71
     3
 72
     8
 73
     4
 74
     0
 42
0.0000000001
 43
0.0000000001
 40
0.0
 40
0.0
 40
0.0
 40
0.0
 40
3.696710677011538
 40
3.696710677011538
 40
3.696710677011538
 40
3.696710677011538
 10
-0.7500271532217479
 20
0.1868654393566209
 30
0.0
 10
-1.570439973671731
 20
0.814750550637423
 30
0.0
 10
-3.629451032940749
 20
2.379533903413179
 30
0.0
 10
-2.592684394089182
 20
2.601939109662703
 30
0.0
  0
SPLINE
  5
1293
330
1F
100
AcDbEntity
  8
AM_0
100
AcDbSpline
210
0.0
220
0.0
230
1.0
 70
     8
 71
     3
 72
     8
 73
     4
 74
     0
 42
0.0000000001
 43
0.0000000001
 40
0.0
 40
0.0
 40
0.0
 40
0.0
 40
7.266438349726817
 40
7.266438349726817
 40
7.266438349726817
 40
7.266438349726817
 10
0.0000000000000019
 20
3.999999999999341
 30
0.0
 10
-2.09185346431501
 20
3.999999999999341
 30
0.0
 10
-4.087058261373549
 20
3.497036327962883
 30
0.0
 10
-6.034081730681978
 20
2.743335028427714
 30
0.0
  0
SPLINE
  5
1294
330
1F
100
AcDbEntity
  8
AM_0
100
AcDbSpline
210
0.0
220
0.0
230
1.0
 70
     8
 71
     3
 72
     8
 73
     4
 74
     0
 42
0.0000000001
 43
0.0000000001
 40
0.0
 40
0.0
 40
0.0
 40
0.0
 40
2.657601517946371
 40
2.657601517946371
 40
2.657601517946371
 40
2.657601517946371
 10
-2.197305931618321
 20
2.58569428365306
 30
0.0
 10
-1.432238827967093
 20
2.585694283653061
 30
0.0
 10
-0.6040681009785322
 20
2.765095572924525
 30
0.0
 10
0.0000000000000019
 20
3.199999999999705
 30
0.0
  0
SPLINE
  5
1295
330
1F
100
AcDbEntity
  8
AM_0
100
AcDbSpline
210
0.0
220
0.0
230
1.0
 70
     8
 71
     3
 72
     8
 73
     4
 74
     0
 42
0.0000000001
 43
0.0000000001
 40
1.53702008085691
 40
1.53702008085691
 40
1.53702008085691
 40
1.53702008085691
 40
1.900993527181806
 40
1.900993527181806
 40
1.900993527181806
 40
1.900993527181806
 10
-20.65662829689141
 20
-3.704423296389676
 30
0.0
 10
-20.55366563091654
 20
-3.69462233347799
 30
0.0
 10
-20.45090606060317
 20
-3.683726208010692
 30
0.0
 10
-20.34834385118214
 20
-3.671765843857746
 30
0.0
  0
LINE
  5
1296
330
1F
100
AcDbEntity
  8
AM_0
100
AcDbLine
 10
-28.87529992491586
 20
2.663564216187524
 30
0.0
 11
-23.49090909089283
 21
4.000000000003137
 31
0.0
  0
LINE
  5
1297
330
1F
100
AcDbEntity
  8
AM_0
100
AcDbLine
 10
-28.8752999249355
 20
-1.443684946176607
 30
0.0
 11
-25.67082529611389
 21
-0.6483165016775722
 31
0.0
  0
LINE
  5
1298
330
1F
100
AcDbEntity
  8
AM_0
100
AcDbLine
 10
-60.0
 20
3.599999999999826
 30
0.0
 11
-59.63461538461539
 21
3.999999999999826
 31
0.0
1001
GENIUS_GENFIL_13
1070
     0
1040
0.5
1040
0.5
1040
20.0
1040
0.0
1002
{
1002
}
1001
GENIUS_GENODEF_13
1002
{
1000
HIER
1070
     0
1002
}
1002
{
1000
MANEDIT
1070
     0
1002
}
1002
{
1000
NOSEL
1070
     0
1002
}
1002
{
1000
BEHIND
1070
     0
1002
}
1002
{
1000
REACTOR
1002
}
1001
GENIUS_GENOBJ-N-CHA_13
1002
{
1000
OWNER
1000
GEN
1002
}
  0
LINE
  5
1299
330
1F
100
AcDbEntity
  8
AM_0
100
AcDbLine
 10
-59.99999999999996
 20
-3.600000000000161
 30
0.0
 11
-59.63461538461534
 21
-4.000000000000162
 31
0.0
1001
GENIUS_GENFIL_13
1070
     0
1040
0.5
1040
0.5
1040
20.0
1040
0.0
1002
{
1002
}
1001
GENIUS_GENODEF_13
1002
{
1000
HIER
1070
     0
1002
}
1002
{
1000
MANEDIT
1070
     0
1002
}
1002
{
1000
NOSEL
1070
     0
1002
}
1002
{
1000
BEHIND
1070
     0
1002
}
1002
{
1000
REACTOR
1002
}
1001
GENIUS_GENOBJ-N-CHA_13
1002
{
1000
OWNER
1000
GEN
1002
}
  0
LINE
  5
129A
330
1F
100
AcDbEntity
  8
AM_0
100
AcDbLine
 10
-59.63461538461534
 20
-4.000000000000162
 30
0.0
 11
-59.63461538461539
 21
3.999999999999826
 31
0.0
  0
LINE
  5
129B
330
1F
100
AcDbEntity
  8
AM_0
100
AcDbLine
 10
-59.99999999999996
 20
-3.600000000000161
 30
0.0
 11
-60.0
 21
3.599999999999826
 31
0.0
  0
LINE
  5
129C
330
1F
100
AcDbEntity
  8
AM_0
100
AcDbLine
 10
-23.49090909090838
 20
3.999999999999861
 30
0.0
 11
-59.63461538461539
 21
3.999999999999826
 31
0.0
  0
LINE
  5
129D
330
1F
100
AcDbEntity
  8
AM_0
100
AcDbLine
 10
-23.49090909090839
 20
-4.000000000000136
 30
0.0
 11
-59.63461538461534
 21
-4.000000000000162
 31
0.0
  0
ELLIPSE
  5
129E
330
1F
100
AcDbEntity
  8
AM_0
100
AcDbEllipse
 10
-24.86410744958747
 20
-2.373503123811268
 30
0.0
 11
-2.029628578571092
 21
0.0000000000000159
 31
0.0
210
0.0
220
0.0
230
1.0
 40
0.9263157894736806
 41
4.195085101833181
 42
5.121147765993575
  0
ELLIPSE
  5
129F
330
1F
100
AcDbEntity
  8
AM_0
100
AcDbEllipse
 10
-11.40148024475799
 20
14.18474418457196
 30
0.0
 11
21.44829130600075
 21
0.0000000000008347
 31
0.0
210
0.0
220
0.0
230
1.0
 40
0.9263157894736846
 41
3.760185620864458
 42
3.984506086802094
  0
LINE
  5
12A0
330
1F
100
AcDbEntity
  8
AM_11
100
AcDbLine
 10
-18.99999999999997
 20
4.000000000003142
 30
0.0
 11
0.0000000000000019
 21
4.00000000000316
 31
0.0
  0
LINE
  5
12A1
330
1F
100
AcDbEntity
  8
AM_11
100
AcDbLine
 10
-18.99999999999997
 20
-4.00000000000013
 30
0.0
 11
0.0000000000000265
 21
-4.000000000000112
 31
0.0
  0
SPLINE
  5
12A2
330
1F
100
AcDbEntity
  8
AM_0
100
AcDbSpline
210
0.0
220
0.0
230
1.0
 70
     8
 71
     3
 72
     8
 73
     4
 74
     0
 42
0.0000000001
 43
0.0000000001
 40
0.0
 40
0.0
 40
0.0
 40
0.0
 40
14.48999654934388
 40
14.48999654934388
 40
14.48999654934388
 40
14.48999654934388
 10
-23.49090909090893
 20
3.999999999999864
 30
0.0
 10
-19.31954644791599
 20
3.999999999999868
 30
0.0
 10
-15.53250049668523
 20
1.999999999999866
 30
0.0
 10
-11.74545454545446
 20
-0.0000000000001358
 30
0.0
  0
SPLINE
  5
12A3
330
1F
100
AcDbEntity
  8
AM_0
100
AcDbSpline
210
0.0
220
0.0
230
1.0
 70
     8
 71
     3
 72
     8
 73
     4
 74
     0
 42
0.0000000001
 43
0.0000000001
 40
0.0
 40
0.0
 40
0.0
 40
0.0
 40
3.347564375695247
 40
3.347564375695247
 40
3.347564375695247
 40
3.347564375695247
 10
-23.4909090909089
 20
-4.000000000000135
 30
0.0
 10
-22.52721631608745
 20
-4.000000000000135
 30
0.0
 10
-21.58403566172244
 20
-3.893254074591231
 30
0.0
 10
-20.65662829689101
 20
-3.704423296392223
 30
0.0
  0
SPLINE
  5
12A4
330
1F
100
AcDbEntity
  8
AM_0
100
AcDbSpline
210
0.0
220
0.0
230
1.0
 70
     8
 71
     3
 72
     8
 73
     4
 74
     0
 42
0.0000000001
 43
0.0000000001
 40
0.0
 40
0.0
 40
0.0
 40
0.0
 40
10.49953388088627
 40
10.49953388088627
 40
10.49953388088627
 40
10.49953388088627
 10
-20.2026619361923
 20
-3.672525054440801
 30
0.0
 10
-23.22525502311437
 20
-3.672525054440801
 30
0.0
 10
-26.07366376052827
 20
-2.690018057875157
 30
0.0
 10
-28.87529992491586
 20
-1.443684946185339
 30
0.0
  0
ELLIPSE
  5
12A5
330
1F
100
AcDbEntity
  8
AM_0
100
AcDbEllipse
 10
-13.82671990958942
 20
16.82042874239527
 30
0.0
 11
21.44829130600077
 21
0.0000000000005109
 31
0.0
210
0.0
220
0.0
230
1.0
 40
0.9263157894736854
 41
3.934718546063931
 42
4.427069794146868
  0
DIMENSION
  5
12A6
330
1F
100
AcDbEntity
  8
AM_5
100
AcDbDimension
  2
*D7
 10
0.0000000000000256
 20
-18.86022934105777
 30
0.0
 11
-29.99999999999996
 21
-17.31022934105777
 31
0.0
 70
    32
  1
<>
  3
AM_JIS
100
AcDbAlignedDimension
 13
-59.99999999999996
 23
-3.600000000000161
 33
0.0
 14
0.0000000000000265
 24
-4.000000000000112
 34
0.0
 50
0.0000000000001048
100
AcDbRotatedDimension
1001
GENIUS_GENDTOL_13
1000

1000
h7
1000

1040
0.0
  0
LINE
  5
12B3
330
1F
100
AcDbEntity
  8
AM_7
100
AcDbLine
 10
-59.99999999999999
 20
-0.0000000000001816
 30
0.0
 11
2.590909090909141
 21
0.000000000000012
 31
0.0
1001
GENIUS_GENODEF_13
1002
{
1000
HIER
1070
     0
1002
}
1002
{
1000
MANEDIT
1070
     0
1002
}
1002
{
1000
NOSEL
1070
     0
1002
}
1002
{
1000
BEHIND
1070
     0
1002
}
1002
{
1000
REACTOR
1002
}
1001
GENIUS_GENOBJ-N-CEN_13
1002
{
1000
OWNER
1000
GEN
1002
}
  0
DIMENSION
  5
1326
330
1F
100
AcDbEntity
  8
AM_5
100
AcDbDimension
  2
*D8
 10
-67.000001
 20
3.999999999999828
 30
0.0
 11
-68.55000099999999
 21
-0.0000000000001765
 31
0.0
 70
    32
  1
%%c<>
  3
AM_JIS
100
AcDbAlignedDimension
 13
-59.63461538461534
 23
-4.000000000000162
 33
0.0
 14
-59.63461538461534
 24
3.999999999999826
 34
0.0
 50
270.0000000000001
100
AcDbRotatedDimension
1001
GENIUS_GENDTOL_13
1000

1000
h7
1000

1040
0.0
  0
LINE
  5
13C9
330
1F
100
AcDbEntity
  8
AM_11
100
AcDbLine
 10
0.0000000000000265
 20
-4.000000000000112
 30
0.0
 11
0.0000000000000019
 21
4.00000000000316
 31
0.0
  0
VIEWPORT
  5
110
330
101
100
AcDbEntity
 67
     1
  8
0
100
AcDbViewport
 10
420.5
 20
297.0
 30
0.0
 40
948.9782706766916
 41
628.452
 68
     1
 69
     1
1001
ACAD
1000
MVIEW
1002
{
1070
    16
1010
0.0
1020
0.0
1030
0.0
1010
0.0
1020
0.0
1030
1.0
1040
0.0
1040
628.452
1040
420.5
1040
297.0
1040
50.0
1040
0.0
1040
0.0
1070
     0
1070
   100
1070
     1
1070
     1
1070
     0
1070
     0
1070
     0
1070
     0
1040
0.0
1040
0.0
1040
0.0
1040
10.0
1040
10.0
1040
10.0
1040
10.0
1070
     0
1002
{
1002
}
1002
}
  0
ENDSEC
  0
SECTION
  2
OBJECTS
  0
DICTIONARY
  5
C
330
0
100
AcDbDictionary
  3
ACAD_GROUP
350
D
  3
ACAD_LAYOUT
350
1A
  3
ACAD_MLINESTYLE
350
17
  3
ACAD_PLOTSETTINGS
350
19
  3
ACAD_PLOTSTYLENAME
350
E
  3
ACDBVARIABLEDICTIONARY
350
34
  3
ACMDICTIONARY
350
43
  3
AMG
350
2B
  3
AMGSNAPSETTINGS
350
6E
  3
DWGPROPS
350
145F
  3
ACDBHEADERROUNDTRIPXREC
350
146B
  0
DICTIONARY
  5
74
330
1F
100
AcDbDictionary
280
     1
  3
ACAD_INDEX
360
1461
  3
ACAD_LAYOUTSELFREF
360
148E
  0
DICTIONARY
  5
1493
330
101
100
AcDbDictionary
280
     1
  3
ACAD_LAYOUTSELFREF
360
1494
  0
DICTIONARY
  5
D
102
{ACAD_REACTORS
330
C
102
}
330
C
100
AcDbDictionary
  0
DICTIONARY
  5
1A
102
{ACAD_REACTORS
330
C
102
}
330
C
100
AcDbDictionary
  0
DICTIONARY
  5
17
102
{ACAD_REACTORS
330
C
102
}
330
C
100
AcDbDictionary
  3
STANDARD
350
18
  0
DICTIONARY
  5
19
102
{ACAD_REACTORS
330
C
102
}
330
C
100
AcDbDictionary
  0
ACDBDICTIONARYWDFLT
  5
E
102
{ACAD_REACTORS
330
C
102
}
330
C
100
AcDbDictionary
281
     1
  3
Normal
350
F
100
AcDbDictionaryWithDefault
340
F
  0
DICTIONARY
  5
34
102
{ACAD_REACTORS
330
C
102
}
330
C
100
AcDbDictionary
  3
INDEXCTL
350
35
  3
SORTENTS
350
B5E
  0
DICTIONARY
  5
43
102
{ACAD_REACTORS
330
C
102
}
330
C
100
AcDbDictionary
  3
ACMSTDDICTIONARY
350
260
  0
DICTIONARY
  5
2B
102
{ACAD_REACTORS
330
C
102
}
330
C
100
AcDbDictionary
  3
ACMGSETTINGS
350
2C
  0
DICTIONARY
  5
6E
102
{ACAD_REACTORS
330
C
102
}
330
C
100
AcDbDictionary
  0
XRECORD
  5
145F
102
{ACAD_REACTORS
330
C
102
}
330
C
100
AcDbXrecord
  1
DWGPROPS COOKIE
  2

  3

  4

  6

  7

  8

  9

300
AmdtFileType=82
301
=
302
=
303
=
304
=
305
=
306
=
307
=
308
=
309
=
 40
0.0314173032407408
 41
2452808.406212557
 42
2452839.599522928
  1

 90
        1
  0
DICTIONARY
  5
146B
102
{ACAD_REACTORS
330
C
102
}
330
C
100
AcDbDictionary
  3
TSTACKALIGN
350
146C
  3
TSTACKSIZE
350
146D
  3
HYPERLINKBASE
350
146E
  3
STYLESHEET
350
146F
  3
LAYOUTDICT
350
1470
  3
PLOTSETDICT
350
1471
  3
PLOTSTYLNAMDICT
350
1472
  3
LWETCUNION
350
1473
  3
INSUNITS
350
1474
  3
CEPSNTYPE
350
1475
  3
FINGERPRINTGUID
350
1476
  3
VERSIONGUID
350
1477
  3
PSVPSCALE
350
1478
  3
DIMSTYLEDATA
350
1479
  3
PUCSORTHOREF
350
147A
  3
PUCSORTHOVIEW
350
147B
  3
PUCSBASE
350
147C
  3
PUCSORGTOP
350
147D
  3
PUCSORGBOTTOM
350
147E
  3
PUCSORGLEFT
350
147F
  3
PUCSORGRIGHT
350
1480
  3
PUCSORGFRONT
350
1481
  3
PUCSORGBACK
350
1482
  3
UCSORTHOREF
350
1483
  3
UCSORTHOVIEW
350
1484
  3
UCSBASE
350
1485
  3
UCSORGTOP
350
1486
  3
UCSORGBOTTOM
350
1487
  3
UCSORGLEFT
350
1488
  3
UCSORGRIGHT
350
1489
  3
UCSORGFRONT
350
148A
  3
UCSORGBACK
350
148B
  0
DICTIONARY
  5
1461
102
{ACAD_REACTORS
330
74
102
}
330
74
100
AcDbDictionary
  3
*A1
350
1462
  0
XRECORD
  5
148E
102
{ACAD_REACTORS
330
74
102
}
330
74
100
AcDbXrecord
340
1F
  0
XRECORD
  5
1494
102
{ACAD_REACTORS
330
1493
102
}
330
1493
100
AcDbXrecord
340
101
  0
MLINESTYLE
  5
18
102
{ACAD_REACTORS
330
17
102
}
330
17
100
AcDbMlineStyle
  2
STANDARD
 70
     0
  3

 62
   256
 51
90.0
 52
90.0
 71
     2
 49
0.5
 62
   256
  6
BYLAYER
 49
-0.5
 62
   256
  6
BYLAYER
  0
ACDBPLACEHOLDER
  5
F
102
{ACAD_REACTORS
330
E
102
}
330
E
100
AcDbPlaceHolder
280
     0
  0
DICTIONARYVAR
  5
35
102
{ACAD_REACTORS
330
34
102
}
330
34
100
DictionaryVariables
280
     0
  1
1
  0
DICTIONARYVAR
  5
B5E
102
{ACAD_REACTORS
330
34
102
}
330
34
100
DictionaryVariables
280
     0
  1
96
  0
DICTIONARY
  5
260
102
{ACAD_REACTORS
330
43
102
}
330
43
100
AcDbDictionary
  0
DICTIONARY
  5
2C
102
{ACAD_REACTORS
330
2B
102
}
330
2B
100
AcDbDictionary
  3
DWGSETTINGS
350
2D
  0
XRECORD
  5
146C
102
{ACAD_REACTORS
330
146B
102
}
330
146B
100
AcDbXrecord
 90
        1
  0
XRECORD
  5
146D
102
{ACAD_REACTORS
330
146B
102
}
330
146B
100
AcDbXrecord
 90
       70
  0
XRECORD
  5
146E
102
{ACAD_REACTORS
330
146B
102
}
330
146B
100
AcDbXrecord
  1

  0
XRECORD
  5
146F
102
{ACAD_REACTORS
330
146B
102
}
330
146B
100
AcDbXrecord
  1
ASAMI.ctb
  0
XRECORD
  5
1470
102
{ACAD_REACTORS
330
146B
102
}
330
146B
100
AcDbXrecord
340
1A
  0
XRECORD
  5
1471
102
{ACAD_REACTORS
330
146B
102
}
330
146B
100
AcDbXrecord
340
19
  0
XRECORD
  5
1472
102
{ACAD_REACTORS
330
146B
102
}
330
146B
100
AcDbXrecord
340
E
  0
XRECORD
  5
1473
102
{ACAD_REACTORS
330
146B
102
}
330
146B
100
AcDbXrecord
 90
    10781
  0
XRECORD
  5
1474
102
{ACAD_REACTORS
330
146B
102
}
330
146B
100
AcDbXrecord
 90
        4
  0
XRECORD
  5
1475
102
{ACAD_REACTORS
330
146B
102
}
330
146B
100
AcDbXrecord
 90
        0
  0
XRECORD
  5
1476
102
{ACAD_REACTORS
330
146B
102
}
330
146B
100
AcDbXrecord
  1
{AFB28963-8C59-40AE-9337-C84526B81ACE}
  0
XRECORD
  5
1477
102
{ACAD_REACTORS
330
146B
102
}
330
146B
100
AcDbXrecord
  1
{BC3E01B4-C7D3-4CBF-9479-8202A9AF00B5}
  0
XRECORD
  5
1478
102
{ACAD_REACTORS
330
146B
102
}
330
146B
100
AcDbXrecord
 40
0.0
  0
XRECORD
  5
1479
102
{ACAD_REACTORS
330
146B
102
}
330
146B
100
AcDbXrecord
1000
DSTYLE
1002
{
1070
    79
 70
     2
1070
   341
340
59
1070
   342
340
59
1070
   371
 70
    -1
1070
   372
 70
    -1
1002
}
  0
XRECORD
  5
147A
102
{ACAD_REACTORS
330
146B
102
}
330
146B
100
AcDbXrecord
340
0
  0
XRECORD
  5
147B
102
{ACAD_REACTORS
330
146B
102
}
330
146B
100
AcDbXrecord
 70
     0
  0
XRECORD
  5
147C
102
{ACAD_REACTORS
330
146B
102
}
330
146B
100
AcDbXrecord
340
0
  0
XRECORD
  5
147D
102
{ACAD_REACTORS
330
146B
102
}
330
146B
100
AcDbXrecord
 10
0.0
 20
0.0
 30
0.0
  0
XRECORD
  5
147E
102
{ACAD_REACTORS
330
146B
102
}
330
146B
100
AcDbXrecord
 10
0.0
 20
0.0
 30
0.0
  0
XRECORD
  5
147F
102
{ACAD_REACTORS
330
146B
102
}
330
146B
100
AcDbXrecord
 10
0.0
 20
0.0
 30
0.0
  0
XRECORD
  5
1480
102
{ACAD_REACTORS
330
146B
102
}
330
146B
100
AcDbXrecord
 10
0.0
 20
0.0
 30
0.0
  0
XRECORD
  5
1481
102
{ACAD_REACTORS
330
146B
102
}
330
146B
100
AcDbXrecord
 10
0.0
 20
0.0
 30
0.0
  0
XRECORD
  5
1482
102
{ACAD_REACTORS
330
146B
102
}
330
146B
100
AcDbXrecord
 10
0.0
 20
0.0
 30
0.0
  0
XRECORD
  5
1483
102
{ACAD_REACTORS
330
146B
102
}
330
146B
100
AcDbXrecord
340
0
  0
XRECORD
  5
1484
102
{ACAD_REACTORS
330
146B
102
}
330
146B
100
AcDbXrecord
 70
     0
  0
XRECORD
  5
1485
102
{ACAD_REACTORS
330
146B
102
}
330
146B
100
AcDbXrecord
340
0
  0
XRECORD
  5
1486
102
{ACAD_REACTORS
330
146B
102
}
330
146B
100
AcDbXrecord
 10
0.0
 20
0.0
 30
0.0
  0
XRECORD
  5
1487
102
{ACAD_REACTORS
330
146B
102
}
330
146B
100
AcDbXrecord
 10
0.0
 20
0.0
 30
0.0
  0
XRECORD
  5
1488
102
{ACAD_REACTORS
330
146B
102
}
330
146B
100
AcDbXrecord
 10
0.0
 20
0.0
 30
0.0
  0
XRECORD
  5
1489
102
{ACAD_REACTORS
330
146B
102
}
330
146B
100
AcDbXrecord
 10
0.0
 20
0.0
 30
0.0
  0
XRECORD
  5
148A
102
{ACAD_REACTORS
330
146B
102
}
330
146B
100
AcDbXrecord
 10
0.0
 20
0.0
 30
0.0
  0
XRECORD
  5
148B
102
{ACAD_REACTORS
330
146B
102
}
330
146B
100
AcDbXrecord
 10
0.0
 20
0.0
 30
0.0
  0
LAYER_INDEX
  5
1462
102
{ACAD_REACTORS
330
1461
102
}
330
1461
100
AcDbIndex
 40
2452839.677895683
100
AcDbLayerIndex
  8
0
360
1463
 90
        0
  8
AM_0
360
1464
 90
       33
  8
AM_11
360
1465
 90
        4
  8
AM_7
360
1466
 90
        1
  8
AM_5
360
1467
 90
        4
  8
Defpoints
360
1468
 90
        0
  8
AM_6
360
1469
 90
        1
  0
XRECORD
  5
2D
102
{ACAD_REACTORS
330
2C
102
}
330
2C
100
AcDbXrecord
  1
VERSION
140
15.0
  1
PRODUCT
  2
AutoCAD Mechanical 2000
  0
IDBUFFER
  5
1463
330
0
100
AcDbIdBuffer
  0
IDBUFFER
  5
1464
330
0
100
AcDbIdBuffer
330
1293
330
1294
330
1295
330
1296
330
1297
330
1298
330
1299
330
129A
330
129B
330
129C
330
129D
330
129E
330
129F
330
12A2
330
12A3
330
12A4
330
12A5
330
1268
330
1269
330
126A
330
126B
330
126C
330
126D
330
126E
330
127C
330
127E
330
127F
330
128D
330
128E
330
128F
330
1290
330
1291
330
1292
  0
IDBUFFER
  5
1465
330
0
100
AcDbIdBuffer
330
127D
330
12A0
330
12A1
330
13C9
  0
IDBUFFER
  5
1466
330
0
100
AcDbIdBuffer
330
12B3
  0
IDBUFFER
  5
1467
330
0
100
AcDbIdBuffer
330
126F
330
1280
330
12A6
330
1326
  0
IDBUFFER
  5
1468
330
0
100
AcDbIdBuffer
  0
IDBUFFER
  5
1469
330
0
100
AcDbIdBuffer
330
103F
  0
ENDSEC
  0
EOF
