  0
SECTION
  2
HEADER
  9
$ACADVER
  1
AC1014
  9
$ACADMAINTVER
 70
     9
  9
$DWGCODEPAGE
  3
ANSI_932
  9
$INSBASE
 10
0.0
 20
0.0
 30
0.0
  9
$EXTMIN
 10
-78.85000000000001
 20
-31.57528667632222
 30
-0.00000001
  9
$EXTMAX
 10
7.500000000000023
 20
6.056699334258711
 30
0.00000001
  9
$LIMMIN
 10
-85.04933578375888
 20
-50.59382238739203
  9
$LIMMAX
 10
14.61833055896821
 20
12.7611045378396
  9
$ORTHOMODE
 70
     0
  9
$REGENMODE
 70
     1
  9
$FILLMODE
 70
     1
  9
$QTEXTMODE
 70
     0
  9
$MIRRTEXT
 70
     0
  9
$DRAGMODE
 70
     2
  9
$LTSCALE
 40
1.0
  9
$OSMODE
 70
  2103
  9
$ATTMODE
 70
     1
  9
$TEXTSIZE
 40
2.5
  9
$TRACEWID
 40
1.0
  9
$TEXTSTYLE
  7
ACJISGDT
  9
$CLAYER
  8
AM_0
  9
$CELTYPE
  6
BYLAYER
  9
$CECOLOR
 62
   256
  9
$CELTSCALE
 40
1.0
  9
$DELOBJ
 70
     1
  9
$DISPSILH
 70
     0
  9
$DIMSCALE
 40
0.5
  9
$DIMASZ
 40
2.5
  9
$DIMEXO
 40
1.0
  9
$DIMDLI
 40
12.0
  9
$DIMRND
 40
0.0
  9
$DIMDLE
 40
0.0
  9
$DIMEXE
 40
1.0
  9
$DIMTP
 40
0.1
  9
$DIMTM
 40
0.1
  9
$DIMTXT
 40
3.2
  9
$DIMCEN
 40
0.0
  9
$DIMTSZ
 40
0.0
  9
$DIMTOL
 70
     0
  9
$DIMLIM
 70
     0
  9
$DIMTIH
 70
     0
  9
$DIMTOH
 70
     0
  9
$DIMSE1
 70
     0
  9
$DIMSE2
 70
     0
  9
$DIMTAD
 70
     3
  9
$DIMZIN
 70
     8
  9
$DIMBLK
  1
OPEN30
  9
$DIMASO
 70
     1
  9
$DIMSHO
 70
     1
  9
$DIMPOST
  1

  9
$DIMAPOST
  1
"
  9
$DIMALT
 70
     0
  9
$DIMALTD
 70
     2
  9
$DIMALTF
 40
0.0393701
  9
$DIMLFAC
 40
1.0
  9
$DIMTOFL
 70
     1
  9
$DIMTVP
 40
0.0
  9
$DIMTIX
 70
     0
  9
$DIMSOXD
 70
     0
  9
$DIMSAH
 70
     0
  9
$DIMBLK1
  1

  9
$DIMBLK2
  1

  9
$DIMSTYLE
  2
AM_JIS
  9
$DIMCLRD
 70
   256
  9
$DIMCLRE
 70
   256
  9
$DIMCLRT
 70
     2
  9
$DIMTFAC
 40
0.71
  9
$DIMGAP
 40
1.5
  9
$DIMJUST
 70
     0
  9
$DIMSD1
 70
     0
  9
$DIMSD2
 70
     0
  9
$DIMTOLJ
 70
     0
  9
$DIMTZIN
 70
     0
  9
$DIMALTZ
 70
     0
  9
$DIMALTTZ
 70
     0
  9
$DIMFIT
 70
     3
  9
$DIMUPT
 70
     0
  9
$DIMUNIT
 70
     2
  9
$DIMDEC
 70
     3
  9
$DIMTDEC
 70
     3
  9
$DIMALTU
 70
     2
  9
$DIMALTTD
 70
     2
  9
$DIMTXSTY
  7
ASAMI
  9
$DIMAUNIT
 70
     0
  9
$LUNITS
 70
     2
  9
$LUPREC
 70
     2
  9
$SKETCHINC
 40
1.0
  9
$FILLETRAD
 40
2.5
  9
$AUNITS
 70
     0
  9
$AUPREC
 70
     0
  9
$MENU
  1
.
  9
$ELEVATION
 40
0.0
  9
$PELEVATION
 40
0.0
  9
$THICKNESS
 40
0.0
  9
$LIMCHECK
 70
     0
  9
$BLIPMODE
 70
     0
  9
$CHAMFERA
 40
0.5
  9
$CHAMFERB
 40
0.5
  9
$CHAMFERC
 40
20.0
  9
$CHAMFERD
 40
0.0
  9
$SKPOLY
 70
     0
  9
$TDCREATE
 40
2452808.406212557
  9
$TDUPDATE
 40
2452839.677983217
  9
$TDINDWG
 40
0.0113473032
  9
$TDUSRTIMER
 40
0.0113473032
  9
$USRTIMER
 70
     1
  9
$ANGBASE
 50
0.0
  9
$ANGDIR
 70
     0
  9
$PDMODE
 70
     0
  9
$PDSIZE
 40
0.0
  9
$PLINEWID
 40
0.0
  9
$COORDS
 70
     2
  9
$SPLFRAME
 70
     0
  9
$SPLINETYPE
 70
     6
  9
$SPLINESEGS
 70
     8
  9
$ATTDIA
 70
     1
  9
$ATTREQ
 70
     1
  9
$HANDLING
 70
 12289
  9
$HANDSEED
  5
11DF
  9
$SURFTAB1
 70
     6
  9
$SURFTAB2
 70
     6
  9
$SURFTYPE
 70
     6
  9
$SURFU
 70
     6
  9
$SURFV
 70
     6
  9
$UCSNAME
  2

  9
$UCSORG
 10
0.0
 20
0.0
 30
0.0
  9
$UCSXDIR
 10
1.0
 20
0.0
 30
0.0
  9
$UCSYDIR
 10
0.0
 20
1.0
 30
0.0
  9
$PUCSNAME
  2

  9
$PUCSORG
 10
0.0
 20
0.0
 30
0.0
  9
$PUCSXDIR
 10
1.0
 20
0.0
 30
0.0
  9
$PUCSYDIR
 10
0.0
 20
1.0
 30
0.0
  9
$USERI1
 70
     0
  9
$USERI2
 70
     0
  9
$USERI3
 70
     0
  9
$USERI4
 70
     0
  9
$USERI5
 70
     0
  9
$USERR1
 40
0.0
  9
$USERR2
 40
0.0
  9
$USERR3
 40
0.0
  9
$USERR4
 40
0.0
  9
$USERR5
 40
0.0
  9
$WORLDVIEW
 70
     1
  9
$SHADEDGE
 70
     3
  9
$SHADEDIF
 70
    70
  9
$TILEMODE
 70
     1
  9
$MAXACTVP
 70
    64
  9
$PINSBASE
 10
0.0
 20
0.0
 30
0.0
  9
$PLIMCHECK
 70
     0
  9
$PEXTMIN
 10
1.000000000000000E+20
 20
1.000000000000000E+20
 30
1.000000000000000E+20
  9
$PEXTMAX
 10
-1.000000000000000E+20
 20
-1.000000000000000E+20
 30
-1.000000000000000E+20
  9
$PLIMMIN
 10
0.0
 20
0.0
  9
$PLIMMAX
 10
841.0
 20
594.0
  9
$UNITMODE
 70
     0
  9
$VISRETAIN
 70
     1
  9
$PLINEGEN
 70
     0
  9
$PSLTSCALE
 70
     0
  9
$TREEDEPTH
 70
  3020
  9
$PICKSTYLE
 70
     0
  9
$CMLSTYLE
  2
STANDARD
  9
$CMLJUST
 70
     0
  9
$CMLSCALE
 40
20.0
  9
$PROXYGRAPHICS
 70
     1
  9
$MEASUREMENT
 70
     1
  0
ENDSEC
  0
SECTION
  2
CLASSES
  0
CLASS
  1
ACDBDICTIONARYWDFLT
  2
AcDbDictionaryWithDefault
  3
AutoCAD 2000
 90
        0
280
     0
281
     0
  0
CLASS
  1
ACDBPLACEHOLDER
  2
AcDbPlaceHolder
  3
AutoCAD 2000
 90
        0
280
     0
281
     0
  0
CLASS
  1
LAYOUT
  2
AcDbLayout
  3
AutoCAD 2000
 90
        0
280
     0
281
     0
  0
CLASS
  1
AMGSETTINGSOBJ
  2
AmgSettingsObj
  3
"AcadM|Product Description: AutoCAD Mechanical 2000|Company: Autodesk"
 90
        0
280
     0
281
     0
  0
CLASS
  1
ACME_DOCUMENT
  2
AcMeDbDoc
  3
AcMeServices
 90
        0
280
     0
281
     0
  0
CLASS
  1
ACMESCOPE
  2
AcMeScope
  3
AcMeServices
 90
        0
280
     0
281
     0
  0
CLASS
  1
ACMECOMMANDHISTORY
  2
AcMeCommandHistory
  3
AcMeServices
 90
        0
280
     0
281
     0
  0
CLASS
  1
DICTIONARYVAR
  2
AcDbDictionaryVar
  3
AutoCAD 2000
 90
        0
280
     0
281
     0
  0
CLASS
  1
ACIMSYSVARMAN
  2
AcImSysVarManager
  3
AcMeServices
 90
        0
280
     0
281
     0
  0
CLASS
  1
ACIMREALSYSVAR
  2
AcImRealSysVar
  3
AcMeServices
 90
        0
280
     0
281
     0
  0
CLASS
  1
ACIMINTSYSVAR
  2
AcImIntSysVar
  3
AcMeServices
 90
        0
280
     0
281
     0
  0
CLASS
  1
ACMEDRAWINGMAN
  2
AcMeDrawingMan
  3
AcMeServices
 90
        0
280
     0
281
     0
  0
CLASS
  1
ACMEVIEW
  2
AcMeView
  3
AcMeServices
 90
        0
280
     0
281
     0
  0
CLASS
  1
ACDBENTITYCACHE
  2
AcMeEntityCache
  3
AcMeServices
 90
        0
280
     0
281
     0
  0
CLASS
  1
GSMANAGER
  2
AcMeGSManager
  3
AcMeServices
 90
        0
280
     0
281
     0
  0
CLASS
  1
AmdtInternalReactor
  2
AmdtInternalReactor
  3
AcMeServices
 90
        0
280
     0
281
     0
  0
CLASS
  1
ACMESTATEMGR
  2
AcMeStateMgr
  3
AcMeServices
 90
        0
280
     0
281
     0
  0
CLASS
  1
ACME_DATABASE
  2
AcMeDbDatabase
  3
AcMeServices
 90
        0
280
     0
281
     0
  0
CLASS
  1
ACRFINSADJUSTERMGR
  2
AcRfInsAdjusterMgr
  3
AcMeServices
 90
        0
280
     0
281
     0
  0
CLASS
  1
ACMDATADICTIONARY
  2
AcmDataDictionary
  3
"AcmSymBB|Product Description: AutoCAD Mechanical 2000|Company: Autodesk"
 90
        0
280
     0
281
     0
  0
CLASS
  1
ACMDATAENTRYBLOCK
  2
AcmDataEntryBlock
  3
"AcmSymBB|Product Description: AutoCAD Mechanical 2000|Company: Autodesk"
 90
        0
280
     0
281
     0
  0
CLASS
  1
AMGOBJPROPCFG
  2
AmgObjPropCfg
  3
"AmgLay|Product Description: AutoCAD Mechanical 2000|Company: Autodesk"
 90
        1
280
     0
281
     0
  0
CLASS
  1
ACAMGFILTERDAT
  2
AcAmgFilterDat
  3
"AcadM|Product Description: AutoCAD Mechanical 2000|Company: Autodesk"
 90
        0
280
     0
281
     0
  0
CLASS
  1
LAYER_INDEX
  2
AcDbLayerIndex
  3
AutoCAD 2000
 90
        0
280
     0
281
     0
  0
CLASS
  1
IDBUFFER
  2
AcDbIdBuffer
  3
AutoCAD 2000
 90
        0
280
     0
281
     0
  0
CLASS
  1
ACIMSTRSYSVAR
  2
AcImStrSysVar
  3
AcMeServices
 90
        0
280
     0
281
     0
  0
CLASS
  1
ACMSTANDARDJIS
  2
AcmStandardJIS
  3
"AcmSymBB|Product Description: AutoCAD Mechanical 2000|Company: Autodesk"
 90
        0
280
     0
281
     0
  0
CLASS
  1
ACMSURFSTANDARDJIS
  2
AcmSurfTextStdJIS
  3
"AcmSymBB|Product Description: AutoCAD Mechanical 2000|Company: Autodesk"
 90
        0
280
     0
281
     0
  0
CLASS
  1
ACMFCFSTANDARDJIS
  2
AcmFCFStdJIS
  3
"AcmSymBB|Product Description: AutoCAD Mechanical 2000|Company: Autodesk"
 90
        0
280
     0
281
     0
  0
CLASS
  1
ACMWELDSTANDARDJIS
  2
AcmWeldingStdJIS
  3
"AcmSymBB|Product Description: AutoCAD Mechanical 2000|Company: Autodesk"
 90
        0
280
     0
281
     0
  0
CLASS
  1
ACMIDSTANDARDJIS
  2
AcmIdStdJIS
  3
"AcmSymBB|Product Description: AutoCAD Mechanical 2000|Company: Autodesk"
 90
        0
280
     0
281
     0
  0
CLASS
  1
ACMDATUMSTANDARDJIS
  2
AcmDatumStdJIS
  3
"AcmSymBB|Product Description: AutoCAD Mechanical 2000|Company: Autodesk"
 90
        0
280
     0
281
     0
  0
CLASS
  1
ACMBOMSTANDARDJIS
  2
AcmBOMStdJIS
  3
"AcmSymBB|Product Description: AutoCAD Mechanical 2000|Company: Autodesk"
 90
        0
280
     0
281
     0
  0
CLASS
  1
ACMSTANDARDANSI
  2
AcmStandardANSI
  3
"AcmSymBB|Product Description: AutoCAD Mechanical 2000|Company: Autodesk"
 90
        0
280
     0
281
     0
  0
CLASS
  1
ACMSURFSTANDARDANSI
  2
AcmSurfTextStdANSI
  3
"AcmSymBB|Product Description: AutoCAD Mechanical 2000|Company: Autodesk"
 90
        0
280
     0
281
     0
  0
CLASS
  1
ACMFCFSTANDARDANSI
  2
AcmFCFStdANSI
  3
"AcmSymBB|Product Description: AutoCAD Mechanical 2000|Company: Autodesk"
 90
        0
280
     0
281
     0
  0
CLASS
  1
ACMWELDSTANDARDANSI
  2
AcmWeldingStdANSI
  3
"AcmSymBB|Product Description: AutoCAD Mechanical 2000|Company: Autodesk"
 90
        0
280
     0
281
     0
  0
CLASS
  1
ACMIDSTANDARDANSI
  2
AcmIdStdANSI
  3
"AcmSymBB|Product Description: AutoCAD Mechanical 2000|Company: Autodesk"
 90
        0
280
     0
281
     0
  0
CLASS
  1
ACMDATUMSTANDARDANSI
  2
AcmDatumStdANSI
  3
"AcmSymBB|Product Description: AutoCAD Mechanical 2000|Company: Autodesk"
 90
        0
280
     0
281
     0
  0
CLASS
  1
ACMBOMSTANDARDANSI
  2
AcmBOMStdANSI
  3
"AcmSymBB|Product Description: AutoCAD Mechanical 2000|Company: Autodesk"
 90
        0
280
     0
281
     0
  0
CLASS
  1
ACMSTANDARDBSI
  2
AcmStandardBSI
  3
"AcmSymBB|Product Description: AutoCAD Mechanical 2000|Company: Autodesk"
 90
        0
280
     0
281
     0
  0
CLASS
  1
ACMSURFSTANDARDBSI
  2
AcmSurfTextStdBSI
  3
"AcmSymBB|Product Description: AutoCAD Mechanical 2000|Company: Autodesk"
 90
        0
280
     0
281
     0
  0
CLASS
  1
ACMFCFSTANDARDBSI
  2
AcmFCFStdBSI
  3
"AcmSymBB|Product Description: AutoCAD Mechanical 2000|Company: Autodesk"
 90
        0
280
     0
281
     0
  0
CLASS
  1
ACMWELDSTANDARDBSI
  2
AcmWeldingStdBSI
  3
"AcmSymBB|Product Description: AutoCAD Mechanical 2000|Company: Autodesk"
 90
        0
280
     0
281
     0
  0
CLASS
  1
ACMIDSTANDARDBSI
  2
AcmIdStdBSI
  3
"AcmSymBB|Product Description: AutoCAD Mechanical 2000|Company: Autodesk"
 90
        0
280
     0
281
     0
  0
CLASS
  1
ACMDATUMSTANDARDBSI
  2
AcmDatumStdBSI
  3
"AcmSymBB|Product Description: AutoCAD Mechanical 2000|Company: Autodesk"
 90
        0
280
     0
281
     0
  0
CLASS
  1
ACMBOMSTANDARDBSI
  2
AcmBOMStdBSI
  3
"AcmSymBB|Product Description: AutoCAD Mechanical 2000|Company: Autodesk"
 90
        0
280
     0
281
     0
  0
CLASS
  1
LONG_TRANSACTION
  2
AcDbLongTransaction
  3
AutoCAD 2000
 90
        0
280
     0
281
     0
  0
CLASS
  1
LWPOLYLINE
  2
AcDbPolyline
  3
AutoCAD 2000
 90
        0
280
     0
281
     1
  0
CLASS
  1
HATCH
  2
AcDbHatch
  3
AutoCAD 2000
 90
        0
280
     0
281
     1
  0
CLASS
  1
XRECORD
  2
AcDbXrecord
  3
AutoCAD 2000
 90
        0
280
     0
281
     0
  0
ENDSEC
  0
SECTION
  2
TABLES
  0
TABLE
  2
VPORT
  5
8
330
0
100
AcDbSymbolTable
 70
     3
  0
VPORT
  5
11B4
330
8
100
AcDbSymbolTableRecord
100
AcDbViewportTableRecord
  2
*ACTIVE
 70
     0
 10
0.0
 20
0.0
 11
1.0
 21
1.0
 12
-35.56211037842771
 22
-17.81712061232782
 13
0.0
 23
0.0
 14
2.5
 24
2.5
 15
10.0
 25
10.0
 16
0.0
 26
0.0
 36
1.0
 17
0.0
 27
0.0
 37
0.0
 40
55.3836133123951
 41
1.56570841889117
 42
50.0
 43
0.0
 44
0.0
 50
0.0
 51
0.0
 71
     0
 72
   100
 73
     1
 74
     3
 75
     0
 76
     0
 77
     0
 78
     0
  0
ENDTAB
  0
TABLE
  2
LTYPE
  5
5
330
0
100
AcDbSymbolTable
 70
    10
  0
LTYPE
  5
14
330
5
100
AcDbSymbolTableRecord
100
AcDbLinetypeTableRecord
  2
BYBLOCK
 70
     0
  3

 72
    65
 73
     0
 40
0.0
  0
LTYPE
  5
15
330
5
100
AcDbSymbolTableRecord
100
AcDbLinetypeTableRecord
  2
BYLAYER
 70
     0
  3

 72
    65
 73
     0
 40
0.0
  0
LTYPE
  5
16
330
5
100
AcDbSymbolTableRecord
100
AcDbLinetypeTableRecord
  2
CONTINUOUS
 70
     0
  3
Solid line
 72
    65
 73
     0
 40
0.0
  0
LTYPE
  5
4B
330
5
100
AcDbSymbolTableRecord
100
AcDbLinetypeTableRecord
  2
AM_ISO02W050
 70
     0
  3
__ __ __ __ __ __ __ __ __ __ __ __ __ __ __
 72
    65
 73
     2
 40
7.5
 49
6.0
 74
     0
 49
-1.5
 74
     0
  0
LTYPE
  5
4C
330
5
100
AcDbSymbolTableRecord
100
AcDbLinetypeTableRecord
  2
AM_ISO08W050
 70
     0
  3
____ . ____ . ____ . ____ . ____ . ____ . ____
 72
    65
 73
     4
 40
18.0
 49
12.0
 74
     0
 49
-1.5
 74
     0
 49
3.0
 74
     0
 49
-1.5
 74
     0
  0
LTYPE
  5
4D
330
5
100
AcDbSymbolTableRecord
100
AcDbLinetypeTableRecord
  2
AM_ISO09W050
 70
     0
  3
_____ . . _____ . . _____ . . ____ .. ____
 72
    65
 73
     6
 40
22.5
 49
12.0
 74
     0
 49
-1.5
 74
     0
 49
3.0
 74
     0
 49
-1.5
 74
     0
 49
3.0
 74
     0
 49
-1.5
 74
     0
  0
LTYPE
  5
4E
330
5
100
AcDbSymbolTableRecord
100
AcDbLinetypeTableRecord
  2
AMCONSTR
 70
     0
  3
_______________________
 72
    65
 73
     2
 40
9999.0
 49
9999.0
 74
     0
 49
0.0
 74
     0
  0
LTYPE
  5
4F
330
5
100
AcDbSymbolTableRecord
100
AcDbLinetypeTableRecord
  2
AM_ISO02W050X2
 70
     0
  3
 _ _ _ _ _ _ _ _ _ _ _ _
 72
    65
 73
     2
 40
3.75
 49
3.0
 74
     0
 49
-0.75
 74
     0
  0
LTYPE
  5
50
330
5
100
AcDbSymbolTableRecord
100
AcDbLinetypeTableRecord
  2
AM_ISO08W050X2
 70
     0
  3
__ . __ . __ . __ . __ . __
 72
    65
 73
     4
 40
9.0
 49
6.0
 74
     0
 49
-0.75
 74
     0
 49
1.5
 74
     0
 49
-0.75
 74
     0
  0
LTYPE
  5
53
330
5
100
AcDbSymbolTableRecord
100
AcDbLinetypeTableRecord
  2
AMZIGZAG
 70
     0
  3
/\/-/\/-/\/-/\/-/\/-/\/
 72
    65
 73
     2
 40
11.00009999999999
 49
0.0001
 74
     4
 75
   135
340
52
 46
0.04
 50
0.0
 44
0.0
 45
0.0
 49
-11.0
 74
     0
  0
LTYPE
  5
166
330
5
100
AcDbSymbolTableRecord
100
AcDbLinetypeTableRecord
  2
ACJISTGL
 70
     0
  3
_ _ _ _ _
 72
    65
 73
     2
 40
3.0
 49
2.0
 74
     0
 49
-1.0
 74
     0
  0
LTYPE
  5
26A
330
5
100
AcDbSymbolTableRecord
100
AcDbLinetypeTableRecord
  2
ACJISTGB
 70
     0
  3
__ . . __ . .
 72
    65
 73
     6
 40
9.0
 49
4.0
 74
     0
 49
-1.0
 74
     0
 49
1.0
 74
     0
 49
-1.0
 74
     0
 49
1.0
 74
     0
 49
-1.0
 74
     0
  0
ENDTAB
  0
TABLE
  2
LAYER
  5
2
330
0
100
AcDbSymbolTable
 70
     7
  0
LAYER
  5
10
330
2
100
AcDbSymbolTableRecord
100
AcDbLayerTableRecord
  2
0
 70
     0
 62
     7
  6
CONTINUOUS
  0
LAYER
  5
3F9
330
2
100
AcDbSymbolTableRecord
100
AcDbLayerTableRecord
  2
AM_0
 70
     0
 62
     7
  6
CONTINUOUS
  0
LAYER
  5
BA4
330
2
100
AcDbSymbolTableRecord
100
AcDbLayerTableRecord
  2
AM_11
 70
     0
 62
     3
  6
AM_ISO09W050
  0
LAYER
  5
BA5
330
2
100
AcDbSymbolTableRecord
100
AcDbLayerTableRecord
  2
AM_7
 70
     0
 62
     4
  6
AM_ISO08W050
  0
LAYER
  5
E75
330
2
100
AcDbSymbolTableRecord
100
AcDbLayerTableRecord
  2
AM_5
 70
     0
 62
     3
  6
CONTINUOUS
  0
LAYER
  5
E77
330
2
100
AcDbSymbolTableRecord
100
AcDbLayerTableRecord
  2
DEFPOINTS
 70
     0
 62
     7
  6
CONTINUOUS
  0
LAYER
  5
1039
330
2
100
AcDbSymbolTableRecord
100
AcDbLayerTableRecord
  2
AM_6
 70
     0
 62
     2
  6
CONTINUOUS
  0
ENDTAB
  0
TABLE
  2
STYLE
  5
3
330
0
100
AcDbSymbolTable
 70
     5
  0
STYLE
  5
11
330
3
100
AcDbSymbolTableRecord
100
AcDbTextStyleTableRecord
  2
STANDARD
 70
     0
 40
0.0
 41
1.0
 50
0.0
 71
     0
 42
2.5
  3
simplex.shx
  4
EXTFONT.SHX
  0
STYLE
  5
52
330
3
100
AcDbSymbolTableRecord
100
AcDbTextStyleTableRecord
  2

 70
     1
 40
0.0
 41
1.0
 50
0.0
 71
     0
 42
2.5
  3
ltypeshp.shx
  4

  0
STYLE
  5
6B
330
3
100
AcDbSymbolTableRecord
100
AcDbTextStyleTableRecord
  2
ASAMI
 70
     0
 40
0.0
 41
1.0
 50
0.0
 71
     0
 42
2.5
  3
simplex.shx
  4
EXTFONT.SHX
  0
STYLE
  5
262
330
3
100
AcDbSymbolTableRecord
100
AcDbTextStyleTableRecord
  2
ACJISTS
 70
     0
 40
1.0
 41
1.0
 50
0.0
 71
     0
 42
2.5
  3
simplex.shx
  4
bigfont.shx
  0
STYLE
  5
269
330
3
100
AcDbSymbolTableRecord
100
AcDbTextStyleTableRecord
  2
ACJISGDT
 70
     0
 40
0.0
 41
1.0
 50
0.0
 71
     0
 42
2.5
  3
amgdtans.shx
  4

  0
ENDTAB
  0
TABLE
  2
VIEW
  5
6
330
0
100
AcDbSymbolTable
 70
     0
  0
ENDTAB
  0
TABLE
  2
UCS
  5
7
330
0
100
AcDbSymbolTable
 70
     0
  0
ENDTAB
  0
TABLE
  2
APPID
  5
9
330
0
100
AcDbSymbolTable
 70
    12
  0
APPID
  5
12
330
9
100
AcDbSymbolTableRecord
100
AcDbRegAppTableRecord
  2
ACAD
 70
     0
  0
APPID
  5
30
330
9
100
AcDbSymbolTableRecord
100
AcDbRegAppTableRecord
  2
MCAD_NO_VIS
 70
     0
  0
APPID
  5
31
330
9
100
AcDbSymbolTableRecord
100
AcDbRegAppTableRecord
  2
ACAD_TEMP_GRAPHIC
 70
     0
  0
APPID
  5
2C2
330
9
100
AcDbSymbolTableRecord
100
AcDbRegAppTableRecord
  2
GENIUS_GENDTOL_13
 70
     0
  0
APPID
  5
339
330
9
100
AcDbSymbolTableRecord
100
AcDbRegAppTableRecord
  2
GENIUS_GENODEF_13
 70
     0
  0
APPID
  5
33A
330
9
100
AcDbSymbolTableRecord
100
AcDbRegAppTableRecord
  2
GENIUS_GENOBJ-N-RSBK_13
 70
     0
  0
APPID
  5
33B
330
9
100
AcDbSymbolTableRecord
100
AcDbRegAppTableRecord
  2
GENIUS_GENOBJ-N-LIB_13
 70
     0
  0
APPID
  5
33C
330
9
100
AcDbSymbolTableRecord
100
AcDbRegAppTableRecord
  2
GENIUS_GENSCALE_13
 70
     0
  0
APPID
  5
378
330
9
100
AcDbSymbolTableRecord
100
AcDbRegAppTableRecord
  2
GENIUS_GENDIMSH_14
 70
     0
  0
APPID
  5
E5F
330
9
100
AcDbSymbolTableRecord
100
AcDbRegAppTableRecord
  2
GENIUS_GENFIL_13
 70
     0
  0
APPID
  5
E60
330
9
100
AcDbSymbolTableRecord
100
AcDbRegAppTableRecord
  2
GENIUS_GENOBJ-N-CHA_13
 70
     0
  0
APPID
  5
E6C
330
9
100
AcDbSymbolTableRecord
100
AcDbRegAppTableRecord
  2
GENIUS_GENOBJ-N-CEN_13
 70
     0
  0
ENDTAB
  0
TABLE
  2
DIMSTYLE
  5
A
330
0
100
AcDbSymbolTable
 70
     8
  0
DIMSTYLE
105
58
102
{ACAD_REACTORS
330
E76
330
F06
330
FA0
330
10CC
102
}
330
A
100
AcDbSymbolTableRecord
100
AcDbDimStyleTableRecord
  2
AM_JIS
 70
     0
  3

  4
"
  5
OPEN30
  6

  7

 40
0.5
 41
2.5
 42
1.0
 43
12.0
 44
1.0
 45
0.0
 46
0.0
 47
0.1
 48
0.1
140
3.2
141
0.0
142
0.0
143
0.0393701
144
1.0
145
0.0
146
0.71
147
1.5
 71
     0
 72
     0
 73
     0
 74
     0
 75
     0
 76
     0
 77
     3
 78
     8
170
     0
171
     2
172
     1
173
     0
174
     0
175
     0
176
   256
177
   256
178
     2
270
     2
271
     3
272
     3
273
     2
274
     2
340
6B
275
     0
280
     0
281
     0
282
     0
283
     0
284
     0
285
     0
286
     0
287
     3
288
     0
  0
DIMSTYLE
105
5F
330
A
100
AcDbSymbolTableRecord
100
AcDbDimStyleTableRecord
  2
AM_JIS$3
 70
     0
  3

  4
"
  5
OPEN30
  6

  7

 40
0.5
 41
2.5
 42
1.0
 43
10.0
 44
1.0
 45
0.0
 46
0.0
 47
0.1
 48
0.1
140
3.2
141
0.0
142
0.0
143
0.0393701
144
1.0
145
0.0
146
0.71
147
1.5
 71
     0
 72
     0
 73
     0
 74
     1
 75
     0
 76
     0
 77
     3
 78
     8
170
     0
171
     2
172
     0
173
     0
174
     0
175
     0
176
   256
177
   256
178
     2
270
     2
271
     2
272
     3
273
     2
274
     2
340
6B
275
     0
280
     0
281
     0
282
     0
283
     0
284
     0
285
     0
286
     0
287
     0
288
     1
  0
DIMSTYLE
105
60
330
A
100
AcDbSymbolTableRecord
100
AcDbDimStyleTableRecord
  2
AM_JIS$4
 70
     0
  3

  4
"
  5
OPEN30
  6

  7

 40
0.5
 41
2.5
 42
1.0
 43
10.0
 44
1.0
 45
0.0
 46
0.0
 47
0.1
 48
0.1
140
3.2
141
0.0
142
0.0
143
0.0393701
144
1.0
145
0.0
146
0.71
147
1.5
 71
     0
 72
     0
 73
     0
 74
     1
 75
     0
 76
     0
 77
     3
 78
     8
170
     0
171
     2
172
     0
173
     0
174
     0
175
     0
176
   256
177
   256
178
     2
270
     2
271
     2
272
     3
273
     2
274
     2
340
6B
275
     0
280
     0
281
     0
282
     0
283
     0
284
     0
285
     0
286
     0
287
     0
288
     1
  0
DIMSTYLE
105
61
330
A
100
AcDbSymbolTableRecord
100
AcDbDimStyleTableRecord
  2
AM_JIS$6
 70
     0
  3

  4
"
  5
OPEN30
  6

  7

 40
0.5
 41
2.5
 42
1.0
 43
10.0
 44
1.0
 45
0.0
 46
0.0
 47
0.1
 48
0.1
140
3.2
141
0.0
142
0.0
143
0.0393701
144
1.0
145
0.0
146
0.71
147
1.5
 71
     0
 72
     0
 73
     0
 74
     0
 75
     0
 76
     0
 77
     0
 78
     8
170
     0
171
     2
172
     1
173
     0
174
     0
175
     0
176
   256
177
   256
178
     2
270
     2
271
     2
272
     2
273
     2
274
     2
340
6B
275
     0
280
     0
281
     0
282
     0
283
     0
284
     0
285
     0
286
     0
287
     3
288
     0
  0
DIMSTYLE
105
62
330
A
100
AcDbSymbolTableRecord
100
AcDbDimStyleTableRecord
  2
AM_JIS$7
 70
     0
  3

  4
"
  5
OPEN30
  6

  7

 40
0.5
 41
2.5
 42
1.0
 43
10.0
 44
1.0
 45
0.0
 46
0.0
 47
0.1
 48
0.1
140
3.2
141
0.0
142
0.0
143
0.0393701
144
1.0
145
0.0
146
0.71
147
1.5
 71
     0
 72
     0
 73
     0
 74
     0
 75
     0
 76
     0
 77
     3
 78
     8
170
     0
171
     2
172
     1
173
     0
174
     0
175
     0
176
   256
177
   256
178
     2
270
     2
271
     2
272
     3
273
     2
274
     2
340
6B
275
     0
280
     0
281
     0
282
     0
283
     0
284
     0
285
     0
286
     0
287
     3
288
     0
  0
DIMSTYLE
105
63
330
A
100
AcDbSymbolTableRecord
100
AcDbDimStyleTableRecord
  2
AM_JIS$SF
 70
     0
  3

  4
"
  5
OPEN30
  6

  7

 40
0.5
 41
2.5
 42
1.0
 43
10.0
 44
1.0
 45
0.0
 46
0.0
 47
0.1
 48
0.1
140
3.2
141
0.0
142
0.0
143
0.0393701
144
1.0
145
0.0
146
0.71
147
1.5
 71
     0
 72
     0
 73
     0
 74
     0
 75
     1
 76
     1
 77
     3
 78
     8
170
     0
171
     2
172
     1
173
     0
174
     0
175
     0
176
   256
177
   256
178
     2
270
     2
271
     2
272
     2
273
     2
274
     2
340
6B
275
     0
280
     0
281
     0
282
     0
283
     0
284
     0
285
     0
286
     0
287
     3
288
     0
  0
DIMSTYLE
105
68
330
A
100
AcDbSymbolTableRecord
100
AcDbDimStyleTableRecord
  2
AM_JIS$SH
 70
     0
  3

  4
"
  5

  6
GENAXEH
  7
OPEN30
 40
0.5
 41
2.5
 42
1.0
 43
10.0
 44
1.0
 45
0.0
 46
0.0
 47
0.1
 48
0.1
140
3.2
141
0.0
142
0.0
143
0.0393701
144
2.0
145
0.0
146
0.71
147
1.5
 71
     0
 72
     0
 73
     0
 74
     0
 75
     1
 76
     1
 77
     3
 78
     8
170
     0
171
     2
172
     1
173
     1
174
     0
175
     0
176
   256
177
   256
178
     2
270
     2
271
     2
272
     2
273
     2
274
     2
340
6B
275
     0
280
     0
281
     0
282
     0
283
     0
284
     0
285
     0
286
     0
287
     3
288
     0
  0
DIMSTYLE
105
B34
330
A
100
AcDbSymbolTableRecord
100
AcDbDimStyleTableRecord
  2
AM_JIS$2
 70
     0
  3

  4
"
  5
OPEN30
  6

  7

 40
0.5
 41
2.5
 42
1.0
 43
12.0
 44
1.0
 45
0.0
 46
0.0
 47
0.1
 48
0.1
140
3.2
141
0.0
142
0.0
143
0.0393701
144
1.0
145
0.0
146
0.71
147
1.5
 71
     0
 72
     0
 73
     0
 74
     0
 75
     0
 76
     0
 77
     3
 78
     8
170
     0
171
     2
172
     1
173
     0
174
     0
175
     0
176
   256
177
   256
178
     2
270
     2
271
     3
272
     3
273
     2
274
     2
340
6B
275
     0
280
     0
281
     0
282
     0
283
     0
284
     0
285
     0
286
     0
287
     3
288
     0
  0
ENDTAB
  0
TABLE
  2
BLOCK_RECORD
  5
1
330
0
100
AcDbSymbolTable
 70
     9
  0
BLOCK_RECORD
  5
1F
102
{ACAD_XDICTIONARY
360
74
102
}
330
1
100
AcDbSymbolTableRecord
100
AcDbBlockTableRecord
  2
*MODEL_SPACE
  0
BLOCK_RECORD
  5
101
102
{ACAD_XDICTIONARY
360
11DD
102
}
330
1
100
AcDbSymbolTableRecord
100
AcDbBlockTableRecord
  2
*PAPER_SPACE
  0
BLOCK_RECORD
  5
59
330
1
100
AcDbSymbolTableRecord
100
AcDbBlockTableRecord
  2
_OPEN30
  0
BLOCK_RECORD
  5
64
330
1
100
AcDbSymbolTableRecord
100
AcDbBlockTableRecord
  2
GENAXEH
  0
BLOCK_RECORD
  5
E78
330
1
100
AcDbSymbolTableRecord
100
AcDbBlockTableRecord
  2
*D5
  0
BLOCK_RECORD
  5
F07
330
1
100
AcDbSymbolTableRecord
100
AcDbBlockTableRecord
  2
*D6
  0
BLOCK_RECORD
  5
FA1
330
1
100
AcDbSymbolTableRecord
100
AcDbBlockTableRecord
  2
*D7
  0
BLOCK_RECORD
  5
10CD
330
1
100
AcDbSymbolTableRecord
100
AcDbBlockTableRecord
  2
*D8
  0
ENDTAB
  0
ENDSEC
  0
SECTION
  2
BLOCKS
  0
BLOCK
  5
20
330
1F
100
AcDbEntity
  8
0
100
AcDbBlockBegin
  2
*MODEL_SPACE
 70
     0
 10
0.0
 20
0.0
 30
0.0
  3
*MODEL_SPACE
  1

  0
ENDBLK
  5
21
330
1F
100
AcDbEntity
  8
0
100
AcDbBlockEnd
  0
BLOCK
  5
103
330
101
100
AcDbEntity
 67
     1
  8
0
100
AcDbBlockBegin
  2
*PAPER_SPACE
 70
     0
 10
0.0
 20
0.0
 30
0.0
  3
*PAPER_SPACE
  1

  0
ENDBLK
  5
104
330
101
100
AcDbEntity
 67
     1
  8
0
100
AcDbBlockEnd
  0
BLOCK
  5
5D
330
59
100
AcDbEntity
  8
0
100
AcDbBlockBegin
  2
_OPEN30
 70
     0
 10
0.0
 20
0.0
 30
0.0
  3
_OPEN30
  1

  0
LINE
  5
5A
330
59
100
AcDbEntity
  8
0
 62
     0
100
AcDbLine
 10
-1.0
 20
0.26794919
 30
0.0
 11
0.0
 21
0.0
 31
0.0
  0
LINE
  5
5B
330
59
100
AcDbEntity
  8
0
 62
     0
100
AcDbLine
 10
0.0
 20
0.0
 30
0.0
 11
-1.0
 21
-0.26794919
 31
0.0
  0
LINE
  5
5C
330
59
100
AcDbEntity
  8
0
 62
     0
100
AcDbLine
 10
0.0
 20
0.0
 30
0.0
 11
-1.0
 21
0.0
 31
0.0
  0
ENDBLK
  5
5E
330
59
100
AcDbEntity
  8
0
100
AcDbBlockEnd
  0
BLOCK
  5
66
330
64
100
AcDbEntity
  8
0
100
AcDbBlockBegin
  2
GENAXEH
 70
     0
 10
0.0
 20
0.0
 30
0.0
  3
GENAXEH
  1

  0
LINE
  5
65
330
64
100
AcDbEntity
  8
0
100
AcDbLine
 10
-1.0
 20
0.0
 30
0.0
 11
1.0
 21
0.0
 31
0.0
  0
ENDBLK
  5
67
330
64
100
AcDbEntity
  8
0
100
AcDbBlockEnd
  0
BLOCK
  5
E82
330
E78
100
AcDbEntity
  8
0
100
AcDbBlockBegin
  2
*D5
 70
     1
 10
0.0
 20
0.0
 30
0.0
  3
*D5
  1

  0
LINE
  5
1093
330
E78
100
AcDbEntity
  8
AM_5
100
AcDbLine
 10
-69.99999999999996
 20
-5.000000000000184
 30
0.0
 11
-69.99999999999996
 21
-20.82528667632222
 31
0.0
  0
LINE
  5
1094
330
E78
100
AcDbEntity
  8
AM_5
100
AcDbLine
 10
0.0000000000000284
 20
-5.500000000000142
 30
0.0
 11
0.0000000000000275
 21
-20.82528667632222
 31
0.0
  0
LINE
  5
1095
330
E78
100
AcDbEntity
  8
AM_5
100
AcDbLine
 10
-68.74999999999996
 20
-20.32528667632222
 30
0.0
 11
-1.249999999999972
 21
-20.32528667632222
 31
0.0
  0
INSERT
  5
1096
330
E78
100
AcDbEntity
  8
AM_5
100
AcDbBlockReference
  2
_OPEN30
 10
-69.99999999999996
 20
-20.32528667632222
 30
0.0
 41
1.25
 42
1.25
 43
1.25
 50
180.0
  0
INSERT
  5
1097
330
E78
100
AcDbEntity
  8
AM_5
100
AcDbBlockReference
  2
_OPEN30
 10
0.0000000000000275
 20
-20.32528667632222
 30
0.0
 41
1.25
 42
1.25
 43
1.25
  0
MTEXT
  5
1098
330
E78
100
AcDbEntity
  8
AM_5
 62
     2
100
AcDbMText
 10
-34.99999999999996
 20
-18.77528667632222
 30
0.0
 40
1.6
 41
0.0
 71
     5
 72
     1
  1
70
  7
ASAMI
1001
ACAD
1000
MTEXTBEGIN
1070
    73
1070
     1
1070
    44
1040
1.0
1070
    74
1070
     0
1000
MTEXTEND
  0
POINT
  5
1099
330
E78
100
AcDbEntity
  8
DEFPOINTS
 62
     0
100
AcDbPoint
 10
-69.99999999999996
 20
-4.500000000000184
 30
0.0
  0
POINT
  5
109A
330
E78
100
AcDbEntity
  8
DEFPOINTS
 62
     0
100
AcDbPoint
 10
0.0000000000000284
 20
-5.000000000000142
 30
0.0
  0
POINT
  5
109B
330
E78
100
AcDbEntity
  8
DEFPOINTS
 62
     0
100
AcDbPoint
 10
0.0000000000000275
 20
-20.32528667632222
 30
0.0
  0
ENDBLK
  5
E83
330
E78
100
AcDbEntity
  8
0
100
AcDbBlockEnd
  0
BLOCK
  5
F11
330
F07
100
AcDbEntity
  8
0
100
AcDbBlockBegin
  2
*D6
 70
     1
 10
0.0
 20
0.0
 30
0.0
  3
*D6
  1

  0
LINE
  5
116E
330
F07
100
AcDbEntity
  8
AM_5
100
AcDbLine
 10
-21.99999999999997
 20
-5.500000000000165
 30
0.0
 11
-21.99999999999997
 21
-14.82528667632222
 31
0.0
  0
LINE
  5
116F
330
F07
100
AcDbEntity
  8
AM_5
100
AcDbLine
 10
0.0000000000000284
 20
-5.500000000000142
 30
0.0
 11
0.0000000000000278
 21
-14.82528667632222
 31
0.0
  0
LINE
  5
1170
330
F07
100
AcDbEntity
  8
AM_5
100
AcDbLine
 10
-20.74999999999997
 20
-14.32528667632222
 30
0.0
 11
-1.249999999999972
 21
-14.32528667632222
 31
0.0
  0
INSERT
  5
1171
330
F07
100
AcDbEntity
  8
AM_5
100
AcDbBlockReference
  2
_OPEN30
 10
-21.99999999999997
 20
-14.32528667632222
 30
0.0
 41
1.25
 42
1.25
 43
1.25
 50
180.0
  0
INSERT
  5
1172
330
F07
100
AcDbEntity
  8
AM_5
100
AcDbBlockReference
  2
_OPEN30
 10
0.0000000000000279
 20
-14.32528667632222
 30
0.0
 41
1.25
 42
1.25
 43
1.25
  0
MTEXT
  5
1173
330
F07
100
AcDbEntity
  8
AM_5
 62
     2
100
AcDbMText
 10
-10.99999999999997
 20
-12.77528667632222
 30
0.0
 40
1.6
 41
0.0
 71
     5
 72
     1
  1
22
  7
ASAMI
1001
ACAD
1000
MTEXTBEGIN
1070
    73
1070
     1
1070
    44
1040
1.0
1070
    74
1070
     0
1000
MTEXTEND
  0
POINT
  5
1174
330
F07
100
AcDbEntity
  8
DEFPOINTS
 62
     0
100
AcDbPoint
 10
-21.99999999999997
 20
-5.000000000000165
 30
0.0
  0
POINT
  5
1175
330
F07
100
AcDbEntity
  8
DEFPOINTS
 62
     0
100
AcDbPoint
 10
0.0000000000000284
 20
-5.000000000000142
 30
0.0
  0
POINT
  5
1176
330
F07
100
AcDbEntity
  8
DEFPOINTS
 62
     0
100
AcDbPoint
 10
0.0000000000000279
 20
-14.32528667632222
 30
0.0
  0
ENDBLK
  5
F12
330
F07
100
AcDbEntity
  8
0
100
AcDbBlockEnd
  0
BLOCK
  5
FAB
330
FA1
100
AcDbEntity
  8
0
100
AcDbBlockBegin
  2
*D7
 70
     1
 10
0.0
 20
0.0
 30
0.0
  3
*D7
  1

  0
LINE
  5
10A5
330
FA1
100
AcDbEntity
  8
AM_5
100
AcDbLine
 10
0.5000000000000285
 20
-5.000000000000142
 30
0.0
 11
7.500000000000022
 21
-5.000000000000144
 31
0.0
  0
LINE
  5
10A6
330
FA1
100
AcDbEntity
  8
AM_5
100
AcDbLine
 10
0.5000000000000249
 20
5.00000000000395
 30
0.0
 11
7.500000000000023
 21
5.000000000003947
 31
0.0
  0
LINE
  5
10A7
330
FA1
100
AcDbEntity
  8
AM_5
100
AcDbLine
 10
7.000000000000022
 20
-3.750000000000143
 30
0.0
 11
7.000000000000023
 21
3.750000000003948
 31
0.0
  0
INSERT
  5
10A8
330
FA1
100
AcDbEntity
  8
AM_5
100
AcDbBlockReference
  2
_OPEN30
 10
7.000000000000022
 20
-5.000000000000143
 30
0.0
 41
1.25
 42
1.25
 43
1.25
 50
270.0
  0
INSERT
  5
10A9
330
FA1
100
AcDbEntity
  8
AM_5
100
AcDbBlockReference
  2
_OPEN30
 10
7.000000000000023
 20
5.000000000003948
 30
0.0
 41
1.25
 42
1.25
 43
1.25
 50
90.0
  0
MTEXT
  5
10AA
330
FA1
100
AcDbEntity
  8
AM_5
 62
     2
100
AcDbMText
 10
5.450000000000022
 20
0.0000000000019036
 30
0.0
 40
1.6
 41
0.0
 71
     5
 72
     1
  1
%%c10
  7
ASAMI
 11
0.0000000000000001
 21
1.0
 31
0.0
1001
ACAD
1000
MTEXTBEGIN
1070
    73
1070
     1
1070
    44
1040
1.0
1070
    74
1070
     0
1000
MTEXTEND
  0
POINT
  5
10AB
330
FA1
100
AcDbEntity
  8
DEFPOINTS
 62
     0
100
AcDbPoint
 10
0.0000000000000284
 20
-5.000000000000142
 30
0.0
  0
POINT
  5
10AC
330
FA1
100
AcDbEntity
  8
DEFPOINTS
 62
     0
100
AcDbPoint
 10
0.0000000000000249
 20
5.00000000000395
 30
0.0
  0
POINT
  5
10AD
330
FA1
100
AcDbEntity
  8
DEFPOINTS
 62
     0
100
AcDbPoint
 10
7.000000000000023
 20
5.000000000003948
 30
0.0
  0
ENDBLK
  5
FAC
330
FA1
100
AcDbEntity
  8
0
100
AcDbBlockEnd
  0
BLOCK
  5
10D7
330
10CD
100
AcDbEntity
  8
0
100
AcDbBlockBegin
  2
*D8
 70
     1
 10
0.0
 20
0.0
 30
0.0
  3
*D8
  1

  0
LINE
  5
1146
330
10CD
100
AcDbEntity
  8
AM_5
100
AcDbLine
 10
-69.99999999999996
 20
-5.000000000000184
 30
0.0
 11
-77.00000000000001
 21
-5.000000000000182
 31
0.0
  0
LINE
  5
1147
330
10CD
100
AcDbEntity
  8
AM_5
100
AcDbLine
 10
-70.00000000000001
 20
4.999999999999801
 30
0.0
 11
-77.00000000000001
 21
4.999999999999803
 31
0.0
  0
LINE
  5
1148
330
10CD
100
AcDbEntity
  8
AM_5
100
AcDbLine
 10
-76.50000000000002
 20
-3.750000000000182
 30
0.0
 11
-76.50000000000002
 21
3.749999999999802
 31
0.0
  0
INSERT
  5
1149
330
10CD
100
AcDbEntity
  8
AM_5
100
AcDbBlockReference
  2
_OPEN30
 10
-76.50000000000002
 20
-5.000000000000182
 30
0.0
 41
1.25
 42
1.25
 43
1.25
 50
270.0
  0
INSERT
  5
114A
330
10CD
100
AcDbEntity
  8
AM_5
100
AcDbBlockReference
  2
_OPEN30
 10
-76.50000000000002
 20
4.999999999999802
 30
0.0
 41
1.25
 42
1.25
 43
1.25
 50
90.0
  0
MTEXT
  5
114B
330
10CD
100
AcDbEntity
  8
AM_5
 62
     2
100
AcDbMText
 10
-78.05000000000001
 20
-0.0000000000002021
 30
0.0
 40
1.6
 41
0.0
 71
     5
 72
     1
  1
%%c10
  7
ASAMI
 11
0.0000000000000001
 21
1.0
 31
0.0
1001
ACAD
1000
MTEXTBEGIN
1070
    73
1070
     1
1070
    44
1040
1.0
1070
    74
1070
     0
1000
MTEXTEND
  0
POINT
  5
114C
330
10CD
100
AcDbEntity
  8
DEFPOINTS
 62
     0
100
AcDbPoint
 10
-69.49999999999995
 20
-5.000000000000184
 30
0.0
  0
POINT
  5
114D
330
10CD
100
AcDbEntity
  8
DEFPOINTS
 62
     0
100
AcDbPoint
 10
-69.50000000000001
 20
4.999999999999801
 30
0.0
  0
POINT
  5
114E
330
10CD
100
AcDbEntity
  8
DEFPOINTS
 62
     0
100
AcDbPoint
 10
-76.50000000000002
 20
4.999999999999802
 30
0.0
  0
ENDBLK
  5
10D8
330
10CD
100
AcDbEntity
  8
0
100
AcDbBlockEnd
  0
ENDSEC
  0
SECTION
  2
ENTITIES
  0
LINE
  5
BE6
330
1F
100
AcDbEntity
  8
AM_0
100
AcDbLine
 10
0.0000000000000284
 20
-5.000000000000142
 30
0.0
 11
0.0
 21
4.999999999999857
 31
0.0
  0
LINE
  5
BE7
330
1F
100
AcDbEntity
  8
AM_0
100
AcDbLine
 10
-0.1049999999999898
 20
-4.80183523145402
 30
0.0
 11
-0.1050000000000182
 21
-0.3252866763222357
 31
0.0
  0
LINE
  5
BE8
330
1F
100
AcDbEntity
  8
AM_0
100
AcDbLine
 10
-0.3719999999998151
 20
-4.041812422470371
 30
0.0
 11
-0.4139999999997599
 21
-3.7857827969855
 31
0.0
  0
SPLINE
  5
BED
330
1F
100
AcDbEntity
  8
AM_0
100
AcDbSpline
210
0.0
220
0.0
230
1.0
 70
     8
 71
     3
 72
     8
 73
     4
 74
     2
 42
0.0000000001
 43
0.0000000001
 44
0.0000000001
 12
-1.0
 22
-0.0000000000000012
 32
0.0
 40
0.0
 40
0.0
 40
0.0
 40
0.0
 40
14.48999654934389
 40
14.48999654934389
 40
14.48999654934389
 40
14.48999654934389
 10
0.0000000000000284
 20
-5.000000000000142
 30
0.0
 10
-4.82999884978127
 20
-5.000000000000148
 30
0.0
 10
-9.214999424890589
 20
-2.500000000000159
 30
0.0
 10
-13.5999999999999
 20
-0.0000000000001705
 30
0.0
 11
0.0000000000000284
 21
-5.000000000000142
 31
0.0
 11
-13.5999999999999
 21
-0.0000000000001705
 31
0.0
  0
SPLINE
  5
BEE
330
1F
100
AcDbEntity
  8
AM_0
100
AcDbSpline
210
0.0
220
0.0
230
1.0
 70
     8
 71
     3
 72
     8
 73
     4
 74
     0
 42
0.0000000001
 43
0.0000000001
 40
4.269576567053861
 40
4.269576567053861
 40
4.269576567053861
 40
4.269576567053861
 40
14.35388886087876
 40
14.35388886087876
 40
14.35388886087876
 40
14.35388886087876
 10
-0.3719999999998151
 20
-4.041812422470144
 30
0.0
 10
-3.599325035429501
 20
-3.225161654345725
 30
0.0
 10
-6.695940480773515
 20
-1.612580827173047
 30
0.0
 10
-9.792555926117529
 20
-0.0000000000001421
 30
0.0
  0
SPLINE
  5
BEF
330
1F
100
AcDbEntity
  8
AM_0
100
AcDbSpline
210
0.0
220
0.0
230
1.0
 70
     8
 71
     3
 72
     8
 73
     4
 74
     0
 42
0.0000000001
 43
0.0000000001
 40
0.0
 40
0.0
 40
0.0
 40
0.0
 40
4.607356481513744
 40
4.607356481513744
 40
4.607356481513744
 40
4.607356481513744
 10
-23.39255592611741
 20
-4.590656318051003
 30
0.0
 10
-21.85677043227948
 20
-4.590656318051003
 30
0.0
 10
-20.3598215922743
 20
-4.354168236663042
 30
0.0
 10
-18.88924349456462
 20
-3.957100763521282
 30
0.0
  0
SPLINE
  5
BF0
330
1F
100
AcDbEntity
  8
AM_0
100
AcDbSpline
210
0.0
220
0.0
230
1.0
 70
     8
 71
     3
 72
     8
 73
     4
 74
     0
 42
0.0000000001
 43
0.0000000001
 40
0.0
 40
0.0
 40
0.0
 40
0.0
 40
10.49953388088627
 40
10.49953388088627
 40
10.49953388088627
 40
10.49953388088627
 10
-23.39255592611741
 20
-4.590656318051003
 30
0.0
 10
-26.89240055307979
 20
-4.590656318051003
 30
0.0
 10
-30.19055803850642
 20
-3.362522572343948
 30
0.0
 10
-33.43455780779732
 20
-1.804606182731674
 30
0.0
  0
LINE
  5
BF1
330
1F
100
AcDbEntity
  8
AM_11
100
AcDbLine
 10
-21.99999999999997
 20
5.000000000003927
 30
0.0
 11
0.0
 21
5.00000000000395
 31
0.0
  0
LINE
  5
BF2
330
1F
100
AcDbEntity
  8
AM_0
100
AcDbLine
 10
-19.12923831705623
 20
3.957100763520941
 30
0.0
 11
-2.544248973452795
 21
3.232117854566325
 31
0.0
  0
LINE
  5
BF3
330
1F
100
AcDbEntity
  8
AM_0
100
AcDbLine
 10
-18.88924349456462
 20
-3.957100763521282
 30
0.0
 11
-6.986831477635405
 21
-3.429168785541065
 31
0.0
  0
SPLINE
  5
BF4
330
1F
100
AcDbEntity
  8
AM_0
100
AcDbSpline
210
0.0
220
0.0
230
1.0
 70
     8
 71
     3
 72
     8
 73
     4
 74
     2
 42
0.0000000001
 43
0.0000000001
 44
0.0000000001
 12
1.0
 22
0.0000000000000011
 32
0.0
 40
0.0
 40
0.0
 40
0.0
 40
0.0
 40
14.48999654934388
 40
14.48999654934388
 40
14.48999654934388
 40
14.48999654934388
 10
-27.19999999999981
 20
4.999999999999829
 30
0.0
 10
-22.37000115021852
 20
4.999999999999834
 30
0.0
 10
-17.98500057510922
 20
2.499999999999832
 30
0.0
 10
-13.5999999999999
 20
-0.0000000000001705
 30
0.0
 11
-27.19999999999981
 21
4.999999999999829
 31
0.0
 11
-13.5999999999999
 21
-0.0000000000001705
 31
0.0
  0
SPLINE
  5
BF5
330
1F
100
AcDbEntity
  8
AM_0
100
AcDbSpline
210
0.0
220
0.0
230
1.0
 70
     8
 71
     3
 72
     8
 73
     4
 74
     2
 42
0.0000000001
 43
0.0000000001
 44
0.0000000001
 12
1.0
 22
0.0000000000000011
 32
0.0
 40
0.0
 40
0.0
 40
0.0
 40
0.0
 40
14.68462643510734
 40
14.68462643510734
 40
14.68462643510734
 40
14.68462643510734
 10
-23.74118052168944
 20
4.590656318050662
 30
0.0
 10
-18.84630504332032
 20
4.590656318050667
 30
0.0
 10
-14.31943048471892
 20
2.295328159025262
 30
0.0
 10
-9.792555926117529
 20
-0.0000000000001421
 30
0.0
 11
-23.74118052168944
 21
4.590656318050662
 31
0.0
 11
-9.792555926117529
 21
-0.0000000000001421
 31
0.0
  0
LINE
  5
C07
330
1F
100
AcDbEntity
  8
AM_0
100
AcDbLine
 10
0.0
 20
-0.3252866763222357
 30
0.0
 11
-3.002055614208529
 21
3.252423887078379
 31
0.0
  0
SPLINE
  5
C08
330
1F
100
AcDbEntity
  8
AM_0
100
AcDbSpline
210
0.0
220
0.0
230
1.0
 70
     8
 71
     3
 72
     8
 73
     4
 74
     2
 42
0.0000000001
 43
0.0000000001
 44
0.0000000001
 12
-0.7709164469463765
 22
0.6369362855322148
 32
0.0
 13
0.9742174105685048
 23
0.2256112518142604
 33
0.0
 40
0.0
 40
0.0
 40
0.0
 40
0.0
 40
3.696710677011538
 40
3.696710677011538
 40
3.696710677011538
 40
3.696710677011538
 10
-0.8684524932041313
 20
0.2335817991957754
 30
0.0
 10
-1.818404180040954
 20
1.018438188296778
 30
0.0
 10
-4.202522248668238
 20
2.974417379266474
 30
0.0
 10
-3.002055614208529
 20
3.252423887078379
 30
0.0
 11
-0.8684524932041313
 21
0.2335817991957754
 31
0.0
 11
-3.002055614208529
 21
3.252423887078379
 31
0.0
  0
SPLINE
  5
C09
330
1F
100
AcDbEntity
  8
AM_0
100
AcDbSpline
210
0.0
220
0.0
230
1.0
 70
     8
 71
     3
 72
     8
 73
     4
 74
     0
 42
0.0000000001
 43
0.0000000001
 40
0.0
 40
0.0
 40
0.0
 40
0.0
 40
7.266438349726817
 40
7.266438349726817
 40
7.266438349726817
 40
7.266438349726817
 10
0.0
 20
4.999999999999175
 30
0.0
 10
-2.422146116575277
 20
4.999999999999175
 30
0.0
 10
-4.73238325001148
 20
4.371295409953603
 30
0.0
 10
-6.986831477631767
 20
3.429168785534642
 30
0.0
  0
SPLINE
  5
C0A
330
1F
100
AcDbEntity
  8
AM_0
100
AcDbSpline
210
0.0
220
0.0
230
1.0
 70
     8
 71
     3
 72
     8
 73
     4
 74
     2
 42
0.0000000001
 43
0.0000000001
 44
0.0000000001
 12
1.0
 22
0.0000000000000012
 32
0.0
 13
0.7895622463646161
 23
0.6136704808899165
 33
0.0
 40
0.0
 40
0.0
 40
0.0
 40
0.0
 40
2.657601517946371
 40
2.657601517946371
 40
2.657601517946371
 40
2.657601517946371
 10
-2.544248973452795
 20
3.232117854566325
 30
0.0
 10
-1.658381800804004
 20
3.232117854566326
 30
0.0
 10
-0.6994472748172501
 20
3.456369466155656
 30
0.0
 10
0.0
 20
3.99999999999963
 30
0.0
 11
-2.544248973452795
 21
3.232117854566325
 31
0.0
 11
0.0
 21
3.99999999999963
 31
0.0
  0
LINE
  5
C0B
330
1F
100
AcDbEntity
  8
AM_0
100
AcDbLine
 10
0.0
 20
-0.3252866763222357
 30
0.0
 11
-0.1050000000000182
 21
-0.3252866763222357
 31
0.0
  0
ARC
  5
C0C
330
1F
100
AcDbEntity
  8
AM_0
100
AcDbCircle
 10
9.152032325075225
 20
-0.668818323318547
 30
0.0
 40
10.06103583009659
100
AcDbArc
 50
174.8540790960653
 51
198.047510836919
  0
LINE
  5
C0D
330
1F
100
AcDbEntity
  8
AM_0
100
AcDbLine
 10
-0.1050000000000182
 20
-0.3252866763222357
 30
0.0
 11
-0.8684524932041313
 21
0.2335817991957754
 31
0.0
  0
LINE
  5
C0E
330
1F
100
AcDbEntity
  8
AM_0
100
AcDbLine
 10
-33.43455780782005
 20
-1.80460618272076
 30
0.0
 11
-29.72411350076345
 21
-0.8103956270969661
 31
0.0
  0
LINE
  5
C0F
330
1F
100
AcDbEntity
  8
AM_0
100
AcDbLine
 10
-33.43455780779732
 20
3.329455270234404
 30
0.0
 11
-27.19999999998117
 21
5.000000000003922
 31
0.0
  0
ARC
  5
C10
330
1F
100
AcDbEntity
  8
AM_0
100
AcDbCircle
 10
-16.00988621110355
 20
21.02553592799409
 30
0.0
 40
24.83486361747464
100
AcDbArc
 50
225.4427662613163
 51
253.6524148144671
  0
ARC
  5
C11
330
1F
100
AcDbEntity
  8
AM_0
100
AcDbCircle
 10
-13.20171396761452
 20
17.73093023071496
 30
0.0
 40
24.83486361747464
100
AcDbArc
 50
215.4427662613149
 51
228.2953822179496
  0
ARC
  5
C12
330
1F
100
AcDbEntity
  8
AM_0
100
AcDbCircle
 10
-28.79001915215392
 20
-2.966878904764087
 30
0.0
 40
2.350096248871782
100
AcDbArc
 50
60.36067103324999
 51
113.4201532542815
  0
LINE
  5
C13
330
1F
100
AcDbEntity
  8
AM_11
100
AcDbLine
 10
-21.99999999999997
 20
-5.000000000000165
 30
0.0
 11
0.0000000000000284
 21
-5.000000000000142
 31
0.0
  0
LINE
  5
C16
330
1F
100
AcDbEntity
  8
AM_0
100
AcDbLine
 10
-0.1049999999999898
 20
-4.80183523145402
 30
0.0
 11
0.0000000000000284
 21
-5.000000000000142
 31
0.0
  0
LINE
  5
C17
330
1F
100
AcDbEntity
  8
AM_0
100
AcDbLine
 10
-0.1049999999999898
 20
-4.80183523145402
 30
0.0
 11
-0.3719999999998151
 21
-4.041812422470371
 31
0.0
  0
SPLINE
  5
C18
330
1F
100
AcDbEntity
  8
AM_0
100
AcDbSpline
210
0.0
220
0.0
230
1.0
 70
     8
 71
     3
 72
     8
 73
     4
 74
     0
 42
0.0000000001
 43
0.0000000001
 40
1.53702008085691
 40
1.53702008085691
 40
1.53702008085691
 40
1.53702008085691
 40
1.900993527181806
 40
1.900993527181806
 40
1.900993527181806
 40
1.900993527181806
 10
-23.91820118587426
 20
-4.630529120487096
 30
0.0
 10
-23.79898125685073
 20
-4.618277916847489
 30
0.0
 10
-23.67999649122472
 20
-4.604657760013367
 30
0.0
 10
-23.56124024873722
 20
-4.589707304822184
 30
0.0
  0
SPLINE
  5
C19
330
1F
100
AcDbEntity
  8
AM_0
100
AcDbSpline
210
0.0
220
0.0
230
1.0
 70
     8
 71
     3
 72
     8
 73
     4
 74
     0
 42
0.0000000001
 43
0.0000000001
 40
0.0
 40
0.0
 40
0.0
 40
0.0
 40
3.347564375695247
 40
3.347564375695247
 40
3.347564375695247
 40
3.347564375695247
 10
-27.19999999999979
 20
-5.00000000000017
 30
0.0
 10
-26.08414520810126
 20
-5.00000000000017
 30
0.0
 10
-24.99204129252072
 20
-4.866567593239039
 30
0.0
 10
-23.91820118587381
 20
-4.63052912049028
 30
0.0
  0
LINE
  5
CD7
330
1F
100
AcDbEntity
  8
AM_11
100
AcDbLine
 10
-21.99999999999997
 20
5.000000000003927
 30
0.0
 11
-21.99999999999997
 21
-5.000000000000165
 31
0.0
  0
LINE
  5
E54
330
1F
100
AcDbEntity
  8
AM_0
100
AcDbLine
 10
-69.99999999999996
 20
-4.500000000000184
 30
0.0
 11
-70.00000000000001
 21
4.499999999999801
 31
0.0
  0
LINE
  5
E55
330
1F
100
AcDbEntity
  8
AM_0
100
AcDbLine
 10
-27.19999999999981
 20
4.999999999999829
 30
0.0
 11
-69.50000000000001
 21
4.999999999999801
 31
0.0
  0
LINE
  5
E56
330
1F
100
AcDbEntity
  8
AM_0
100
AcDbLine
 10
-27.19999999999979
 20
-5.00000000000017
 30
0.0
 11
-69.49999999999995
 21
-5.000000000000184
 31
0.0
  0
LINE
  5
E5E
330
1F
100
AcDbEntity
  8
AM_0
100
AcDbLine
 10
-70.00000000000001
 20
4.499999999999801
 30
0.0
 11
-69.50000000000001
 21
4.999999999999801
 31
0.0
1001
GENIUS_GENFIL_13
1070
     0
1040
0.5
1040
0.5
1040
20.0
1040
0.0
1002
{
1002
}
1001
GENIUS_GENODEF_13
1002
{
1000
HIER
1070
     0
1002
}
1002
{
1000
MANEDIT
1070
     0
1002
}
1002
{
1000
NOSEL
1070
     0
1002
}
1002
{
1000
BEHIND
1070
     0
1002
}
1002
{
1000
REACTOR
1002
}
1001
GENIUS_GENOBJ-N-CHA_13
1002
{
1000
OWNER
1000
GEN
1002
}
  0
LINE
  5
E62
330
1F
100
AcDbEntity
  8
AM_0
100
AcDbLine
 10
-69.99999999999996
 20
-4.500000000000184
 30
0.0
 11
-69.49999999999995
 21
-5.000000000000184
 31
0.0
1001
GENIUS_GENFIL_13
1070
     0
1040
0.5
1040
0.5
1040
20.0
1040
0.0
1002
{
1002
}
1001
GENIUS_GENODEF_13
1002
{
1000
HIER
1070
     0
1002
}
1002
{
1000
MANEDIT
1070
     0
1002
}
1002
{
1000
NOSEL
1070
     0
1002
}
1002
{
1000
BEHIND
1070
     0
1002
}
1002
{
1000
REACTOR
1002
}
1001
GENIUS_GENOBJ-N-CHA_13
1002
{
1000
OWNER
1000
GEN
1002
}
  0
LINE
  5
E63
330
1F
100
AcDbEntity
  8
AM_0
100
AcDbLine
 10
-69.49999999999995
 20
-5.000000000000184
 30
0.0
 11
-69.50000000000001
 21
4.999999999999801
 31
0.0
  0
LINE
  5
E6B
330
1F
100
AcDbEntity
  8
AM_7
100
AcDbLine
 10
-72.99999999999998
 20
-0.0000000000002132
 30
0.0
 11
3.000000000000056
 21
0.0000000000000142
 31
0.0
1001
GENIUS_GENODEF_13
1002
{
1000
HIER
1070
     0
1002
}
1002
{
1000
MANEDIT
1070
     0
1002
}
1002
{
1000
NOSEL
1070
     0
1002
}
1002
{
1000
BEHIND
1070
     0
1002
}
1002
{
1000
REACTOR
1002
}
1001
GENIUS_GENOBJ-N-CEN_13
1002
{
1000
OWNER
1000
GEN
1002
}
  0
DIMENSION
  5
E76
330
1F
100
AcDbEntity
  8
AM_5
100
AcDbDimension
  2
*D5
 10
0.0000000000000275
 20
-20.32528667632222
 30
0.0
 11
-34.99999999999996
 21
-18.77528667632222
 31
0.0
 70
    32
  1
<>
  3
AM_JIS
100
AcDbAlignedDimension
 13
-69.99999999999996
 23
-4.500000000000184
 33
0.0
 14
0.0000000000000284
 24
-5.000000000000142
 34
0.0
 50
0.0000000000001132
100
AcDbRotatedDimension
1001
GENIUS_GENDTOL_13
1000

1000
h7
1000

1040
0.0
  0
DIMENSION
  5
F06
330
1F
100
AcDbEntity
  8
AM_5
100
AcDbDimension
  2
*D6
 10
0.0000000000000279
 20
-14.32528667632222
 30
0.0
 11
-10.99999999999997
 21
-12.77528667632222
 31
0.0
 70
    32
  1
<>
  3
AM_JIS
100
AcDbAlignedDimension
 13
-21.99999999999997
 23
-5.000000000000165
 33
0.0
 14
0.0000000000000284
 24
-5.000000000000142
 34
0.0
 50
0.0000000000001132
100
AcDbRotatedDimension
1001
GENIUS_GENDTOL_13
1000

1000
h7
1000

1040
0.0
  0
DIMENSION
  5
FA0
330
1F
100
AcDbEntity
  8
AM_5
100
AcDbDimension
  2
*D7
 10
7.000000000000023
 20
5.000000000003948
 30
0.0
 11
7.000000000000023
 21
0.0000000000019034
 31
0.0
 70
   160
  1
%%c<>
  3
AM_JIS
100
AcDbAlignedDimension
 13
0.0000000000000284
 23
-5.000000000000142
 33
0.0
 14
0.0000000000000249
 24
5.00000000000395
 34
0.0
 50
90.0
100
AcDbRotatedDimension
1001
GENIUS_GENDTOL_13
1000

1000
h7
1000

1040
0.0
  0
TEXT
  5
103F
330
1F
100
AcDbEntity
  8
AM_6
100
AcDbText
 10
-45.17857142857139
 20
-31.57528667632222
 30
0.0
 40
2.5
  1
GLM2100SF
 72
     4
 11
-34.99999999999996
 21
-30.32528667632222
 31
0.0
100
AcDbText
  0
DIMENSION
  5
10CC
330
1F
100
AcDbEntity
  8
AM_5
100
AcDbDimension
  2
*D8
 10
-76.50000000000002
 20
4.999999999999802
 30
0.0
 11
-78.05000000000001
 21
-0.0000000000002021
 31
0.0
 70
    32
  1
%%c<>
  3
AM_JIS
100
AcDbAlignedDimension
 13
-69.49999999999995
 23
-5.000000000000184
 33
0.0
 14
-69.50000000000001
 24
4.999999999999801
 34
0.0
 50
270.0000000000001
100
AcDbRotatedDimension
1001
GENIUS_GENDTOL_13
1000

1000
h7
1000

1040
0.0
  0
VIEWPORT
  5
110
330
101
100
AcDbEntity
 67
     1
  8
0
100
AcDbViewport
 10
420.5
 20
297.0
 30
0.0
 40
948.9782706766916
 41
628.452
 68
     1
 69
     1
1001
ACAD
1000
MVIEW
1002
{
1070
    16
1010
0.0
1020
0.0
1030
0.0
1010
0.0
1020
0.0
1030
1.0
1040
0.0
1040
628.452
1040
420.5
1040
297.0
1040
50.0
1040
0.0
1040
0.0
1070
     0
1070
   100
1070
     1
1070
     1
1070
     0
1070
     0
1070
     0
1070
     0
1040
0.0
1040
0.0
1040
0.0
1040
10.0
1040
10.0
1040
10.0
1040
10.0
1070
     0
1002
{
1002
}
1002
}
  0
ENDSEC
  0
SECTION
  2
OBJECTS
  0
DICTIONARY
  5
C
330
0
100
AcDbDictionary
  3
ACAD_GROUP
350
D
  3
ACAD_LAYOUT
350
1A
  3
ACAD_MLINESTYLE
350
17
  3
ACAD_PLOTSETTINGS
350
19
  3
ACAD_PLOTSTYLENAME
350
E
  3
ACDBVARIABLEDICTIONARY
350
34
  3
ACMDICTIONARY
350
43
  3
AMG
350
2B
  3
AMGSNAPSETTINGS
350
6E
  3
DWGPROPS
350
11A9
  3
ACDBHEADERROUNDTRIPXREC
350
11B5
  0
DICTIONARY
  5
74
330
1F
100
AcDbDictionary
280
     1
  3
ACAD_INDEX
360
11AB
  3
ACAD_LAYOUTSELFREF
360
11D8
  0
DICTIONARY
  5
11DD
330
101
100
AcDbDictionary
280
     1
  3
ACAD_LAYOUTSELFREF
360
11DE
  0
DICTIONARY
  5
D
102
{ACAD_REACTORS
330
C
102
}
330
C
100
AcDbDictionary
  0
DICTIONARY
  5
1A
102
{ACAD_REACTORS
330
C
102
}
330
C
100
AcDbDictionary
  0
DICTIONARY
  5
17
102
{ACAD_REACTORS
330
C
102
}
330
C
100
AcDbDictionary
  3
STANDARD
350
18
  0
DICTIONARY
  5
19
102
{ACAD_REACTORS
330
C
102
}
330
C
100
AcDbDictionary
  0
ACDBDICTIONARYWDFLT
  5
E
102
{ACAD_REACTORS
330
C
102
}
330
C
100
AcDbDictionary
281
     1
  3
Normal
350
F
100
AcDbDictionaryWithDefault
340
F
  0
DICTIONARY
  5
34
102
{ACAD_REACTORS
330
C
102
}
330
C
100
AcDbDictionary
  3
INDEXCTL
350
35
  3
SORTENTS
350
B5E
  0
DICTIONARY
  5
43
102
{ACAD_REACTORS
330
C
102
}
330
C
100
AcDbDictionary
  3
ACMSTDDICTIONARY
350
260
  0
DICTIONARY
  5
2B
102
{ACAD_REACTORS
330
C
102
}
330
C
100
AcDbDictionary
  3
ACMGSETTINGS
350
2C
  0
DICTIONARY
  5
6E
102
{ACAD_REACTORS
330
C
102
}
330
C
100
AcDbDictionary
  0
XRECORD
  5
11A9
102
{ACAD_REACTORS
330
C
102
}
330
C
100
AcDbXrecord
  1
DWGPROPS COOKIE
  2

  3

  4

  6

  7

  8

  9

300
AmdtFileType=82
301
=
302
=
303
=
304
=
305
=
306
=
307
=
308
=
309
=
 40
0.0112990277777778
 41
2452808.406212557
 42
2452839.599443171
  1

 90
        1
  0
DICTIONARY
  5
11B5
102
{ACAD_REACTORS
330
C
102
}
330
C
100
AcDbDictionary
  3
TSTACKALIGN
350
11B6
  3
TSTACKSIZE
350
11B7
  3
HYPERLINKBASE
350
11B8
  3
STYLESHEET
350
11B9
  3
LAYOUTDICT
350
11BA
  3
PLOTSETDICT
350
11BB
  3
PLOTSTYLNAMDICT
350
11BC
  3
LWETCUNION
350
11BD
  3
INSUNITS
350
11BE
  3
CEPSNTYPE
350
11BF
  3
FINGERPRINTGUID
350
11C0
  3
VERSIONGUID
350
11C1
  3
PSVPSCALE
350
11C2
  3
DIMSTYLEDATA
350
11C3
  3
PUCSORTHOREF
350
11C4
  3
PUCSORTHOVIEW
350
11C5
  3
PUCSBASE
350
11C6
  3
PUCSORGTOP
350
11C7
  3
PUCSORGBOTTOM
350
11C8
  3
PUCSORGLEFT
350
11C9
  3
PUCSORGRIGHT
350
11CA
  3
PUCSORGFRONT
350
11CB
  3
PUCSORGBACK
350
11CC
  3
UCSORTHOREF
350
11CD
  3
UCSORTHOVIEW
350
11CE
  3
UCSBASE
350
11CF
  3
UCSORGTOP
350
11D0
  3
UCSORGBOTTOM
350
11D1
  3
UCSORGLEFT
350
11D2
  3
UCSORGRIGHT
350
11D3
  3
UCSORGFRONT
350
11D4
  3
UCSORGBACK
350
11D5
  0
DICTIONARY
  5
11AB
102
{ACAD_REACTORS
330
74
102
}
330
74
100
AcDbDictionary
  3
*A1
350
11AC
  0
XRECORD
  5
11D8
102
{ACAD_REACTORS
330
74
102
}
330
74
100
AcDbXrecord
340
1F
  0
XRECORD
  5
11DE
102
{ACAD_REACTORS
330
11DD
102
}
330
11DD
100
AcDbXrecord
340
101
  0
MLINESTYLE
  5
18
102
{ACAD_REACTORS
330
17
102
}
330
17
100
AcDbMlineStyle
  2
STANDARD
 70
     0
  3

 62
   256
 51
90.0
 52
90.0
 71
     2
 49
0.5
 62
   256
  6
BYLAYER
 49
-0.5
 62
   256
  6
BYLAYER
  0
ACDBPLACEHOLDER
  5
F
102
{ACAD_REACTORS
330
E
102
}
330
E
100
AcDbPlaceHolder
280
     0
  0
DICTIONARYVAR
  5
35
102
{ACAD_REACTORS
330
34
102
}
330
34
100
DictionaryVariables
280
     0
  1
1
  0
DICTIONARYVAR
  5
B5E
102
{ACAD_REACTORS
330
34
102
}
330
34
100
DictionaryVariables
280
     0
  1
96
  0
DICTIONARY
  5
260
102
{ACAD_REACTORS
330
43
102
}
330
43
100
AcDbDictionary
  0
DICTIONARY
  5
2C
102
{ACAD_REACTORS
330
2B
102
}
330
2B
100
AcDbDictionary
  3
DWGSETTINGS
350
2D
  0
XRECORD
  5
11B6
102
{ACAD_REACTORS
330
11B5
102
}
330
11B5
100
AcDbXrecord
 90
        1
  0
XRECORD
  5
11B7
102
{ACAD_REACTORS
330
11B5
102
}
330
11B5
100
AcDbXrecord
 90
       70
  0
XRECORD
  5
11B8
102
{ACAD_REACTORS
330
11B5
102
}
330
11B5
100
AcDbXrecord
  1

  0
XRECORD
  5
11B9
102
{ACAD_REACTORS
330
11B5
102
}
330
11B5
100
AcDbXrecord
  1
ASAMI.ctb
  0
XRECORD
  5
11BA
102
{ACAD_REACTORS
330
11B5
102
}
330
11B5
100
AcDbXrecord
340
1A
  0
XRECORD
  5
11BB
102
{ACAD_REACTORS
330
11B5
102
}
330
11B5
100
AcDbXrecord
340
19
  0
XRECORD
  5
11BC
102
{ACAD_REACTORS
330
11B5
102
}
330
11B5
100
AcDbXrecord
340
E
  0
XRECORD
  5
11BD
102
{ACAD_REACTORS
330
11B5
102
}
330
11B5
100
AcDbXrecord
 90
    10781
  0
XRECORD
  5
11BE
102
{ACAD_REACTORS
330
11B5
102
}
330
11B5
100
AcDbXrecord
 90
        4
  0
XRECORD
  5
11BF
102
{ACAD_REACTORS
330
11B5
102
}
330
11B5
100
AcDbXrecord
 90
        0
  0
XRECORD
  5
11C0
102
{ACAD_REACTORS
330
11B5
102
}
330
11B5
100
AcDbXrecord
  1
{AFB28963-8C59-40AE-9337-C84526B81ACE}
  0
XRECORD
  5
11C1
102
{ACAD_REACTORS
330
11B5
102
}
330
11B5
100
AcDbXrecord
  1
{68FB8DBC-0A50-4B60-BA78-93C26152C5BB}
  0
XRECORD
  5
11C2
102
{ACAD_REACTORS
330
11B5
102
}
330
11B5
100
AcDbXrecord
 40
0.0
  0
XRECORD
  5
11C3
102
{ACAD_REACTORS
330
11B5
102
}
330
11B5
100
AcDbXrecord
1000
DSTYLE
1002
{
1070
    79
 70
     2
1070
   341
340
59
1070
   342
340
59
1070
   371
 70
    -1
1070
   372
 70
    -1
1002
}
  0
XRECORD
  5
11C4
102
{ACAD_REACTORS
330
11B5
102
}
330
11B5
100
AcDbXrecord
340
0
  0
XRECORD
  5
11C5
102
{ACAD_REACTORS
330
11B5
102
}
330
11B5
100
AcDbXrecord
 70
     0
  0
XRECORD
  5
11C6
102
{ACAD_REACTORS
330
11B5
102
}
330
11B5
100
AcDbXrecord
340
0
  0
XRECORD
  5
11C7
102
{ACAD_REACTORS
330
11B5
102
}
330
11B5
100
AcDbXrecord
 10
0.0
 20
0.0
 30
0.0
  0
XRECORD
  5
11C8
102
{ACAD_REACTORS
330
11B5
102
}
330
11B5
100
AcDbXrecord
 10
0.0
 20
0.0
 30
0.0
  0
XRECORD
  5
11C9
102
{ACAD_REACTORS
330
11B5
102
}
330
11B5
100
AcDbXrecord
 10
0.0
 20
0.0
 30
0.0
  0
XRECORD
  5
11CA
102
{ACAD_REACTORS
330
11B5
102
}
330
11B5
100
AcDbXrecord
 10
0.0
 20
0.0
 30
0.0
  0
XRECORD
  5
11CB
102
{ACAD_REACTORS
330
11B5
102
}
330
11B5
100
AcDbXrecord
 10
0.0
 20
0.0
 30
0.0
  0
XRECORD
  5
11CC
102
{ACAD_REACTORS
330
11B5
102
}
330
11B5
100
AcDbXrecord
 10
0.0
 20
0.0
 30
0.0
  0
XRECORD
  5
11CD
102
{ACAD_REACTORS
330
11B5
102
}
330
11B5
100
AcDbXrecord
340
0
  0
XRECORD
  5
11CE
102
{ACAD_REACTORS
330
11B5
102
}
330
11B5
100
AcDbXrecord
 70
     0
  0
XRECORD
  5
11CF
102
{ACAD_REACTORS
330
11B5
102
}
330
11B5
100
AcDbXrecord
340
0
  0
XRECORD
  5
11D0
102
{ACAD_REACTORS
330
11B5
102
}
330
11B5
100
AcDbXrecord
 10
0.0
 20
0.0
 30
0.0
  0
XRECORD
  5
11D1
102
{ACAD_REACTORS
330
11B5
102
}
330
11B5
100
AcDbXrecord
 10
0.0
 20
0.0
 30
0.0
  0
XRECORD
  5
11D2
102
{ACAD_REACTORS
330
11B5
102
}
330
11B5
100
AcDbXrecord
 10
0.0
 20
0.0
 30
0.0
  0
XRECORD
  5
11D3
102
{ACAD_REACTORS
330
11B5
102
}
330
11B5
100
AcDbXrecord
 10
0.0
 20
0.0
 30
0.0
  0
XRECORD
  5
11D4
102
{ACAD_REACTORS
330
11B5
102
}
330
11B5
100
AcDbXrecord
 10
0.0
 20
0.0
 30
0.0
  0
XRECORD
  5
11D5
102
{ACAD_REACTORS
330
11B5
102
}
330
11B5
100
AcDbXrecord
 10
0.0
 20
0.0
 30
0.0
  0
LAYER_INDEX
  5
11AC
102
{ACAD_REACTORS
330
11AB
102
}
330
11AB
100
AcDbIndex
 40
2452839.677983217
100
AcDbLayerIndex
  8
0
360
11AD
 90
        0
  8
AM_0
360
11AE
 90
       33
  8
AM_11
360
11AF
 90
        3
  8
AM_7
360
11B0
 90
        1
  8
AM_5
360
11B1
 90
        4
  8
Defpoints
360
11B2
 90
        0
  8
AM_6
360
11B3
 90
        1
  0
XRECORD
  5
2D
102
{ACAD_REACTORS
330
2C
102
}
330
2C
100
AcDbXrecord
  1
VERSION
140
15.0
  1
PRODUCT
  2
AutoCAD Mechanical 2000
  0
IDBUFFER
  5
11AD
330
0
100
AcDbIdBuffer
  0
IDBUFFER
  5
11AE
330
0
100
AcDbIdBuffer
330
C0C
330
C0D
330
C0E
330
C0F
330
C10
330
C11
330
C12
330
C16
330
C17
330
C18
330
C19
330
E54
330
E55
330
E56
330
E5E
330
E62
330
E63
330
BE6
330
BE7
330
BE8
330
BED
330
BEE
330
BEF
330
BF0
330
BF2
330
BF3
330
BF4
330
BF5
330
C07
330
C08
330
C09
330
C0A
330
C0B
  0
IDBUFFER
  5
11AF
330
0
100
AcDbIdBuffer
330
BF1
330
C13
330
CD7
  0
IDBUFFER
  5
11B0
330
0
100
AcDbIdBuffer
330
E6B
  0
IDBUFFER
  5
11B1
330
0
100
AcDbIdBuffer
330
E76
330
F06
330
FA0
330
10CC
  0
IDBUFFER
  5
11B2
330
0
100
AcDbIdBuffer
  0
IDBUFFER
  5
11B3
330
0
100
AcDbIdBuffer
330
103F
  0
ENDSEC
  0
EOF
