  0
SECTION
  2
HEADER
  9
$ACADVER
  1
AC1014
  9
$ACADMAINTVER
 70
     9
  9
$DWGCODEPAGE
  3
ANSI_932
  9
$INSBASE
 10
0.0
 20
0.0
 30
0.0
  9
$EXTMIN
 10
-47.35000099999999
 20
-26.04999996250013
 30
-0.00000001
  9
$EXTMAX
 10
9.327901120556527
 20
8.014285676785661
 30
0.00000001
  9
$LIMMIN
 10
-50.36308221864442
 20
-34.32012784908559
  9
$LIMMAX
 10
15.53063495254536
 20
11.60835145953586
  9
$ORTHOMODE
 70
     0
  9
$REGENMODE
 70
     1
  9
$FILLMODE
 70
     1
  9
$QTEXTMODE
 70
     0
  9
$MIRRTEXT
 70
     0
  9
$DRAGMODE
 70
     2
  9
$LTSCALE
 40
1.0
  9
$OSMODE
 70
  2103
  9
$ATTMODE
 70
     1
  9
$TEXTSIZE
 40
2.5
  9
$TRACEWID
 40
1.0
  9
$TEXTSTYLE
  7
STANDARD
  9
$CLAYER
  8
AM_7
  9
$CELTYPE
  6
BYLAYER
  9
$CECOLOR
 62
   256
  9
$CELTSCALE
 40
1.0
  9
$DELOBJ
 70
     1
  9
$DISPSILH
 70
     0
  9
$DIMSCALE
 40
0.5
  9
$DIMASZ
 40
2.5
  9
$DIMEXO
 40
1.0
  9
$DIMDLI
 40
12.0
  9
$DIMRND
 40
0.0
  9
$DIMDLE
 40
0.0
  9
$DIMEXE
 40
1.0
  9
$DIMTP
 40
0.1
  9
$DIMTM
 40
0.1
  9
$DIMTXT
 40
3.2
  9
$DIMCEN
 40
0.0
  9
$DIMTSZ
 40
0.0
  9
$DIMTOL
 70
     0
  9
$DIMLIM
 70
     0
  9
$DIMTIH
 70
     0
  9
$DIMTOH
 70
     0
  9
$DIMSE1
 70
     0
  9
$DIMSE2
 70
     0
  9
$DIMTAD
 70
     3
  9
$DIMZIN
 70
     8
  9
$DIMBLK
  1
OPEN30
  9
$DIMASO
 70
     1
  9
$DIMSHO
 70
     1
  9
$DIMPOST
  1

  9
$DIMAPOST
  1
"
  9
$DIMALT
 70
     0
  9
$DIMALTD
 70
     2
  9
$DIMALTF
 40
0.0393701
  9
$DIMLFAC
 40
1.0
  9
$DIMTOFL
 70
     1
  9
$DIMTVP
 40
0.0
  9
$DIMTIX
 70
     0
  9
$DIMSOXD
 70
     0
  9
$DIMSAH
 70
     0
  9
$DIMBLK1
  1

  9
$DIMBLK2
  1

  9
$DIMSTYLE
  2
AM_JIS
  9
$DIMCLRD
 70
   256
  9
$DIMCLRE
 70
   256
  9
$DIMCLRT
 70
     2
  9
$DIMTFAC
 40
0.71
  9
$DIMGAP
 40
1.5
  9
$DIMJUST
 70
     0
  9
$DIMSD1
 70
     0
  9
$DIMSD2
 70
     0
  9
$DIMTOLJ
 70
     0
  9
$DIMTZIN
 70
     0
  9
$DIMALTZ
 70
     0
  9
$DIMALTTZ
 70
     0
  9
$DIMFIT
 70
     3
  9
$DIMUPT
 70
     0
  9
$DIMUNIT
 70
     2
  9
$DIMDEC
 70
     3
  9
$DIMTDEC
 70
     3
  9
$DIMALTU
 70
     2
  9
$DIMALTTD
 70
     2
  9
$DIMTXSTY
  7
ASAMI
  9
$DIMAUNIT
 70
     0
  9
$LUNITS
 70
     2
  9
$LUPREC
 70
     2
  9
$SKETCHINC
 40
1.0
  9
$FILLETRAD
 40
2.5
  9
$AUNITS
 70
     0
  9
$AUPREC
 70
     0
  9
$MENU
  1
.
  9
$ELEVATION
 40
0.0
  9
$PELEVATION
 40
0.0
  9
$THICKNESS
 40
0.0
  9
$LIMCHECK
 70
     0
  9
$BLIPMODE
 70
     0
  9
$CHAMFERA
 40
0.5
  9
$CHAMFERB
 40
0.5
  9
$CHAMFERC
 40
20.0
  9
$CHAMFERD
 40
0.0
  9
$SKPOLY
 70
     0
  9
$TDCREATE
 40
2452809.375295671
  9
$TDUPDATE
 40
2452839.678321389
  9
$TDINDWG
 40
0.1155477894
  9
$TDUSRTIMER
 40
0.1155476157
  9
$USRTIMER
 70
     1
  9
$ANGBASE
 50
0.0
  9
$ANGDIR
 70
     0
  9
$PDMODE
 70
     0
  9
$PDSIZE
 40
0.0
  9
$PLINEWID
 40
0.0
  9
$COORDS
 70
     2
  9
$SPLFRAME
 70
     0
  9
$SPLINETYPE
 70
     6
  9
$SPLINESEGS
 70
     8
  9
$ATTDIA
 70
     1
  9
$ATTREQ
 70
     1
  9
$HANDLING
 70
 12289
  9
$HANDSEED
  5
1B30
  9
$SURFTAB1
 70
     6
  9
$SURFTAB2
 70
     6
  9
$SURFTYPE
 70
     6
  9
$SURFU
 70
     6
  9
$SURFV
 70
     6
  9
$UCSNAME
  2

  9
$UCSORG
 10
0.0
 20
-0.000000000000115
 30
0.0
  9
$UCSXDIR
 10
1.0
 20
0.0
 30
0.0
  9
$UCSYDIR
 10
0.0
 20
1.0
 30
0.0
  9
$PUCSNAME
  2

  9
$PUCSORG
 10
0.0
 20
0.0
 30
0.0
  9
$PUCSXDIR
 10
1.0
 20
0.0
 30
0.0
  9
$PUCSYDIR
 10
0.0
 20
1.0
 30
0.0
  9
$USERI1
 70
     0
  9
$USERI2
 70
     0
  9
$USERI3
 70
     0
  9
$USERI4
 70
     0
  9
$USERI5
 70
     0
  9
$USERR1
 40
0.0
  9
$USERR2
 40
0.0
  9
$USERR3
 40
0.0
  9
$USERR4
 40
0.0
  9
$USERR5
 40
0.0
  9
$WORLDVIEW
 70
     1
  9
$SHADEDGE
 70
     3
  9
$SHADEDIF
 70
    70
  9
$TILEMODE
 70
     1
  9
$MAXACTVP
 70
    64
  9
$PINSBASE
 10
0.0
 20
0.0
 30
0.0
  9
$PLIMCHECK
 70
     0
  9
$PEXTMIN
 10
1.000000000000000E+20
 20
1.000000000000000E+20
 30
1.000000000000000E+20
  9
$PEXTMAX
 10
-1.000000000000000E+20
 20
-1.000000000000000E+20
 30
-1.000000000000000E+20
  9
$PLIMMIN
 10
0.0
 20
0.0
  9
$PLIMMAX
 10
841.0
 20
594.0
  9
$UNITMODE
 70
     0
  9
$VISRETAIN
 70
     1
  9
$PLINEGEN
 70
     0
  9
$PSLTSCALE
 70
     0
  9
$TREEDEPTH
 70
  3020
  9
$PICKSTYLE
 70
     0
  9
$CMLSTYLE
  2
STANDARD
  9
$CMLJUST
 70
     0
  9
$CMLSCALE
 40
20.0
  9
$PROXYGRAPHICS
 70
     1
  9
$MEASUREMENT
 70
     1
  0
ENDSEC
  0
SECTION
  2
CLASSES
  0
CLASS
  1
ACDBDICTIONARYWDFLT
  2
AcDbDictionaryWithDefault
  3
AutoCAD 2000
 90
        0
280
     0
281
     0
  0
CLASS
  1
ACDBPLACEHOLDER
  2
AcDbPlaceHolder
  3
AutoCAD 2000
 90
        0
280
     0
281
     0
  0
CLASS
  1
LAYOUT
  2
AcDbLayout
  3
AutoCAD 2000
 90
        0
280
     0
281
     0
  0
CLASS
  1
AMGSETTINGSOBJ
  2
AmgSettingsObj
  3
"AcadM|Product Description: AutoCAD Mechanical 2000|Company: Autodesk"
 90
        0
280
     0
281
     0
  0
CLASS
  1
ACME_DOCUMENT
  2
AcMeDbDoc
  3
AcMeServices
 90
        0
280
     0
281
     0
  0
CLASS
  1
ACMESCOPE
  2
AcMeScope
  3
AcMeServices
 90
        0
280
     0
281
     0
  0
CLASS
  1
ACMECOMMANDHISTORY
  2
AcMeCommandHistory
  3
AcMeServices
 90
        0
280
     0
281
     0
  0
CLASS
  1
DICTIONARYVAR
  2
AcDbDictionaryVar
  3
AutoCAD 2000
 90
        0
280
     0
281
     0
  0
CLASS
  1
ACIMSYSVARMAN
  2
AcImSysVarManager
  3
AcMeServices
 90
        0
280
     0
281
     0
  0
CLASS
  1
ACIMREALSYSVAR
  2
AcImRealSysVar
  3
AcMeServices
 90
        0
280
     0
281
     0
  0
CLASS
  1
ACIMINTSYSVAR
  2
AcImIntSysVar
  3
AcMeServices
 90
        0
280
     0
281
     0
  0
CLASS
  1
ACMEDRAWINGMAN
  2
AcMeDrawingMan
  3
AcMeServices
 90
        0
280
     0
281
     0
  0
CLASS
  1
ACMEVIEW
  2
AcMeView
  3
AcMeServices
 90
        0
280
     0
281
     0
  0
CLASS
  1
ACDBENTITYCACHE
  2
AcMeEntityCache
  3
AcMeServices
 90
        0
280
     0
281
     0
  0
CLASS
  1
GSMANAGER
  2
AcMeGSManager
  3
AcMeServices
 90
        0
280
     0
281
     0
  0
CLASS
  1
AmdtInternalReactor
  2
AmdtInternalReactor
  3
AcMeServices
 90
        0
280
     0
281
     0
  0
CLASS
  1
ACMESTATEMGR
  2
AcMeStateMgr
  3
AcMeServices
 90
        0
280
     0
281
     0
  0
CLASS
  1
ACME_DATABASE
  2
AcMeDbDatabase
  3
AcMeServices
 90
        0
280
     0
281
     0
  0
CLASS
  1
ACRFINSADJUSTERMGR
  2
AcRfInsAdjusterMgr
  3
AcMeServices
 90
        0
280
     0
281
     0
  0
CLASS
  1
ACMDATADICTIONARY
  2
AcmDataDictionary
  3
"AcmSymBB|Product Description: AutoCAD Mechanical 2000|Company: Autodesk"
 90
        0
280
     0
281
     0
  0
CLASS
  1
ACMDATAENTRYBLOCK
  2
AcmDataEntryBlock
  3
"AcmSymBB|Product Description: AutoCAD Mechanical 2000|Company: Autodesk"
 90
        0
280
     0
281
     0
  0
CLASS
  1
AMGOBJPROPCFG
  2
AmgObjPropCfg
  3
"AmgLay|Product Description: AutoCAD Mechanical 2000|Company: Autodesk"
 90
        1
280
     0
281
     0
  0
CLASS
  1
ACAMGFILTERDAT
  2
AcAmgFilterDat
  3
"AcadM|Product Description: AutoCAD Mechanical 2000|Company: Autodesk"
 90
        0
280
     0
281
     0
  0
CLASS
  1
LAYER_INDEX
  2
AcDbLayerIndex
  3
AutoCAD 2000
 90
        0
280
     0
281
     0
  0
CLASS
  1
IDBUFFER
  2
AcDbIdBuffer
  3
AutoCAD 2000
 90
        0
280
     0
281
     0
  0
CLASS
  1
ACIMSTRSYSVAR
  2
AcImStrSysVar
  3
AcMeServices
 90
        0
280
     0
281
     0
  0
CLASS
  1
ACMSTANDARDJIS
  2
AcmStandardJIS
  3
"AcmSymBB|Product Description: AutoCAD Mechanical 2000|Company: Autodesk"
 90
        0
280
     0
281
     0
  0
CLASS
  1
ACMSURFSTANDARDJIS
  2
AcmSurfTextStdJIS
  3
"AcmSymBB|Product Description: AutoCAD Mechanical 2000|Company: Autodesk"
 90
        0
280
     0
281
     0
  0
CLASS
  1
ACMFCFSTANDARDJIS
  2
AcmFCFStdJIS
  3
"AcmSymBB|Product Description: AutoCAD Mechanical 2000|Company: Autodesk"
 90
        0
280
     0
281
     0
  0
CLASS
  1
ACMWELDSTANDARDJIS
  2
AcmWeldingStdJIS
  3
"AcmSymBB|Product Description: AutoCAD Mechanical 2000|Company: Autodesk"
 90
        0
280
     0
281
     0
  0
CLASS
  1
ACMIDSTANDARDJIS
  2
AcmIdStdJIS
  3
"AcmSymBB|Product Description: AutoCAD Mechanical 2000|Company: Autodesk"
 90
        0
280
     0
281
     0
  0
CLASS
  1
ACMDATUMSTANDARDJIS
  2
AcmDatumStdJIS
  3
"AcmSymBB|Product Description: AutoCAD Mechanical 2000|Company: Autodesk"
 90
        0
280
     0
281
     0
  0
CLASS
  1
ACMBOMSTANDARDJIS
  2
AcmBOMStdJIS
  3
"AcmSymBB|Product Description: AutoCAD Mechanical 2000|Company: Autodesk"
 90
        0
280
     0
281
     0
  0
CLASS
  1
ACMSTANDARDANSI
  2
AcmStandardANSI
  3
"AcmSymBB|Product Description: AutoCAD Mechanical 2000|Company: Autodesk"
 90
        0
280
     0
281
     0
  0
CLASS
  1
ACMSURFSTANDARDANSI
  2
AcmSurfTextStdANSI
  3
"AcmSymBB|Product Description: AutoCAD Mechanical 2000|Company: Autodesk"
 90
        0
280
     0
281
     0
  0
CLASS
  1
ACMFCFSTANDARDANSI
  2
AcmFCFStdANSI
  3
"AcmSymBB|Product Description: AutoCAD Mechanical 2000|Company: Autodesk"
 90
        0
280
     0
281
     0
  0
CLASS
  1
ACMWELDSTANDARDANSI
  2
AcmWeldingStdANSI
  3
"AcmSymBB|Product Description: AutoCAD Mechanical 2000|Company: Autodesk"
 90
        0
280
     0
281
     0
  0
CLASS
  1
ACMIDSTANDARDANSI
  2
AcmIdStdANSI
  3
"AcmSymBB|Product Description: AutoCAD Mechanical 2000|Company: Autodesk"
 90
        0
280
     0
281
     0
  0
CLASS
  1
ACMDATUMSTANDARDANSI
  2
AcmDatumStdANSI
  3
"AcmSymBB|Product Description: AutoCAD Mechanical 2000|Company: Autodesk"
 90
        0
280
     0
281
     0
  0
CLASS
  1
ACMBOMSTANDARDANSI
  2
AcmBOMStdANSI
  3
"AcmSymBB|Product Description: AutoCAD Mechanical 2000|Company: Autodesk"
 90
        0
280
     0
281
     0
  0
CLASS
  1
ACMSTANDARDBSI
  2
AcmStandardBSI
  3
"AcmSymBB|Product Description: AutoCAD Mechanical 2000|Company: Autodesk"
 90
        0
280
     0
281
     0
  0
CLASS
  1
ACMSURFSTANDARDBSI
  2
AcmSurfTextStdBSI
  3
"AcmSymBB|Product Description: AutoCAD Mechanical 2000|Company: Autodesk"
 90
        0
280
     0
281
     0
  0
CLASS
  1
ACMFCFSTANDARDBSI
  2
AcmFCFStdBSI
  3
"AcmSymBB|Product Description: AutoCAD Mechanical 2000|Company: Autodesk"
 90
        0
280
     0
281
     0
  0
CLASS
  1
ACMWELDSTANDARDBSI
  2
AcmWeldingStdBSI
  3
"AcmSymBB|Product Description: AutoCAD Mechanical 2000|Company: Autodesk"
 90
        0
280
     0
281
     0
  0
CLASS
  1
ACMIDSTANDARDBSI
  2
AcmIdStdBSI
  3
"AcmSymBB|Product Description: AutoCAD Mechanical 2000|Company: Autodesk"
 90
        0
280
     0
281
     0
  0
CLASS
  1
ACMDATUMSTANDARDBSI
  2
AcmDatumStdBSI
  3
"AcmSymBB|Product Description: AutoCAD Mechanical 2000|Company: Autodesk"
 90
        0
280
     0
281
     0
  0
CLASS
  1
ACMBOMSTANDARDBSI
  2
AcmBOMStdBSI
  3
"AcmSymBB|Product Description: AutoCAD Mechanical 2000|Company: Autodesk"
 90
        0
280
     0
281
     0
  0
CLASS
  1
LONG_TRANSACTION
  2
AcDbLongTransaction
  3
AutoCAD 2000
 90
        0
280
     0
281
     0
  0
CLASS
  1
LWPOLYLINE
  2
AcDbPolyline
  3
AutoCAD 2000
 90
        0
280
     0
281
     1
  0
CLASS
  1
HATCH
  2
AcDbHatch
  3
AutoCAD 2000
 90
        0
280
     0
281
     1
  0
CLASS
  1
XRECORD
  2
AcDbXrecord
  3
AutoCAD 2000
 90
        0
280
     0
281
     0
  0
ENDSEC
  0
SECTION
  2
TABLES
  0
TABLE
  2
VPORT
  5
8
330
0
100
AcDbSymbolTable
 70
     3
  0
VPORT
  5
1B05
330
8
100
AcDbSymbolTableRecord
100
AcDbViewportTableRecord
  2
*ACTIVE
 70
     0
 10
0.0
 20
0.0
 11
1.0
 21
1.0
 12
-14.44044931687949
 22
-9.01891304544759
 13
0.0
 23
0.0
 14
2.5
 24
2.5
 15
10.0
 25
10.0
 16
0.0
 26
0.0
 36
1.0
 17
0.0
 27
0.0
 37
0.0
 40
42.20879555213332
 41
1.56570841889117
 42
50.0
 43
0.0
 44
0.0
 50
0.0
 51
0.0
 71
     0
 72
   100
 73
     1
 74
     3
 75
     0
 76
     0
 77
     0
 78
     0
  0
ENDTAB
  0
TABLE
  2
LTYPE
  5
5
330
0
100
AcDbSymbolTable
 70
    10
  0
LTYPE
  5
14
330
5
100
AcDbSymbolTableRecord
100
AcDbLinetypeTableRecord
  2
BYBLOCK
 70
     0
  3

 72
    65
 73
     0
 40
0.0
  0
LTYPE
  5
15
330
5
100
AcDbSymbolTableRecord
100
AcDbLinetypeTableRecord
  2
BYLAYER
 70
     0
  3

 72
    65
 73
     0
 40
0.0
  0
LTYPE
  5
16
330
5
100
AcDbSymbolTableRecord
100
AcDbLinetypeTableRecord
  2
CONTINUOUS
 70
     0
  3
Solid line
 72
    65
 73
     0
 40
0.0
  0
LTYPE
  5
4B
330
5
100
AcDbSymbolTableRecord
100
AcDbLinetypeTableRecord
  2
AM_ISO02W050
 70
     0
  3
__ __ __ __ __ __ __ __ __ __ __ __ __ __ __
 72
    65
 73
     2
 40
7.5
 49
6.0
 74
     0
 49
-1.5
 74
     0
  0
LTYPE
  5
4C
330
5
100
AcDbSymbolTableRecord
100
AcDbLinetypeTableRecord
  2
AM_ISO08W050
 70
     0
  3
____ . ____ . ____ . ____ . ____ . ____ . ____
 72
    65
 73
     4
 40
18.0
 49
12.0
 74
     0
 49
-1.5
 74
     0
 49
3.0
 74
     0
 49
-1.5
 74
     0
  0
LTYPE
  5
4D
330
5
100
AcDbSymbolTableRecord
100
AcDbLinetypeTableRecord
  2
AM_ISO09W050
 70
     0
  3
_____ . . _____ . . _____ . . ____ .. ____
 72
    65
 73
     6
 40
22.5
 49
12.0
 74
     0
 49
-1.5
 74
     0
 49
3.0
 74
     0
 49
-1.5
 74
     0
 49
3.0
 74
     0
 49
-1.5
 74
     0
  0
LTYPE
  5
4E
330
5
100
AcDbSymbolTableRecord
100
AcDbLinetypeTableRecord
  2
AMCONSTR
 70
     0
  3
_______________________
 72
    65
 73
     2
 40
9999.0
 49
9999.0
 74
     0
 49
0.0
 74
     0
  0
LTYPE
  5
4F
330
5
100
AcDbSymbolTableRecord
100
AcDbLinetypeTableRecord
  2
AM_ISO02W050X2
 70
     0
  3
 _ _ _ _ _ _ _ _ _ _ _ _
 72
    65
 73
     2
 40
3.75
 49
3.0
 74
     0
 49
-0.75
 74
     0
  0
LTYPE
  5
50
330
5
100
AcDbSymbolTableRecord
100
AcDbLinetypeTableRecord
  2
AM_ISO08W050X2
 70
     0
  3
__ . __ . __ . __ . __ . __
 72
    65
 73
     4
 40
9.0
 49
6.0
 74
     0
 49
-0.75
 74
     0
 49
1.5
 74
     0
 49
-0.75
 74
     0
  0
LTYPE
  5
53
330
5
100
AcDbSymbolTableRecord
100
AcDbLinetypeTableRecord
  2
AMZIGZAG
 70
     0
  3
/\/-/\/-/\/-/\/-/\/-/\/
 72
    65
 73
     2
 40
11.00009999999999
 49
0.0001
 74
     4
 75
   135
340
52
 46
0.04
 50
0.0
 44
0.0
 45
0.0
 49
-11.0
 74
     0
  0
LTYPE
  5
166
330
5
100
AcDbSymbolTableRecord
100
AcDbLinetypeTableRecord
  2
ACJISTGL
 70
     0
  3
_ _ _ _ _
 72
    65
 73
     2
 40
3.0
 49
2.0
 74
     0
 49
-1.0
 74
     0
  0
LTYPE
  5
26A
330
5
100
AcDbSymbolTableRecord
100
AcDbLinetypeTableRecord
  2
ACJISTGB
 70
     0
  3
__ . . __ . .
 72
    65
 73
     6
 40
9.0
 49
4.0
 74
     0
 49
-1.0
 74
     0
 49
1.0
 74
     0
 49
-1.0
 74
     0
 49
1.0
 74
     0
 49
-1.0
 74
     0
  0
ENDTAB
  0
TABLE
  2
LAYER
  5
2
330
0
100
AcDbSymbolTable
 70
     7
  0
LAYER
  5
10
330
2
100
AcDbSymbolTableRecord
100
AcDbLayerTableRecord
  2
0
 70
     0
 62
     7
  6
CONTINUOUS
  0
LAYER
  5
3F9
330
2
100
AcDbSymbolTableRecord
100
AcDbLayerTableRecord
  2
AM_0
 70
     0
 62
     7
  6
CONTINUOUS
  0
LAYER
  5
BA4
330
2
100
AcDbSymbolTableRecord
100
AcDbLayerTableRecord
  2
AM_11
 70
     0
 62
     3
  6
AM_ISO09W050
  0
LAYER
  5
BA5
330
2
100
AcDbSymbolTableRecord
100
AcDbLayerTableRecord
  2
AM_7
 70
     0
 62
     4
  6
AM_ISO08W050
  0
LAYER
  5
CAD
330
2
100
AcDbSymbolTableRecord
100
AcDbLayerTableRecord
  2
AM_5
 70
     0
 62
     3
  6
CONTINUOUS
  0
LAYER
  5
CAF
330
2
100
AcDbSymbolTableRecord
100
AcDbLayerTableRecord
  2
DEFPOINTS
 70
     0
 62
     7
  6
CONTINUOUS
  0
LAYER
  5
E75
330
2
100
AcDbSymbolTableRecord
100
AcDbLayerTableRecord
  2
AM_6
 70
     0
 62
     2
  6
CONTINUOUS
  0
ENDTAB
  0
TABLE
  2
STYLE
  5
3
330
0
100
AcDbSymbolTable
 70
     5
  0
STYLE
  5
11
330
3
100
AcDbSymbolTableRecord
100
AcDbTextStyleTableRecord
  2
STANDARD
 70
     0
 40
0.0
 41
1.0
 50
0.0
 71
     0
 42
2.5
  3
simplex.shx
  4
EXTFONT.SHX
  0
STYLE
  5
52
330
3
100
AcDbSymbolTableRecord
100
AcDbTextStyleTableRecord
  2

 70
     1
 40
0.0
 41
1.0
 50
0.0
 71
     0
 42
2.5
  3
ltypeshp.shx
  4

  0
STYLE
  5
6B
330
3
100
AcDbSymbolTableRecord
100
AcDbTextStyleTableRecord
  2
ASAMI
 70
     0
 40
0.0
 41
1.0
 50
0.0
 71
     0
 42
2.5
  3
simplex.shx
  4
EXTFONT.SHX
  0
STYLE
  5
262
330
3
100
AcDbSymbolTableRecord
100
AcDbTextStyleTableRecord
  2
ACJISTS
 70
     0
 40
1.0
 41
1.0
 50
0.0
 71
     0
 42
2.5
  3
simplex.shx
  4
bigfont.shx
  0
STYLE
  5
269
330
3
100
AcDbSymbolTableRecord
100
AcDbTextStyleTableRecord
  2
ACJISGDT
 70
     0
 40
0.0
 41
1.0
 50
0.0
 71
     0
 42
2.5
  3
amgdtans.shx
  4

  0
ENDTAB
  0
TABLE
  2
VIEW
  5
6
330
0
100
AcDbSymbolTable
 70
     0
  0
ENDTAB
  0
TABLE
  2
UCS
  5
7
330
0
100
AcDbSymbolTable
 70
     0
  0
ENDTAB
  0
TABLE
  2
APPID
  5
9
330
0
100
AcDbSymbolTable
 70
    12
  0
APPID
  5
12
330
9
100
AcDbSymbolTableRecord
100
AcDbRegAppTableRecord
  2
ACAD
 70
     0
  0
APPID
  5
30
330
9
100
AcDbSymbolTableRecord
100
AcDbRegAppTableRecord
  2
MCAD_NO_VIS
 70
     0
  0
APPID
  5
31
330
9
100
AcDbSymbolTableRecord
100
AcDbRegAppTableRecord
  2
ACAD_TEMP_GRAPHIC
 70
     0
  0
APPID
  5
2C2
330
9
100
AcDbSymbolTableRecord
100
AcDbRegAppTableRecord
  2
GENIUS_GENDTOL_13
 70
     0
  0
APPID
  5
339
330
9
100
AcDbSymbolTableRecord
100
AcDbRegAppTableRecord
  2
GENIUS_GENODEF_13
 70
     0
  0
APPID
  5
33A
330
9
100
AcDbSymbolTableRecord
100
AcDbRegAppTableRecord
  2
GENIUS_GENOBJ-N-RSBK_13
 70
     0
  0
APPID
  5
33B
330
9
100
AcDbSymbolTableRecord
100
AcDbRegAppTableRecord
  2
GENIUS_GENOBJ-N-LIB_13
 70
     0
  0
APPID
  5
33C
330
9
100
AcDbSymbolTableRecord
100
AcDbRegAppTableRecord
  2
GENIUS_GENSCALE_13
 70
     0
  0
APPID
  5
378
330
9
100
AcDbSymbolTableRecord
100
AcDbRegAppTableRecord
  2
GENIUS_GENDIMSH_14
 70
     0
  0
APPID
  5
BA6
330
9
100
AcDbSymbolTableRecord
100
AcDbRegAppTableRecord
  2
GENIUS_GENOBJ-N-CEN_13
 70
     0
  0
APPID
  5
C82
330
9
100
AcDbSymbolTableRecord
100
AcDbRegAppTableRecord
  2
GENIUS_GENFIL_13
 70
     0
  0
APPID
  5
C83
330
9
100
AcDbSymbolTableRecord
100
AcDbRegAppTableRecord
  2
GENIUS_GENOBJ-N-CHA_13
 70
     0
  0
ENDTAB
  0
TABLE
  2
DIMSTYLE
  5
A
330
0
100
AcDbSymbolTable
 70
     8
  0
DIMSTYLE
105
58
102
{ACAD_REACTORS
330
1730
330
1760
330
1776
330
1A06
102
}
330
A
100
AcDbSymbolTableRecord
100
AcDbDimStyleTableRecord
  2
AM_JIS
 70
     0
  3

  4
"
  5
OPEN30
  6

  7

 40
0.5
 41
2.5
 42
1.0
 43
12.0
 44
1.0
 45
0.0
 46
0.0
 47
0.1
 48
0.1
140
3.2
141
0.0
142
0.0
143
0.0393701
144
1.0
145
0.0
146
0.71
147
1.5
 71
     0
 72
     0
 73
     0
 74
     0
 75
     0
 76
     0
 77
     3
 78
     8
170
     0
171
     2
172
     1
173
     0
174
     0
175
     0
176
   256
177
   256
178
     2
270
     2
271
     3
272
     3
273
     2
274
     2
340
6B
275
     0
280
     0
281
     0
282
     0
283
     0
284
     0
285
     0
286
     0
287
     3
288
     0
  0
DIMSTYLE
105
5F
330
A
100
AcDbSymbolTableRecord
100
AcDbDimStyleTableRecord
  2
AM_JIS$3
 70
     0
  3

  4
"
  5
OPEN30
  6

  7

 40
0.5
 41
2.5
 42
1.0
 43
10.0
 44
1.0
 45
0.0
 46
0.0
 47
0.1
 48
0.1
140
3.2
141
0.0
142
0.0
143
0.0393701
144
1.0
145
0.0
146
0.71
147
1.5
 71
     0
 72
     0
 73
     0
 74
     1
 75
     0
 76
     0
 77
     3
 78
     8
170
     0
171
     2
172
     0
173
     0
174
     0
175
     0
176
   256
177
   256
178
     2
270
     2
271
     2
272
     3
273
     2
274
     2
340
6B
275
     0
280
     0
281
     0
282
     0
283
     0
284
     0
285
     0
286
     0
287
     0
288
     1
  0
DIMSTYLE
105
60
330
A
100
AcDbSymbolTableRecord
100
AcDbDimStyleTableRecord
  2
AM_JIS$4
 70
     0
  3

  4
"
  5
OPEN30
  6

  7

 40
0.5
 41
2.5
 42
1.0
 43
10.0
 44
1.0
 45
0.0
 46
0.0
 47
0.1
 48
0.1
140
3.2
141
0.0
142
0.0
143
0.0393701
144
1.0
145
0.0
146
0.71
147
1.5
 71
     0
 72
     0
 73
     0
 74
     1
 75
     0
 76
     0
 77
     3
 78
     8
170
     0
171
     2
172
     0
173
     0
174
     0
175
     0
176
   256
177
   256
178
     2
270
     2
271
     2
272
     3
273
     2
274
     2
340
6B
275
     0
280
     0
281
     0
282
     0
283
     0
284
     0
285
     0
286
     0
287
     0
288
     1
  0
DIMSTYLE
105
61
330
A
100
AcDbSymbolTableRecord
100
AcDbDimStyleTableRecord
  2
AM_JIS$6
 70
     0
  3

  4
"
  5
OPEN30
  6

  7

 40
0.5
 41
2.5
 42
1.0
 43
10.0
 44
1.0
 45
0.0
 46
0.0
 47
0.1
 48
0.1
140
3.2
141
0.0
142
0.0
143
0.0393701
144
1.0
145
0.0
146
0.71
147
1.5
 71
     0
 72
     0
 73
     0
 74
     0
 75
     0
 76
     0
 77
     0
 78
     8
170
     0
171
     2
172
     1
173
     0
174
     0
175
     0
176
   256
177
   256
178
     2
270
     2
271
     2
272
     2
273
     2
274
     2
340
6B
275
     0
280
     0
281
     0
282
     0
283
     0
284
     0
285
     0
286
     0
287
     3
288
     0
  0
DIMSTYLE
105
62
330
A
100
AcDbSymbolTableRecord
100
AcDbDimStyleTableRecord
  2
AM_JIS$7
 70
     0
  3

  4
"
  5
OPEN30
  6

  7

 40
0.5
 41
2.5
 42
1.0
 43
10.0
 44
1.0
 45
0.0
 46
0.0
 47
0.1
 48
0.1
140
3.2
141
0.0
142
0.0
143
0.0393701
144
1.0
145
0.0
146
0.71
147
1.5
 71
     0
 72
     0
 73
     0
 74
     0
 75
     0
 76
     0
 77
     3
 78
     8
170
     0
171
     2
172
     1
173
     0
174
     0
175
     0
176
   256
177
   256
178
     2
270
     2
271
     2
272
     3
273
     2
274
     2
340
6B
275
     0
280
     0
281
     0
282
     0
283
     0
284
     0
285
     0
286
     0
287
     3
288
     0
  0
DIMSTYLE
105
63
330
A
100
AcDbSymbolTableRecord
100
AcDbDimStyleTableRecord
  2
AM_JIS$SF
 70
     0
  3

  4
"
  5
OPEN30
  6

  7

 40
0.5
 41
2.5
 42
1.0
 43
10.0
 44
1.0
 45
0.0
 46
0.0
 47
0.1
 48
0.1
140
3.2
141
0.0
142
0.0
143
0.0393701
144
1.0
145
0.0
146
0.71
147
1.5
 71
     0
 72
     0
 73
     0
 74
     0
 75
     1
 76
     1
 77
     3
 78
     8
170
     0
171
     2
172
     1
173
     0
174
     0
175
     0
176
   256
177
   256
178
     2
270
     2
271
     2
272
     2
273
     2
274
     2
340
6B
275
     0
280
     0
281
     0
282
     0
283
     0
284
     0
285
     0
286
     0
287
     3
288
     0
  0
DIMSTYLE
105
68
330
A
100
AcDbSymbolTableRecord
100
AcDbDimStyleTableRecord
  2
AM_JIS$SH
 70
     0
  3

  4
"
  5

  6
GENAXEH
  7
OPEN30
 40
0.5
 41
2.5
 42
1.0
 43
10.0
 44
1.0
 45
0.0
 46
0.0
 47
0.1
 48
0.1
140
3.2
141
0.0
142
0.0
143
0.0393701
144
2.0
145
0.0
146
0.71
147
1.5
 71
     0
 72
     0
 73
     0
 74
     0
 75
     1
 76
     1
 77
     3
 78
     8
170
     0
171
     2
172
     1
173
     1
174
     0
175
     0
176
   256
177
   256
178
     2
270
     2
271
     2
272
     2
273
     2
274
     2
340
6B
275
     0
280
     0
281
     0
282
     0
283
     0
284
     0
285
     0
286
     0
287
     3
288
     0
  0
DIMSTYLE
105
B34
330
A
100
AcDbSymbolTableRecord
100
AcDbDimStyleTableRecord
  2
AM_JIS$2
 70
     0
  3

  4
"
  5
OPEN30
  6

  7

 40
0.5
 41
2.5
 42
1.0
 43
12.0
 44
1.0
 45
0.0
 46
0.0
 47
0.1
 48
0.1
140
3.2
141
0.0
142
0.0
143
0.0393701
144
1.0
145
0.0
146
0.71
147
1.5
 71
     0
 72
     0
 73
     0
 74
     0
 75
     0
 76
     0
 77
     3
 78
     8
170
     0
171
     2
172
     1
173
     0
174
     0
175
     0
176
   256
177
   256
178
     2
270
     2
271
     3
272
     3
273
     2
274
     2
340
6B
275
     0
280
     0
281
     0
282
     0
283
     0
284
     0
285
     0
286
     0
287
     3
288
     0
  0
ENDTAB
  0
TABLE
  2
BLOCK_RECORD
  5
1
330
0
100
AcDbSymbolTable
 70
     9
  0
BLOCK_RECORD
  5
1F
102
{ACAD_XDICTIONARY
360
74
102
}
330
1
100
AcDbSymbolTableRecord
100
AcDbBlockTableRecord
  2
*MODEL_SPACE
  0
BLOCK_RECORD
  5
101
102
{ACAD_XDICTIONARY
360
1B2E
102
}
330
1
100
AcDbSymbolTableRecord
100
AcDbBlockTableRecord
  2
*PAPER_SPACE
  0
BLOCK_RECORD
  5
59
330
1
100
AcDbSymbolTableRecord
100
AcDbBlockTableRecord
  2
_OPEN30
  0
BLOCK_RECORD
  5
64
330
1
100
AcDbSymbolTableRecord
100
AcDbBlockTableRecord
  2
GENAXEH
  0
BLOCK_RECORD
  5
1731
330
1
100
AcDbSymbolTableRecord
100
AcDbBlockTableRecord
  2
*D5
  0
BLOCK_RECORD
  5
1761
330
1
100
AcDbSymbolTableRecord
100
AcDbBlockTableRecord
  2
*D6
  0
BLOCK_RECORD
  5
1777
330
1
100
AcDbSymbolTableRecord
100
AcDbBlockTableRecord
  2
*D7
  0
BLOCK_RECORD
  5
1A07
330
1
100
AcDbSymbolTableRecord
100
AcDbBlockTableRecord
  2
*D8
  0
ENDTAB
  0
ENDSEC
  0
SECTION
  2
BLOCKS
  0
BLOCK
  5
20
330
1F
100
AcDbEntity
  8
0
100
AcDbBlockBegin
  2
*MODEL_SPACE
 70
     0
 10
0.0
 20
0.0
 30
0.0
  3
*MODEL_SPACE
  1

  0
ENDBLK
  5
21
330
1F
100
AcDbEntity
  8
0
100
AcDbBlockEnd
  0
BLOCK
  5
103
330
101
100
AcDbEntity
 67
     1
  8
0
100
AcDbBlockBegin
  2
*PAPER_SPACE
 70
     0
 10
0.0
 20
0.0
 30
0.0
  3
*PAPER_SPACE
  1

  0
ENDBLK
  5
104
330
101
100
AcDbEntity
 67
     1
  8
0
100
AcDbBlockEnd
  0
BLOCK
  5
5D
330
59
100
AcDbEntity
  8
0
100
AcDbBlockBegin
  2
_OPEN30
 70
     0
 10
0.0
 20
0.0
 30
0.0
  3
_OPEN30
  1

  0
LINE
  5
5A
330
59
100
AcDbEntity
  8
0
 62
     0
100
AcDbLine
 10
-1.0
 20
0.26794919
 30
0.0
 11
0.0
 21
0.0
 31
0.0
  0
LINE
  5
5B
330
59
100
AcDbEntity
  8
0
 62
     0
100
AcDbLine
 10
0.0
 20
0.0
 30
0.0
 11
-1.0
 21
-0.26794919
 31
0.0
  0
LINE
  5
5C
330
59
100
AcDbEntity
  8
0
 62
     0
100
AcDbLine
 10
0.0
 20
0.0
 30
0.0
 11
-1.0
 21
0.0
 31
0.0
  0
ENDBLK
  5
5E
330
59
100
AcDbEntity
  8
0
100
AcDbBlockEnd
  0
BLOCK
  5
66
330
64
100
AcDbEntity
  8
0
100
AcDbBlockBegin
  2
GENAXEH
 70
     0
 10
0.0
 20
0.0
 30
0.0
  3
GENAXEH
  1

  0
LINE
  5
65
330
64
100
AcDbEntity
  8
0
100
AcDbLine
 10
-1.0
 20
0.0
 30
0.0
 11
1.0
 21
0.0
 31
0.0
  0
ENDBLK
  5
67
330
64
100
AcDbEntity
  8
0
100
AcDbBlockEnd
  0
BLOCK
  5
173D
330
1731
100
AcDbEntity
  8
0
100
AcDbBlockBegin
  2
*D5
 70
     1
 10
0.0
 20
0.0
 30
0.0
  3
*D5
  1

  0
LINE
  5
193B
330
1731
100
AcDbEntity
  8
AM_5
100
AcDbLine
 10
0.5
 20
-1.499999962500136
 30
0.0
 11
9.327901120556527
 21
-1.499999962500139
 31
0.0
  0
LINE
  5
193C
330
1731
100
AcDbEntity
  8
AM_5
100
AcDbLine
 10
0.5
 20
1.499999962499907
 30
0.0
 11
9.327901120556527
 21
1.499999962499904
 31
0.0
  0
LINE
  5
193D
330
1731
100
AcDbEntity
  8
AM_5
100
AcDbLine
 10
8.827901120556527
 20
-2.749999962500138
 30
0.0
 11
8.827901120556527
 21
-3.999999962500138
 31
0.0
  0
LINE
  5
193E
330
1731
100
AcDbEntity
  8
AM_5
100
AcDbLine
 10
8.827901120556527
 20
2.749999962499904
 30
0.0
 11
8.827901120556528
 21
8.014285676785618
 31
0.0
  0
LINE
  5
193F
330
1731
100
AcDbEntity
  8
AM_5
100
AcDbLine
 10
8.827901120556527
 20
-1.499999962500138
 30
0.0
 11
8.827901120556527
 21
1.499999962499904
 31
0.0
  0
INSERT
  5
1940
330
1731
100
AcDbEntity
  8
AM_5
100
AcDbBlockReference
  2
_OPEN30
 10
8.827901120556527
 20
-1.499999962500138
 30
0.0
 41
1.25
 42
1.25
 43
1.25
 50
90.0
  0
INSERT
  5
1941
330
1731
100
AcDbEntity
  8
AM_5
100
AcDbBlockReference
  2
_OPEN30
 10
8.827901120556527
 20
1.499999962499904
 30
0.0
 41
1.25
 42
1.25
 43
1.25
 50
270.0
  0
MTEXT
  5
1942
330
1731
100
AcDbEntity
  8
AM_5
 62
     2
100
AcDbMText
 10
7.277901120556526
 20
6.007142819642762
 30
0.0
 40
1.6
 41
0.0
 71
     5
 72
     1
  1
%%c3
  7
ASAMI
 11
0.0000000000000001
 21
1.0
 31
0.0
1001
ACAD
1000
MTEXTBEGIN
1070
    73
1070
     1
1070
    44
1040
1.0
1070
    74
1070
     0
1000
MTEXTEND
  0
POINT
  5
1943
330
1731
100
AcDbEntity
  8
DEFPOINTS
 62
     0
100
AcDbPoint
 10
0.0
 20
-1.499999962500136
 30
0.0
  0
POINT
  5
1944
330
1731
100
AcDbEntity
  8
DEFPOINTS
 62
     0
100
AcDbPoint
 10
0.0
 20
1.499999962499907
 30
0.0
  0
POINT
  5
1945
330
1731
100
AcDbEntity
  8
DEFPOINTS
 62
     0
100
AcDbPoint
 10
8.827901120556527
 20
1.499999962499904
 30
0.0
  0
ENDBLK
  5
173E
330
1731
100
AcDbEntity
  8
0
100
AcDbBlockEnd
  0
BLOCK
  5
176D
330
1761
100
AcDbEntity
  8
0
100
AcDbBlockBegin
  2
*D6
 70
     1
 10
0.0
 20
0.0
 30
0.0
  3
*D6
  1

  0
LINE
  5
1996
330
1761
100
AcDbEntity
  8
AM_5
100
AcDbLine
 10
-7.499999999999999
 20
-2.299999962500141
 30
0.0
 11
-7.5
 21
-9.299999962500129
 31
0.0
  0
LINE
  5
1997
330
1761
100
AcDbEntity
  8
AM_5
100
AcDbLine
 10
0.0
 20
-1.999999962500136
 30
0.0
 11
-0.0000000000000005
 21
-9.299999962500129
 31
0.0
  0
LINE
  5
1998
330
1761
100
AcDbEntity
  8
AM_5
100
AcDbLine
 10
-6.249999999999999
 20
-8.799999962500129
 30
0.0
 11
-1.25
 21
-8.799999962500129
 31
0.0
  0
INSERT
  5
1999
330
1761
100
AcDbEntity
  8
AM_5
100
AcDbBlockReference
  2
_OPEN30
 10
-7.499999999999999
 20
-8.799999962500129
 30
0.0
 41
1.25
 42
1.25
 43
1.25
 50
180.0
  0
INSERT
  5
199A
330
1761
100
AcDbEntity
  8
AM_5
100
AcDbBlockReference
  2
_OPEN30
 10
-0.0000000000000004
 20
-8.799999962500129
 30
0.0
 41
1.25
 42
1.25
 43
1.25
  0
MTEXT
  5
199B
330
1761
100
AcDbEntity
  8
AM_5
 62
     2
100
AcDbMText
 10
-3.75
 20
-7.249999962500129
 30
0.0
 40
1.6
 41
0.0
 71
     5
 72
     1
  1
7.5
  7
ASAMI
1001
ACAD
1000
MTEXTBEGIN
1070
    73
1070
     1
1070
    44
1040
1.0
1070
    74
1070
     0
1000
MTEXTEND
  0
POINT
  5
199C
330
1761
100
AcDbEntity
  8
DEFPOINTS
 62
     0
100
AcDbPoint
 10
-7.499999999999999
 20
-1.799999962500141
 30
0.0
  0
POINT
  5
199D
330
1761
100
AcDbEntity
  8
DEFPOINTS
 62
     0
100
AcDbPoint
 10
0.0
 20
-1.499999962500136
 30
0.0
  0
POINT
  5
199E
330
1761
100
AcDbEntity
  8
DEFPOINTS
 62
     0
100
AcDbPoint
 10
-0.0000000000000004
 20
-8.799999962500129
 30
0.0
  0
ENDBLK
  5
176E
330
1761
100
AcDbEntity
  8
0
100
AcDbBlockEnd
  0
BLOCK
  5
1781
330
1777
100
AcDbEntity
  8
0
100
AcDbBlockBegin
  2
*D7
 70
     1
 10
0.0
 20
0.0
 30
0.0
  3
*D7
  1

  0
LINE
  5
198D
330
1777
100
AcDbEntity
  8
AM_5
100
AcDbLine
 10
-38.0
 20
-1.849999962500099
 30
0.0
 11
-38.0
 21
-15.29999996250013
 31
0.0
  0
LINE
  5
198E
330
1777
100
AcDbEntity
  8
AM_5
100
AcDbLine
 10
0.0
 20
-1.999999962500136
 30
0.0
 11
-0.0000000000000008
 21
-15.29999996250013
 31
0.0
  0
LINE
  5
198F
330
1777
100
AcDbEntity
  8
AM_5
100
AcDbLine
 10
-36.75
 20
-14.79999996250013
 30
0.0
 11
-1.25
 21
-14.79999996250013
 31
0.0
  0
INSERT
  5
1990
330
1777
100
AcDbEntity
  8
AM_5
100
AcDbBlockReference
  2
_OPEN30
 10
-38.0
 20
-14.79999996250013
 30
0.0
 41
1.25
 42
1.25
 43
1.25
 50
180.0
  0
INSERT
  5
1991
330
1777
100
AcDbEntity
  8
AM_5
100
AcDbBlockReference
  2
_OPEN30
 10
-0.0000000000000008
 20
-14.79999996250013
 30
0.0
 41
1.25
 42
1.25
 43
1.25
  0
MTEXT
  5
1992
330
1777
100
AcDbEntity
  8
AM_5
 62
     2
100
AcDbMText
 10
-19.0
 20
-13.24999996250013
 30
0.0
 40
1.6
 41
0.0
 71
     5
 72
     1
  1
38
  7
ASAMI
1001
ACAD
1000
MTEXTBEGIN
1070
    73
1070
     1
1070
    44
1040
1.0
1070
    74
1070
     0
1000
MTEXTEND
  0
POINT
  5
1993
330
1777
100
AcDbEntity
  8
DEFPOINTS
 62
     0
100
AcDbPoint
 10
-38.0
 20
-1.349999962500099
 30
0.0
  0
POINT
  5
1994
330
1777
100
AcDbEntity
  8
DEFPOINTS
 62
     0
100
AcDbPoint
 10
0.0
 20
-1.499999962500136
 30
0.0
  0
POINT
  5
1995
330
1777
100
AcDbEntity
  8
DEFPOINTS
 62
     0
100
AcDbPoint
 10
-0.0000000000000008
 20
-14.79999996250013
 30
0.0
  0
ENDBLK
  5
1782
330
1777
100
AcDbEntity
  8
0
100
AcDbBlockEnd
  0
BLOCK
  5
1A13
330
1A07
100
AcDbEntity
  8
0
100
AcDbBlockBegin
  2
*D8
 70
     1
 10
0.0
 20
0.0
 30
0.0
  3
*D8
  1

  0
LINE
  5
1ADF
330
1A07
100
AcDbEntity
  8
AM_5
100
AcDbLine
 10
-38.29855371900826
 20
-1.500000037500055
 30
0.0
 11
-45.500001
 21
-1.500000037500053
 31
0.0
  0
LINE
  5
1AE0
330
1A07
100
AcDbEntity
  8
AM_5
100
AcDbLine
 10
-38.29855371900826
 20
1.499999962499944
 30
0.0
 11
-45.500001
 21
1.499999962499946
 31
0.0
  0
LINE
  5
1AE1
330
1A07
100
AcDbEntity
  8
AM_5
100
AcDbLine
 10
-45.000001
 20
-2.750000037500053
 30
0.0
 11
-45.000001
 21
-4.000000037500053
 31
0.0
  0
LINE
  5
1AE2
330
1A07
100
AcDbEntity
  8
AM_5
100
AcDbLine
 10
-45.000001
 20
2.749999962499946
 30
0.0
 11
-45.000001
 21
8.014285676785661
 31
0.0
  0
LINE
  5
1AE3
330
1A07
100
AcDbEntity
  8
AM_5
100
AcDbLine
 10
-45.000001
 20
-1.500000037500053
 30
0.0
 11
-45.000001
 21
1.499999962499946
 31
0.0
  0
INSERT
  5
1AE4
330
1A07
100
AcDbEntity
  8
AM_5
100
AcDbBlockReference
  2
_OPEN30
 10
-45.000001
 20
-1.500000037500053
 30
0.0
 41
1.25
 42
1.25
 43
1.25
 50
90.0
  0
INSERT
  5
1AE5
330
1A07
100
AcDbEntity
  8
AM_5
100
AcDbBlockReference
  2
_OPEN30
 10
-45.000001
 20
1.499999962499946
 30
0.0
 41
1.25
 42
1.25
 43
1.25
 50
270.0
  0
MTEXT
  5
1AE6
330
1A07
100
AcDbEntity
  8
AM_5
 62
     2
100
AcDbMText
 10
-46.55000099999999
 20
6.007142819642796
 30
0.0
 40
1.6
 41
0.0
 71
     5
 72
     1
  1
%%c3
  7
ASAMI
 11
0.0000000000000001
 21
1.0
 31
0.0
1001
ACAD
1000
MTEXTBEGIN
1070
    73
1070
     1
1070
    44
1040
1.0
1070
    74
1070
     0
1000
MTEXTEND
  0
POINT
  5
1AE7
330
1A07
100
AcDbEntity
  8
DEFPOINTS
 62
     0
100
AcDbPoint
 10
-37.79855371900826
 20
-1.500000037500055
 30
0.0
  0
POINT
  5
1AE8
330
1A07
100
AcDbEntity
  8
DEFPOINTS
 62
     0
100
AcDbPoint
 10
-37.79855371900826
 20
1.499999962499944
 30
0.0
  0
POINT
  5
1AE9
330
1A07
100
AcDbEntity
  8
DEFPOINTS
 62
     0
100
AcDbPoint
 10
-45.000001
 20
1.499999962499946
 30
0.0
  0
ENDBLK
  5
1A14
330
1A07
100
AcDbEntity
  8
0
100
AcDbBlockEnd
  0
ENDSEC
  0
SECTION
  2
ENTITIES
  0
TEXT
  5
E76
330
1F
100
AcDbEntity
  8
AM_6
100
AcDbText
 10
-29.41666666666666
 20
-26.04999996250013
 30
0.0
 40
2.5
  1
GLM4030SF
 72
     1
 11
-18.99999999999999
 21
-24.79999996250013
 31
0.0
100
AcDbText
 73
     2
  0
LINE
  5
171E
330
1F
100
AcDbEntity
  8
AM_0
100
AcDbLine
 10
-0.0419226911215922
 20
0.2624999934373697
 30
0.0
 11
-0.4407041851415918
 21
0.8703246251468151
 31
0.0
  0
LINE
  5
171F
330
1F
100
AcDbEntity
  8
AM_0
100
AcDbLine
 10
-0.0209613455607186
 20
-0.0374999990625733
 30
0.0
 11
-0.0209613455607186
 21
-0.2900971535107041
 31
0.0
  0
LINE
  5
1720
330
1F
100
AcDbEntity
  8
AM_0
100
AcDbLine
 10
-0.0209613455607186
 20
-0.2900971535107041
 30
0.0
 11
-0.0419226911215922
 21
-0.3962932097332563
 31
0.0
  0
LINE
  5
1721
330
1F
100
AcDbEntity
  8
AM_0
100
AcDbLine
 10
-0.6482565198720894
 20
-0.0374999990625733
 30
0.0
 11
-0.0209613455607186
 21
-0.0374999990625733
 31
0.0
  0
LINE
  5
1722
330
1F
100
AcDbEntity
  8
AM_0
100
AcDbLine
 10
-0.0419226911215922
 20
-0.3962932097332563
 30
0.0
 11
-0.3646730034432204
 21
-0.575343833743626
 31
0.0
  0
LINE
  5
1723
330
1F
100
AcDbEntity
  8
AM_0
100
AcDbLine
 10
-0.0419226911215922
 20
-1.410218379973697
 30
0.0
 11
0.0
 21
-1.498278511214635
 31
0.0
  0
LINE
  5
1724
330
1F
100
AcDbEntity
  8
AM_0
100
AcDbLine
 10
-0.0419226911215922
 20
-1.410218379973697
 30
0.0
 11
-0.4407041851415918
 21
-0.9574879603453959
 31
0.0
  0
LINE
  5
1725
330
1F
100
AcDbEntity
  8
AM_0
100
AcDbLine
 10
-0.0419226911215922
 20
-1.410218379973765
 30
0.0
 11
-0.0419226911215922
 21
-0.3962932097332563
 31
0.0
  0
LINE
  5
1726
330
1F
100
AcDbEntity
  8
AM_0
100
AcDbLine
 10
0.0
 20
-0.0000000000001145
 30
0.0
 11
-0.0419226911215922
 21
0.2624999934373697
 31
0.0
  0
LINE
  5
1727
330
1F
100
AcDbEntity
  8
AM_0
100
AcDbLine
 10
0.0
 20
-1.498278511214635
 30
0.0
 11
0.0
 21
1.501721526896182
 31
0.0
  0
LINE
  5
1728
330
1F
100
AcDbEntity
  8
AM_11
100
AcDbLine
 10
-7.499999999999999
 20
-1.499671371491496
 30
0.0
 11
-7.499999999999999
 21
1.500304068316116
 31
0.0
  0
LINE
  5
1729
330
1F
100
AcDbEntity
  8
AM_0
100
AcDbLine
 10
-9.90603437015047
 20
1.174800197137721
 30
0.0
 11
-9.636266402771203
 21
1.311860732692559
 31
0.0
  0
LINE
  5
172A
330
1F
100
AcDbEntity
  8
AM_0
100
AcDbLine
 10
-8.522727272727271
 20
-0.377902806198143
 30
0.0
 11
-8.522727272727271
 21
-0.0732501165155449
 31
0.0
  0
LINE
  5
172B
330
1F
100
AcDbEntity
  8
AM_0
100
AcDbLine
 10
-8.948863636363636
 20
-1.150419940794575
 30
0.0
 11
-8.948863636363636
 21
-1.488829123742801
 31
0.0
  0
LINE
  5
172C
330
1F
100
AcDbEntity
  8
AM_0
100
AcDbLine
 10
-9.906034370148921
 20
-0.3165925803827472
 30
0.0
 11
-9.636266402771203
 21
-0.1795320448285915
 31
0.0
  0
LINE
  5
172D
330
1F
100
AcDbEntity
  8
AM_0
100
AcDbLine
 10
-8.948863636363636
 20
-0.0000000000000804
 30
0.0
 11
-8.948863636363636
 21
0.5943695663440273
 31
0.0
  0
LINE
  5
172E
330
1F
100
AcDbEntity
  8
AM_11
100
AcDbLine
 10
0.0
 20
1.501721526896182
 30
0.0
 11
-7.499999999999999
 21
1.500304068316116
 31
0.0
  0
LINE
  5
172F
330
1F
100
AcDbEntity
  8
AM_11
100
AcDbLine
 10
0.0
 20
-1.498278511214635
 30
0.0
 11
-7.499999999999999
 21
-1.499671371491496
 31
0.0
  0
DIMENSION
  5
1730
330
1F
100
AcDbEntity
  8
AM_5
100
AcDbDimension
  2
*D5
 10
8.827901120556527
 20
1.499999962499904
 30
0.0
 11
8.827901120556527
 21
6.007142819642762
 31
0.0
 70
   160
  1
%%c<>
  3
AM_JIS
100
AcDbAlignedDimension
 13
0.0
 23
-1.499999962500136
 33
0.0
 14
0.0
 24
1.499999962499907
 34
0.0
 50
90.0
100
AcDbRotatedDimension
1001
GENIUS_GENDTOL_13
1000

1000
h7
1000

1040
0.0
  0
ELLIPSE
  5
173F
330
1F
100
AcDbEntity
  8
AM_0
100
AcDbEllipse
 10
-0.6482565198720942
 20
-0.2174999945625935
 30
0.0
 11
0.2045454494318201
 21
0.0000000000000026
 31
0.0
210
0.0
220
0.0
230
1.0
 40
0.8799999999999986
 41
1.570796326794885
 42
4.301413780183477
  0
ELLIPSE
  5
1740
330
1F
100
AcDbEntity
  8
AM_0
100
AcDbEllipse
 10
-16.5488505567053
 20
15.22996936663532
 30
0.0
 11
-10.98857514947789
 21
10.9885751494779
 31
0.0
210
0.0
220
0.0
230
0.9999999999999998
 40
0.999999999999857
 41
2.817167471561317
 42
2.843679901675759
  0
ELLIPSE
  5
1741
330
1F
100
AcDbEntity
  8
AM_0
100
AcDbEllipse
 10
-9.708043601801668
 20
0.8783906918444435
 30
0.0
 11
-0.3907097494739754
 21
0.0000000000000093
 31
0.0
210
0.0
220
0.0
230
1.0
 40
0.8799999999999979
 41
-1.055005327836353
 42
1.039389774559976
  0
ELLIPSE
  5
1742
330
1F
100
AcDbEntity
  8
AM_0
100
AcDbEllipse
 10
-9.280667966144893
 20
-0.796640892768441
 30
0.0
 11
-0.7862670743051322
 21
0.0000000000000009
 31
0.0
210
0.0
220
0.0
230
1.0
 40
0.879999999999999
 41
4.156118901506021
 42
5.290287021010417
  0
ELLIPSE
  5
1743
330
1F
100
AcDbEntity
  8
AM_0
100
AcDbEllipse
 10
-1.553421091544055
 20
-0.5891177186065202
 30
0.0
 11
1.188851128825341
 21
0.0000000000000122
 31
0.0
210
0.0
220
0.0
230
1.0
 40
0.8800000000000052
 41
-0.3598210873274905
 42
0.0131661515301269
  0
ELLIPSE
  5
1744
330
1F
100
AcDbEntity
  8
AM_0
100
AcDbEllipse
 10
-1.3408151504712
 20
-1.648113688707179
 30
0.0
 11
-1.561714639530672
 21
0.0000000000000102
 31
0.0
210
0.0
220
0.0
230
1.0
 40
0.8799999999999986
 41
4.037199619381029
 42
4.311132199203396
  0
ELLIPSE
  5
1745
330
1F
100
AcDbEntity
  8
AM_0
100
AcDbEllipse
 10
-9.555830126413466
 20
-0.7093180200995714
 30
0.0
 11
-0.567281126728573
 21
0.0000000000000007
 31
0.0
210
0.0
220
0.0
230
1.0
 40
0.8799999999999988
 41
-0.9054417914272914
 42
1.428524230663081
  0
SPLINE
  5
1746
330
1F
100
AcDbEntity
  8
AM_0
100
AcDbSpline
210
0.0
220
0.0
230
1.0
 70
     8
 71
     3
 72
     8
 73
     4
 74
     0
 42
0.0000000001
 43
0.0000000001
 40
0.0
 40
0.0
 40
0.0
 40
0.0
 40
14.47015062460583
 40
14.47015062460583
 40
14.47015062460583
 40
14.47015062460583
 10
-4.629886883914454
 20
1.498248676987974
 30
0.0
 10
-2.985551585663791
 20
1.498248676987974
 30
0.0
 10
-1.492775792831895
 20
0.7491243384939303
 30
0.0
 10
0.0
 20
-0.0000000000001145
 30
0.0
  0
SPLINE
  5
1747
330
1F
100
AcDbEntity
  8
AM_0
100
AcDbSpline
210
0.0
220
0.0
230
1.0
 70
     8
 71
     3
 72
     8
 73
     4
 74
     0
 42
0.0000000001
 43
0.0000000001
 40
4.041712701031824
 40
4.041712701031824
 40
4.041712701031824
 40
4.041712701031824
 40
43.20630823911048
 40
43.20630823911048
 40
43.20630823911048
 40
43.20630823911048
 10
-8.215842819988148
 20
1.399388564641764
 30
0.0
 10
-6.754440919598065
 20
1.284460293971153
 30
0.0
 10
-5.394885906473983
 20
0.6400211368781235
 30
0.0
 10
-4.035330893349902
 20
-0.0044180202149741
 30
0.0
  0
SPLINE
  5
1748
330
1F
100
AcDbEntity
  8
AM_0
100
AcDbSpline
210
0.0
220
0.0
230
1.0
 70
     8
 71
     3
 72
     8
 73
     4
 74
     0
 42
0.0000000001
 43
0.0000000001
 40
0.0
 40
0.0
 40
0.0
 40
0.0
 40
16.40765811415315
 40
16.40765811415315
 40
16.40765811415315
 40
16.40765811415315
 10
-4.652737757087018
 20
1.499999962499907
 30
0.0
 10
-5.274239942843131
 20
1.499999962499907
 30
0.0
 10
-5.874051137105827
 20
1.39289770771005
 30
0.0
 10
-6.460368210580791
 20
1.21916637498358
 30
0.0
  0
SPLINE
  5
1749
330
1F
100
AcDbEntity
  8
AM_0
100
AcDbSpline
210
0.0
220
0.0
230
1.0
 70
     8
 71
     3
 72
     8
 73
     4
 74
     0
 42
0.0000000001
 43
0.0000000001
 40
0.0
 40
0.0
 40
0.0
 40
0.0
 40
14.30142107637939
 40
14.30142107637939
 40
14.30142107637939
 40
14.30142107637939
 10
-7.539130475716432
 20
1.311084952822135
 30
0.0
 10
-5.91396898976423
 20
1.311084952822135
 30
0.0
 10
-4.405736063809751
 20
0.6546668336550616
 30
0.0
 10
-2.897503137855272
 20
-0.0017512855120125
 30
0.0
  0
SPLINE
  5
174A
330
1F
100
AcDbEntity
  8
AM_0
100
AcDbSpline
210
0.0
220
0.0
230
1.0
 70
     8
 71
     3
 72
     8
 73
     4
 74
     0
 42
0.0000000001
 43
0.0000000001
 40
0.0
 40
0.0
 40
0.0
 40
0.0
 40
14.30142107637946
 40
14.30142107637946
 40
14.30142107637946
 40
14.30142107637946
 10
-2.89223932044861
 20
-1.312836238334297
 30
0.0
 10
-4.517400806400821
 20
-1.312836238334296
 30
0.0
 10
-6.025633732355297
 20
-0.6564181191671886
 30
0.0
 10
-7.533866658309772
 20
-0.0000000000000804
 30
0.0
  0
SPLINE
  5
174B
330
1F
100
AcDbEntity
  8
AM_0
100
AcDbSpline
210
0.0
220
0.0
230
1.0
 70
     8
 71
     3
 72
     8
 73
     4
 74
     0
 42
0.0000000001
 43
0.0000000001
 40
0.0
 40
0.0
 40
0.0
 40
0.0
 40
11.14024708123303
 40
11.14024708123303
 40
11.14024708123303
 40
11.14024708123303
 10
-4.035374795949451
 20
-1.424554870156533
 30
0.0
 10
-5.617796256351796
 20
-1.424554870156533
 30
0.0
 10
-7.072377886304623
 20
-0.7599043957180252
 30
0.0
 10
-8.522727272727271
 20
-0.0732501165155449
 30
0.0
  0
SPLINE
  5
174C
330
1F
100
AcDbEntity
  8
AM_0
100
AcDbSpline
210
0.0
220
0.0
230
1.0
 70
     8
 71
     3
 72
     8
 73
     4
 74
     0
 42
0.0000000001
 43
0.0000000001
 40
0.0
 40
0.0
 40
0.0
 40
0.0
 40
10.49949233464396
 40
10.49949233464396
 40
10.49949233464396
 40
10.49949233464396
 10
-4.652737757087018
 20
-1.499999962500067
 30
0.0
 10
-6.144142918257981
 20
-1.499999962500067
 30
0.0
 10
-7.510641485231055
 20
-0.8832564687457201
 30
0.0
 10
-8.865501404964778
 20
-0.2090455529784443
 30
0.0
  0
SPLINE
  5
174D
330
1F
100
AcDbEntity
  8
AM_0
100
AcDbSpline
210
0.0
220
0.0
230
1.0
 70
     8
 71
     3
 72
     8
 73
     4
 74
     0
 42
0.0000000001
 43
0.0000000001
 40
5.940484414839465
 40
5.940484414839465
 40
5.940484414839465
 40
5.940484414839465
 40
43.20630823911048
 40
43.20630823911048
 40
43.20630823911048
 40
43.20630823911048
 10
-0.0631811088171927
 20
-1.386084029435063
 30
0.0
 10
-1.444562668475451
 20
-1.229057854730911
 30
0.0
 10
-2.738203950924674
 20
-0.6158622947169431
 30
0.0
 10
-4.031845233373897
 20
-0.002666734703042
 30
0.0
  0
SPLINE
  5
174E
330
1F
100
AcDbEntity
  8
AM_0
100
AcDbSpline
210
0.0
220
0.0
230
1.0
 70
     8
 71
     3
 72
     8
 73
     4
 74
     0
 42
0.0000000001
 43
0.0000000001
 40
19.81419196662877
 40
19.81419196662877
 40
19.81419196662877
 40
19.81419196662877
 40
42.90426430174475
 40
42.90426430174475
 40
42.90426430174475
 40
42.90426430174475
 10
-0.4407041851414367
 20
-0.9574879603453959
 30
0.0
 10
-1.270626053960664
 20
-0.7065377812822486
 30
0.0
 10
-2.082321765919965
 20
-0.3532688906411645
 30
0.0
 10
-2.894017477879112
 20
-0.0000000000000804
 30
0.0
  0
SPLINE
  5
174F
330
1F
100
AcDbEntity
  8
AM_0
100
AcDbSpline
210
0.0
220
0.0
230
1.0
 70
     8
 71
     3
 72
     8
 73
     4
 74
     0
 42
0.0000000001
 43
0.0000000001
 40
4.041712701031824
 40
4.041712701031824
 40
4.041712701031824
 40
4.041712701031824
 40
36.66696766287024
 40
36.66696766287024
 40
36.66696766287024
 40
36.66696766287024
 10
-3.575993639557644
 20
1.399388564641764
 30
0.0
 10
-2.358603061488482
 20
1.303649949664678
 30
0.0
 10
-1.211887887008318
 20
0.8404637218327813
 30
0.0
 10
-0.0769734353003121
 20
0.3159245028268394
 30
0.0
  0
SPLINE
  5
1750
330
1F
100
AcDbEntity
  8
AM_0
100
AcDbSpline
210
0.0
220
0.0
230
1.0
 70
     8
 71
     3
 72
     8
 73
     4
 74
     0
 42
0.0000000001
 43
0.0000000001
 40
0.0
 40
0.0
 40
0.0
 40
0.0
 40
22.32639506415645
 40
22.32639506415645
 40
22.32639506415645
 40
22.32639506415645
 10
-2.899281295285773
 20
1.311084952822135
 30
0.0
 10
-2.053584533695026
 20
1.311084952822135
 30
0.0
 10
-1.239551124410292
 20
1.133331988382553
 30
0.0
 10
-0.4407041851415918
 20
0.8703246251468151
 30
0.0
  0
SPLINE
  5
1751
330
1F
100
AcDbEntity
  8
AM_0
100
AcDbSpline
210
0.0
220
0.0
230
1.0
 70
     8
 71
     3
 72
     8
 73
     4
 74
     0
 42
0.0000000001
 43
0.0000000001
 40
0.0
 40
0.0
 40
0.0
 40
0.0
 40
16.40765811415315
 40
16.40765811415315
 40
16.40765811415315
 40
16.40765811415315
 10
0.0
 20
1.499999962499907
 30
0.0
 10
-0.6343907624126257
 20
1.499999962499907
 30
0.0
 10
-1.234201956675168
 20
1.39289770771005
 30
0.0
 10
-1.820519030150287
 20
1.21916637498358
 30
0.0
  0
SPLINE
  5
1752
330
1F
100
AcDbEntity
  8
AM_0
100
AcDbSpline
210
0.0
220
0.0
230
1.0
 70
     8
 71
     3
 72
     8
 73
     4
 74
     0
 42
0.0000000001
 43
0.0000000001
 40
4.497685297584327
 40
4.497685297584327
 40
4.497685297584327
 40
4.497685297584327
 40
9.915363876658778
 40
9.915363876658778
 40
9.915363876658778
 40
9.915363876658778
 10
-0.603571764941545
 20
0.9226682984867347
 30
0.0
 10
-0.406150749545976
 20
0.9732595505312355
 30
0.0
 10
-0.2120469502887607
 20
1.045382808759438
 30
0.0
 10
-0.0179431510313903
 20
1.11750606698764
 30
0.0
  0
SPLINE
  5
1753
330
1F
100
AcDbEntity
  8
AM_0
100
AcDbSpline
210
0.0
220
0.0
230
1.0
 70
     8
 71
     3
 72
     8
 73
     4
 74
     0
 42
0.0000000001
 43
0.0000000001
 40
0.0
 40
0.0
 40
0.0
 40
0.0
 40
9.450452127946082
 40
9.450452127946082
 40
9.450452127946082
 40
9.450452127946082
 10
-4.629886883914454
 20
-1.498248676988203
 30
0.0
 10
-4.271915221350623
 20
-1.498248676988203
 30
0.0
 10
-3.921139562534986
 20
-1.462717418441287
 30
0.0
 10
-3.575993639557644
 20
-1.399388564641993
 30
0.0
  0
SPLINE
  5
1754
330
1F
100
AcDbEntity
  8
AM_0
100
AcDbSpline
210
0.0
220
0.0
230
1.0
 70
     8
 71
     3
 72
     8
 73
     4
 74
     0
 42
0.0000000001
 43
0.0000000001
 40
0.0
 40
0.0
 40
0.0
 40
0.0
 40
9.964098609850829
 40
9.964098609850829
 40
9.964098609850829
 40
9.964098609850829
 10
-4.031801330774504
 20
-1.417470115238746
 30
0.0
 10
-3.654373362564342
 20
-1.417470115238746
 30
0.0
 10
-3.284217999620967
 20
-1.379659203538052
 30
0.0
 10
-2.919658057315876
 20
-1.312757209903828
 30
0.0
  0
SPLINE
  5
1755
330
1F
100
AcDbEntity
  8
AM_0
100
AcDbSpline
210
0.0
220
0.0
230
1.0
 70
     8
 71
     3
 72
     8
 73
     4
 74
     0
 42
0.0000000001
 43
0.0000000001
 40
0.0
 40
0.0
 40
0.0
 40
0.0
 40
9.637195575647414
 40
9.637195575647414
 40
9.637195575647414
 40
9.637195575647414
 10
-2.899281295285773
 20
-1.311084952822365
 30
0.0
 10
-2.534236017455565
 20
-1.311084952822365
 30
0.0
 10
-2.175090318716518
 20
-1.277965665191085
 30
0.0
 10
-1.820519030150287
 20
-1.219166374983741
 30
0.0
  0
SPLINE
  5
1756
330
1F
100
AcDbEntity
  8
AM_0
100
AcDbSpline
210
0.0
220
0.0
230
1.0
 70
     8
 71
     3
 72
     8
 73
     4
 74
     0
 42
0.0000000001
 43
0.0000000001
 40
10.43080782587999
 40
10.43080782587999
 40
10.43080782587999
 40
10.43080782587999
 40
11.52168190905409
 40
11.52168190905409
 40
11.52168190905409
 40
11.52168190905409
 10
-8.522727272727271
 20
-0.2013333737107254
 30
0.0
 10
-8.664850100955989
 20
-0.1346245216960037
 30
0.0
 10
-8.806856868659812
 20
-0.0673122608481103
 30
0.0
 10
-8.948863636363636
 20
-0.0000000000000804
 30
0.0
  0
SPLINE
  5
1757
330
1F
100
AcDbEntity
  8
AM_0
100
AcDbSpline
210
0.0
220
0.0
230
1.0
 70
     8
 71
     3
 72
     8
 73
     4
 74
     0
 42
0.0000000001
 43
0.0000000001
 40
7.872155465811081
 40
7.872155465811081
 40
7.872155465811081
 40
7.872155465811081
 40
11.44113686110349
 40
11.44113686110349
 40
11.44113686110349
 40
11.44113686110349
 10
-8.948863636363636
 20
0.5943695663440273
 30
0.0
 10
-8.47483175956623
 20
0.4095299415224978
 30
0.0
 10
-8.004349208937924
 20
0.2047649707612086
 30
0.0
 10
-7.533866658309772
 20
-0.0000000000001486
 30
0.0
  0
SPLINE
  5
1758
330
1F
100
AcDbEntity
  8
AM_0
100
AcDbSpline
210
0.0
220
0.0
230
1.0
 70
     8
 71
     3
 72
     8
 73
     4
 74
     0
 42
0.0000000001
 43
0.0000000001
 40
0.0
 40
0.0
 40
0.0
 40
0.0
 40
3.445482686890237
 40
3.445482686890237
 40
3.445482686890237
 40
3.445482686890237
 10
-7.509237627706086
 20
-1.311084952822365
 30
0.0
 10
-7.998652782094019
 20
-1.311084952822365
 30
0.0
 10
-8.477463627248663
 20
-1.251554067279574
 30
0.0
 10
-8.948863636363636
 20
-1.150419940794575
 30
0.0
  0
SPLINE
  5
1759
330
1F
100
AcDbEntity
  8
AM_0
100
AcDbSpline
210
0.0
220
0.0
230
1.0
 70
     8
 71
     3
 72
     8
 73
     4
 74
     0
 42
0.0000000001
 43
0.0000000001
 40
4.041712701031851
 40
4.041712701031851
 40
4.041712701031851
 40
4.041712701031851
 40
9.964098609850829
 40
9.964098609850829
 40
9.964098609850829
 40
9.964098609850829
 10
-8.215842819988148
 20
-1.399388564641993
 30
0.0
 10
-7.994852767542035
 20
-1.382009358719086
 30
0.0
 10
-7.776191631364678
 20
-1.352521913153499
 30
0.0
 10
-7.559507237746534
 20
-1.312757209903828
 30
0.0
  0
SPLINE
  5
175A
330
1F
100
AcDbEntity
  8
AM_0
100
AcDbSpline
210
0.0
220
0.0
230
1.0
 70
     8
 71
     3
 72
     8
 73
     4
 74
     0
 42
0.0000000001
 43
0.0000000001
 40
0.0
 40
0.0
 40
0.0
 40
0.0
 40
9.637195575647414
 40
9.637195575647414
 40
9.637195575647414
 40
9.637195575647414
 10
-7.539130475716432
 20
-1.311084952822365
 30
0.0
 10
-7.174085197886224
 20
-1.311084952822365
 30
0.0
 10
-6.814939499147023
 20
-1.277965665191085
 30
0.0
 10
-6.460368210580791
 20
-1.219166374983741
 30
0.0
  0
SPLINE
  5
175B
330
1F
100
AcDbEntity
  8
AM_0
100
AcDbSpline
210
0.0
220
0.0
230
1.0
 70
     8
 71
     3
 72
     8
 73
     4
 74
     0
 42
0.0000000001
 43
0.0000000001
 40
1.140063819971138
 40
1.140063819971138
 40
1.140063819971138
 40
1.140063819971138
 40
2.790246636948332
 40
2.790246636948332
 40
2.790246636948332
 40
2.790246636948332
 10
-8.948863636363636
 20
-1.292181047626662
 30
0.0
 10
-9.180071023452621
 20
-1.274252796517965
 30
0.0
 10
-9.409088332217937
 20
-1.244029798136478
 30
0.0
 10
-9.636266402771203
 20
-1.20348161241135
 30
0.0
  0
SPLINE
  5
175C
330
1F
100
AcDbEntity
  8
AM_0
100
AcDbSpline
210
0.0
220
0.0
230
1.0
 70
     8
 71
     3
 72
     8
 73
     4
 74
     0
 42
0.0000000001
 43
0.0000000001
 40
7.951699575921333
 40
7.951699575921333
 40
7.951699575921333
 40
7.951699575921333
 40
10.36385682192277
 40
10.36385682192277
 40
10.36385682192277
 40
10.36385682192277
 10
-9.906034370148921
 20
0.5819811865503305
 30
0.0
 10
-9.585757540357709
 20
0.456460557832758
 30
0.0
 10
-9.267065894593324
 20
0.3220409610837684
 30
0.0
 10
-8.948863636363636
 20
0.1848740214693513
 30
0.0
  0
SPLINE
  5
175D
330
1F
100
AcDbEntity
  8
AM_0
100
AcDbSpline
210
0.0
220
0.0
230
1.0
 70
     8
 71
     3
 72
     8
 73
     4
 74
     0
 42
0.0000000001
 43
0.0000000001
 40
0.0
 40
0.0
 40
0.0
 40
0.0
 40
9.450452127946082
 40
9.450452127946082
 40
9.450452127946082
 40
9.450452127946082
 10
-9.269736064345122
 20
-1.500000037500104
 30
0.0
 10
-8.911764401781283
 20
-1.498248676988203
 30
0.0
 10
-8.560988742965491
 20
-1.462717418441287
 30
0.0
 10
-8.215842819988148
 20
-1.399388564641993
 30
0.0
  0
SPLINE
  5
175E
330
1F
100
AcDbEntity
  8
AM_0
100
AcDbSpline
210
0.0
220
0.0
230
1.0
 70
     8
 71
     3
 72
     8
 73
     4
 74
     0
 42
0.0000000001
 43
0.0000000001
 40
0.0
 40
0.0
 40
0.0
 40
0.0
 40
14.47293633748862
 40
14.47293633748862
 40
14.47293633748862
 40
14.47293633748862
 10
0.0
 20
-1.498278511214635
 30
0.0
 10
-1.657540433189311
 20
-1.499999962500067
 30
0.0
 10
-3.150297791839024
 20
-0.7499999812500742
 30
0.0
 10
-4.643055150488738
 20
-0.0000000000000804
 30
0.0
  0
SPLINE
  5
175F
330
1F
100
AcDbEntity
  8
AM_0
100
AcDbSpline
210
0.0
220
0.0
230
1.0
 70
     8
 71
     3
 72
     8
 73
     4
 74
     0
 42
0.0000000001
 43
0.0000000001
 40
0.0
 40
0.0
 40
0.0
 40
0.0
 40
14.47293633748905
 40
14.47293633748905
 40
14.47293633748905
 40
14.47293633748905
 10
-9.269736064345114
 20
1.499999962499896
 30
0.0
 10
-7.625084207812268
 20
1.498248676987974
 30
0.0
 10
-6.132326849162501
 20
0.7482486957379814
 30
0.0
 10
-4.639569490512734
 20
-0.0017512855120125
 30
0.0
  0
DIMENSION
  5
1760
330
1F
100
AcDbEntity
  8
AM_5
100
AcDbDimension
  2
*D6
 10
-0.0000000000000004
 20
-8.799999962500129
 30
0.0
 11
-3.75
 21
-7.249999962500129
 31
0.0
 70
    32
  1
<>
  3
AM_JIS
100
AcDbAlignedDimension
 13
-7.499999999999999
 23
-1.799999962500141
 33
0.0
 14
0.0
 24
-1.499999962500136
 34
0.0
 50
0.0000000000000996
100
AcDbRotatedDimension
1001
GENIUS_GENDTOL_13
1000

1000
h7
1000

1040
0.0
  0
LINE
  5
176F
330
1F
100
AcDbEntity
  8
AM_0
100
AcDbLine
 10
-38.0
 20
1.349999962499944
 30
0.0
 11
-37.79855371900826
 21
1.499999962499944
 31
0.0
1001
GENIUS_GENFIL_13
1070
     0
1040
0.5
1040
0.5
1040
20.0
1040
0.0
1002
{
1002
}
1001
GENIUS_GENODEF_13
1002
{
1000
HIER
1070
     0
1002
}
1002
{
1000
MANEDIT
1070
     0
1002
}
1002
{
1000
NOSEL
1070
     0
1002
}
1002
{
1000
BEHIND
1070
     0
1002
}
1002
{
1000
REACTOR
1002
}
1001
GENIUS_GENOBJ-N-CHA_13
1002
{
1000
OWNER
1000
GEN
1002
}
  0
LINE
  5
1770
330
1F
100
AcDbEntity
  8
AM_0
100
AcDbLine
 10
-38.0
 20
-1.349999962500099
 30
0.0
 11
-37.79855372088125
 21
-1.499979507750717
 31
0.0
1001
GENIUS_GENFIL_13
1070
     0
1040
0.5
1040
0.5
1040
20.0
1040
0.0
1002
{
1002
}
1001
GENIUS_GENODEF_13
1002
{
1000
HIER
1070
     0
1002
}
1002
{
1000
MANEDIT
1070
     0
1002
}
1002
{
1000
NOSEL
1070
     0
1002
}
1002
{
1000
BEHIND
1070
     0
1002
}
1002
{
1000
REACTOR
1002
}
1001
GENIUS_GENOBJ-N-CHA_13
1002
{
1000
OWNER
1000
GEN
1002
}
  0
LINE
  5
1771
330
1F
100
AcDbEntity
  8
AM_0
100
AcDbLine
 10
-37.79855372088125
 20
-1.499979507750717
 30
0.0
 11
-37.79855371900826
 21
1.499999962499944
 31
0.0
  0
LINE
  5
1772
330
1F
100
AcDbEntity
  8
AM_0
100
AcDbLine
 10
-38.0
 20
-1.349999962500099
 30
0.0
 11
-38.0
 21
1.349999962499944
 31
0.0
  0
LINE
  5
1773
330
1F
100
AcDbEntity
  8
AM_7
100
AcDbLine
 10
-38.67536641336283
 20
-0.0000000000000801
 30
0.0
 11
1.827900120556529
 21
-0.0000000000000804
 31
0.0
1001
GENIUS_GENODEF_13
1002
{
1000
HIER
1070
     0
1002
}
1002
{
1000
MANEDIT
1070
     0
1002
}
1002
{
1000
NOSEL
1070
     0
1002
}
1002
{
1000
BEHIND
1070
     0
1002
}
1002
{
1000
REACTOR
1002
}
1001
GENIUS_GENOBJ-N-CEN_13
1002
{
1000
OWNER
1000
GEN
1002
}
  0
LINE
  5
1774
330
1F
100
AcDbEntity
  8
AM_0
100
AcDbLine
 10
-37.79855371900826
 20
1.499999962499944
 30
0.0
 11
-9.269736064340261
 21
1.499999962499891
 31
0.0
  0
LINE
  5
1775
330
1F
100
AcDbEntity
  8
AM_0
100
AcDbLine
 10
-37.79855371900826
 20
-1.500000037500055
 30
0.0
 11
-9.269736064345579
 21
-1.500000037500108
 31
0.0
  0
DIMENSION
  5
1776
330
1F
100
AcDbEntity
  8
AM_5
100
AcDbDimension
  2
*D7
 10
-0.0000000000000008
 20
-14.79999996250013
 30
0.0
 11
-19.0
 21
-13.24999996250013
 31
0.0
 70
    32
  1
<>
  3
AM_JIS
100
AcDbAlignedDimension
 13
-38.0
 23
-1.349999962500099
 33
0.0
 14
0.0
 24
-1.499999962500136
 34
0.0
 50
0.0000000000000843
100
AcDbRotatedDimension
1001
GENIUS_GENDTOL_13
1000

1000
h7
1000

1040
0.0
  0
LINE
  5
19E1
330
1F
100
AcDbEntity
  8
AM_11
100
AcDbLine
 10
0.0000000000000009
 20
-1.499671371491496
 30
0.0
 11
0.0000000000000009
 21
1.500304068316116
 31
0.0
  0
DIMENSION
  5
1A06
330
1F
100
AcDbEntity
  8
AM_5
100
AcDbDimension
  2
*D8
 10
-45.000001
 20
1.499999962499946
 30
0.0
 11
-46.55000099999999
 21
6.007142819642796
 31
0.0
 70
    32
  1
%%c<>
  3
AM_JIS
100
AcDbAlignedDimension
 13
-37.79855371900826
 23
-1.500000037500055
 33
0.0
 14
-37.79855371900826
 24
1.499999962499944
 34
0.0
 50
269.9999999999998
100
AcDbRotatedDimension
1001
GENIUS_GENDTOL_13
1000

1000
h7
1000

1040
0.0
  0
VIEWPORT
  5
110
330
101
100
AcDbEntity
 67
     1
  8
0
100
AcDbViewport
 10
420.5
 20
297.0
 30
0.0
 40
948.9782706766916
 41
628.452
 68
     1
 69
     1
1001
ACAD
1000
MVIEW
1002
{
1070
    16
1010
0.0
1020
0.0
1030
0.0
1010
0.0
1020
0.0
1030
1.0
1040
0.0
1040
628.452
1040
420.5
1040
297.0
1040
50.0
1040
0.0
1040
0.0
1070
     0
1070
   100
1070
     1
1070
     1
1070
     0
1070
     0
1070
     0
1070
     0
1040
0.0
1040
0.0
1040
0.0
1040
10.0
1040
10.0
1040
10.0
1040
10.0
1070
     0
1002
{
1002
}
1002
}
  0
ENDSEC
  0
SECTION
  2
OBJECTS
  0
DICTIONARY
  5
C
330
0
100
AcDbDictionary
  3
ACAD_GROUP
350
D
  3
ACAD_LAYOUT
350
1A
  3
ACAD_MLINESTYLE
350
17
  3
ACAD_PLOTSETTINGS
350
19
  3
ACAD_PLOTSTYLENAME
350
E
  3
ACDBVARIABLEDICTIONARY
350
34
  3
ACMDICTIONARY
350
43
  3
AMG
350
2B
  3
AMGSNAPSETTINGS
350
6E
  3
DWGPROPS
350
1AFA
  3
ACDBHEADERROUNDTRIPXREC
350
1B06
  0
DICTIONARY
  5
74
330
1F
100
AcDbDictionary
280
     1
  3
ACAD_INDEX
360
1AFC
  3
ACAD_LAYOUTSELFREF
360
1B29
  0
DICTIONARY
  5
1B2E
330
101
100
AcDbDictionary
280
     1
  3
ACAD_LAYOUTSELFREF
360
1B2F
  0
DICTIONARY
  5
D
102
{ACAD_REACTORS
330
C
102
}
330
C
100
AcDbDictionary
  0
DICTIONARY
  5
1A
102
{ACAD_REACTORS
330
C
102
}
330
C
100
AcDbDictionary
  0
DICTIONARY
  5
17
102
{ACAD_REACTORS
330
C
102
}
330
C
100
AcDbDictionary
  3
STANDARD
350
18
  0
DICTIONARY
  5
19
102
{ACAD_REACTORS
330
C
102
}
330
C
100
AcDbDictionary
  0
ACDBDICTIONARYWDFLT
  5
E
102
{ACAD_REACTORS
330
C
102
}
330
C
100
AcDbDictionary
281
     1
  3
Normal
350
F
100
AcDbDictionaryWithDefault
340
F
  0
DICTIONARY
  5
34
102
{ACAD_REACTORS
330
C
102
}
330
C
100
AcDbDictionary
  3
INDEXCTL
350
35
  3
SORTENTS
350
B5E
  0
DICTIONARY
  5
43
102
{ACAD_REACTORS
330
C
102
}
330
C
100
AcDbDictionary
  3
ACMSTDDICTIONARY
350
260
  0
DICTIONARY
  5
2B
102
{ACAD_REACTORS
330
C
102
}
330
C
100
AcDbDictionary
  3
ACMGSETTINGS
350
2C
  0
DICTIONARY
  5
6E
102
{ACAD_REACTORS
330
C
102
}
330
C
100
AcDbDictionary
  0
XRECORD
  5
1AFA
102
{ACAD_REACTORS
330
C
102
}
330
C
100
AcDbXrecord
  1
DWGPROPS COOKIE
  2

  3

  4

  6

  7

  8

  9

300
AmdtFileType=82
301
=
302
=
303
=
304
=
305
=
306
=
307
=
308
=
309
=
 40
0.115500775462963
 41
2452809.375295671
 42
2452839.646954572
  1

 90
        1
  0
DICTIONARY
  5
1B06
102
{ACAD_REACTORS
330
C
102
}
330
C
100
AcDbDictionary
  3
TSTACKALIGN
350
1B07
  3
TSTACKSIZE
350
1B08
  3
HYPERLINKBASE
350
1B09
  3
STYLESHEET
350
1B0A
  3
LAYOUTDICT
350
1B0B
  3
PLOTSETDICT
350
1B0C
  3
PLOTSTYLNAMDICT
350
1B0D
  3
LWETCUNION
350
1B0E
  3
INSUNITS
350
1B0F
  3
CEPSNTYPE
350
1B10
  3
FINGERPRINTGUID
350
1B11
  3
VERSIONGUID
350
1B12
  3
PSVPSCALE
350
1B13
  3
DIMSTYLEDATA
350
1B14
  3
PUCSORTHOREF
350
1B15
  3
PUCSORTHOVIEW
350
1B16
  3
PUCSBASE
350
1B17
  3
PUCSORGTOP
350
1B18
  3
PUCSORGBOTTOM
350
1B19
  3
PUCSORGLEFT
350
1B1A
  3
PUCSORGRIGHT
350
1B1B
  3
PUCSORGFRONT
350
1B1C
  3
PUCSORGBACK
350
1B1D
  3
UCSORTHOREF
350
1B1E
  3
UCSORTHOVIEW
350
1B1F
  3
UCSBASE
350
1B20
  3
UCSORGTOP
350
1B21
  3
UCSORGBOTTOM
350
1B22
  3
UCSORGLEFT
350
1B23
  3
UCSORGRIGHT
350
1B24
  3
UCSORGFRONT
350
1B25
  3
UCSORGBACK
350
1B26
  0
DICTIONARY
  5
1AFC
102
{ACAD_REACTORS
330
74
102
}
330
74
100
AcDbDictionary
  3
*A1
350
1AFD
  0
XRECORD
  5
1B29
102
{ACAD_REACTORS
330
74
102
}
330
74
100
AcDbXrecord
340
1F
  0
XRECORD
  5
1B2F
102
{ACAD_REACTORS
330
1B2E
102
}
330
1B2E
100
AcDbXrecord
340
101
  0
MLINESTYLE
  5
18
102
{ACAD_REACTORS
330
17
102
}
330
17
100
AcDbMlineStyle
  2
STANDARD
 70
     0
  3

 62
   256
 51
90.0
 52
90.0
 71
     2
 49
0.5
 62
   256
  6
BYLAYER
 49
-0.5
 62
   256
  6
BYLAYER
  0
ACDBPLACEHOLDER
  5
F
102
{ACAD_REACTORS
330
E
102
}
330
E
100
AcDbPlaceHolder
280
     0
  0
DICTIONARYVAR
  5
35
102
{ACAD_REACTORS
330
34
102
}
330
34
100
DictionaryVariables
280
     0
  1
1
  0
DICTIONARYVAR
  5
B5E
102
{ACAD_REACTORS
330
34
102
}
330
34
100
DictionaryVariables
280
     0
  1
96
  0
DICTIONARY
  5
260
102
{ACAD_REACTORS
330
43
102
}
330
43
100
AcDbDictionary
  0
DICTIONARY
  5
2C
102
{ACAD_REACTORS
330
2B
102
}
330
2B
100
AcDbDictionary
  3
DWGSETTINGS
350
2D
  0
XRECORD
  5
1B07
102
{ACAD_REACTORS
330
1B06
102
}
330
1B06
100
AcDbXrecord
 90
        1
  0
XRECORD
  5
1B08
102
{ACAD_REACTORS
330
1B06
102
}
330
1B06
100
AcDbXrecord
 90
       70
  0
XRECORD
  5
1B09
102
{ACAD_REACTORS
330
1B06
102
}
330
1B06
100
AcDbXrecord
  1

  0
XRECORD
  5
1B0A
102
{ACAD_REACTORS
330
1B06
102
}
330
1B06
100
AcDbXrecord
  1
ASAMI.ctb
  0
XRECORD
  5
1B0B
102
{ACAD_REACTORS
330
1B06
102
}
330
1B06
100
AcDbXrecord
340
1A
  0
XRECORD
  5
1B0C
102
{ACAD_REACTORS
330
1B06
102
}
330
1B06
100
AcDbXrecord
340
19
  0
XRECORD
  5
1B0D
102
{ACAD_REACTORS
330
1B06
102
}
330
1B06
100
AcDbXrecord
340
E
  0
XRECORD
  5
1B0E
102
{ACAD_REACTORS
330
1B06
102
}
330
1B06
100
AcDbXrecord
 90
    10781
  0
XRECORD
  5
1B0F
102
{ACAD_REACTORS
330
1B06
102
}
330
1B06
100
AcDbXrecord
 90
        4
  0
XRECORD
  5
1B10
102
{ACAD_REACTORS
330
1B06
102
}
330
1B06
100
AcDbXrecord
 90
        0
  0
XRECORD
  5
1B11
102
{ACAD_REACTORS
330
1B06
102
}
330
1B06
100
AcDbXrecord
  1
{AFB28963-8C59-40AE-9337-C84526B81ACE}
  0
XRECORD
  5
1B12
102
{ACAD_REACTORS
330
1B06
102
}
330
1B06
100
AcDbXrecord
  1
{EDCF002A-10F3-4556-8864-C6DD4F86A9D5}
  0
XRECORD
  5
1B13
102
{ACAD_REACTORS
330
1B06
102
}
330
1B06
100
AcDbXrecord
 40
0.0
  0
XRECORD
  5
1B14
102
{ACAD_REACTORS
330
1B06
102
}
330
1B06
100
AcDbXrecord
1000
DSTYLE
1002
{
1070
    79
 70
     2
1070
   341
340
59
1070
   342
340
59
1070
   371
 70
    -1
1070
   372
 70
    -1
1002
}
  0
XRECORD
  5
1B15
102
{ACAD_REACTORS
330
1B06
102
}
330
1B06
100
AcDbXrecord
340
0
  0
XRECORD
  5
1B16
102
{ACAD_REACTORS
330
1B06
102
}
330
1B06
100
AcDbXrecord
 70
     0
  0
XRECORD
  5
1B17
102
{ACAD_REACTORS
330
1B06
102
}
330
1B06
100
AcDbXrecord
340
0
  0
XRECORD
  5
1B18
102
{ACAD_REACTORS
330
1B06
102
}
330
1B06
100
AcDbXrecord
 10
0.0
 20
0.0
 30
0.0
  0
XRECORD
  5
1B19
102
{ACAD_REACTORS
330
1B06
102
}
330
1B06
100
AcDbXrecord
 10
0.0
 20
0.0
 30
0.0
  0
XRECORD
  5
1B1A
102
{ACAD_REACTORS
330
1B06
102
}
330
1B06
100
AcDbXrecord
 10
0.0
 20
0.0
 30
0.0
  0
XRECORD
  5
1B1B
102
{ACAD_REACTORS
330
1B06
102
}
330
1B06
100
AcDbXrecord
 10
0.0
 20
0.0
 30
0.0
  0
XRECORD
  5
1B1C
102
{ACAD_REACTORS
330
1B06
102
}
330
1B06
100
AcDbXrecord
 10
0.0
 20
0.0
 30
0.0
  0
XRECORD
  5
1B1D
102
{ACAD_REACTORS
330
1B06
102
}
330
1B06
100
AcDbXrecord
 10
0.0
 20
0.0
 30
0.0
  0
XRECORD
  5
1B1E
102
{ACAD_REACTORS
330
1B06
102
}
330
1B06
100
AcDbXrecord
340
0
  0
XRECORD
  5
1B1F
102
{ACAD_REACTORS
330
1B06
102
}
330
1B06
100
AcDbXrecord
 70
     0
  0
XRECORD
  5
1B20
102
{ACAD_REACTORS
330
1B06
102
}
330
1B06
100
AcDbXrecord
340
0
  0
XRECORD
  5
1B21
102
{ACAD_REACTORS
330
1B06
102
}
330
1B06
100
AcDbXrecord
 10
0.0
 20
0.0
 30
0.0
  0
XRECORD
  5
1B22
102
{ACAD_REACTORS
330
1B06
102
}
330
1B06
100
AcDbXrecord
 10
0.0
 20
0.0
 30
0.0
  0
XRECORD
  5
1B23
102
{ACAD_REACTORS
330
1B06
102
}
330
1B06
100
AcDbXrecord
 10
0.0
 20
0.0
 30
0.0
  0
XRECORD
  5
1B24
102
{ACAD_REACTORS
330
1B06
102
}
330
1B06
100
AcDbXrecord
 10
0.0
 20
0.0
 30
0.0
  0
XRECORD
  5
1B25
102
{ACAD_REACTORS
330
1B06
102
}
330
1B06
100
AcDbXrecord
 10
0.0
 20
0.0
 30
0.0
  0
XRECORD
  5
1B26
102
{ACAD_REACTORS
330
1B06
102
}
330
1B06
100
AcDbXrecord
 10
0.0
 20
0.0
 30
0.0
  0
LAYER_INDEX
  5
1AFD
102
{ACAD_REACTORS
330
1AFC
102
}
330
1AFC
100
AcDbIndex
 40
2452839.678321389
100
AcDbLayerIndex
  8
0
360
1AFE
 90
        0
  8
AM_0
360
1AFF
 90
       54
  8
AM_11
360
1B00
 90
        4
  8
AM_7
360
1B01
 90
        1
  8
AM_5
360
1B02
 90
        4
  8
Defpoints
360
1B03
 90
        0
  8
AM_6
360
1B04
 90
        1
  0
XRECORD
  5
2D
102
{ACAD_REACTORS
330
2C
102
}
330
2C
100
AcDbXrecord
  1
VERSION
140
15.0
  1
PRODUCT
  2
AutoCAD Mechanical 2000
  0
IDBUFFER
  5
1AFE
330
0
100
AcDbIdBuffer
  0
IDBUFFER
  5
1AFF
330
0
100
AcDbIdBuffer
330
176F
330
1770
330
1771
330
1772
330
1774
330
1775
330
171E
330
171F
330
1720
330
1721
330
1722
330
1723
330
1724
330
1725
330
1726
330
1727
330
1729
330
172A
330
172B
330
172C
330
172D
330
173F
330
1740
330
1741
330
1742
330
1743
330
1744
330
1745
330
1746
330
1747
330
1748
330
1749
330
174A
330
174B
330
174C
330
174D
330
174E
330
174F
330
1750
330
1751
330
1752
330
1753
330
1754
330
1755
330
1756
330
1757
330
1758
330
1759
330
175A
330
175B
330
175C
330
175D
330
175E
330
175F
  0
IDBUFFER
  5
1B00
330
0
100
AcDbIdBuffer
330
1728
330
172E
330
172F
330
19E1
  0
IDBUFFER
  5
1B01
330
0
100
AcDbIdBuffer
330
1773
  0
IDBUFFER
  5
1B02
330
0
100
AcDbIdBuffer
330
1730
330
1760
330
1776
330
1A06
  0
IDBUFFER
  5
1B03
330
0
100
AcDbIdBuffer
  0
IDBUFFER
  5
1B04
330
0
100
AcDbIdBuffer
330
E76
  0
ENDSEC
  0
EOF
