  0
SECTION
  2
HEADER
  9
$ACADVER
  1
AC1014
  9
$ACADMAINTVER
 70
     9
  9
$DWGCODEPAGE
  3
ANSI_932
  9
$INSBASE
 10
0.0
 20
0.0
 30
0.0
  9
$EXTMIN
 10
-62.03407217218417
 20
-27.25000107500004
 30
-0.00000001
  9
$EXTMAX
 10
10.21489549312785
 20
5.499999925000001
 30
0.00000001
  9
$LIMMIN
 10
-67.63653372803563
 20
-37.104520978825
  9
$LIMMAX
 10
17.91629083066095
 20
11.70080184709652
  9
$ORTHOMODE
 70
     0
  9
$REGENMODE
 70
     1
  9
$FILLMODE
 70
     1
  9
$QTEXTMODE
 70
     0
  9
$MIRRTEXT
 70
     0
  9
$DRAGMODE
 70
     2
  9
$LTSCALE
 40
1.0
  9
$OSMODE
 70
  2103
  9
$ATTMODE
 70
     1
  9
$TEXTSIZE
 40
2.5
  9
$TRACEWID
 40
1.0
  9
$TEXTSTYLE
  7
STANDARD
  9
$CLAYER
  8
AM_11
  9
$CELTYPE
  6
BYLAYER
  9
$CECOLOR
 62
   256
  9
$CELTSCALE
 40
1.0
  9
$DELOBJ
 70
     1
  9
$DISPSILH
 70
     0
  9
$DIMSCALE
 40
1.0
  9
$DIMASZ
 40
2.5
  9
$DIMEXO
 40
1.0
  9
$DIMDLI
 40
12.0
  9
$DIMRND
 40
0.0
  9
$DIMDLE
 40
0.0
  9
$DIMEXE
 40
1.0
  9
$DIMTP
 40
0.1
  9
$DIMTM
 40
0.1
  9
$DIMTXT
 40
3.2
  9
$DIMCEN
 40
0.0
  9
$DIMTSZ
 40
0.0
  9
$DIMTOL
 70
     0
  9
$DIMLIM
 70
     0
  9
$DIMTIH
 70
     0
  9
$DIMTOH
 70
     0
  9
$DIMSE1
 70
     0
  9
$DIMSE2
 70
     0
  9
$DIMTAD
 70
     3
  9
$DIMZIN
 70
     8
  9
$DIMBLK
  1
OPEN30
  9
$DIMASO
 70
     1
  9
$DIMSHO
 70
     1
  9
$DIMPOST
  1

  9
$DIMAPOST
  1
"
  9
$DIMALT
 70
     0
  9
$DIMALTD
 70
     2
  9
$DIMALTF
 40
0.0393701
  9
$DIMLFAC
 40
1.0
  9
$DIMTOFL
 70
     1
  9
$DIMTVP
 40
0.0
  9
$DIMTIX
 70
     0
  9
$DIMSOXD
 70
     0
  9
$DIMSAH
 70
     0
  9
$DIMBLK1
  1

  9
$DIMBLK2
  1

  9
$DIMSTYLE
  2
AM_JIS
  9
$DIMCLRD
 70
   256
  9
$DIMCLRE
 70
   256
  9
$DIMCLRT
 70
     2
  9
$DIMTFAC
 40
0.71
  9
$DIMGAP
 40
1.5
  9
$DIMJUST
 70
     0
  9
$DIMSD1
 70
     0
  9
$DIMSD2
 70
     0
  9
$DIMTOLJ
 70
     0
  9
$DIMTZIN
 70
     0
  9
$DIMALTZ
 70
     0
  9
$DIMALTTZ
 70
     0
  9
$DIMFIT
 70
     3
  9
$DIMUPT
 70
     0
  9
$DIMUNIT
 70
     2
  9
$DIMDEC
 70
     3
  9
$DIMTDEC
 70
     3
  9
$DIMALTU
 70
     2
  9
$DIMALTTD
 70
     2
  9
$DIMTXSTY
  7
ASAMI
  9
$DIMAUNIT
 70
     0
  9
$LUNITS
 70
     2
  9
$LUPREC
 70
     2
  9
$SKETCHINC
 40
1.0
  9
$FILLETRAD
 40
2.5
  9
$AUNITS
 70
     0
  9
$AUPREC
 70
     0
  9
$MENU
  1
.
  9
$ELEVATION
 40
0.0
  9
$PELEVATION
 40
0.0
  9
$THICKNESS
 40
0.0
  9
$LIMCHECK
 70
     0
  9
$BLIPMODE
 70
     0
  9
$CHAMFERA
 40
0.5
  9
$CHAMFERB
 40
0.5
  9
$CHAMFERC
 40
20.0
  9
$CHAMFERD
 40
0.0
  9
$SKPOLY
 70
     0
  9
$TDCREATE
 40
2452809.375295671
  9
$TDUPDATE
 40
2452839.678155382
  9
$TDINDWG
 40
0.0401819213
  9
$TDUSRTIMER
 40
0.0401817477
  9
$USRTIMER
 70
     1
  9
$ANGBASE
 50
0.0
  9
$ANGDIR
 70
     0
  9
$PDMODE
 70
     0
  9
$PDSIZE
 40
0.0
  9
$PLINEWID
 40
0.0
  9
$COORDS
 70
     2
  9
$SPLFRAME
 70
     0
  9
$SPLINETYPE
 70
     6
  9
$SPLINESEGS
 70
     8
  9
$ATTDIA
 70
     1
  9
$ATTREQ
 70
     1
  9
$HANDLING
 70
 12289
  9
$HANDSEED
  5
1AFD
  9
$SURFTAB1
 70
     6
  9
$SURFTAB2
 70
     6
  9
$SURFTYPE
 70
     6
  9
$SURFU
 70
     6
  9
$SURFV
 70
     6
  9
$UCSNAME
  2

  9
$UCSORG
 10
0.0
 20
-0.0000000000001155
 30
0.0
  9
$UCSXDIR
 10
1.0
 20
0.0
 30
0.0
  9
$UCSYDIR
 10
0.0
 20
1.0
 30
0.0
  9
$PUCSNAME
  2

  9
$PUCSORG
 10
0.0
 20
0.0
 30
0.0
  9
$PUCSXDIR
 10
1.0
 20
0.0
 30
0.0
  9
$PUCSYDIR
 10
0.0
 20
1.0
 30
0.0
  9
$USERI1
 70
     0
  9
$USERI2
 70
     0
  9
$USERI3
 70
     0
  9
$USERI4
 70
     0
  9
$USERI5
 70
     0
  9
$USERR1
 40
0.0
  9
$USERR2
 40
0.0
  9
$USERR3
 40
0.0
  9
$USERR4
 40
0.0
  9
$USERR5
 40
0.0
  9
$WORLDVIEW
 70
     1
  9
$SHADEDGE
 70
     3
  9
$SHADEDIF
 70
    70
  9
$TILEMODE
 70
     1
  9
$MAXACTVP
 70
    64
  9
$PINSBASE
 10
0.0
 20
0.0
 30
0.0
  9
$PLIMCHECK
 70
     0
  9
$PEXTMIN
 10
1.000000000000000E+20
 20
1.000000000000000E+20
 30
1.000000000000000E+20
  9
$PEXTMAX
 10
-1.000000000000000E+20
 20
-1.000000000000000E+20
 30
-1.000000000000000E+20
  9
$PLIMMIN
 10
0.0
 20
0.0
  9
$PLIMMAX
 10
841.0
 20
594.0
  9
$UNITMODE
 70
     0
  9
$VISRETAIN
 70
     1
  9
$PLINEGEN
 70
     0
  9
$PSLTSCALE
 70
     0
  9
$TREEDEPTH
 70
  3020
  9
$PICKSTYLE
 70
     0
  9
$CMLSTYLE
  2
STANDARD
  9
$CMLJUST
 70
     0
  9
$CMLSCALE
 40
20.0
  9
$PROXYGRAPHICS
 70
     1
  9
$MEASUREMENT
 70
     1
  0
ENDSEC
  0
SECTION
  2
CLASSES
  0
CLASS
  1
ACDBDICTIONARYWDFLT
  2
AcDbDictionaryWithDefault
  3
AutoCAD 2000
 90
        0
280
     0
281
     0
  0
CLASS
  1
ACDBPLACEHOLDER
  2
AcDbPlaceHolder
  3
AutoCAD 2000
 90
        0
280
     0
281
     0
  0
CLASS
  1
LAYOUT
  2
AcDbLayout
  3
AutoCAD 2000
 90
        0
280
     0
281
     0
  0
CLASS
  1
AMGSETTINGSOBJ
  2
AmgSettingsObj
  3
"AcadM|Product Description: AutoCAD Mechanical 2000|Company: Autodesk"
 90
        0
280
     0
281
     0
  0
CLASS
  1
ACME_DOCUMENT
  2
AcMeDbDoc
  3
AcMeServices
 90
        0
280
     0
281
     0
  0
CLASS
  1
ACMESCOPE
  2
AcMeScope
  3
AcMeServices
 90
        0
280
     0
281
     0
  0
CLASS
  1
ACMECOMMANDHISTORY
  2
AcMeCommandHistory
  3
AcMeServices
 90
        0
280
     0
281
     0
  0
CLASS
  1
DICTIONARYVAR
  2
AcDbDictionaryVar
  3
AutoCAD 2000
 90
        0
280
     0
281
     0
  0
CLASS
  1
ACIMSYSVARMAN
  2
AcImSysVarManager
  3
AcMeServices
 90
        0
280
     0
281
     0
  0
CLASS
  1
ACIMREALSYSVAR
  2
AcImRealSysVar
  3
AcMeServices
 90
        0
280
     0
281
     0
  0
CLASS
  1
ACIMINTSYSVAR
  2
AcImIntSysVar
  3
AcMeServices
 90
        0
280
     0
281
     0
  0
CLASS
  1
ACMEDRAWINGMAN
  2
AcMeDrawingMan
  3
AcMeServices
 90
        0
280
     0
281
     0
  0
CLASS
  1
ACMEVIEW
  2
AcMeView
  3
AcMeServices
 90
        0
280
     0
281
     0
  0
CLASS
  1
ACDBENTITYCACHE
  2
AcMeEntityCache
  3
AcMeServices
 90
        0
280
     0
281
     0
  0
CLASS
  1
GSMANAGER
  2
AcMeGSManager
  3
AcMeServices
 90
        0
280
     0
281
     0
  0
CLASS
  1
AmdtInternalReactor
  2
AmdtInternalReactor
  3
AcMeServices
 90
        0
280
     0
281
     0
  0
CLASS
  1
ACMESTATEMGR
  2
AcMeStateMgr
  3
AcMeServices
 90
        0
280
     0
281
     0
  0
CLASS
  1
ACME_DATABASE
  2
AcMeDbDatabase
  3
AcMeServices
 90
        0
280
     0
281
     0
  0
CLASS
  1
ACRFINSADJUSTERMGR
  2
AcRfInsAdjusterMgr
  3
AcMeServices
 90
        0
280
     0
281
     0
  0
CLASS
  1
ACMDATADICTIONARY
  2
AcmDataDictionary
  3
"AcmSymBB|Product Description: AutoCAD Mechanical 2000|Company: Autodesk"
 90
        0
280
     0
281
     0
  0
CLASS
  1
ACMDATAENTRYBLOCK
  2
AcmDataEntryBlock
  3
"AcmSymBB|Product Description: AutoCAD Mechanical 2000|Company: Autodesk"
 90
        0
280
     0
281
     0
  0
CLASS
  1
AMGOBJPROPCFG
  2
AmgObjPropCfg
  3
"AmgLay|Product Description: AutoCAD Mechanical 2000|Company: Autodesk"
 90
        1
280
     0
281
     0
  0
CLASS
  1
ACAMGFILTERDAT
  2
AcAmgFilterDat
  3
"AcadM|Product Description: AutoCAD Mechanical 2000|Company: Autodesk"
 90
        0
280
     0
281
     0
  0
CLASS
  1
LAYER_INDEX
  2
AcDbLayerIndex
  3
AutoCAD 2000
 90
        0
280
     0
281
     0
  0
CLASS
  1
IDBUFFER
  2
AcDbIdBuffer
  3
AutoCAD 2000
 90
        0
280
     0
281
     0
  0
CLASS
  1
ACIMSTRSYSVAR
  2
AcImStrSysVar
  3
AcMeServices
 90
        0
280
     0
281
     0
  0
CLASS
  1
ACMSTANDARDJIS
  2
AcmStandardJIS
  3
"AcmSymBB|Product Description: AutoCAD Mechanical 2000|Company: Autodesk"
 90
        0
280
     0
281
     0
  0
CLASS
  1
ACMSURFSTANDARDJIS
  2
AcmSurfTextStdJIS
  3
"AcmSymBB|Product Description: AutoCAD Mechanical 2000|Company: Autodesk"
 90
        0
280
     0
281
     0
  0
CLASS
  1
ACMFCFSTANDARDJIS
  2
AcmFCFStdJIS
  3
"AcmSymBB|Product Description: AutoCAD Mechanical 2000|Company: Autodesk"
 90
        0
280
     0
281
     0
  0
CLASS
  1
ACMWELDSTANDARDJIS
  2
AcmWeldingStdJIS
  3
"AcmSymBB|Product Description: AutoCAD Mechanical 2000|Company: Autodesk"
 90
        0
280
     0
281
     0
  0
CLASS
  1
ACMIDSTANDARDJIS
  2
AcmIdStdJIS
  3
"AcmSymBB|Product Description: AutoCAD Mechanical 2000|Company: Autodesk"
 90
        0
280
     0
281
     0
  0
CLASS
  1
ACMDATUMSTANDARDJIS
  2
AcmDatumStdJIS
  3
"AcmSymBB|Product Description: AutoCAD Mechanical 2000|Company: Autodesk"
 90
        0
280
     0
281
     0
  0
CLASS
  1
ACMBOMSTANDARDJIS
  2
AcmBOMStdJIS
  3
"AcmSymBB|Product Description: AutoCAD Mechanical 2000|Company: Autodesk"
 90
        0
280
     0
281
     0
  0
CLASS
  1
ACMSTANDARDANSI
  2
AcmStandardANSI
  3
"AcmSymBB|Product Description: AutoCAD Mechanical 2000|Company: Autodesk"
 90
        0
280
     0
281
     0
  0
CLASS
  1
ACMSURFSTANDARDANSI
  2
AcmSurfTextStdANSI
  3
"AcmSymBB|Product Description: AutoCAD Mechanical 2000|Company: Autodesk"
 90
        0
280
     0
281
     0
  0
CLASS
  1
ACMFCFSTANDARDANSI
  2
AcmFCFStdANSI
  3
"AcmSymBB|Product Description: AutoCAD Mechanical 2000|Company: Autodesk"
 90
        0
280
     0
281
     0
  0
CLASS
  1
ACMWELDSTANDARDANSI
  2
AcmWeldingStdANSI
  3
"AcmSymBB|Product Description: AutoCAD Mechanical 2000|Company: Autodesk"
 90
        0
280
     0
281
     0
  0
CLASS
  1
ACMIDSTANDARDANSI
  2
AcmIdStdANSI
  3
"AcmSymBB|Product Description: AutoCAD Mechanical 2000|Company: Autodesk"
 90
        0
280
     0
281
     0
  0
CLASS
  1
ACMDATUMSTANDARDANSI
  2
AcmDatumStdANSI
  3
"AcmSymBB|Product Description: AutoCAD Mechanical 2000|Company: Autodesk"
 90
        0
280
     0
281
     0
  0
CLASS
  1
ACMBOMSTANDARDANSI
  2
AcmBOMStdANSI
  3
"AcmSymBB|Product Description: AutoCAD Mechanical 2000|Company: Autodesk"
 90
        0
280
     0
281
     0
  0
CLASS
  1
ACMSTANDARDBSI
  2
AcmStandardBSI
  3
"AcmSymBB|Product Description: AutoCAD Mechanical 2000|Company: Autodesk"
 90
        0
280
     0
281
     0
  0
CLASS
  1
ACMSURFSTANDARDBSI
  2
AcmSurfTextStdBSI
  3
"AcmSymBB|Product Description: AutoCAD Mechanical 2000|Company: Autodesk"
 90
        0
280
     0
281
     0
  0
CLASS
  1
ACMFCFSTANDARDBSI
  2
AcmFCFStdBSI
  3
"AcmSymBB|Product Description: AutoCAD Mechanical 2000|Company: Autodesk"
 90
        0
280
     0
281
     0
  0
CLASS
  1
ACMWELDSTANDARDBSI
  2
AcmWeldingStdBSI
  3
"AcmSymBB|Product Description: AutoCAD Mechanical 2000|Company: Autodesk"
 90
        0
280
     0
281
     0
  0
CLASS
  1
ACMIDSTANDARDBSI
  2
AcmIdStdBSI
  3
"AcmSymBB|Product Description: AutoCAD Mechanical 2000|Company: Autodesk"
 90
        0
280
     0
281
     0
  0
CLASS
  1
ACMDATUMSTANDARDBSI
  2
AcmDatumStdBSI
  3
"AcmSymBB|Product Description: AutoCAD Mechanical 2000|Company: Autodesk"
 90
        0
280
     0
281
     0
  0
CLASS
  1
ACMBOMSTANDARDBSI
  2
AcmBOMStdBSI
  3
"AcmSymBB|Product Description: AutoCAD Mechanical 2000|Company: Autodesk"
 90
        0
280
     0
281
     0
  0
CLASS
  1
LONG_TRANSACTION
  2
AcDbLongTransaction
  3
AutoCAD 2000
 90
        0
280
     0
281
     0
  0
CLASS
  1
LWPOLYLINE
  2
AcDbPolyline
  3
AutoCAD 2000
 90
        0
280
     0
281
     1
  0
CLASS
  1
HATCH
  2
AcDbHatch
  3
AutoCAD 2000
 90
        0
280
     0
281
     1
  0
CLASS
  1
XRECORD
  2
AcDbXrecord
  3
AutoCAD 2000
 90
        0
280
     0
281
     0
  0
ENDSEC
  0
SECTION
  2
TABLES
  0
TABLE
  2
VPORT
  5
8
330
0
100
AcDbSymbolTable
 70
     3
  0
VPORT
  5
1AD2
330
8
100
AcDbSymbolTableRecord
100
AcDbViewportTableRecord
  2
*ACTIVE
 70
     0
 10
0.0
 20
0.0
 11
1.0
 21
1.0
 12
-20.07927632359628
 22
-10.87437090657945
 13
0.0
 23
0.0
 14
2.5
 24
2.5
 15
10.0
 25
10.0
 16
0.0
 26
0.0
 36
1.0
 17
0.0
 27
0.0
 37
0.0
 40
53.8032956033659
 41
1.56570841889117
 42
50.0
 43
0.0
 44
0.0
 50
0.0
 51
0.0
 71
     0
 72
   100
 73
     1
 74
     3
 75
     0
 76
     0
 77
     0
 78
     0
  0
ENDTAB
  0
TABLE
  2
LTYPE
  5
5
330
0
100
AcDbSymbolTable
 70
    10
  0
LTYPE
  5
14
330
5
100
AcDbSymbolTableRecord
100
AcDbLinetypeTableRecord
  2
BYBLOCK
 70
     0
  3

 72
    65
 73
     0
 40
0.0
  0
LTYPE
  5
15
330
5
100
AcDbSymbolTableRecord
100
AcDbLinetypeTableRecord
  2
BYLAYER
 70
     0
  3

 72
    65
 73
     0
 40
0.0
  0
LTYPE
  5
16
330
5
100
AcDbSymbolTableRecord
100
AcDbLinetypeTableRecord
  2
CONTINUOUS
 70
     0
  3
Solid line
 72
    65
 73
     0
 40
0.0
  0
LTYPE
  5
4B
330
5
100
AcDbSymbolTableRecord
100
AcDbLinetypeTableRecord
  2
AM_ISO02W050
 70
     0
  3
__ __ __ __ __ __ __ __ __ __ __ __ __ __ __
 72
    65
 73
     2
 40
7.5
 49
6.0
 74
     0
 49
-1.5
 74
     0
  0
LTYPE
  5
4C
330
5
100
AcDbSymbolTableRecord
100
AcDbLinetypeTableRecord
  2
AM_ISO08W050
 70
     0
  3
____ . ____ . ____ . ____ . ____ . ____ . ____
 72
    65
 73
     4
 40
18.0
 49
12.0
 74
     0
 49
-1.5
 74
     0
 49
3.0
 74
     0
 49
-1.5
 74
     0
  0
LTYPE
  5
4D
330
5
100
AcDbSymbolTableRecord
100
AcDbLinetypeTableRecord
  2
AM_ISO09W050
 70
     0
  3
_____ . . _____ . . _____ . . ____ .. ____
 72
    65
 73
     6
 40
22.5
 49
12.0
 74
     0
 49
-1.5
 74
     0
 49
3.0
 74
     0
 49
-1.5
 74
     0
 49
3.0
 74
     0
 49
-1.5
 74
     0
  0
LTYPE
  5
4E
330
5
100
AcDbSymbolTableRecord
100
AcDbLinetypeTableRecord
  2
AMCONSTR
 70
     0
  3
_______________________
 72
    65
 73
     2
 40
9999.0
 49
9999.0
 74
     0
 49
0.0
 74
     0
  0
LTYPE
  5
4F
330
5
100
AcDbSymbolTableRecord
100
AcDbLinetypeTableRecord
  2
AM_ISO02W050X2
 70
     0
  3
 _ _ _ _ _ _ _ _ _ _ _ _
 72
    65
 73
     2
 40
3.75
 49
3.0
 74
     0
 49
-0.75
 74
     0
  0
LTYPE
  5
50
330
5
100
AcDbSymbolTableRecord
100
AcDbLinetypeTableRecord
  2
AM_ISO08W050X2
 70
     0
  3
__ . __ . __ . __ . __ . __
 72
    65
 73
     4
 40
9.0
 49
6.0
 74
     0
 49
-0.75
 74
     0
 49
1.5
 74
     0
 49
-0.75
 74
     0
  0
LTYPE
  5
53
330
5
100
AcDbSymbolTableRecord
100
AcDbLinetypeTableRecord
  2
AMZIGZAG
 70
     0
  3
/\/-/\/-/\/-/\/-/\/-/\/
 72
    65
 73
     2
 40
11.00009999999999
 49
0.0001
 74
     4
 75
   135
340
52
 46
0.04
 50
0.0
 44
0.0
 45
0.0
 49
-11.0
 74
     0
  0
LTYPE
  5
166
330
5
100
AcDbSymbolTableRecord
100
AcDbLinetypeTableRecord
  2
ACJISTGL
 70
     0
  3
_ _ _ _ _
 72
    65
 73
     2
 40
3.0
 49
2.0
 74
     0
 49
-1.0
 74
     0
  0
LTYPE
  5
26A
330
5
100
AcDbSymbolTableRecord
100
AcDbLinetypeTableRecord
  2
ACJISTGB
 70
     0
  3
__ . . __ . .
 72
    65
 73
     6
 40
9.0
 49
4.0
 74
     0
 49
-1.0
 74
     0
 49
1.0
 74
     0
 49
-1.0
 74
     0
 49
1.0
 74
     0
 49
-1.0
 74
     0
  0
ENDTAB
  0
TABLE
  2
LAYER
  5
2
330
0
100
AcDbSymbolTable
 70
     7
  0
LAYER
  5
10
330
2
100
AcDbSymbolTableRecord
100
AcDbLayerTableRecord
  2
0
 70
     0
 62
     7
  6
CONTINUOUS
  0
LAYER
  5
3F9
330
2
100
AcDbSymbolTableRecord
100
AcDbLayerTableRecord
  2
AM_0
 70
     0
 62
     7
  6
CONTINUOUS
  0
LAYER
  5
BA4
330
2
100
AcDbSymbolTableRecord
100
AcDbLayerTableRecord
  2
AM_11
 70
     0
 62
     3
  6
AM_ISO09W050
  0
LAYER
  5
BA5
330
2
100
AcDbSymbolTableRecord
100
AcDbLayerTableRecord
  2
AM_7
 70
     0
 62
     4
  6
AM_ISO08W050
  0
LAYER
  5
CAD
330
2
100
AcDbSymbolTableRecord
100
AcDbLayerTableRecord
  2
AM_5
 70
     0
 62
     3
  6
CONTINUOUS
  0
LAYER
  5
CAF
330
2
100
AcDbSymbolTableRecord
100
AcDbLayerTableRecord
  2
DEFPOINTS
 70
     0
 62
     7
  6
CONTINUOUS
  0
LAYER
  5
E75
330
2
100
AcDbSymbolTableRecord
100
AcDbLayerTableRecord
  2
AM_6
 70
     0
 62
     2
  6
CONTINUOUS
  0
ENDTAB
  0
TABLE
  2
STYLE
  5
3
330
0
100
AcDbSymbolTable
 70
     5
  0
STYLE
  5
11
330
3
100
AcDbSymbolTableRecord
100
AcDbTextStyleTableRecord
  2
STANDARD
 70
     0
 40
0.0
 41
1.0
 50
0.0
 71
     0
 42
2.5
  3
simplex.shx
  4
EXTFONT.SHX
  0
STYLE
  5
52
330
3
100
AcDbSymbolTableRecord
100
AcDbTextStyleTableRecord
  2

 70
     1
 40
0.0
 41
1.0
 50
0.0
 71
     0
 42
2.5
  3
ltypeshp.shx
  4

  0
STYLE
  5
6B
330
3
100
AcDbSymbolTableRecord
100
AcDbTextStyleTableRecord
  2
ASAMI
 70
     0
 40
0.0
 41
1.0
 50
0.0
 71
     0
 42
2.5
  3
simplex.shx
  4
EXTFONT.SHX
  0
STYLE
  5
262
330
3
100
AcDbSymbolTableRecord
100
AcDbTextStyleTableRecord
  2
ACJISTS
 70
     0
 40
1.0
 41
1.0
 50
0.0
 71
     0
 42
2.5
  3
simplex.shx
  4
bigfont.shx
  0
STYLE
  5
269
330
3
100
AcDbSymbolTableRecord
100
AcDbTextStyleTableRecord
  2
ACJISGDT
 70
     0
 40
0.0
 41
1.0
 50
0.0
 71
     0
 42
2.5
  3
amgdtans.shx
  4

  0
ENDTAB
  0
TABLE
  2
VIEW
  5
6
330
0
100
AcDbSymbolTable
 70
     0
  0
ENDTAB
  0
TABLE
  2
UCS
  5
7
330
0
100
AcDbSymbolTable
 70
     0
  0
ENDTAB
  0
TABLE
  2
APPID
  5
9
330
0
100
AcDbSymbolTable
 70
    12
  0
APPID
  5
12
330
9
100
AcDbSymbolTableRecord
100
AcDbRegAppTableRecord
  2
ACAD
 70
     0
  0
APPID
  5
30
330
9
100
AcDbSymbolTableRecord
100
AcDbRegAppTableRecord
  2
MCAD_NO_VIS
 70
     0
  0
APPID
  5
31
330
9
100
AcDbSymbolTableRecord
100
AcDbRegAppTableRecord
  2
ACAD_TEMP_GRAPHIC
 70
     0
  0
APPID
  5
2C2
330
9
100
AcDbSymbolTableRecord
100
AcDbRegAppTableRecord
  2
GENIUS_GENDTOL_13
 70
     0
  0
APPID
  5
339
330
9
100
AcDbSymbolTableRecord
100
AcDbRegAppTableRecord
  2
GENIUS_GENODEF_13
 70
     0
  0
APPID
  5
33A
330
9
100
AcDbSymbolTableRecord
100
AcDbRegAppTableRecord
  2
GENIUS_GENOBJ-N-RSBK_13
 70
     0
  0
APPID
  5
33B
330
9
100
AcDbSymbolTableRecord
100
AcDbRegAppTableRecord
  2
GENIUS_GENOBJ-N-LIB_13
 70
     0
  0
APPID
  5
33C
330
9
100
AcDbSymbolTableRecord
100
AcDbRegAppTableRecord
  2
GENIUS_GENSCALE_13
 70
     0
  0
APPID
  5
378
330
9
100
AcDbSymbolTableRecord
100
AcDbRegAppTableRecord
  2
GENIUS_GENDIMSH_14
 70
     0
  0
APPID
  5
BA6
330
9
100
AcDbSymbolTableRecord
100
AcDbRegAppTableRecord
  2
GENIUS_GENOBJ-N-CEN_13
 70
     0
  0
APPID
  5
C82
330
9
100
AcDbSymbolTableRecord
100
AcDbRegAppTableRecord
  2
GENIUS_GENFIL_13
 70
     0
  0
APPID
  5
C83
330
9
100
AcDbSymbolTableRecord
100
AcDbRegAppTableRecord
  2
GENIUS_GENOBJ-N-CHA_13
 70
     0
  0
ENDTAB
  0
TABLE
  2
DIMSTYLE
  5
A
330
0
100
AcDbSymbolTable
 70
     8
  0
DIMSTYLE
105
58
102
{ACAD_REACTORS
330
1062
330
14BC
330
14E4
330
16B7
102
}
330
A
100
AcDbSymbolTableRecord
100
AcDbDimStyleTableRecord
  2
AM_JIS
 70
     0
  3

  4
"
  5
OPEN30
  6

  7

 40
0.5
 41
2.5
 42
1.0
 43
12.0
 44
1.0
 45
0.0
 46
0.0
 47
0.1
 48
0.1
140
3.2
141
0.0
142
0.0
143
0.0393701
144
1.0
145
0.0
146
0.71
147
1.5
 71
     0
 72
     0
 73
     0
 74
     0
 75
     0
 76
     0
 77
     3
 78
     8
170
     0
171
     2
172
     1
173
     0
174
     0
175
     0
176
   256
177
   256
178
     2
270
     2
271
     3
272
     3
273
     2
274
     2
340
6B
275
     0
280
     0
281
     0
282
     0
283
     0
284
     0
285
     0
286
     0
287
     3
288
     0
  0
DIMSTYLE
105
5F
330
A
100
AcDbSymbolTableRecord
100
AcDbDimStyleTableRecord
  2
AM_JIS$3
 70
     0
  3

  4
"
  5
OPEN30
  6

  7

 40
0.5
 41
2.5
 42
1.0
 43
10.0
 44
1.0
 45
0.0
 46
0.0
 47
0.1
 48
0.1
140
3.2
141
0.0
142
0.0
143
0.0393701
144
1.0
145
0.0
146
0.71
147
1.5
 71
     0
 72
     0
 73
     0
 74
     1
 75
     0
 76
     0
 77
     3
 78
     8
170
     0
171
     2
172
     0
173
     0
174
     0
175
     0
176
   256
177
   256
178
     2
270
     2
271
     2
272
     3
273
     2
274
     2
340
6B
275
     0
280
     0
281
     0
282
     0
283
     0
284
     0
285
     0
286
     0
287
     0
288
     1
  0
DIMSTYLE
105
60
330
A
100
AcDbSymbolTableRecord
100
AcDbDimStyleTableRecord
  2
AM_JIS$4
 70
     0
  3

  4
"
  5
OPEN30
  6

  7

 40
0.5
 41
2.5
 42
1.0
 43
10.0
 44
1.0
 45
0.0
 46
0.0
 47
0.1
 48
0.1
140
3.2
141
0.0
142
0.0
143
0.0393701
144
1.0
145
0.0
146
0.71
147
1.5
 71
     0
 72
     0
 73
     0
 74
     1
 75
     0
 76
     0
 77
     3
 78
     8
170
     0
171
     2
172
     0
173
     0
174
     0
175
     0
176
   256
177
   256
178
     2
270
     2
271
     2
272
     3
273
     2
274
     2
340
6B
275
     0
280
     0
281
     0
282
     0
283
     0
284
     0
285
     0
286
     0
287
     0
288
     1
  0
DIMSTYLE
105
61
330
A
100
AcDbSymbolTableRecord
100
AcDbDimStyleTableRecord
  2
AM_JIS$6
 70
     0
  3

  4
"
  5
OPEN30
  6

  7

 40
0.5
 41
2.5
 42
1.0
 43
10.0
 44
1.0
 45
0.0
 46
0.0
 47
0.1
 48
0.1
140
3.2
141
0.0
142
0.0
143
0.0393701
144
1.0
145
0.0
146
0.71
147
1.5
 71
     0
 72
     0
 73
     0
 74
     0
 75
     0
 76
     0
 77
     0
 78
     8
170
     0
171
     2
172
     1
173
     0
174
     0
175
     0
176
   256
177
   256
178
     2
270
     2
271
     2
272
     2
273
     2
274
     2
340
6B
275
     0
280
     0
281
     0
282
     0
283
     0
284
     0
285
     0
286
     0
287
     3
288
     0
  0
DIMSTYLE
105
62
330
A
100
AcDbSymbolTableRecord
100
AcDbDimStyleTableRecord
  2
AM_JIS$7
 70
     0
  3

  4
"
  5
OPEN30
  6

  7

 40
0.5
 41
2.5
 42
1.0
 43
10.0
 44
1.0
 45
0.0
 46
0.0
 47
0.1
 48
0.1
140
3.2
141
0.0
142
0.0
143
0.0393701
144
1.0
145
0.0
146
0.71
147
1.5
 71
     0
 72
     0
 73
     0
 74
     0
 75
     0
 76
     0
 77
     3
 78
     8
170
     0
171
     2
172
     1
173
     0
174
     0
175
     0
176
   256
177
   256
178
     2
270
     2
271
     2
272
     3
273
     2
274
     2
340
6B
275
     0
280
     0
281
     0
282
     0
283
     0
284
     0
285
     0
286
     0
287
     3
288
     0
  0
DIMSTYLE
105
63
330
A
100
AcDbSymbolTableRecord
100
AcDbDimStyleTableRecord
  2
AM_JIS$SF
 70
     0
  3

  4
"
  5
OPEN30
  6

  7

 40
0.5
 41
2.5
 42
1.0
 43
10.0
 44
1.0
 45
0.0
 46
0.0
 47
0.1
 48
0.1
140
3.2
141
0.0
142
0.0
143
0.0393701
144
1.0
145
0.0
146
0.71
147
1.5
 71
     0
 72
     0
 73
     0
 74
     0
 75
     1
 76
     1
 77
     3
 78
     8
170
     0
171
     2
172
     1
173
     0
174
     0
175
     0
176
   256
177
   256
178
     2
270
     2
271
     2
272
     2
273
     2
274
     2
340
6B
275
     0
280
     0
281
     0
282
     0
283
     0
284
     0
285
     0
286
     0
287
     3
288
     0
  0
DIMSTYLE
105
68
330
A
100
AcDbSymbolTableRecord
100
AcDbDimStyleTableRecord
  2
AM_JIS$SH
 70
     0
  3

  4
"
  5

  6
GENAXEH
  7
OPEN30
 40
0.5
 41
2.5
 42
1.0
 43
10.0
 44
1.0
 45
0.0
 46
0.0
 47
0.1
 48
0.1
140
3.2
141
0.0
142
0.0
143
0.0393701
144
2.0
145
0.0
146
0.71
147
1.5
 71
     0
 72
     0
 73
     0
 74
     0
 75
     1
 76
     1
 77
     3
 78
     8
170
     0
171
     2
172
     1
173
     1
174
     0
175
     0
176
   256
177
   256
178
     2
270
     2
271
     2
272
     2
273
     2
274
     2
340
6B
275
     0
280
     0
281
     0
282
     0
283
     0
284
     0
285
     0
286
     0
287
     3
288
     0
  0
DIMSTYLE
105
B34
330
A
100
AcDbSymbolTableRecord
100
AcDbDimStyleTableRecord
  2
AM_JIS$2
 70
     0
  3

  4
"
  5
OPEN30
  6

  7

 40
0.5
 41
2.5
 42
1.0
 43
12.0
 44
1.0
 45
0.0
 46
0.0
 47
0.1
 48
0.1
140
3.2
141
0.0
142
0.0
143
0.0393701
144
1.0
145
0.0
146
0.71
147
1.5
 71
     0
 72
     0
 73
     0
 74
     0
 75
     0
 76
     0
 77
     3
 78
     8
170
     0
171
     2
172
     1
173
     0
174
     0
175
     0
176
   256
177
   256
178
     2
270
     2
271
     3
272
     3
273
     2
274
     2
340
6B
275
     0
280
     0
281
     0
282
     0
283
     0
284
     0
285
     0
286
     0
287
     3
288
     0
  0
ENDTAB
  0
TABLE
  2
BLOCK_RECORD
  5
1
330
0
100
AcDbSymbolTable
 70
     9
  0
BLOCK_RECORD
  5
1F
102
{ACAD_XDICTIONARY
360
74
102
}
330
1
100
AcDbSymbolTableRecord
100
AcDbBlockTableRecord
  2
*MODEL_SPACE
  0
BLOCK_RECORD
  5
101
102
{ACAD_XDICTIONARY
360
1AFB
102
}
330
1
100
AcDbSymbolTableRecord
100
AcDbBlockTableRecord
  2
*PAPER_SPACE
  0
BLOCK_RECORD
  5
59
330
1
100
AcDbSymbolTableRecord
100
AcDbBlockTableRecord
  2
_OPEN30
  0
BLOCK_RECORD
  5
64
330
1
100
AcDbSymbolTableRecord
100
AcDbBlockTableRecord
  2
GENAXEH
  0
BLOCK_RECORD
  5
1063
330
1
100
AcDbSymbolTableRecord
100
AcDbBlockTableRecord
  2
*D5
  0
BLOCK_RECORD
  5
14BD
330
1
100
AcDbSymbolTableRecord
100
AcDbBlockTableRecord
  2
*D6
  0
BLOCK_RECORD
  5
14E5
330
1
100
AcDbSymbolTableRecord
100
AcDbBlockTableRecord
  2
*D7
  0
BLOCK_RECORD
  5
16B8
330
1
100
AcDbSymbolTableRecord
100
AcDbBlockTableRecord
  2
*D8
  0
ENDTAB
  0
ENDSEC
  0
SECTION
  2
BLOCKS
  0
BLOCK
  5
20
330
1F
100
AcDbEntity
  8
0
100
AcDbBlockBegin
  2
*MODEL_SPACE
 70
     0
 10
0.0
 20
0.0
 30
0.0
  3
*MODEL_SPACE
  1

  0
ENDBLK
  5
21
330
1F
100
AcDbEntity
  8
0
100
AcDbBlockEnd
  0
BLOCK
  5
103
330
101
100
AcDbEntity
 67
     1
  8
0
100
AcDbBlockBegin
  2
*PAPER_SPACE
 70
     0
 10
0.0
 20
0.0
 30
0.0
  3
*PAPER_SPACE
  1

  0
ENDBLK
  5
104
330
101
100
AcDbEntity
 67
     1
  8
0
100
AcDbBlockEnd
  0
BLOCK
  5
5D
330
59
100
AcDbEntity
  8
0
100
AcDbBlockBegin
  2
_OPEN30
 70
     0
 10
0.0
 20
0.0
 30
0.0
  3
_OPEN30
  1

  0
LINE
  5
5A
330
59
100
AcDbEntity
  8
0
 62
     0
100
AcDbLine
 10
-1.0
 20
0.26794919
 30
0.0
 11
0.0
 21
0.0
 31
0.0
  0
LINE
  5
5B
330
59
100
AcDbEntity
  8
0
 62
     0
100
AcDbLine
 10
0.0
 20
0.0
 30
0.0
 11
-1.0
 21
-0.26794919
 31
0.0
  0
LINE
  5
5C
330
59
100
AcDbEntity
  8
0
 62
     0
100
AcDbLine
 10
0.0
 20
0.0
 30
0.0
 11
-1.0
 21
0.0
 31
0.0
  0
ENDBLK
  5
5E
330
59
100
AcDbEntity
  8
0
100
AcDbBlockEnd
  0
BLOCK
  5
66
330
64
100
AcDbEntity
  8
0
100
AcDbBlockBegin
  2
GENAXEH
 70
     0
 10
0.0
 20
0.0
 30
0.0
  3
GENAXEH
  1

  0
LINE
  5
65
330
64
100
AcDbEntity
  8
0
100
AcDbLine
 10
-1.0
 20
0.0
 30
0.0
 11
1.0
 21
0.0
 31
0.0
  0
ENDBLK
  5
67
330
64
100
AcDbEntity
  8
0
100
AcDbBlockEnd
  0
BLOCK
  5
106D
330
1063
100
AcDbEntity
  8
0
100
AcDbBlockBegin
  2
*D5
 70
     1
 10
0.0
 20
0.0
 30
0.0
  3
*D5
  1

  0
LINE
  5
1A7D
330
1063
100
AcDbEntity
  8
AM_5
100
AcDbLine
 10
-50.0
 20
-3.199999925000087
 30
0.0
 11
-50.0
 21
-16.50000107500003
 31
0.0
  0
LINE
  5
1A7E
330
1063
100
AcDbEntity
  8
AM_5
100
AcDbLine
 10
0.0
 20
-3.499999925000157
 30
0.0
 11
-0.0000000000000008
 21
-16.50000107500003
 31
0.0
  0
LINE
  5
1A7F
330
1063
100
AcDbEntity
  8
AM_5
100
AcDbLine
 10
-48.75
 20
-16.00000107500003
 30
0.0
 11
-1.25
 21
-16.00000107500003
 31
0.0
  0
INSERT
  5
1A80
330
1063
100
AcDbEntity
  8
AM_5
100
AcDbBlockReference
  2
_OPEN30
 10
-50.0
 20
-16.00000107500003
 30
0.0
 41
1.25
 42
1.25
 43
1.25
 50
180.0
  0
INSERT
  5
1A81
330
1063
100
AcDbEntity
  8
AM_5
100
AcDbBlockReference
  2
_OPEN30
 10
-0.0000000000000008
 20
-16.00000107500003
 30
0.0
 41
1.25
 42
1.25
 43
1.25
  0
MTEXT
  5
1A82
330
1063
100
AcDbEntity
  8
AM_5
 62
     2
100
AcDbMText
 10
-25.0
 20
-14.45000107500003
 30
0.0
 40
1.6
 41
0.0
 71
     5
 72
     1
  1
50
  7
ASAMI
1001
ACAD
1000
MTEXTBEGIN
1070
    73
1070
     1
1070
    44
1040
1.0
1070
    74
1070
     0
1000
MTEXTEND
  0
POINT
  5
1A83
330
1063
100
AcDbEntity
  8
DEFPOINTS
 62
     0
100
AcDbPoint
 10
-50.0
 20
-2.699999925000087
 30
0.0
  0
POINT
  5
1A84
330
1063
100
AcDbEntity
  8
DEFPOINTS
 62
     0
100
AcDbPoint
 10
0.0
 20
-2.999999925000157
 30
0.0
  0
POINT
  5
1A85
330
1063
100
AcDbEntity
  8
DEFPOINTS
 62
     0
100
AcDbPoint
 10
-0.0000000000000008
 20
-16.00000107500003
 30
0.0
  0
ENDBLK
  5
106E
330
1063
100
AcDbEntity
  8
0
100
AcDbBlockEnd
  0
BLOCK
  5
14C7
330
14BD
100
AcDbEntity
  8
0
100
AcDbBlockBegin
  2
*D6
 70
     1
 10
0.0
 20
0.0
 30
0.0
  3
*D6
  1

  0
LINE
  5
1A9B
330
14BD
100
AcDbEntity
  8
AM_5
100
AcDbLine
 10
-13.0
 20
-2.999452285819085
 30
0.0
 11
-13.0
 21
-10.50000107500004
 31
0.0
  0
LINE
  5
1A9C
330
14BD
100
AcDbEntity
  8
AM_5
100
AcDbLine
 10
0.0
 20
-2.997130852024315
 30
0.0
 11
-0.0000000000000005
 21
-10.50000107500004
 31
0.0
  0
LINE
  5
1A9D
330
14BD
100
AcDbEntity
  8
AM_5
100
AcDbLine
 10
-11.75
 20
-10.00000107500004
 30
0.0
 11
-1.25
 21
-10.00000107500004
 31
0.0
  0
INSERT
  5
1A9E
330
14BD
100
AcDbEntity
  8
AM_5
100
AcDbBlockReference
  2
_OPEN30
 10
-13.0
 20
-10.00000107500004
 30
0.0
 41
1.25
 42
1.25
 43
1.25
 50
180.0
  0
INSERT
  5
1A9F
330
14BD
100
AcDbEntity
  8
AM_5
100
AcDbBlockReference
  2
_OPEN30
 10
-0.0000000000000005
 20
-10.00000107500004
 30
0.0
 41
1.25
 42
1.25
 43
1.25
  0
MTEXT
  5
1AA0
330
14BD
100
AcDbEntity
  8
AM_5
 62
     2
100
AcDbMText
 10
-6.5
 20
-8.45000107500004
 30
0.0
 40
1.6
 41
0.0
 71
     5
 72
     1
  1
13
  7
ASAMI
1001
ACAD
1000
MTEXTBEGIN
1070
    73
1070
     1
1070
    44
1040
1.0
1070
    74
1070
     0
1000
MTEXTEND
  0
POINT
  5
1AA1
330
14BD
100
AcDbEntity
  8
DEFPOINTS
 62
     0
100
AcDbPoint
 10
-13.0
 20
-2.499452285819085
 30
0.0
  0
POINT
  5
1AA2
330
14BD
100
AcDbEntity
  8
DEFPOINTS
 62
     0
100
AcDbPoint
 10
0.0
 20
-2.497130852024315
 30
0.0
  0
POINT
  5
1AA3
330
14BD
100
AcDbEntity
  8
DEFPOINTS
 62
     0
100
AcDbPoint
 10
-0.0000000000000005
 20
-10.00000107500004
 30
0.0
  0
ENDBLK
  5
14C8
330
14BD
100
AcDbEntity
  8
0
100
AcDbBlockEnd
  0
BLOCK
  5
14F1
330
14E5
100
AcDbEntity
  8
0
100
AcDbBlockBegin
  2
*D7
 70
     1
 10
0.0
 20
0.0
 30
0.0
  3
*D7
  1

  0
LINE
  5
1A86
330
14E5
100
AcDbEntity
  8
AM_5
100
AcDbLine
 10
-50.20454545454547
 20
-3.000000075000001
 30
0.0
 11
-60.18407217218417
 21
-3.000000074999998
 31
0.0
  0
LINE
  5
1A87
330
14E5
100
AcDbEntity
  8
AM_5
100
AcDbLine
 10
-50.20454545454545
 20
2.999999924999998
 30
0.0
 11
-60.18407217218417
 21
2.999999925000001
 31
0.0
  0
LINE
  5
1A88
330
14E5
100
AcDbEntity
  8
AM_5
100
AcDbLine
 10
-59.68407217218417
 20
-4.250000074999998
 30
0.0
 11
-59.68407217218417
 21
-5.500000074999998
 31
0.0
  0
LINE
  5
1A89
330
14E5
100
AcDbEntity
  8
AM_5
100
AcDbLine
 10
-59.68407217218417
 20
4.249999925000001
 30
0.0
 11
-59.68407217218417
 21
5.499999925000001
 31
0.0
  0
LINE
  5
1A8A
330
14E5
100
AcDbEntity
  8
AM_5
100
AcDbLine
 10
-59.68407217218417
 20
-3.000000074999998
 30
0.0
 11
-59.68407217218417
 21
2.999999925000001
 31
0.0
  0
INSERT
  5
1A8B
330
14E5
100
AcDbEntity
  8
AM_5
100
AcDbBlockReference
  2
_OPEN30
 10
-59.68407217218417
 20
-3.000000074999998
 30
0.0
 41
1.25
 42
1.25
 43
1.25
 50
90.0
  0
INSERT
  5
1A8C
330
14E5
100
AcDbEntity
  8
AM_5
100
AcDbBlockReference
  2
_OPEN30
 10
-59.68407217218417
 20
2.999999925000001
 30
0.0
 41
1.25
 42
1.25
 43
1.25
 50
270.0
  0
MTEXT
  5
1A8D
330
14E5
100
AcDbEntity
  8
AM_5
 62
     2
100
AcDbMText
 10
-61.23407217218417
 20
-0.0000000750000272
 30
0.0
 40
1.6
 41
0.0
 71
     5
 72
     1
  1
%%c6
  7
ASAMI
 11
0.0000000000000001
 21
1.0
 31
0.0
1001
ACAD
1000
MTEXTBEGIN
1070
    73
1070
     1
1070
    44
1040
1.0
1070
    74
1070
     0
1000
MTEXTEND
  0
POINT
  5
1A8E
330
14E5
100
AcDbEntity
  8
DEFPOINTS
 62
     0
100
AcDbPoint
 10
-49.70454545454547
 20
-3.000000075000001
 30
0.0
  0
POINT
  5
1A8F
330
14E5
100
AcDbEntity
  8
DEFPOINTS
 62
     0
100
AcDbPoint
 10
-49.70454545454545
 20
2.999999924999998
 30
0.0
  0
POINT
  5
1A90
330
14E5
100
AcDbEntity
  8
DEFPOINTS
 62
     0
100
AcDbPoint
 10
-59.68407217218417
 20
2.999999925000001
 30
0.0
  0
ENDBLK
  5
14F2
330
14E5
100
AcDbEntity
  8
0
100
AcDbBlockEnd
  0
BLOCK
  5
16C4
330
16B8
100
AcDbEntity
  8
0
100
AcDbBlockBegin
  2
*D8
 70
     1
 10
0.0
 20
0.0
 30
0.0
  3
*D8
  1

  0
LINE
  5
1AA4
330
16B8
100
AcDbEntity
  8
AM_5
100
AcDbLine
 10
0.4999999948760383
 20
2.502869211492583
 30
0.0
 11
10.21489549312785
 21
2.50286921149258
 31
0.0
  0
LINE
  5
1AA5
330
16B8
100
AcDbEntity
  8
AM_5
100
AcDbLine
 10
0.5
 20
-2.497130852024315
 30
0.0
 11
10.21489549312785
 21
-2.497130852024318
 31
0.0
  0
LINE
  5
1AA6
330
16B8
100
AcDbEntity
  8
AM_5
100
AcDbLine
 10
9.714895493127857
 20
3.75286921149258
 30
0.0
 11
9.714895493127858
 21
5.002869211492581
 31
0.0
  0
LINE
  5
1AA7
330
16B8
100
AcDbEntity
  8
AM_5
100
AcDbLine
 10
9.714895493127857
 20
-3.747130852024318
 30
0.0
 11
9.714895493127855
 21
-4.997130852024318
 31
0.0
  0
LINE
  5
1AA8
330
16B8
100
AcDbEntity
  8
AM_5
100
AcDbLine
 10
9.714895493127857
 20
2.50286921149258
 30
0.0
 11
9.714895493127857
 21
-2.497130852024318
 31
0.0
  0
INSERT
  5
1AA9
330
16B8
100
AcDbEntity
  8
AM_5
100
AcDbBlockReference
  2
_OPEN30
 10
9.714895493127857
 20
2.50286921149258
 30
0.0
 41
1.25
 42
1.25
 43
1.25
 50
270.0
  0
INSERT
  5
1AAA
330
16B8
100
AcDbEntity
  8
AM_5
100
AcDbBlockReference
  2
_OPEN30
 10
9.714895493127857
 20
-2.497130852024318
 30
0.0
 41
1.25
 42
1.25
 43
1.25
 50
90.0
  0
MTEXT
  5
1AAB
330
16B8
100
AcDbEntity
  8
AM_5
 62
     2
100
AcDbMText
 10
8.164895493127856
 20
0.0028691797341322
 30
0.0
 40
1.6
 41
0.0
 71
     5
 72
     1
  1
%%c5
  7
ASAMI
 11
0.0000000000000001
 21
1.0
 31
0.0
1001
ACAD
1000
MTEXTBEGIN
1070
    73
1070
     1
1070
    44
1040
1.0
1070
    74
1070
     0
1000
MTEXTEND
  0
POINT
  5
1AAC
330
16B8
100
AcDbEntity
  8
DEFPOINTS
 62
     0
100
AcDbPoint
 10
-0.0000000051239617
 20
2.502869211492583
 30
0.0
  0
POINT
  5
1AAD
330
16B8
100
AcDbEntity
  8
DEFPOINTS
 62
     0
100
AcDbPoint
 10
0.0
 20
-2.497130852024315
 30
0.0
  0
POINT
  5
1AAE
330
16B8
100
AcDbEntity
  8
DEFPOINTS
 62
     0
100
AcDbPoint
 10
9.714895493127857
 20
-2.497130852024318
 30
0.0
  0
ENDBLK
  5
16C5
330
16B8
100
AcDbEntity
  8
0
100
AcDbBlockEnd
  0
ENDSEC
  0
SECTION
  2
ENTITIES
  0
TEXT
  5
E76
330
1F
100
AcDbEntity
  8
AM_6
100
AcDbText
 10
-35.41666666666666
 20
-27.25000107500003
 30
0.0
 40
2.5
  1
GLM4050SF
 72
     1
 11
-24.99999999999999
 21
-26.00000107500003
 31
0.0
100
AcDbText
 73
     2
  0
LINE
  5
105C
330
1F
100
AcDbEntity
  8
AM_0
100
AcDbLine
 10
-50.0
 20
2.699999924999998
 30
0.0
 11
-49.70454545454545
 21
2.999999924999998
 31
0.0
1001
GENIUS_GENFIL_13
1070
     0
1040
0.5
1040
0.5
1040
20.0
1040
0.0
1002
{
1002
}
1001
GENIUS_GENODEF_13
1002
{
1000
HIER
1070
     0
1002
}
1002
{
1000
MANEDIT
1070
     0
1002
}
1002
{
1000
NOSEL
1070
     0
1002
}
1002
{
1000
BEHIND
1070
     0
1002
}
1002
{
1000
REACTOR
1002
}
1001
GENIUS_GENOBJ-N-CHA_13
1002
{
1000
OWNER
1000
GEN
1002
}
  0
LINE
  5
105D
330
1F
100
AcDbEntity
  8
AM_0
100
AcDbLine
 10
-50.0
 20
-2.699999925000087
 30
0.0
 11
-49.7045454572925
 21
-2.999959015501324
 31
0.0
1001
GENIUS_GENFIL_13
1070
     0
1040
0.5
1040
0.5
1040
20.0
1040
0.0
1002
{
1002
}
1001
GENIUS_GENODEF_13
1002
{
1000
HIER
1070
     0
1002
}
1002
{
1000
MANEDIT
1070
     0
1002
}
1002
{
1000
NOSEL
1070
     0
1002
}
1002
{
1000
BEHIND
1070
     0
1002
}
1002
{
1000
REACTOR
1002
}
1001
GENIUS_GENOBJ-N-CHA_13
1002
{
1000
OWNER
1000
GEN
1002
}
  0
LINE
  5
105E
330
1F
100
AcDbEntity
  8
AM_0
100
AcDbLine
 10
-50.0
 20
-2.699999925000087
 30
0.0
 11
-50.0
 21
2.699999924999998
 31
0.0
  0
LINE
  5
105F
330
1F
100
AcDbEntity
  8
AM_0
100
AcDbLine
 10
-49.7045454572925
 20
-2.999959015501324
 30
0.0
 11
-49.70454545454545
 21
2.999999924999998
 31
0.0
  0
LINE
  5
1061
330
1F
100
AcDbEntity
  8
AM_0
100
AcDbLine
 10
-49.67057113823383
 20
2.999999924999999
 30
0.0
 11
-21.46602568368838
 21
2.999999924999921
 31
0.0
  0
DIMENSION
  5
1062
330
1F
100
AcDbEntity
  8
AM_5
100
AcDbDimension
  2
*D5
 10
-0.0000000000000008
 20
-16.00000107500003
 30
0.0
 11
-25.0
 21
-14.45000107500003
 31
0.0
 70
    32
  1
<>
  3
AM_JIS
100
AcDbAlignedDimension
 13
-50.0
 23
-2.699999925000087
 33
0.0
 14
0.0
 24
-2.999999925000157
 34
0.0
 50
0.0000000000001149
100
AcDbRotatedDimension
1001
GENIUS_GENDTOL_13
1000

1000
h7
1000

1040
0.0
  0
LINE
  5
106F
330
1F
100
AcDbEntity
  8
AM_7
100
AcDbLine
 10
-52.68407117218419
 20
-0.0000000000000451
 30
0.0
 11
2.714894493127864
 21
-0.0000000000000454
 31
0.0
1001
GENIUS_GENODEF_13
1002
{
1000
HIER
1070
     0
1002
}
1002
{
1000
MANEDIT
1070
     0
1002
}
1002
{
1000
NOSEL
1070
     0
1002
}
1002
{
1000
BEHIND
1070
     0
1002
}
1002
{
1000
REACTOR
1002
}
1001
GENIUS_GENOBJ-N-CEN_13
1002
{
1000
OWNER
1000
GEN
1002
}
  0
LINE
  5
113E
330
1F
100
AcDbEntity
  8
AM_0
100
AcDbLine
 10
-49.67057113823384
 20
-3.000000075
 30
0.0
 11
-21.46602568368837
 21
-3.000000075000078
 31
0.0
  0
LINE
  5
147A
330
1F
100
AcDbEntity
  8
AM_0
100
AcDbLine
 10
-0.0726659979440931
 20
0.4374999890623595
 30
0.0
 11
-0.7638872542454259
 21
1.450541041911435
 31
0.0
  0
LINE
  5
147B
330
1F
100
AcDbEntity
  8
AM_0
100
AcDbLine
 10
-0.0363329989719122
 20
-0.0624999984375454
 30
0.0
 11
-0.0363329989719122
 21
-0.4834952558510969
 31
0.0
  0
LINE
  5
147C
330
1F
100
AcDbEntity
  8
AM_0
100
AcDbLine
 10
-0.0363329989719122
 20
-0.4834952558510969
 30
0.0
 11
-0.0726659979440931
 21
-0.6604886828886838
 31
0.0
  0
LINE
  5
147D
330
1F
100
AcDbEntity
  8
AM_0
100
AcDbLine
 10
-1.123644634444955
 20
-0.0624999984375454
 30
0.0
 11
-0.0363329989719122
 21
-0.0624999984375454
 31
0.0
  0
LINE
  5
147E
330
1F
100
AcDbEntity
  8
AM_0
100
AcDbLine
 10
-0.0726659979440931
 20
-0.6604886828886838
 30
0.0
 11
-0.6320998726349156
 21
-0.9589063895726331
 31
0.0
  0
LINE
  5
147F
330
1F
100
AcDbEntity
  8
AM_0
100
AcDbLine
 10
0.0
 20
-0.0000000000001142
 30
0.0
 11
-0.0726659979440931
 21
0.4374999890623595
 31
0.0
  0
LINE
  5
1480
330
1F
100
AcDbEntity
  8
AM_0
100
AcDbLine
 10
-0.0726659979440931
 20
-2.350363966622752
 30
0.0
 11
0.0
 21
-2.497130852024315
 31
0.0
  0
LINE
  5
1481
330
1F
100
AcDbEntity
  8
AM_0
100
AcDbLine
 10
-0.0726659979440931
 20
-2.350363966622865
 30
0.0
 11
-0.0726659979440931
 21
-0.6604886828886838
 31
0.0
  0
LINE
  5
1482
330
1F
100
AcDbEntity
  8
AM_0
100
AcDbLine
 10
0.0
 20
-2.497130852024315
 30
0.0
 11
0.0
 21
2.502869211493714
 31
0.0
  0
LINE
  5
1483
330
1F
100
AcDbEntity
  8
AM_0
100
AcDbLine
 10
-0.0726659979440931
 20
-2.350363966622752
 30
0.0
 11
-0.7638872542454259
 21
-1.595813267242249
 31
0.0
  0
LINE
  5
1484
330
1F
100
AcDbEntity
  8
AM_0
100
AcDbLine
 10
-14.77272727272727
 20
-0.6298380103301616
 30
0.0
 11
-14.77272727272727
 21
-0.1220835275258314
 31
0.0
  0
LINE
  5
1485
330
1F
100
AcDbEntity
  8
AM_0
100
AcDbLine
 10
-15.51136363636364
 20
-0.0000000000000573
 30
0.0
 11
-15.51136363636364
 21
0.9906159439067888
 31
0.0
  0
LINE
  5
1486
330
1F
100
AcDbEntity
  8
AM_0
100
AcDbLine
 10
-17.17045957492748
 20
1.958000328562945
 30
0.0
 11
-16.70286176480342
 21
2.186434554487675
 31
0.0
  0
LINE
  5
1487
330
1F
100
AcDbEntity
  8
AM_0
100
AcDbLine
 10
-17.17045957492479
 20
-0.5276543006378353
 30
0.0
 11
-16.70286176480342
 21
-0.2992200747142424
 31
0.0
  0
LINE
  5
1488
330
1F
100
AcDbEntity
  8
AM_11
100
AcDbLine
 10
-13.0
 20
-2.499452285819085
 30
0.0
 11
-13.0
 21
2.500506780526937
 31
0.0
  0
LINE
  5
1489
330
1F
100
AcDbEntity
  8
AM_0
100
AcDbLine
 10
-15.51136363636364
 20
-1.917366567990882
 30
0.0
 11
-15.51136363636364
 21
-2.481381872904592
 31
0.0
  0
ELLIPSE
  5
149B
330
1F
100
AcDbEntity
  8
AM_0
100
AcDbEllipse
 10
-1.123644634444963
 20
-0.3624999909375792
 30
0.0
 11
0.3545454456818215
 21
0.0000000000000028
 31
0.0
210
0.0
220
0.0
230
1.0
 40
0.8461538461538452
 41
1.570796326794889
 42
4.301413780183482
  0
ELLIPSE
  5
149C
330
1F
100
AcDbEntity
  8
AM_0
100
AcDbEllipse
 10
-15.59324597671668
 20
0.8512898134415106
 30
0.0
 11
-1.92899205234776
 21
0.0000000000000014
 31
0.0
210
0.0
220
0.0
230
1.0
 40
0.8461538461538477
 41
4.59476291781716
 42
5.325275348012991
  0
ELLIPSE
  5
149D
330
1F
100
AcDbEntity
  8
AM_0
100
AcDbEllipse
 10
-16.82727557645622
 20
1.463984486407482
 30
0.0
 11
-0.6772302324215556
 21
0.000000000000005
 31
0.0
210
0.0
220
0.0
230
1.0
 40
0.8461538461538477
 41
-1.055005327836369
 42
1.039389774559956
  0
ELLIPSE
  5
149E
330
1F
100
AcDbEntity
  8
AM_0
100
AcDbEllipse
 10
-16.08649114131781
 20
-1.327734821280658
 30
0.0
 11
1.362862928795557
 21
0.0000000000000004
 31
0.0
210
0.0
220
0.0
230
1.0
 40
0.8461538461538486
 41
1.014526247916226
 42
2.148694367420624
  0
ELLIPSE
  5
149F
330
1F
100
AcDbEntity
  8
AM_0
100
AcDbEllipse
 10
-2.692596558676363
 20
-0.9818628643441234
 30
0.0
 11
-2.060675289963925
 21
0.0000000000000001
 31
0.0
210
0.0
220
0.0
230
1.0
 40
0.8461538461538452
 41
2.781771566262312
 42
3.154758805119931
  0
ELLIPSE
  5
14A0
330
1F
100
AcDbEntity
  8
AM_0
100
AcDbEllipse
 10
-2.32407959415008
 20
-2.746856147845222
 30
0.0
 11
-2.706972041853184
 21
0.0000000000000891
 31
0.0
210
0.0
220
0.0
230
1.0
 40
0.8461538461538417
 41
4.037199619381056
 42
4.311132199203421
  0
ELLIPSE
  5
14A1
330
1F
100
AcDbEntity
  8
AM_0
100
AcDbEllipse
 10
-16.56343888578334
 20
-1.182196700165875
 30
0.0
 11
-0.9832872863295245
 21
0.0000000000000068
 31
0.0
210
0.0
220
0.0
230
1.0
 40
0.8461538461538461
 41
-0.9054417914272855
 42
1.428524230663092
  0
SPLINE
  5
14A2
330
1F
100
AcDbEntity
  8
AM_0
100
AcDbSpline
210
0.0
220
0.0
230
1.0
 70
     8
 71
     3
 72
     8
 73
     4
 74
     0
 42
0.0000000001
 43
0.0000000001
 40
0.0
 40
0.0
 40
0.0
 40
0.0
 40
14.47015062460583
 40
14.47015062460583
 40
14.47015062460583
 40
14.47015062460583
 10
-8.025137265451721
 20
2.497081128313368
 30
0.0
 10
-5.174956081817239
 20
2.497081128313367
 30
0.0
 10
-2.587478040908619
 20
1.248540564156626
 30
0.0
 10
0.0
 20
-0.0000000000001142
 30
0.0
  0
SPLINE
  5
14A3
330
1F
100
AcDbEntity
  8
AM_0
100
AcDbSpline
210
0.0
220
0.0
230
1.0
 70
     8
 71
     3
 72
     8
 73
     4
 74
     0
 42
0.0000000001
 43
0.0000000001
 40
4.041712701031824
 40
4.041712701031824
 40
4.041712701031824
 40
4.041712701031824
 40
43.20630823911048
 40
43.20630823911048
 40
43.20630823911048
 40
43.20630823911048
 10
-14.24079422131279
 20
2.332314274403017
 30
0.0
 10
-11.70769759396998
 20
2.140767156618665
 30
0.0
 10
-9.351135571221572
 20
1.066701894796949
 30
0.0
 10
-6.994573548473164
 20
-0.0073633670248801
 30
0.0
  0
SPLINE
  5
14A4
330
1F
100
AcDbEntity
  8
AM_0
100
AcDbSpline
210
0.0
220
0.0
230
1.0
 70
     8
 71
     3
 72
     8
 73
     4
 74
     0
 42
0.0000000001
 43
0.0000000001
 40
0.0
 40
0.0
 40
0.0
 40
0.0
 40
16.40765811415315
 40
16.40765811415315
 40
16.40765811415315
 40
16.40765811415315
 10
-8.064745445617498
 20
2.499999937499921
 30
0.0
 10
-9.142015900928093
 20
2.499999937499921
 30
0.0
 10
-10.1816886376501
 20
2.321496179516827
 30
0.0
 10
-11.1979715650067
 20
2.031943958306043
 30
0.0
  0
SPLINE
  5
14A5
330
1F
100
AcDbEntity
  8
AM_0
100
AcDbSpline
210
0.0
220
0.0
230
1.0
 70
     8
 71
     3
 72
     8
 73
     4
 74
     0
 42
0.0000000001
 43
0.0000000001
 40
0.0
 40
0.0
 40
0.0
 40
0.0
 40
14.30142107637939
 40
14.30142107637939
 40
14.30142107637939
 40
14.30142107637939
 10
-13.06782615790848
 20
2.185141588036969
 30
0.0
 10
-10.25087958225799
 20
2.185141588036969
 30
0.0
 10
-7.636609177270235
 20
1.091111389425179
 30
0.0
 10
-5.022338772282472
 20
-0.0029188091866108
 30
0.0
  0
SPLINE
  5
14A6
330
1F
100
AcDbEntity
  8
AM_0
100
AcDbSpline
210
0.0
220
0.0
230
1.0
 70
     8
 71
     3
 72
     8
 73
     4
 74
     0
 42
0.0000000001
 43
0.0000000001
 40
0.0
 40
0.0
 40
0.0
 40
0.0
 40
14.30142107637946
 40
14.30142107637946
 40
14.30142107637946
 40
14.30142107637946
 10
-5.013214822110926
 20
-2.188060397223751
 30
0.0
 10
-7.830161397761425
 20
-2.18806039722375
 30
0.0
 10
-10.44443180274918
 20
-1.094030198611904
 30
0.0
 10
-13.05870220773694
 20
-0.0000000000000573
 30
0.0
  0
SPLINE
  5
14A7
330
1F
100
AcDbEntity
  8
AM_0
100
AcDbSpline
210
0.0
220
0.0
230
1.0
 70
     8
 71
     3
 72
     8
 73
     4
 74
     0
 42
0.0000000001
 43
0.0000000001
 40
0.0
 40
0.0
 40
0.0
 40
0.0
 40
11.14024708123303
 40
11.14024708123303
 40
11.14024708123303
 40
11.14024708123303
 10
-6.994649646312382
 20
-2.374258116927479
 30
0.0
 10
-9.737513511009783
 20
-2.374258116927479
 30
0.0
 10
-12.25878833626135
 20
-1.266507326196631
 30
0.0
 10
-14.77272727272727
 20
-0.1220835275258314
 30
0.0
  0
SPLINE
  5
14A8
330
1F
100
AcDbEntity
  8
AM_0
100
AcDbSpline
210
0.0
220
0.0
230
1.0
 70
     8
 71
     3
 72
     8
 73
     4
 74
     0
 42
0.0000000001
 43
0.0000000001
 40
0.0
 40
0.0
 40
0.0
 40
0.0
 40
10.49949233464396
 40
10.49949233464396
 40
10.49949233464396
 40
10.49949233464396
 10
-8.064745445617498
 20
-2.499999937500036
 30
0.0
 10
-10.6498477249805
 20
-2.499999937500036
 30
0.0
 10
-13.01844524106716
 20
-1.472094114576123
 30
0.0
 10
-15.36686910193894
 20
-0.3484092549639972
 30
0.0
  0
SPLINE
  5
14A9
330
1F
100
AcDbEntity
  8
AM_0
100
AcDbSpline
210
0.0
220
0.0
230
1.0
 70
     8
 71
     3
 72
     8
 73
     4
 74
     0
 42
0.0000000001
 43
0.0000000001
 40
5.940484414839465
 40
5.940484414839465
 40
5.940484414839465
 40
5.940484414839465
 40
43.20630823911048
 40
43.20630823911048
 40
43.20630823911048
 40
43.20630823911048
 10
-0.1095139219498006
 20
-2.310140049058362
 30
0.0
 10
-2.503908625357449
 20
-2.048429757884776
 30
0.0
 10
-4.74622018160277
 20
-1.026437157861494
 30
0.0
 10
-6.988531737848089
 20
-0.0044445578383266
 30
0.0
  0
SPLINE
  5
14AA
330
1F
100
AcDbEntity
  8
AM_0
100
AcDbSpline
210
0.0
220
0.0
230
1.0
 70
     8
 71
     3
 72
     8
 73
     4
 74
     0
 42
0.0000000001
 43
0.0000000001
 40
19.81419196662877
 40
19.81419196662877
 40
19.81419196662877
 40
19.81419196662877
 40
42.90426430174475
 40
42.90426430174475
 40
42.90426430174475
 40
42.90426430174475
 10
-0.7638872542451571
 20
-1.595813267242249
 30
0.0
 10
-2.202418493531819
 20
-1.17756296880367
 30
0.0
 10
-3.609357727594608
 20
-0.5887814844018641
 30
0.0
 10
-5.016296961657128
 20
-0.0000000000000573
 30
0.0
  0
SPLINE
  5
14AB
330
1F
100
AcDbEntity
  8
AM_0
100
AcDbSpline
210
0.0
220
0.0
230
1.0
 70
     8
 71
     3
 72
     8
 73
     4
 74
     0
 42
0.0000000001
 43
0.0000000001
 40
4.041712701031824
 40
4.041712701031824
 40
4.041712701031824
 40
4.041712701031824
 40
36.66696766287024
 40
36.66696766287024
 40
36.66696766287024
 40
36.66696766287024
 10
-6.19838897523325
 20
2.332314274403017
 30
0.0
 10
-4.088245306580037
 20
2.172749916107874
 30
0.0
 10
-2.100605670814419
 20
1.400772869721378
 30
0.0
 10
-0.1334206211872077
 20
0.5265408380448089
 30
0.0
  0
SPLINE
  5
14AC
330
1F
100
AcDbEntity
  8
AM_0
100
AcDbSpline
210
0.0
220
0.0
230
1.0
 70
     8
 71
     3
 72
     8
 73
     4
 74
     0
 42
0.0000000001
 43
0.0000000001
 40
0.0
 40
0.0
 40
0.0
 40
0.0
 40
22.32639506415645
 40
22.32639506415645
 40
22.32639506415645
 40
22.32639506415645
 10
-5.025420911828674
 20
2.185141588036969
 30
0.0
 10
-3.559546525071379
 20
2.185141588036969
 30
0.0
 10
-2.148555282311173
 20
1.888886647304332
 30
0.0
 10
-0.7638872542454259
 20
1.450541041911435
 30
0.0
  0
SPLINE
  5
14AD
330
1F
100
AcDbEntity
  8
AM_0
100
AcDbSpline
210
0.0
220
0.0
230
1.0
 70
     8
 71
     3
 72
     8
 73
     4
 74
     0
 42
0.0000000001
 43
0.0000000001
 40
0.0
 40
0.0
 40
0.0
 40
0.0
 40
16.40765811415315
 40
16.40765811415315
 40
16.40765811415315
 40
16.40765811415315
 10
0.0
 20
2.502869211493714
 30
0.0
 10
-1.099610654848551
 20
2.499999937499921
 30
0.0
 10
-2.139283391570292
 20
2.321496179516827
 30
0.0
 10
-3.155566318927164
 20
2.031943958306043
 30
0.0
  0
SPLINE
  5
14AE
330
1F
100
AcDbEntity
  8
AM_0
100
AcDbSpline
210
0.0
220
0.0
230
1.0
 70
     8
 71
     3
 72
     8
 73
     4
 74
     0
 42
0.0000000001
 43
0.0000000001
 40
4.497685297584327
 40
4.497685297584327
 40
4.497685297584327
 40
4.497685297584327
 40
9.915363876658778
 40
9.915363876658778
 40
9.915363876658778
 40
9.915363876658778
 10
-1.046191059232011
 20
1.537780497477967
 30
0.0
 10
-0.7039946325463586
 20
1.622099250885469
 30
0.0
 10
-0.3675480471671852
 20
1.742304681265806
 30
0.0
 10
-0.0311014617877432
 20
1.862510111646144
 30
0.0
  0
SPLINE
  5
14AF
330
1F
100
AcDbEntity
  8
AM_0
100
AcDbSpline
210
0.0
220
0.0
230
1.0
 70
     8
 71
     3
 72
     8
 73
     4
 74
     0
 42
0.0000000001
 43
0.0000000001
 40
0.0
 40
0.0
 40
0.0
 40
0.0
 40
9.450452127946082
 40
9.450452127946082
 40
9.450452127946082
 40
9.450452127946082
 10
-8.025137265451721
 20
-2.497081128313596
 30
0.0
 10
-7.404653050341081
 20
-2.497081128313596
 30
0.0
 10
-6.796641908393977
 20
-2.437862364068735
 30
0.0
 10
-6.19838897523325
 20
-2.332314274403246
 30
0.0
  0
SPLINE
  5
14B0
330
1F
100
AcDbEntity
  8
AM_0
100
AcDbSpline
210
0.0
220
0.0
230
1.0
 70
     8
 71
     3
 72
     8
 73
     4
 74
     0
 42
0.0000000001
 43
0.0000000001
 40
0.0
 40
0.0
 40
0.0
 40
0.0
 40
9.964098609850829
 40
9.964098609850829
 40
9.964098609850829
 40
9.964098609850829
 10
-6.988455640009141
 20
-2.362450192064501
 30
0.0
 10
-6.334247161778193
 20
-2.362450192064501
 30
0.0
 10
-5.692644532676344
 20
-2.299432005896677
 30
0.0
 10
-5.060740632680852
 20
-2.18792868317297
 30
0.0
  0
SPLINE
  5
14B1
330
1F
100
AcDbEntity
  8
AM_0
100
AcDbSpline
210
0.0
220
0.0
230
1.0
 70
     8
 71
     3
 72
     8
 73
     4
 74
     0
 42
0.0000000001
 43
0.0000000001
 40
0.0
 40
0.0
 40
0.0
 40
0.0
 40
9.637195575647414
 40
9.637195575647414
 40
9.637195575647414
 40
9.637195575647414
 10
-5.025420911828674
 20
-2.185141588037198
 30
0.0
 10
-4.392675763589647
 20
-2.185141588037198
 30
0.0
 10
-3.770156552441965
 20
-2.129942775318398
 30
0.0
 10
-3.155566318927164
 20
-2.031943958306158
 30
0.0
  0
SPLINE
  5
14B2
330
1F
100
AcDbEntity
  8
AM_0
100
AcDbSpline
210
0.0
220
0.0
230
1.0
 70
     8
 71
     3
 72
     8
 73
     4
 74
     0
 42
0.0000000001
 43
0.0000000001
 40
10.43080782587999
 40
10.43080782587999
 40
10.43080782587999
 40
10.43080782587999
 40
11.52168190905409
 40
11.52168190905409
 40
11.52168190905409
 40
11.52168190905409
 10
-14.77272727272727
 20
-0.3355556228511323
 30
0.0
 10
-15.01907350832371
 20
-0.2243742028265961
 30
0.0
 10
-15.26521857234367
 20
-0.1121871014134404
 30
0.0
 10
-15.51136363636364
 20
-0.0000000000000573
 30
0.0
  0
SPLINE
  5
14B3
330
1F
100
AcDbEntity
  8
AM_0
100
AcDbSpline
210
0.0
220
0.0
230
1.0
 70
     8
 71
     3
 72
     8
 73
     4
 74
     0
 42
0.0000000001
 43
0.0000000001
 40
7.872155465811081
 40
7.872155465811081
 40
7.872155465811081
 40
7.872155465811081
 40
11.44113686110349
 40
11.44113686110349
 40
11.44113686110349
 40
11.44113686110349
 10
-15.51136363636364
 20
0.9906159439067888
 30
0.0
 10
-14.68970838324813
 20
0.682549902537573
 30
0.0
 10
-13.8742052954924
 20
0.3412749512687578
 30
0.0
 10
-13.05870220773694
 20
-0.000000000000171
 30
0.0
  0
SPLINE
  5
14B4
330
1F
100
AcDbEntity
  8
AM_0
100
AcDbSpline
210
0.0
220
0.0
230
1.0
 70
     8
 71
     3
 72
     8
 73
     4
 74
     0
 42
0.0000000001
 43
0.0000000001
 40
0.0
 40
0.0
 40
0.0
 40
0.0
 40
3.445482686890237
 40
3.445482686890237
 40
3.445482686890237
 40
3.445482686890237
 10
-13.01601188802388
 20
-2.185141588037198
 30
0.0
 10
-13.86433148896297
 20
-2.185141588037198
 30
0.0
 10
-14.69427028723101
 20
-2.085923445465881
 30
0.0
 10
-15.51136363636364
 20
-1.917366567990882
 30
0.0
  0
SPLINE
  5
14B5
330
1F
100
AcDbEntity
  8
AM_0
100
AcDbSpline
210
0.0
220
0.0
230
1.0
 70
     8
 71
     3
 72
     8
 73
     4
 74
     0
 42
0.0000000001
 43
0.0000000001
 40
4.041712701031851
 40
4.041712701031851
 40
4.041712701031851
 40
4.041712701031851
 40
9.964098609850829
 40
9.964098609850829
 40
9.964098609850829
 40
9.964098609850829
 10
-14.24079422131279
 20
-2.332314274403246
 30
0.0
 10
-13.85774479707286
 20
-2.3033489311984
 30
0.0
 10
-13.47873216103211
 20
-2.254203188589088
 30
0.0
 10
-13.10314587876066
 20
-2.18792868317297
 30
0.0
  0
SPLINE
  5
14B6
330
1F
100
AcDbEntity
  8
AM_0
100
AcDbSpline
210
0.0
220
0.0
230
1.0
 70
     8
 71
     3
 72
     8
 73
     4
 74
     0
 42
0.0000000001
 43
0.0000000001
 40
0.0
 40
0.0
 40
0.0
 40
0.0
 40
9.637195575647414
 40
9.637195575647414
 40
9.637195575647414
 40
9.637195575647414
 10
-13.06782615790848
 20
-2.185141588037198
 30
0.0
 10
-12.43508100966945
 20
-2.185141588037198
 30
0.0
 10
-11.81256179852151
 20
-2.129942775318398
 30
0.0
 10
-11.1979715650067
 20
-2.031943958306158
 30
0.0
  0
SPLINE
  5
14B7
330
1F
100
AcDbEntity
  8
AM_0
100
AcDbSpline
210
0.0
220
0.0
230
1.0
 70
     8
 71
     3
 72
     8
 73
     4
 74
     0
 42
0.0000000001
 43
0.0000000001
 40
1.140063819971138
 40
1.140063819971138
 40
1.140063819971138
 40
1.140063819971138
 40
2.790246636948332
 40
2.790246636948332
 40
2.790246636948332
 40
2.790246636948332
 10
-15.51136363636364
 20
-2.153635079377693
 30
0.0
 10
-15.91212310731787
 20
-2.123754660863199
 30
0.0
 10
-16.30908644251109
 20
-2.073382996894054
 30
0.0
 10
-16.70286176480342
 20
-2.005802687352173
 30
0.0
  0
SPLINE
  5
14B8
330
1F
100
AcDbEntity
  8
AM_0
100
AcDbSpline
210
0.0
220
0.0
230
1.0
 70
     8
 71
     3
 72
     8
 73
     4
 74
     0
 42
0.0000000001
 43
0.0000000001
 40
7.951699575921333
 40
7.951699575921333
 40
7.951699575921333
 40
7.951699575921333
 40
10.36385682192277
 40
10.36385682192277
 40
10.36385682192277
 40
10.36385682192277
 10
-17.17045957492479
 20
0.9699686442506273
 30
0.0
 10
-16.61531306995336
 20
0.7607675963880066
 30
0.0
 10
-16.06291421729509
 20
0.5367349351396907
 30
0.0
 10
-15.51136363636364
 20
0.3081233691156622
 30
0.0
  0
SPLINE
  5
14B9
330
1F
100
AcDbEntity
  8
AM_0
100
AcDbSpline
210
0.0
220
0.0
230
1.0
 70
     8
 71
     3
 72
     8
 73
     4
 74
     0
 42
0.0000000001
 43
0.0000000001
 40
0.0
 40
0.0
 40
0.0
 40
0.0
 40
9.450452127946082
 40
9.450452127946082
 40
9.450452127946082
 40
9.450452127946082
 10
-16.06754251153154
 20
-2.500000062500097
 30
0.0
 10
-15.44705829642089
 20
-2.497081128313596
 30
0.0
 10
-14.83904715447351
 20
-2.437862364068735
 30
0.0
 10
-14.24079422131279
 20
-2.332314274403246
 30
0.0
  0
SPLINE
  5
14BA
330
1F
100
AcDbEntity
  8
AM_0
100
AcDbSpline
210
0.0
220
0.0
230
1.0
 70
     8
 71
     3
 72
     8
 73
     4
 74
     0
 42
0.0000000001
 43
0.0000000001
 40
0.0
 40
0.0
 40
0.0
 40
0.0
 40
14.47293633748862
 40
14.47293633748862
 40
14.47293633748862
 40
14.47293633748862
 10
0.0
 20
-2.497131100803485
 30
0.0
 10
-2.873070084194806
 20
-2.499999937500035
 30
0.0
 10
-5.460516172520976
 20
-1.249999968750046
 30
0.0
 10
-8.047962260847146
 20
-0.0000000000000573
 30
0.0
  0
SPLINE
  5
14BB
330
1F
100
AcDbEntity
  8
AM_0
100
AcDbSpline
210
0.0
220
0.0
230
1.0
 70
     8
 71
     3
 72
     8
 73
     4
 74
     0
 42
0.0000000001
 43
0.0000000001
 40
0.0
 40
0.0
 40
0.0
 40
0.0
 40
14.47293633748905
 40
14.47293633748905
 40
14.47293633748905
 40
14.47293633748905
 10
-16.06754251153153
 20
2.499999937499903
 30
0.0
 10
-13.2168126268746
 20
2.497081128313367
 30
0.0
 10
-10.62936653854833
 20
1.247081159563378
 30
0.0
 10
-8.041920450222072
 20
-0.0029188091866108
 30
0.0
  0
DIMENSION
  5
14BC
330
1F
100
AcDbEntity
  8
AM_5
100
AcDbDimension
  2
*D6
 10
-0.0000000000000005
 20
-10.00000107500004
 30
0.0
 11
-6.5
 21
-8.45000107500004
 31
0.0
 70
    32
  1
<>
  3
AM_JIS
100
AcDbAlignedDimension
 13
-13.0
 23
-2.499452285819085
 33
0.0
 14
0.0
 24
-2.497130852024315
 34
0.0
 50
0.0000000000000958
100
AcDbRotatedDimension
1001
GENIUS_GENDTOL_13
1000

1000
h7
1000

1040
0.0
  0
DIMENSION
  5
14E4
330
1F
100
AcDbEntity
  8
AM_5
100
AcDbDimension
  2
*D7
 10
-59.68407217218417
 20
2.999999925000001
 30
0.0
 11
-59.68407217218417
 21
-0.0000000750000274
 31
0.0
 70
   160
  1
%%c<>
  3
AM_JIS
100
AcDbAlignedDimension
 13
-49.70454545454547
 23
-3.000000075000001
 33
0.0
 14
-49.70454545454545
 24
2.999999924999998
 34
0.0
 50
269.9999999999998
100
AcDbRotatedDimension
1001
GENIUS_GENDTOL_13
1000

1000
h7
1000

1040
0.0
  0
LINE
  5
15F6
330
1F
100
AcDbEntity
  8
AM_0
100
AcDbLine
 10
-21.46602568368837
 20
-3.000000075000078
 30
0.0
 11
-19.6
 21
-2.500000000000045
 31
0.0
  0
LINE
  5
15F7
330
1F
100
AcDbEntity
  8
AM_0
100
AcDbLine
 10
-19.6
 20
-2.500000000000045
 30
0.0
 11
-19.6
 21
2.499999849999888
 31
0.0
  0
LINE
  5
15F8
330
1F
100
AcDbEntity
  8
AM_0
100
AcDbLine
 10
-19.6
 20
2.499999849999888
 30
0.0
 11
-21.46602568368837
 21
2.999999924999921
 31
0.0
  0
LINE
  5
15F9
330
1F
100
AcDbEntity
  8
AM_0
100
AcDbLine
 10
-15.75474075872571
 20
2.499999999999954
 30
0.0
 11
-19.6
 21
2.499999999999954
 31
0.0
  0
LINE
  5
15FA
330
1F
100
AcDbEntity
  8
AM_0
100
AcDbLine
 10
-16.03321819571984
 20
-2.500000000000045
 30
0.0
 11
-19.6
 21
-2.500000000000044
 31
0.0
  0
LINE
  5
15FC
330
1F
100
AcDbEntity
  8
AM_0
100
AcDbLine
 10
-21.46602568368837
 20
2.999999924999921
 30
0.0
 11
-21.46602568368837
 21
-3.000000075000078
 31
0.0
  0
LINE
  5
1616
330
1F
100
AcDbEntity
  8
AM_11
100
AcDbLine
 10
0.0
 20
2.502869211493714
 30
0.0
 11
0.0
 21
-2.497130852024315
 31
0.0
  0
LINE
  5
1639
330
1F
100
AcDbEntity
  8
AM_11
100
AcDbLine
 10
-13.0
 20
2.499999999999954
 30
0.0
 11
0.0000000000000004
 21
2.502869211493714
 31
0.0
  0
LINE
  5
163A
330
1F
100
AcDbEntity
  8
AM_11
100
AcDbLine
 10
0.0000000000000004
 20
2.502869211493714
 30
0.0
 11
0.0000000000000001
 21
-2.500000000000045
 31
0.0
  0
LINE
  5
163B
330
1F
100
AcDbEntity
  8
AM_11
100
AcDbLine
 10
0.0000000000000001
 20
-2.500000000000045
 30
0.0
 11
-13.0
 21
-2.499452285819085
 31
0.0
  0
DIMENSION
  5
16B7
330
1F
100
AcDbEntity
  8
AM_5
100
AcDbDimension
  2
*D8
 10
9.714895493127857
 20
-2.497130852024318
 30
0.0
 11
9.714895493127857
 21
0.002869179734132
 31
0.0
 70
   160
  1
%%c<>
  3
AM_JIS
100
AcDbAlignedDimension
 13
-0.0000000051239617
 23
2.502869211492583
 33
0.0
 14
0.0
 24
-2.497130852024315
 34
0.0
 50
90.0
100
AcDbRotatedDimension
1001
GENIUS_GENDTOL_13
1000

1000
h7
1000

1040
0.0
  0
LINE
  5
17F2
330
1F
100
AcDbEntity
  8
AM_11
100
AcDbLine
 10
0.0
 20
-2.499452285819085
 30
0.0
 11
0.0
 21
2.500506780526937
 31
0.0
  0
VIEWPORT
  5
110
330
101
100
AcDbEntity
 67
     1
  8
0
100
AcDbViewport
 10
420.5
 20
297.0
 30
0.0
 40
948.9782706766916
 41
628.452
 68
     1
 69
     1
1001
ACAD
1000
MVIEW
1002
{
1070
    16
1010
0.0
1020
0.0
1030
0.0
1010
0.0
1020
0.0
1030
1.0
1040
0.0
1040
628.452
1040
420.5
1040
297.0
1040
50.0
1040
0.0
1040
0.0
1070
     0
1070
   100
1070
     1
1070
     1
1070
     0
1070
     0
1070
     0
1070
     0
1040
0.0
1040
0.0
1040
0.0
1040
10.0
1040
10.0
1040
10.0
1040
10.0
1070
     0
1002
{
1002
}
1002
}
  0
ENDSEC
  0
SECTION
  2
OBJECTS
  0
DICTIONARY
  5
C
330
0
100
AcDbDictionary
  3
ACAD_GROUP
350
D
  3
ACAD_LAYOUT
350
1A
  3
ACAD_MLINESTYLE
350
17
  3
ACAD_PLOTSETTINGS
350
19
  3
ACAD_PLOTSTYLENAME
350
E
  3
ACDBVARIABLEDICTIONARY
350
34
  3
ACMDICTIONARY
350
43
  3
AMG
350
2B
  3
AMGSNAPSETTINGS
350
6E
  3
DWGPROPS
350
1AC7
  3
ACDBHEADERROUNDTRIPXREC
350
1AD3
  0
DICTIONARY
  5
74
330
1F
100
AcDbDictionary
280
     1
  3
ACAD_INDEX
360
1AC9
  3
ACAD_LAYOUTSELFREF
360
1AF6
  0
DICTIONARY
  5
1AFB
330
101
100
AcDbDictionary
280
     1
  3
ACAD_LAYOUTSELFREF
360
1AFC
  0
DICTIONARY
  5
D
102
{ACAD_REACTORS
330
C
102
}
330
C
100
AcDbDictionary
  0
DICTIONARY
  5
1A
102
{ACAD_REACTORS
330
C
102
}
330
C
100
AcDbDictionary
  0
DICTIONARY
  5
17
102
{ACAD_REACTORS
330
C
102
}
330
C
100
AcDbDictionary
  3
STANDARD
350
18
  0
DICTIONARY
  5
19
102
{ACAD_REACTORS
330
C
102
}
330
C
100
AcDbDictionary
  0
ACDBDICTIONARYWDFLT
  5
E
102
{ACAD_REACTORS
330
C
102
}
330
C
100
AcDbDictionary
281
     1
  3
Normal
350
F
100
AcDbDictionaryWithDefault
340
F
  0
DICTIONARY
  5
34
102
{ACAD_REACTORS
330
C
102
}
330
C
100
AcDbDictionary
  3
INDEXCTL
350
35
  3
SORTENTS
350
B5E
  0
DICTIONARY
  5
43
102
{ACAD_REACTORS
330
C
102
}
330
C
100
AcDbDictionary
  3
ACMSTDDICTIONARY
350
260
  0
DICTIONARY
  5
2B
102
{ACAD_REACTORS
330
C
102
}
330
C
100
AcDbDictionary
  3
ACMGSETTINGS
350
2C
  0
DICTIONARY
  5
6E
102
{ACAD_REACTORS
330
C
102
}
330
C
100
AcDbDictionary
  0
XRECORD
  5
1AC7
102
{ACAD_REACTORS
330
C
102
}
330
C
100
AcDbXrecord
  1
DWGPROPS COOKIE
  2

  3

  4

  6

  7

  8

  9

300
AmdtFileType=82
301
=
302
=
303
=
304
=
305
=
306
=
307
=
308
=
309
=
 40
0.0401325462962963
 41
2452809.375295671
 42
2452839.646459409
  1

 90
        1
  0
DICTIONARY
  5
1AD3
102
{ACAD_REACTORS
330
C
102
}
330
C
100
AcDbDictionary
  3
TSTACKALIGN
350
1AD4
  3
TSTACKSIZE
350
1AD5
  3
HYPERLINKBASE
350
1AD6
  3
STYLESHEET
350
1AD7
  3
LAYOUTDICT
350
1AD8
  3
PLOTSETDICT
350
1AD9
  3
PLOTSTYLNAMDICT
350
1ADA
  3
LWETCUNION
350
1ADB
  3
INSUNITS
350
1ADC
  3
CEPSNTYPE
350
1ADD
  3
FINGERPRINTGUID
350
1ADE
  3
VERSIONGUID
350
1ADF
  3
PSVPSCALE
350
1AE0
  3
DIMSTYLEDATA
350
1AE1
  3
PUCSORTHOREF
350
1AE2
  3
PUCSORTHOVIEW
350
1AE3
  3
PUCSBASE
350
1AE4
  3
PUCSORGTOP
350
1AE5
  3
PUCSORGBOTTOM
350
1AE6
  3
PUCSORGLEFT
350
1AE7
  3
PUCSORGRIGHT
350
1AE8
  3
PUCSORGFRONT
350
1AE9
  3
PUCSORGBACK
350
1AEA
  3
UCSORTHOREF
350
1AEB
  3
UCSORTHOVIEW
350
1AEC
  3
UCSBASE
350
1AED
  3
UCSORGTOP
350
1AEE
  3
UCSORGBOTTOM
350
1AEF
  3
UCSORGLEFT
350
1AF0
  3
UCSORGRIGHT
350
1AF1
  3
UCSORGFRONT
350
1AF2
  3
UCSORGBACK
350
1AF3
  0
DICTIONARY
  5
1AC9
102
{ACAD_REACTORS
330
74
102
}
330
74
100
AcDbDictionary
  3
*A1
350
1ACA
  0
XRECORD
  5
1AF6
102
{ACAD_REACTORS
330
74
102
}
330
74
100
AcDbXrecord
340
1F
  0
XRECORD
  5
1AFC
102
{ACAD_REACTORS
330
1AFB
102
}
330
1AFB
100
AcDbXrecord
340
101
  0
MLINESTYLE
  5
18
102
{ACAD_REACTORS
330
17
102
}
330
17
100
AcDbMlineStyle
  2
STANDARD
 70
     0
  3

 62
   256
 51
90.0
 52
90.0
 71
     2
 49
0.5
 62
   256
  6
BYLAYER
 49
-0.5
 62
   256
  6
BYLAYER
  0
ACDBPLACEHOLDER
  5
F
102
{ACAD_REACTORS
330
E
102
}
330
E
100
AcDbPlaceHolder
280
     0
  0
DICTIONARYVAR
  5
35
102
{ACAD_REACTORS
330
34
102
}
330
34
100
DictionaryVariables
280
     0
  1
1
  0
DICTIONARYVAR
  5
B5E
102
{ACAD_REACTORS
330
34
102
}
330
34
100
DictionaryVariables
280
     0
  1
96
  0
DICTIONARY
  5
260
102
{ACAD_REACTORS
330
43
102
}
330
43
100
AcDbDictionary
  0
DICTIONARY
  5
2C
102
{ACAD_REACTORS
330
2B
102
}
330
2B
100
AcDbDictionary
  3
DWGSETTINGS
350
2D
  0
XRECORD
  5
1AD4
102
{ACAD_REACTORS
330
1AD3
102
}
330
1AD3
100
AcDbXrecord
 90
        1
  0
XRECORD
  5
1AD5
102
{ACAD_REACTORS
330
1AD3
102
}
330
1AD3
100
AcDbXrecord
 90
       70
  0
XRECORD
  5
1AD6
102
{ACAD_REACTORS
330
1AD3
102
}
330
1AD3
100
AcDbXrecord
  1

  0
XRECORD
  5
1AD7
102
{ACAD_REACTORS
330
1AD3
102
}
330
1AD3
100
AcDbXrecord
  1
ASAMI.ctb
  0
XRECORD
  5
1AD8
102
{ACAD_REACTORS
330
1AD3
102
}
330
1AD3
100
AcDbXrecord
340
1A
  0
XRECORD
  5
1AD9
102
{ACAD_REACTORS
330
1AD3
102
}
330
1AD3
100
AcDbXrecord
340
19
  0
XRECORD
  5
1ADA
102
{ACAD_REACTORS
330
1AD3
102
}
330
1AD3
100
AcDbXrecord
340
E
  0
XRECORD
  5
1ADB
102
{ACAD_REACTORS
330
1AD3
102
}
330
1AD3
100
AcDbXrecord
 90
    10781
  0
XRECORD
  5
1ADC
102
{ACAD_REACTORS
330
1AD3
102
}
330
1AD3
100
AcDbXrecord
 90
        4
  0
XRECORD
  5
1ADD
102
{ACAD_REACTORS
330
1AD3
102
}
330
1AD3
100
AcDbXrecord
 90
        0
  0
XRECORD
  5
1ADE
102
{ACAD_REACTORS
330
1AD3
102
}
330
1AD3
100
AcDbXrecord
  1
{AFB28963-8C59-40AE-9337-C84526B81ACE}
  0
XRECORD
  5
1ADF
102
{ACAD_REACTORS
330
1AD3
102
}
330
1AD3
100
AcDbXrecord
  1
{D5DFC46C-5A2A-4F87-A64E-29BCAC7F50DF}
  0
XRECORD
  5
1AE0
102
{ACAD_REACTORS
330
1AD3
102
}
330
1AD3
100
AcDbXrecord
 40
0.0
  0
XRECORD
  5
1AE1
102
{ACAD_REACTORS
330
1AD3
102
}
330
1AD3
100
AcDbXrecord
1000
DSTYLE
1002
{
1070
    79
 70
     2
1070
   341
340
59
1070
   342
340
59
1070
   371
 70
    -1
1070
   372
 70
    -1
1002
}
  0
XRECORD
  5
1AE2
102
{ACAD_REACTORS
330
1AD3
102
}
330
1AD3
100
AcDbXrecord
340
0
  0
XRECORD
  5
1AE3
102
{ACAD_REACTORS
330
1AD3
102
}
330
1AD3
100
AcDbXrecord
 70
     0
  0
XRECORD
  5
1AE4
102
{ACAD_REACTORS
330
1AD3
102
}
330
1AD3
100
AcDbXrecord
340
0
  0
XRECORD
  5
1AE5
102
{ACAD_REACTORS
330
1AD3
102
}
330
1AD3
100
AcDbXrecord
 10
0.0
 20
0.0
 30
0.0
  0
XRECORD
  5
1AE6
102
{ACAD_REACTORS
330
1AD3
102
}
330
1AD3
100
AcDbXrecord
 10
0.0
 20
0.0
 30
0.0
  0
XRECORD
  5
1AE7
102
{ACAD_REACTORS
330
1AD3
102
}
330
1AD3
100
AcDbXrecord
 10
0.0
 20
0.0
 30
0.0
  0
XRECORD
  5
1AE8
102
{ACAD_REACTORS
330
1AD3
102
}
330
1AD3
100
AcDbXrecord
 10
0.0
 20
0.0
 30
0.0
  0
XRECORD
  5
1AE9
102
{ACAD_REACTORS
330
1AD3
102
}
330
1AD3
100
AcDbXrecord
 10
0.0
 20
0.0
 30
0.0
  0
XRECORD
  5
1AEA
102
{ACAD_REACTORS
330
1AD3
102
}
330
1AD3
100
AcDbXrecord
 10
0.0
 20
0.0
 30
0.0
  0
XRECORD
  5
1AEB
102
{ACAD_REACTORS
330
1AD3
102
}
330
1AD3
100
AcDbXrecord
340
0
  0
XRECORD
  5
1AEC
102
{ACAD_REACTORS
330
1AD3
102
}
330
1AD3
100
AcDbXrecord
 70
     0
  0
XRECORD
  5
1AED
102
{ACAD_REACTORS
330
1AD3
102
}
330
1AD3
100
AcDbXrecord
340
0
  0
XRECORD
  5
1AEE
102
{ACAD_REACTORS
330
1AD3
102
}
330
1AD3
100
AcDbXrecord
 10
0.0
 20
0.0
 30
0.0
  0
XRECORD
  5
1AEF
102
{ACAD_REACTORS
330
1AD3
102
}
330
1AD3
100
AcDbXrecord
 10
0.0
 20
0.0
 30
0.0
  0
XRECORD
  5
1AF0
102
{ACAD_REACTORS
330
1AD3
102
}
330
1AD3
100
AcDbXrecord
 10
0.0
 20
0.0
 30
0.0
  0
XRECORD
  5
1AF1
102
{ACAD_REACTORS
330
1AD3
102
}
330
1AD3
100
AcDbXrecord
 10
0.0
 20
0.0
 30
0.0
  0
XRECORD
  5
1AF2
102
{ACAD_REACTORS
330
1AD3
102
}
330
1AD3
100
AcDbXrecord
 10
0.0
 20
0.0
 30
0.0
  0
XRECORD
  5
1AF3
102
{ACAD_REACTORS
330
1AD3
102
}
330
1AD3
100
AcDbXrecord
 10
0.0
 20
0.0
 30
0.0
  0
LAYER_INDEX
  5
1ACA
102
{ACAD_REACTORS
330
1AC9
102
}
330
1AC9
100
AcDbIndex
 40
2452839.678155382
100
AcDbLayerIndex
  8
0
360
1ACB
 90
        0
  8
AM_0
360
1ACC
 90
       60
  8
AM_11
360
1ACD
 90
        6
  8
AM_7
360
1ACE
 90
        1
  8
AM_5
360
1ACF
 90
        4
  8
Defpoints
360
1AD0
 90
        0
  8
AM_6
360
1AD1
 90
        1
  0
XRECORD
  5
2D
102
{ACAD_REACTORS
330
2C
102
}
330
2C
100
AcDbXrecord
  1
VERSION
140
15.0
  1
PRODUCT
  2
AutoCAD Mechanical 2000
  0
IDBUFFER
  5
1ACB
330
0
100
AcDbIdBuffer
  0
IDBUFFER
  5
1ACC
330
0
100
AcDbIdBuffer
330
14B6
330
14B7
330
14B8
330
14B9
330
14BA
330
14BB
330
15F6
330
15F7
330
15F8
330
15F9
330
15FA
330
15FC
330
105C
330
105D
330
105E
330
105F
330
1061
330
113E
330
147A
330
147B
330
147C
330
147D
330
147E
330
147F
330
1480
330
1481
330
1482
330
1483
330
1484
330
1485
330
1486
330
1487
330
1489
330
149B
330
149C
330
149D
330
149E
330
149F
330
14A0
330
14A1
330
14A2
330
14A3
330
14A4
330
14A5
330
14A6
330
14A7
330
14A8
330
14A9
330
14AA
330
14AB
330
14AC
330
14AD
330
14AE
330
14AF
330
14B0
330
14B1
330
14B2
330
14B3
330
14B4
330
14B5
  0
IDBUFFER
  5
1ACD
330
0
100
AcDbIdBuffer
330
1488
330
1616
330
1639
330
163A
330
163B
330
17F2
  0
IDBUFFER
  5
1ACE
330
0
100
AcDbIdBuffer
330
106F
  0
IDBUFFER
  5
1ACF
330
0
100
AcDbIdBuffer
330
1062
330
14BC
330
14E4
330
16B7
  0
IDBUFFER
  5
1AD0
330
0
100
AcDbIdBuffer
  0
IDBUFFER
  5
1AD1
330
0
100
AcDbIdBuffer
330
E76
  0
ENDSEC
  0
EOF
