  0
SECTION
  2
HEADER
  9
$ACADVER
  1
AC1014
  9
$ACADMAINTVER
 70
     9
  9
$DWGCODEPAGE
  3
ANSI_932
  9
$INSBASE
 10
0.0
 20
0.0
 30
0.0
  9
$EXTMIN
 10
-113.294919767424
 20
-56.50000099999964
 30
-0.00000001
  9
$EXTMAX
 10
18.92025509623978
 20
9.576844096777469
 30
0.00000001
  9
$LIMMIN
 10
-138.6484082480365
 20
-74.91996935962692
  9
$LIMMAX
 10
44.33397517475486
 20
32.13511229091563
  9
$ORTHOMODE
 70
     0
  9
$REGENMODE
 70
     1
  9
$FILLMODE
 70
     1
  9
$QTEXTMODE
 70
     0
  9
$MIRRTEXT
 70
     0
  9
$DRAGMODE
 70
     2
  9
$LTSCALE
 40
1.0
  9
$OSMODE
 70
    55
  9
$ATTMODE
 70
     1
  9
$TEXTSIZE
 40
2.5
  9
$TRACEWID
 40
1.0
  9
$TEXTSTYLE
  7
STANDARD
  9
$CLAYER
  8
AM_0
  9
$CELTYPE
  6
BYLAYER
  9
$CECOLOR
 62
   256
  9
$CELTSCALE
 40
1.0
  9
$DELOBJ
 70
     1
  9
$DISPSILH
 70
     0
  9
$DIMSCALE
 40
1.0
  9
$DIMASZ
 40
2.5
  9
$DIMEXO
 40
1.0
  9
$DIMDLI
 40
12.0
  9
$DIMRND
 40
0.0
  9
$DIMDLE
 40
0.0
  9
$DIMEXE
 40
1.0
  9
$DIMTP
 40
0.1
  9
$DIMTM
 40
0.1
  9
$DIMTXT
 40
3.2
  9
$DIMCEN
 40
0.0
  9
$DIMTSZ
 40
0.0
  9
$DIMTOL
 70
     0
  9
$DIMLIM
 70
     0
  9
$DIMTIH
 70
     0
  9
$DIMTOH
 70
     0
  9
$DIMSE1
 70
     0
  9
$DIMSE2
 70
     0
  9
$DIMTAD
 70
     3
  9
$DIMZIN
 70
     8
  9
$DIMBLK
  1
OPEN30
  9
$DIMASO
 70
     1
  9
$DIMSHO
 70
     1
  9
$DIMPOST
  1

  9
$DIMAPOST
  1
"
  9
$DIMALT
 70
     0
  9
$DIMALTD
 70
     2
  9
$DIMALTF
 40
0.0393701
  9
$DIMLFAC
 40
1.0
  9
$DIMTOFL
 70
     1
  9
$DIMTVP
 40
0.0
  9
$DIMTIX
 70
     0
  9
$DIMSOXD
 70
     0
  9
$DIMSAH
 70
     0
  9
$DIMBLK1
  1

  9
$DIMBLK2
  1

  9
$DIMSTYLE
  2
AM_JIS
  9
$DIMCLRD
 70
   256
  9
$DIMCLRE
 70
   256
  9
$DIMCLRT
 70
     2
  9
$DIMTFAC
 40
0.71
  9
$DIMGAP
 40
1.5
  9
$DIMJUST
 70
     0
  9
$DIMSD1
 70
     0
  9
$DIMSD2
 70
     0
  9
$DIMTOLJ
 70
     0
  9
$DIMTZIN
 70
     0
  9
$DIMALTZ
 70
     0
  9
$DIMALTTZ
 70
     0
  9
$DIMFIT
 70
     3
  9
$DIMUPT
 70
     0
  9
$DIMUNIT
 70
     2
  9
$DIMDEC
 70
     3
  9
$DIMTDEC
 70
     3
  9
$DIMALTU
 70
     2
  9
$DIMALTTD
 70
     2
  9
$DIMTXSTY
  7
ASAMI
  9
$DIMAUNIT
 70
     0
  9
$LUNITS
 70
     2
  9
$LUPREC
 70
     2
  9
$SKETCHINC
 40
1.0
  9
$FILLETRAD
 40
2.5
  9
$AUNITS
 70
     0
  9
$AUPREC
 70
     0
  9
$MENU
  1
.
  9
$ELEVATION
 40
0.0
  9
$PELEVATION
 40
0.0
  9
$THICKNESS
 40
0.0
  9
$LIMCHECK
 70
     0
  9
$BLIPMODE
 70
     0
  9
$CHAMFERA
 40
2.5
  9
$CHAMFERB
 40
2.5
  9
$CHAMFERC
 40
20.0
  9
$CHAMFERD
 40
0.0
  9
$SKPOLY
 70
     0
  9
$TDCREATE
 40
2452838.620506898
  9
$TDUPDATE
 40
2453152.476280775
  9
$TDINDWG
 40
0.2228960532
  9
$TDUSRTIMER
 40
0.2228960532
  9
$USRTIMER
 70
     1
  9
$ANGBASE
 50
0.0
  9
$ANGDIR
 70
     0
  9
$PDMODE
 70
     0
  9
$PDSIZE
 40
0.0
  9
$PLINEWID
 40
0.0
  9
$COORDS
 70
     1
  9
$SPLFRAME
 70
     0
  9
$SPLINETYPE
 70
     6
  9
$SPLINESEGS
 70
     8
  9
$ATTDIA
 70
     1
  9
$ATTREQ
 70
     1
  9
$HANDLING
 70
 12289
  9
$HANDSEED
  5
2A36
  9
$SURFTAB1
 70
     6
  9
$SURFTAB2
 70
     6
  9
$SURFTYPE
 70
     6
  9
$SURFU
 70
     6
  9
$SURFV
 70
     6
  9
$UCSNAME
  2

  9
$UCSORG
 10
-0.0000000000000568
 20
-0.0000000000000036
 30
0.0
  9
$UCSXDIR
 10
1.0
 20
0.0
 30
0.0
  9
$UCSYDIR
 10
0.0
 20
1.0
 30
0.0
  9
$PUCSNAME
  2

  9
$PUCSORG
 10
0.0
 20
0.0
 30
0.0
  9
$PUCSXDIR
 10
1.0
 20
0.0
 30
0.0
  9
$PUCSYDIR
 10
0.0
 20
1.0
 30
0.0
  9
$USERI1
 70
     0
  9
$USERI2
 70
     0
  9
$USERI3
 70
     0
  9
$USERI4
 70
     0
  9
$USERI5
 70
     0
  9
$USERR1
 40
0.0
  9
$USERR2
 40
0.0
  9
$USERR3
 40
0.0
  9
$USERR4
 40
0.0
  9
$USERR5
 40
0.0
  9
$WORLDVIEW
 70
     1
  9
$SHADEDGE
 70
     3
  9
$SHADEDIF
 70
    70
  9
$TILEMODE
 70
     1
  9
$MAXACTVP
 70
    64
  9
$PINSBASE
 10
0.0
 20
0.0
 30
0.0
  9
$PLIMCHECK
 70
     0
  9
$PEXTMIN
 10
1.000000000000000E+20
 20
1.000000000000000E+20
 30
1.000000000000000E+20
  9
$PEXTMAX
 10
-1.000000000000000E+20
 20
-1.000000000000000E+20
 30
-1.000000000000000E+20
  9
$PLIMMIN
 10
0.0
 20
0.0
  9
$PLIMMAX
 10
841.0
 20
594.0
  9
$UNITMODE
 70
     0
  9
$VISRETAIN
 70
     1
  9
$PLINEGEN
 70
     0
  9
$PSLTSCALE
 70
     0
  9
$TREEDEPTH
 70
  3020
  9
$PICKSTYLE
 70
     0
  9
$CMLSTYLE
  2
STANDARD
  9
$CMLJUST
 70
     0
  9
$CMLSCALE
 40
20.0
  9
$PROXYGRAPHICS
 70
     1
  9
$MEASUREMENT
 70
     1
  0
ENDSEC
  0
SECTION
  2
CLASSES
  0
CLASS
  1
ACDBDICTIONARYWDFLT
  2
AcDbDictionaryWithDefault
  3
AutoCAD 2000
 90
        0
280
     0
281
     0
  0
CLASS
  1
ACDBPLACEHOLDER
  2
AcDbPlaceHolder
  3
AutoCAD 2000
 90
        0
280
     0
281
     0
  0
CLASS
  1
LAYOUT
  2
AcDbLayout
  3
AutoCAD 2000
 90
        0
280
     0
281
     0
  0
CLASS
  1
AMGSETTINGSOBJ
  2
AmgSettingsObj
  3
"AcadM|Product Description: AutoCAD Mechanical 2000|Company: Autodesk"
 90
        0
280
     0
281
     0
  0
CLASS
  1
ACME_DOCUMENT
  2
AcMeDbDoc
  3
AcMeServices
 90
        0
280
     0
281
     0
  0
CLASS
  1
ACMESCOPE
  2
AcMeScope
  3
AcMeServices
 90
        0
280
     0
281
     0
  0
CLASS
  1
ACMECOMMANDHISTORY
  2
AcMeCommandHistory
  3
AcMeServices
 90
        0
280
     0
281
     0
  0
CLASS
  1
DICTIONARYVAR
  2
AcDbDictionaryVar
  3
AutoCAD 2000
 90
        0
280
     0
281
     0
  0
CLASS
  1
ACIMSYSVARMAN
  2
AcImSysVarManager
  3
AcMeServices
 90
        0
280
     0
281
     0
  0
CLASS
  1
ACIMREALSYSVAR
  2
AcImRealSysVar
  3
AcMeServices
 90
        0
280
     0
281
     0
  0
CLASS
  1
ACIMINTSYSVAR
  2
AcImIntSysVar
  3
AcMeServices
 90
        0
280
     0
281
     0
  0
CLASS
  1
ACMEDRAWINGMAN
  2
AcMeDrawingMan
  3
AcMeServices
 90
        0
280
     0
281
     0
  0
CLASS
  1
ACMEVIEW
  2
AcMeView
  3
AcMeServices
 90
        0
280
     0
281
     0
  0
CLASS
  1
ACDBENTITYCACHE
  2
AcMeEntityCache
  3
AcMeServices
 90
        0
280
     0
281
     0
  0
CLASS
  1
GSMANAGER
  2
AcMeGSManager
  3
AcMeServices
 90
        0
280
     0
281
     0
  0
CLASS
  1
AmdtInternalReactor
  2
AmdtInternalReactor
  3
AcMeServices
 90
        0
280
     0
281
     0
  0
CLASS
  1
ACMESTATEMGR
  2
AcMeStateMgr
  3
AcMeServices
 90
        0
280
     0
281
     0
  0
CLASS
  1
ACME_DATABASE
  2
AcMeDbDatabase
  3
AcMeServices
 90
        0
280
     0
281
     0
  0
CLASS
  1
ACRFINSADJUSTERMGR
  2
AcRfInsAdjusterMgr
  3
AcMeServices
 90
        0
280
     0
281
     0
  0
CLASS
  1
ACMDATADICTIONARY
  2
AcmDataDictionary
  3
"AcmSymBB|Product Description: AutoCAD Mechanical 2000|Company: Autodesk"
 90
        0
280
     0
281
     0
  0
CLASS
  1
ACMDATAENTRYBLOCK
  2
AcmDataEntryBlock
  3
"AcmSymBB|Product Description: AutoCAD Mechanical 2000|Company: Autodesk"
 90
        0
280
     0
281
     0
  0
CLASS
  1
AMGOBJPROPCFG
  2
AmgObjPropCfg
  3
"AmgLay|Product Description: AutoCAD Mechanical 2000|Company: Autodesk"
 90
        1
280
     0
281
     0
  0
CLASS
  1
ACAMGFILTERDAT
  2
AcAmgFilterDat
  3
"AcadM|Product Description: AutoCAD Mechanical 2000|Company: Autodesk"
 90
        0
280
     0
281
     0
  0
CLASS
  1
LAYER_INDEX
  2
AcDbLayerIndex
  3
AutoCAD 2000
 90
        0
280
     0
281
     0
  0
CLASS
  1
IDBUFFER
  2
AcDbIdBuffer
  3
AutoCAD 2000
 90
        0
280
     0
281
     0
  0
CLASS
  1
ACIMSTRSYSVAR
  2
AcImStrSysVar
  3
AcMeServices
 90
        0
280
     0
281
     0
  0
CLASS
  1
ACMSTANDARDJIS
  2
AcmStandardJIS
  3
"AcmSymBB|Product Description: AutoCAD Mechanical 2000|Company: Autodesk"
 90
        0
280
     0
281
     0
  0
CLASS
  1
ACMSURFSTANDARDJIS
  2
AcmSurfTextStdJIS
  3
"AcmSymBB|Product Description: AutoCAD Mechanical 2000|Company: Autodesk"
 90
        0
280
     0
281
     0
  0
CLASS
  1
ACMFCFSTANDARDJIS
  2
AcmFCFStdJIS
  3
"AcmSymBB|Product Description: AutoCAD Mechanical 2000|Company: Autodesk"
 90
        0
280
     0
281
     0
  0
CLASS
  1
ACMWELDSTANDARDJIS
  2
AcmWeldingStdJIS
  3
"AcmSymBB|Product Description: AutoCAD Mechanical 2000|Company: Autodesk"
 90
        0
280
     0
281
     0
  0
CLASS
  1
ACMIDSTANDARDJIS
  2
AcmIdStdJIS
  3
"AcmSymBB|Product Description: AutoCAD Mechanical 2000|Company: Autodesk"
 90
        0
280
     0
281
     0
  0
CLASS
  1
ACMDATUMSTANDARDJIS
  2
AcmDatumStdJIS
  3
"AcmSymBB|Product Description: AutoCAD Mechanical 2000|Company: Autodesk"
 90
        0
280
     0
281
     0
  0
CLASS
  1
ACMBOMSTANDARDJIS
  2
AcmBOMStdJIS
  3
"AcmSymBB|Product Description: AutoCAD Mechanical 2000|Company: Autodesk"
 90
        0
280
     0
281
     0
  0
CLASS
  1
ACMSTANDARDANSI
  2
AcmStandardANSI
  3
"AcmSymBB|Product Description: AutoCAD Mechanical 2000|Company: Autodesk"
 90
        0
280
     0
281
     0
  0
CLASS
  1
ACMSURFSTANDARDANSI
  2
AcmSurfTextStdANSI
  3
"AcmSymBB|Product Description: AutoCAD Mechanical 2000|Company: Autodesk"
 90
        0
280
     0
281
     0
  0
CLASS
  1
ACMFCFSTANDARDANSI
  2
AcmFCFStdANSI
  3
"AcmSymBB|Product Description: AutoCAD Mechanical 2000|Company: Autodesk"
 90
        0
280
     0
281
     0
  0
CLASS
  1
ACMWELDSTANDARDANSI
  2
AcmWeldingStdANSI
  3
"AcmSymBB|Product Description: AutoCAD Mechanical 2000|Company: Autodesk"
 90
        0
280
     0
281
     0
  0
CLASS
  1
ACMIDSTANDARDANSI
  2
AcmIdStdANSI
  3
"AcmSymBB|Product Description: AutoCAD Mechanical 2000|Company: Autodesk"
 90
        0
280
     0
281
     0
  0
CLASS
  1
ACMDATUMSTANDARDANSI
  2
AcmDatumStdANSI
  3
"AcmSymBB|Product Description: AutoCAD Mechanical 2000|Company: Autodesk"
 90
        0
280
     0
281
     0
  0
CLASS
  1
ACMBOMSTANDARDANSI
  2
AcmBOMStdANSI
  3
"AcmSymBB|Product Description: AutoCAD Mechanical 2000|Company: Autodesk"
 90
        0
280
     0
281
     0
  0
CLASS
  1
ACMSTANDARDBSI
  2
AcmStandardBSI
  3
"AcmSymBB|Product Description: AutoCAD Mechanical 2000|Company: Autodesk"
 90
        0
280
     0
281
     0
  0
CLASS
  1
ACMSURFSTANDARDBSI
  2
AcmSurfTextStdBSI
  3
"AcmSymBB|Product Description: AutoCAD Mechanical 2000|Company: Autodesk"
 90
        0
280
     0
281
     0
  0
CLASS
  1
ACMFCFSTANDARDBSI
  2
AcmFCFStdBSI
  3
"AcmSymBB|Product Description: AutoCAD Mechanical 2000|Company: Autodesk"
 90
        0
280
     0
281
     0
  0
CLASS
  1
ACMWELDSTANDARDBSI
  2
AcmWeldingStdBSI
  3
"AcmSymBB|Product Description: AutoCAD Mechanical 2000|Company: Autodesk"
 90
        0
280
     0
281
     0
  0
CLASS
  1
ACMIDSTANDARDBSI
  2
AcmIdStdBSI
  3
"AcmSymBB|Product Description: AutoCAD Mechanical 2000|Company: Autodesk"
 90
        0
280
     0
281
     0
  0
CLASS
  1
ACMDATUMSTANDARDBSI
  2
AcmDatumStdBSI
  3
"AcmSymBB|Product Description: AutoCAD Mechanical 2000|Company: Autodesk"
 90
        0
280
     0
281
     0
  0
CLASS
  1
ACMBOMSTANDARDBSI
  2
AcmBOMStdBSI
  3
"AcmSymBB|Product Description: AutoCAD Mechanical 2000|Company: Autodesk"
 90
        0
280
     0
281
     0
  0
CLASS
  1
LONG_TRANSACTION
  2
AcDbLongTransaction
  3
AutoCAD 2000
 90
        0
280
     0
281
     0
  0
CLASS
  1
LWPOLYLINE
  2
AcDbPolyline
  3
AutoCAD 2000
 90
        0
280
     0
281
     1
  0
CLASS
  1
HATCH
  2
AcDbHatch
  3
AutoCAD 2000
 90
        0
280
     0
281
     1
  0
CLASS
  1
XRECORD
  2
AcDbXrecord
  3
AutoCAD 2000
 90
        0
280
     0
281
     0
  0
ENDSEC
  0
SECTION
  2
TABLES
  0
TABLE
  2
VPORT
  5
8
330
0
100
AcDbSymbolTable
 70
     3
  0
VPORT
  5
2A05
330
8
100
AcDbSymbolTableRecord
100
AcDbViewportTableRecord
  2
*ACTIVE
 70
     0
 10
0.0
 20
0.0
 11
1.0
 21
1.0
 12
-26.14900370596777
 22
-9.766454855396361
 13
0.0
 23
0.0
 14
2.5
 24
2.5
 15
10.0
 25
10.0
 16
0.0
 26
0.0
 36
1.0
 17
0.0
 27
0.0
 37
0.0
 40
117.0471410923181
 41
1.56570841889117
 42
50.0
 43
0.0
 44
0.0
 50
0.0
 51
0.0
 71
     0
 72
   100
 73
     1
 74
     3
 75
     0
 76
     0
 77
     0
 78
     0
  0
ENDTAB
  0
TABLE
  2
LTYPE
  5
5
330
0
100
AcDbSymbolTable
 70
    10
  0
LTYPE
  5
14
330
5
100
AcDbSymbolTableRecord
100
AcDbLinetypeTableRecord
  2
BYBLOCK
 70
     0
  3

 72
    65
 73
     0
 40
0.0
  0
LTYPE
  5
15
330
5
100
AcDbSymbolTableRecord
100
AcDbLinetypeTableRecord
  2
BYLAYER
 70
     0
  3

 72
    65
 73
     0
 40
0.0
  0
LTYPE
  5
16
330
5
100
AcDbSymbolTableRecord
100
AcDbLinetypeTableRecord
  2
CONTINUOUS
 70
     0
  3
Solid line
 72
    65
 73
     0
 40
0.0
  0
LTYPE
  5
4B
330
5
100
AcDbSymbolTableRecord
100
AcDbLinetypeTableRecord
  2
AM_ISO02W050
 70
     0
  3
__ __ __ __ __ __ __ __ __ __ __ __ __ __ __
 72
    65
 73
     2
 40
7.5
 49
6.0
 74
     0
 49
-1.5
 74
     0
  0
LTYPE
  5
4C
330
5
100
AcDbSymbolTableRecord
100
AcDbLinetypeTableRecord
  2
AM_ISO08W050
 70
     0
  3
____ . ____ . ____ . ____ . ____ . ____ . ____
 72
    65
 73
     4
 40
18.0
 49
12.0
 74
     0
 49
-1.5
 74
     0
 49
3.0
 74
     0
 49
-1.5
 74
     0
  0
LTYPE
  5
4D
330
5
100
AcDbSymbolTableRecord
100
AcDbLinetypeTableRecord
  2
AM_ISO09W050
 70
     0
  3
_____ . . _____ . . _____ . . ____ .. ____
 72
    65
 73
     6
 40
22.5
 49
12.0
 74
     0
 49
-1.5
 74
     0
 49
3.0
 74
     0
 49
-1.5
 74
     0
 49
3.0
 74
     0
 49
-1.5
 74
     0
  0
LTYPE
  5
4E
330
5
100
AcDbSymbolTableRecord
100
AcDbLinetypeTableRecord
  2
AMCONSTR
 70
     0
  3
_______________________
 72
    65
 73
     2
 40
9999.0
 49
9999.0
 74
     0
 49
0.0
 74
     0
  0
LTYPE
  5
4F
330
5
100
AcDbSymbolTableRecord
100
AcDbLinetypeTableRecord
  2
AM_ISO02W050X2
 70
     0
  3
 _ _ _ _ _ _ _ _ _ _ _ _
 72
    65
 73
     2
 40
3.75
 49
3.0
 74
     0
 49
-0.75
 74
     0
  0
LTYPE
  5
50
330
5
100
AcDbSymbolTableRecord
100
AcDbLinetypeTableRecord
  2
AM_ISO08W050X2
 70
     0
  3
__ . __ . __ . __ . __ . __
 72
    65
 73
     4
 40
9.0
 49
6.0
 74
     0
 49
-0.75
 74
     0
 49
1.5
 74
     0
 49
-0.75
 74
     0
  0
LTYPE
  5
53
330
5
100
AcDbSymbolTableRecord
100
AcDbLinetypeTableRecord
  2
AMZIGZAG
 70
     0
  3
/\/-/\/-/\/-/\/-/\/-/\/
 72
    65
 73
     2
 40
11.00009999999999
 49
0.0001
 74
     4
 75
   135
340
52
 46
0.04
 50
0.0
 44
0.0
 45
0.0
 49
-11.0
 74
     0
  0
LTYPE
  5
166
330
5
100
AcDbSymbolTableRecord
100
AcDbLinetypeTableRecord
  2
ACJISTGL
 70
     0
  3
_ _ _ _ _
 72
    65
 73
     2
 40
3.0
 49
2.0
 74
     0
 49
-1.0
 74
     0
  0
LTYPE
  5
26A
330
5
100
AcDbSymbolTableRecord
100
AcDbLinetypeTableRecord
  2
ACJISTGB
 70
     0
  3
__ . . __ . .
 72
    65
 73
     6
 40
9.0
 49
4.0
 74
     0
 49
-1.0
 74
     0
 49
1.0
 74
     0
 49
-1.0
 74
     0
 49
1.0
 74
     0
 49
-1.0
 74
     0
  0
ENDTAB
  0
TABLE
  2
LAYER
  5
2
330
0
100
AcDbSymbolTable
 70
     7
  0
LAYER
  5
10
330
2
100
AcDbSymbolTableRecord
100
AcDbLayerTableRecord
  2
0
 70
     0
 62
     7
  6
CONTINUOUS
  0
LAYER
  5
3F9
330
2
100
AcDbSymbolTableRecord
100
AcDbLayerTableRecord
  2
AM_0
 70
     0
 62
     7
  6
CONTINUOUS
  0
LAYER
  5
BD6
330
2
100
AcDbSymbolTableRecord
100
AcDbLayerTableRecord
  2
AM_11
 70
     0
 62
     3
  6
AM_ISO09W050
  0
LAYER
  5
BD7
330
2
100
AcDbSymbolTableRecord
100
AcDbLayerTableRecord
  2
AM_7
 70
     0
 62
     4
  6
AM_ISO08W050
  0
LAYER
  5
BD8
330
2
100
AcDbSymbolTableRecord
100
AcDbLayerTableRecord
  2
AM_5
 70
     0
 62
     3
  6
CONTINUOUS
  0
LAYER
  5
BD9
330
2
100
AcDbSymbolTableRecord
100
AcDbLayerTableRecord
  2
DEFPOINTS
 70
     0
 62
     7
  6
CONTINUOUS
  0
LAYER
  5
BDA
330
2
100
AcDbSymbolTableRecord
100
AcDbLayerTableRecord
  2
AM_6
 70
     0
 62
     2
  6
CONTINUOUS
  0
ENDTAB
  0
TABLE
  2
STYLE
  5
3
330
0
100
AcDbSymbolTable
 70
     5
  0
STYLE
  5
11
330
3
100
AcDbSymbolTableRecord
100
AcDbTextStyleTableRecord
  2
STANDARD
 70
     0
 40
0.0
 41
1.0
 50
0.0
 71
     0
 42
2.5
  3
simplex.shx
  4
EXTFONT.SHX
  0
STYLE
  5
52
330
3
100
AcDbSymbolTableRecord
100
AcDbTextStyleTableRecord
  2

 70
     1
 40
0.0
 41
1.0
 50
0.0
 71
     0
 42
2.5
  3
ltypeshp.shx
  4

  0
STYLE
  5
6B
330
3
100
AcDbSymbolTableRecord
100
AcDbTextStyleTableRecord
  2
ASAMI
 70
     0
 40
0.0
 41
1.0
 50
0.0
 71
     0
 42
2.5
  3
simplex.shx
  4
EXTFONT.SHX
  0
STYLE
  5
262
330
3
100
AcDbSymbolTableRecord
100
AcDbTextStyleTableRecord
  2
ACJISTS
 70
     0
 40
1.0
 41
1.0
 50
0.0
 71
     0
 42
2.5
  3
simplex.shx
  4
bigfont.shx
  0
STYLE
  5
269
330
3
100
AcDbSymbolTableRecord
100
AcDbTextStyleTableRecord
  2
ACJISGDT
 70
     0
 40
0.0
 41
1.0
 50
0.0
 71
     0
 42
2.5
  3
amgdtans.shx
  4

  0
ENDTAB
  0
TABLE
  2
VIEW
  5
6
330
0
100
AcDbSymbolTable
 70
     0
  0
ENDTAB
  0
TABLE
  2
UCS
  5
7
330
0
100
AcDbSymbolTable
 70
     0
  0
ENDTAB
  0
TABLE
  2
APPID
  5
9
330
0
100
AcDbSymbolTable
 70
    13
  0
APPID
  5
12
330
9
100
AcDbSymbolTableRecord
100
AcDbRegAppTableRecord
  2
ACAD
 70
     0
  0
APPID
  5
30
330
9
100
AcDbSymbolTableRecord
100
AcDbRegAppTableRecord
  2
MCAD_NO_VIS
 70
     0
  0
APPID
  5
31
330
9
100
AcDbSymbolTableRecord
100
AcDbRegAppTableRecord
  2
ACAD_TEMP_GRAPHIC
 70
     0
  0
APPID
  5
2C2
330
9
100
AcDbSymbolTableRecord
100
AcDbRegAppTableRecord
  2
GENIUS_GENDTOL_13
 70
     0
  0
APPID
  5
339
330
9
100
AcDbSymbolTableRecord
100
AcDbRegAppTableRecord
  2
GENIUS_GENODEF_13
 70
     0
  0
APPID
  5
33A
330
9
100
AcDbSymbolTableRecord
100
AcDbRegAppTableRecord
  2
GENIUS_GENOBJ-N-RSBK_13
 70
     0
  0
APPID
  5
33B
330
9
100
AcDbSymbolTableRecord
100
AcDbRegAppTableRecord
  2
GENIUS_GENOBJ-N-LIB_13
 70
     0
  0
APPID
  5
33C
330
9
100
AcDbSymbolTableRecord
100
AcDbRegAppTableRecord
  2
GENIUS_GENSCALE_13
 70
     0
  0
APPID
  5
378
330
9
100
AcDbSymbolTableRecord
100
AcDbRegAppTableRecord
  2
GENIUS_GENDIMSH_14
 70
     0
  0
APPID
  5
BDB
330
9
100
AcDbSymbolTableRecord
100
AcDbRegAppTableRecord
  2
GENIUS_GENOBJ-N-CEN_13
 70
     0
  0
APPID
  5
BDC
330
9
100
AcDbSymbolTableRecord
100
AcDbRegAppTableRecord
  2
GENIUS_GENFIL_13
 70
     0
  0
APPID
  5
BDD
330
9
100
AcDbSymbolTableRecord
100
AcDbRegAppTableRecord
  2
GENIUS_GENOBJ-N-FIL_13
 70
     0
  0
APPID
  5
12AD
330
9
100
AcDbSymbolTableRecord
100
AcDbRegAppTableRecord
  2
GENIUS_GENOREF_13
 70
     0
  0
ENDTAB
  0
TABLE
  2
DIMSTYLE
  5
A
330
0
100
AcDbSymbolTable
 70
     8
  0
DIMSTYLE
105
58
102
{ACAD_REACTORS
330
2434
330
2483
330
2495
330
26B9
102
}
330
A
100
AcDbSymbolTableRecord
100
AcDbDimStyleTableRecord
  2
AM_JIS
 70
     0
  3

  4
"
  5
OPEN30
  6

  7

 40
1.0
 41
2.5
 42
1.0
 43
12.0
 44
1.0
 45
0.0
 46
0.0
 47
0.1
 48
0.1
140
3.2
141
0.0
142
0.0
143
0.0393701
144
1.0
145
0.0
146
0.71
147
1.5
 71
     0
 72
     0
 73
     0
 74
     0
 75
     0
 76
     0
 77
     3
 78
     8
170
     0
171
     2
172
     1
173
     0
174
     0
175
     0
176
   256
177
   256
178
     2
270
     2
271
     3
272
     3
273
     2
274
     2
340
6B
275
     0
280
     0
281
     0
282
     0
283
     0
284
     0
285
     0
286
     0
287
     3
288
     0
  0
DIMSTYLE
105
5F
330
A
100
AcDbSymbolTableRecord
100
AcDbDimStyleTableRecord
  2
AM_JIS$3
 70
     0
  3

  4
"
  5
OPEN30
  6

  7

 40
1.0
 41
2.5
 42
1.0
 43
10.0
 44
1.0
 45
0.0
 46
0.0
 47
0.1
 48
0.1
140
3.2
141
0.0
142
0.0
143
0.0393701
144
1.0
145
0.0
146
0.71
147
1.5
 71
     0
 72
     0
 73
     0
 74
     1
 75
     0
 76
     0
 77
     3
 78
     8
170
     0
171
     2
172
     0
173
     0
174
     0
175
     0
176
   256
177
   256
178
     2
270
     2
271
     2
272
     3
273
     2
274
     2
340
6B
275
     0
280
     0
281
     0
282
     0
283
     0
284
     0
285
     0
286
     0
287
     0
288
     1
  0
DIMSTYLE
105
60
102
{ACAD_REACTORS
330
28D0
102
}
330
A
100
AcDbSymbolTableRecord
100
AcDbDimStyleTableRecord
  2
AM_JIS$4
 70
     0
  3

  4
"
  5
OPEN30
  6

  7

 40
1.0
 41
2.5
 42
1.0
 43
10.0
 44
1.0
 45
0.0
 46
0.0
 47
0.1
 48
0.1
140
3.2
141
0.0
142
0.0
143
0.0393701
144
1.0
145
0.0
146
0.71
147
1.5
 71
     0
 72
     0
 73
     0
 74
     1
 75
     0
 76
     0
 77
     3
 78
     8
170
     0
171
     2
172
     0
173
     0
174
     0
175
     0
176
   256
177
   256
178
     2
270
     2
271
     2
272
     3
273
     2
274
     2
340
6B
275
     0
280
     0
281
     0
282
     0
283
     0
284
     0
285
     0
286
     0
287
     0
288
     1
  0
DIMSTYLE
105
61
330
A
100
AcDbSymbolTableRecord
100
AcDbDimStyleTableRecord
  2
AM_JIS$6
 70
     0
  3

  4
"
  5
OPEN30
  6

  7

 40
1.0
 41
2.5
 42
1.0
 43
10.0
 44
1.0
 45
0.0
 46
0.0
 47
0.1
 48
0.1
140
3.2
141
0.0
142
0.0
143
0.0393701
144
1.0
145
0.0
146
0.71
147
1.5
 71
     0
 72
     0
 73
     0
 74
     0
 75
     0
 76
     0
 77
     0
 78
     8
170
     0
171
     2
172
     1
173
     0
174
     0
175
     0
176
   256
177
   256
178
     2
270
     2
271
     2
272
     2
273
     2
274
     2
340
6B
275
     0
280
     0
281
     0
282
     0
283
     0
284
     0
285
     0
286
     0
287
     3
288
     0
  0
DIMSTYLE
105
62
330
A
100
AcDbSymbolTableRecord
100
AcDbDimStyleTableRecord
  2
AM_JIS$7
 70
     0
  3

  4
"
  5
OPEN30
  6

  7

 40
1.0
 41
2.5
 42
1.0
 43
10.0
 44
1.0
 45
0.0
 46
0.0
 47
0.1
 48
0.1
140
3.2
141
0.0
142
0.0
143
0.0393701
144
1.0
145
0.0
146
0.71
147
1.5
 71
     0
 72
     0
 73
     0
 74
     0
 75
     0
 76
     0
 77
     3
 78
     8
170
     0
171
     2
172
     1
173
     0
174
     0
175
     0
176
   256
177
   256
178
     2
270
     2
271
     2
272
     3
273
     2
274
     2
340
6B
275
     0
280
     0
281
     0
282
     0
283
     0
284
     0
285
     0
286
     0
287
     3
288
     0
  0
DIMSTYLE
105
63
330
A
100
AcDbSymbolTableRecord
100
AcDbDimStyleTableRecord
  2
AM_JIS$SF
 70
     0
  3

  4
"
  5
OPEN30
  6

  7

 40
1.0
 41
2.5
 42
1.0
 43
10.0
 44
1.0
 45
0.0
 46
0.0
 47
0.1
 48
0.1
140
3.2
141
0.0
142
0.0
143
0.0393701
144
1.0
145
0.0
146
0.71
147
1.5
 71
     0
 72
     0
 73
     0
 74
     0
 75
     1
 76
     1
 77
     3
 78
     8
170
     0
171
     2
172
     1
173
     0
174
     0
175
     0
176
   256
177
   256
178
     2
270
     2
271
     2
272
     2
273
     2
274
     2
340
6B
275
     0
280
     0
281
     0
282
     0
283
     0
284
     0
285
     0
286
     0
287
     3
288
     0
  0
DIMSTYLE
105
68
330
A
100
AcDbSymbolTableRecord
100
AcDbDimStyleTableRecord
  2
AM_JIS$SH
 70
     0
  3

  4
"
  5

  6
GENAXEH
  7
OPEN30
 40
1.0
 41
2.5
 42
1.0
 43
10.0
 44
1.0
 45
0.0
 46
0.0
 47
0.1
 48
0.1
140
3.2
141
0.0
142
0.0
143
0.0393701
144
2.0
145
0.0
146
0.71
147
1.5
 71
     0
 72
     0
 73
     0
 74
     0
 75
     1
 76
     1
 77
     3
 78
     8
170
     0
171
     2
172
     1
173
     1
174
     0
175
     0
176
   256
177
   256
178
     2
270
     2
271
     2
272
     2
273
     2
274
     2
340
6B
275
     0
280
     0
281
     0
282
     0
283
     0
284
     0
285
     0
286
     0
287
     3
288
     0
  0
DIMSTYLE
105
B34
330
A
100
AcDbSymbolTableRecord
100
AcDbDimStyleTableRecord
  2
AM_JIS$2
 70
     0
  3

  4
"
  5
OPEN30
  6

  7

 40
1.0
 41
2.5
 42
1.0
 43
12.0
 44
1.0
 45
0.0
 46
0.0
 47
0.1
 48
0.1
140
3.2
141
0.0
142
0.0
143
0.0393701
144
1.0
145
0.0
146
0.71
147
1.5
 71
     0
 72
     0
 73
     0
 74
     0
 75
     0
 76
     0
 77
     3
 78
     8
170
     0
171
     2
172
     1
173
     0
174
     0
175
     0
176
   256
177
   256
178
     2
270
     2
271
     3
272
     3
273
     2
274
     2
340
6B
275
     0
280
     0
281
     0
282
     0
283
     0
284
     0
285
     0
286
     0
287
     3
288
     0
  0
ENDTAB
  0
TABLE
  2
BLOCK_RECORD
  5
1
330
0
100
AcDbSymbolTable
 70
    11
  0
BLOCK_RECORD
  5
1F
102
{ACAD_XDICTIONARY
360
74
102
}
330
1
100
AcDbSymbolTableRecord
100
AcDbBlockTableRecord
  2
*MODEL_SPACE
  0
BLOCK_RECORD
  5
101
102
{ACAD_XDICTIONARY
360
2A2E
102
}
330
1
100
AcDbSymbolTableRecord
100
AcDbBlockTableRecord
  2
*PAPER_SPACE
  0
BLOCK_RECORD
  5
59
330
1
100
AcDbSymbolTableRecord
100
AcDbBlockTableRecord
  2
_OPEN30
  0
BLOCK_RECORD
  5
64
330
1
100
AcDbSymbolTableRecord
100
AcDbBlockTableRecord
  2
GENAXEH
  0
BLOCK_RECORD
  5
2435
330
1
100
AcDbSymbolTableRecord
100
AcDbBlockTableRecord
  2
*D5
  0
BLOCK_RECORD
  5
2484
330
1
100
AcDbSymbolTableRecord
100
AcDbBlockTableRecord
  2
*D6
  0
BLOCK_RECORD
  5
2496
330
1
100
AcDbSymbolTableRecord
100
AcDbBlockTableRecord
  2
*D7
  0
BLOCK_RECORD
  5
26BA
330
1
100
AcDbSymbolTableRecord
100
AcDbBlockTableRecord
  2
*D8
  0
BLOCK_RECORD
  5
28D1
330
1
100
AcDbSymbolTableRecord
100
AcDbBlockTableRecord
  2
*D9
  0
BLOCK_RECORD
  5
2938
330
1
100
AcDbSymbolTableRecord
100
AcDbBlockTableRecord
  2
A$C07B94FE7
  0
ENDTAB
  0
ENDSEC
  0
SECTION
  2
BLOCKS
  0
BLOCK
  5
20
330
1F
100
AcDbEntity
  8
0
100
AcDbBlockBegin
  2
*MODEL_SPACE
 70
     0
 10
0.0
 20
0.0
 30
0.0
  3
*MODEL_SPACE
  1

  0
ENDBLK
  5
21
330
1F
100
AcDbEntity
  8
0
100
AcDbBlockEnd
  0
BLOCK
  5
103
330
101
100
AcDbEntity
 67
     1
  8
0
100
AcDbBlockBegin
  2
*PAPER_SPACE
 70
     0
 10
0.0
 20
0.0
 30
0.0
  3
*PAPER_SPACE
  1

  0
ENDBLK
  5
104
330
101
100
AcDbEntity
 67
     1
  8
0
100
AcDbBlockEnd
  0
BLOCK
  5
5D
330
59
100
AcDbEntity
  8
0
100
AcDbBlockBegin
  2
_OPEN30
 70
     0
 10
0.0
 20
0.0
 30
0.0
  3
_OPEN30
  1

  0
LINE
  5
5A
330
59
100
AcDbEntity
  8
0
 62
     0
100
AcDbLine
 10
-1.0
 20
0.26794919
 30
0.0
 11
0.0
 21
0.0
 31
0.0
  0
LINE
  5
5B
330
59
100
AcDbEntity
  8
0
 62
     0
100
AcDbLine
 10
0.0
 20
0.0
 30
0.0
 11
-1.0
 21
-0.26794919
 31
0.0
  0
LINE
  5
5C
330
59
100
AcDbEntity
  8
0
 62
     0
100
AcDbLine
 10
0.0
 20
0.0
 30
0.0
 11
-1.0
 21
0.0
 31
0.0
  0
ENDBLK
  5
5E
330
59
100
AcDbEntity
  8
0
100
AcDbBlockEnd
  0
BLOCK
  5
66
330
64
100
AcDbEntity
  8
0
100
AcDbBlockBegin
  2
GENAXEH
 70
     0
 10
0.0
 20
0.0
 30
0.0
  3
GENAXEH
  1

  0
LINE
  5
65
330
64
100
AcDbEntity
  8
0
100
AcDbLine
 10
-1.0
 20
0.0
 30
0.0
 11
1.0
 21
0.0
 31
0.0
  0
ENDBLK
  5
67
330
64
100
AcDbEntity
  8
0
100
AcDbBlockEnd
  0
BLOCK
  5
243F
330
2435
100
AcDbEntity
  8
0
100
AcDbBlockBegin
  2
*D5
 70
     1
 10
0.0
 20
0.0
 30
0.0
  3
*D5
  1

  0
LINE
  5
27E4
330
2435
100
AcDbEntity
  8
AM_5
100
AcDbLine
 10
0.9999999999999431
 20
7.999999999999996
 30
0.0
 11
18.92025509623978
 21
7.999999999999991
 31
0.0
  0
LINE
  5
27E5
330
2435
100
AcDbEntity
  8
AM_5
100
AcDbLine
 10
0.9999999999996873
 20
-8.000000000019936
 30
0.0
 11
18.92025509623977
 21
-8.000000000019941
 31
0.0
  0
LINE
  5
27E6
330
2435
100
AcDbEntity
  8
AM_5
100
AcDbLine
 10
17.92025509623978
 20
5.499999999999992
 30
0.0
 11
17.92025509623978
 21
-5.500000000019941
 31
0.0
  0
INSERT
  5
27E7
330
2435
100
AcDbEntity
  8
AM_5
100
AcDbBlockReference
  2
_OPEN30
 10
17.92025509623978
 20
7.999999999999992
 30
0.0
 41
2.5
 42
2.5
 43
2.5
 50
90.0
  0
INSERT
  5
27E8
330
2435
100
AcDbEntity
  8
AM_5
100
AcDbBlockReference
  2
_OPEN30
 10
17.92025509623977
 20
-8.000000000019941
 30
0.0
 41
2.5
 42
2.5
 43
2.5
 50
270.0
  0
MTEXT
  5
27E9
330
2435
100
AcDbEntity
  8
AM_5
 62
     2
100
AcDbMText
 10
14.82025509623978
 20
-0.0000000000099719
 30
0.0
 40
3.2
 41
0.0
 71
     5
 72
     1
  1
%%c16
  7
ASAMI
 11
0.0000000000000001
 21
1.0
 31
0.0
1001
ACAD
1000
MTEXTBEGIN
1070
    73
1070
     1
1070
    44
1040
1.0
1070
    74
1070
     0
1000
MTEXTEND
  0
POINT
  5
27EA
330
2435
100
AcDbEntity
  8
DEFPOINTS
 62
     0
100
AcDbPoint
 10
-0.0000000000000568
 20
7.999999999999996
 30
0.0
  0
POINT
  5
27EB
330
2435
100
AcDbEntity
  8
DEFPOINTS
 62
     0
100
AcDbPoint
 10
-0.0000000000003126
 20
-8.000000000019936
 30
0.0
  0
POINT
  5
27EC
330
2435
100
AcDbEntity
  8
DEFPOINTS
 62
     0
100
AcDbPoint
 10
17.92025509623977
 20
-8.000000000019941
 30
0.0
  0
ENDBLK
  5
2440
330
2435
100
AcDbEntity
  8
0
100
AcDbBlockEnd
  0
BLOCK
  5
248E
330
2484
100
AcDbEntity
  8
0
100
AcDbBlockBegin
  2
*D6
 70
     1
 10
0.0
 20
0.0
 30
0.0
  3
*D6
  1

  0
LINE
  5
27DB
330
2484
100
AcDbEntity
  8
AM_5
100
AcDbLine
 10
-90.10000000000006
 20
-7.999999999999999
 30
0.0
 11
-109.594919767424
 21
-7.999999999999993
 31
0.0
  0
LINE
  5
27DC
330
2484
100
AcDbEntity
  8
AM_5
100
AcDbLine
 10
-90.10000000000006
 20
7.999999999999999
 30
0.0
 11
-109.594919767424
 21
8.000000000000003
 31
0.0
  0
LINE
  5
27DD
330
2484
100
AcDbEntity
  8
AM_5
100
AcDbLine
 10
-108.594919767424
 20
-5.499999999999993
 30
0.0
 11
-108.594919767424
 21
5.500000000000003
 31
0.0
  0
INSERT
  5
27DE
330
2484
100
AcDbEntity
  8
AM_5
100
AcDbBlockReference
  2
_OPEN30
 10
-108.594919767424
 20
-7.999999999999993
 30
0.0
 41
2.5
 42
2.5
 43
2.5
 50
270.0
  0
INSERT
  5
27DF
330
2484
100
AcDbEntity
  8
AM_5
100
AcDbBlockReference
  2
_OPEN30
 10
-108.594919767424
 20
8.000000000000003
 30
0.0
 41
2.5
 42
2.5
 43
2.5
 50
90.0
  0
MTEXT
  5
27E0
330
2484
100
AcDbEntity
  8
AM_5
 62
     2
100
AcDbMText
 10
-111.694919767424
 20
-0.0000000000000154
 30
0.0
 40
3.2
 41
0.0
 71
     5
 72
     1
  1
%%c16
  7
ASAMI
 11
0.0000000000000001
 21
1.0
 31
0.0
1001
ACAD
1000
MTEXTBEGIN
1070
    73
1070
     1
1070
    44
1040
1.0
1070
    74
1070
     0
1000
MTEXTEND
  0
POINT
  5
27E1
330
2484
100
AcDbEntity
  8
DEFPOINTS
 62
     0
100
AcDbPoint
 10
-89.10000000000007
 20
-8.0
 30
0.0
  0
POINT
  5
27E2
330
2484
100
AcDbEntity
  8
DEFPOINTS
 62
     0
100
AcDbPoint
 10
-89.10000000000007
 20
7.999999999999998
 30
0.0
  0
POINT
  5
27E3
330
2484
100
AcDbEntity
  8
DEFPOINTS
 62
     0
100
AcDbPoint
 10
-108.594919767424
 20
8.000000000000003
 30
0.0
  0
ENDBLK
  5
248F
330
2484
100
AcDbEntity
  8
0
100
AcDbBlockEnd
  0
BLOCK
  5
24A0
330
2496
100
AcDbEntity
  8
0
100
AcDbBlockBegin
  2
*D7
 70
     1
 10
0.0
 20
0.0
 30
0.0
  3
*D7
  1

  0
LINE
  5
27D2
330
2496
100
AcDbEntity
  8
AM_5
100
AcDbLine
 10
-90.00000000000005
 20
-6.999999999999993
 30
0.0
 11
-90.00000000000005
 21
-35.00000099999953
 31
0.0
  0
LINE
  5
27D3
330
2496
100
AcDbEntity
  8
AM_5
100
AcDbLine
 10
-0.000000000000057
 20
-9.000000000021092
 30
0.0
 11
-0.0000000000000586
 21
-35.00000099999953
 31
0.0
  0
LINE
  5
27D4
330
2496
100
AcDbEntity
  8
AM_5
100
AcDbLine
 10
-87.50000000000005
 20
-34.00000099999953
 30
0.0
 11
-2.500000000000058
 21
-34.00000099999953
 31
0.0
  0
INSERT
  5
27D5
330
2496
100
AcDbEntity
  8
AM_5
100
AcDbBlockReference
  2
_OPEN30
 10
-90.00000000000005
 20
-34.00000099999953
 30
0.0
 41
2.5
 42
2.5
 43
2.5
 50
180.0
  0
INSERT
  5
27D6
330
2496
100
AcDbEntity
  8
AM_5
100
AcDbBlockReference
  2
_OPEN30
 10
-0.0000000000000585
 20
-34.00000099999953
 30
0.0
 41
2.5
 42
2.5
 43
2.5
  0
MTEXT
  5
27D7
330
2496
100
AcDbEntity
  8
AM_5
 62
     2
100
AcDbMText
 10
-45.00000000000006
 20
-30.90000099999953
 30
0.0
 40
3.2
 41
0.0
 71
     5
 72
     1
  1
90
  7
ASAMI
1001
ACAD
1000
MTEXTBEGIN
1070
    73
1070
     1
1070
    44
1040
1.0
1070
    74
1070
     0
1000
MTEXTEND
  0
POINT
  5
27D8
330
2496
100
AcDbEntity
  8
DEFPOINTS
 62
     0
100
AcDbPoint
 10
-90.00000000000005
 20
-5.999999999999993
 30
0.0
  0
POINT
  5
27D9
330
2496
100
AcDbEntity
  8
DEFPOINTS
 62
     0
100
AcDbPoint
 10
-0.000000000000057
 20
-8.000000000021092
 30
0.0
  0
POINT
  5
27DA
330
2496
100
AcDbEntity
  8
DEFPOINTS
 62
     0
100
AcDbPoint
 10
-0.0000000000000585
 20
-34.00000099999953
 30
0.0
  0
ENDBLK
  5
24A1
330
2496
100
AcDbEntity
  8
0
100
AcDbBlockEnd
  0
BLOCK
  5
26C4
330
26BA
100
AcDbEntity
  8
0
100
AcDbBlockBegin
  2
*D8
 70
     1
 10
0.0
 20
0.0
 30
0.0
  3
*D8
  1

  0
LINE
  5
27C9
330
26BA
100
AcDbEntity
  8
AM_5
100
AcDbLine
 10
-32.00044342353823
 20
-9.000000000000003
 30
0.0
 11
-32.00044342353823
 21
-23.00000100000114
 31
0.0
  0
LINE
  5
27CA
330
26BA
100
AcDbEntity
  8
AM_5
100
AcDbLine
 10
-0.0000000000000547
 20
-9.000000000021092
 30
0.0
 11
-0.0000000000000556
 21
-23.00000100000114
 31
0.0
  0
LINE
  5
27CB
330
26BA
100
AcDbEntity
  8
AM_5
100
AcDbLine
 10
-29.50044342353823
 20
-22.00000100000114
 30
0.0
 11
-2.500000000000055
 21
-22.00000100000114
 31
0.0
  0
INSERT
  5
27CC
330
26BA
100
AcDbEntity
  8
AM_5
100
AcDbBlockReference
  2
_OPEN30
 10
-32.00044342353823
 20
-22.00000100000114
 30
0.0
 41
2.5
 42
2.5
 43
2.5
 50
180.0
  0
INSERT
  5
27CD
330
26BA
100
AcDbEntity
  8
AM_5
100
AcDbBlockReference
  2
_OPEN30
 10
-0.0000000000000555
 20
-22.00000100000114
 30
0.0
 41
2.5
 42
2.5
 43
2.5
  0
MTEXT
  5
27CE
330
26BA
100
AcDbEntity
  8
AM_5
 62
     2
100
AcDbMText
 10
-16.00022171176914
 20
-18.90000100000114
 30
0.0
 40
3.2
 41
0.0
 71
     5
 72
     1
  1
32
  7
ASAMI
1001
ACAD
1000
MTEXTBEGIN
1070
    73
1070
     1
1070
    44
1040
1.0
1070
    74
1070
     0
1000
MTEXTEND
  0
POINT
  5
27CF
330
26BA
100
AcDbEntity
  8
DEFPOINTS
 62
     0
100
AcDbPoint
 10
-32.00044342353823
 20
-8.000000000000003
 30
0.0
  0
POINT
  5
27D0
330
26BA
100
AcDbEntity
  8
DEFPOINTS
 62
     0
100
AcDbPoint
 10
-0.0000000000000546
 20
-8.000000000021092
 30
0.0
  0
POINT
  5
27D1
330
26BA
100
AcDbEntity
  8
DEFPOINTS
 62
     0
100
AcDbPoint
 10
-0.0000000000000555
 20
-22.00000100000114
 30
0.0
  0
ENDBLK
  5
26C5
330
26BA
100
AcDbEntity
  8
0
100
AcDbBlockEnd
  0
BLOCK
  5
28D7
330
28D1
100
AcDbEntity
  8
0
100
AcDbBlockBegin
  2
*D9
 70
     1
 10
0.0
 20
0.0
 30
0.0
  3
*D9
  1

  0
LINE
  5
2A30
330
28D1
100
AcDbEntity
  8
AM_5
100
AcDbLine
 10
8.349933791944966
 20
-17.17417178211692
 30
0.0
 11
1.037484881584959
 21
-9.181099654049655
 31
0.0
  0
MTEXT
  5
2A31
330
28D1
100
AcDbEntity
  8
AM_5
 62
     2
100
AcDbMText
 10
7.824701773838061
 20
-12.0074278908188
 30
0.0
 40
3.2
 41
0.0
 71
     5
 72
     1
  1
R2
  7
ASAMI
 11
0.6749952840332317
 21
-0.7378220425908248
 31
0.0
  0
LINE
  5
2A32
330
28D1
100
AcDbEntity
  8
AM_5
100
AcDbLine
 10
-1.999993896564582
 20
-5.860900462390942
 30
0.0
 11
-0.6500033284981193
 21
-7.336544547572592
 31
0.0
  0
INSERT
  5
2A33
330
28D1
100
AcDbEntity
  8
AM_5
100
AcDbBlockReference
  2
_OPEN30
 10
-0.6500033284981193
 20
-7.336544547572592
 30
0.0
 41
2.5
 42
2.5
 43
2.5
 50
132.4537839835962
  0
POINT
  5
2A34
330
28D1
100
AcDbEntity
  8
DEFPOINTS
 62
     0
100
AcDbPoint
 10
-0.6500033284981193
 20
-7.336544547572592
 30
0.0
  0
POINT
  5
2A35
330
28D1
100
AcDbEntity
  8
DEFPOINTS
 62
     0
100
AcDbPoint
 10
-1.999993896564582
 20
-5.860900462390942
 30
0.0
  0
ENDBLK
  5
28D8
330
28D1
100
AcDbEntity
  8
0
100
AcDbBlockEnd
  0
BLOCK
  5
2974
330
2938
100
AcDbEntity
  8
0
100
AcDbBlockBegin
  2
A$C07B94FE7
 70
     0
 10
0.0
 20
0.0
 30
0.0
  3
A$C07B94FE7
  1

  0
POLYLINE
  5
2939
330
2938
100
AcDbEntity
  8
AM_0
100
AcDb2dPolyline
 66
     1
 10
0.0
 20
0.0
 30
0.0
 70
     2
  0
VERTEX
  5
293A
330
2939
100
AcDbEntity
  8
AM_0
100
AcDbVertex
100
AcDb2dVertex
 10
-0.0000000000000568
 20
-8.929531596096911
 30
0.0
 42
-0.0178156365317552
  0
VERTEX
  5
293B
330
2939
100
AcDbEntity
  8
AM_0
100
AcDbVertex
100
AcDb2dVertex
 10
-1.263571024336357
 20
-7.764523360871119
 30
0.0
 42
-0.0331959452416026
 70
     1
  0
VERTEX
  5
293C
330
2939
100
AcDbEntity
  8
AM_0
100
AcDbVertex
100
AcDb2dVertex
 10
-1.875000000000056
 20
-7.072946307823493
 30
0.0
 42
-0.0146039106870926
  0
VERTEX
  5
293D
330
2939
100
AcDbEntity
  8
AM_0
100
AcDbVertex
100
AcDb2dVertex
 10
-3.451933356989485
 20
-4.902819789132133
 30
0.0
 42
-0.0223520491893001
 70
     1
  0
VERTEX
  5
293E
330
2939
100
AcDbEntity
  8
AM_0
100
AcDbVertex
100
AcDb2dVertex
 10
-4.375000000000071
 20
-3.412319223470679
 30
0.0
 42
-0.0441009200707103
  0
VERTEX
  5
293F
330
2939
100
AcDbEntity
  8
AM_0
100
AcDbVertex
100
AcDb2dVertex
 10
-4.909470882174055
 20
-2.220769669420799
 30
0.0
 42
-0.0936531610333872
 70
     1
  0
VERTEX
  5
2940
330
2939
100
AcDbEntity
  8
AM_0
100
AcDbVertex
100
AcDb2dVertex
 10
-5.000000000000071
 20
-1.608277427391279
 30
0.0
 42
-0.1702954566684844
  0
VERTEX
  5
2941
330
2939
100
AcDbEntity
  8
AM_0
100
AcDbVertex
100
AcDb2dVertex
 10
-4.840146566777647
 20
-1.204985054318529
 30
0.0
 42
-0.1297006245562602
 70
     1
  0
VERTEX
  5
2942
330
2939
100
AcDbEntity
  8
AM_0
100
AcDbVertex
100
AcDb2dVertex
 10
-4.375000000000071
 20
-0.888052514823407
 30
0.0
 42
-0.1520873745504847
  0
VERTEX
  5
2943
330
2939
100
AcDbEntity
  8
AM_0
100
AcDbVertex
100
AcDb2dVertex
 10
-3.745817586354597
 20
-0.8639532826460607
 30
0.0
 42
-0.046970576622812
 70
     1
  0
VERTEX
  5
2944
330
2939
100
AcDbEntity
  8
AM_0
100
AcDbVertex
100
AcDb2dVertex
 10
-1.875000000000071
 20
-1.562692964516671
 30
0.0
 42
-0.0471052227454502
  0
VERTEX
  5
2945
330
2939
100
AcDbEntity
  8
AM_0
100
AcDbVertex
100
AcDb2dVertex
 10
-0.8992300166850668
 20
-2.154868230935998
 30
0.0
 42
-0.0445950027858137
 70
     1
  0
VERTEX
  5
2946
330
2939
100
AcDbEntity
  8
AM_0
100
AcDbVertex
100
AcDb2dVertex
 10
-0.0000000000000639
 20
-2.957558326777811
 30
0.0
  0
SEQEND
  5
2947
330
2939
100
AcDbEntity
  8
AM_0
  0
LINE
  5
2948
330
2938
100
AcDbEntity
  8
AM_11
100
AcDbLine
 10
-0.0000000000000853
 20
12.5
 30
0.0
 11
-0.0000000000000497
 21
-12.5
 31
0.0
  0
POLYLINE
  5
2949
330
2938
100
AcDbEntity
  8
AM_0
100
AcDb2dPolyline
 66
     1
 10
0.0
 20
0.0
 30
0.0
  0
VERTEX
  5
294A
330
2949
100
AcDbEntity
  8
AM_0
100
AcDbVertex
100
AcDb2dVertex
 10
-0.0000000000000497
 20
-12.21666518633623
 30
0.0
 42
-0.0221539577337636
  0
VERTEX
  5
294B
330
2949
100
AcDbEntity
  8
AM_0
100
AcDbVertex
100
AcDb2dVertex
 10
-1.149946725495425
 20
-11.95660891583664
 30
0.0
 42
-0.0340466909705598
  0
VERTEX
  5
294C
330
2949
100
AcDbEntity
  8
AM_0
100
AcDbVertex
100
AcDb2dVertex
 10
-1.874999999679801
 20
-11.7043870331292
 30
0.0
 42
-0.0203576778786898
  0
VERTEX
  5
294D
330
2949
100
AcDbEntity
  8
AM_0
100
AcDbVertex
100
AcDb2dVertex
 10
-3.568860091391172
 20
-10.89959267122852
 30
0.0
 42
-0.0400624909263087
  0
VERTEX
  5
294E
330
2949
100
AcDbEntity
  8
AM_0
100
AcDbVertex
100
AcDb2dVertex
 10
-4.374999999679808
 20
-10.38929445949429
 30
0.0
 42
-0.0663150629504314
  0
VERTEX
  5
294F
330
2949
100
AcDbEntity
  8
AM_0
100
AcDbVertex
100
AcDb2dVertex
 10
-4.935060409052212
 20
-9.838716933111424
 30
0.0
 42
-0.2076691274107043
  0
VERTEX
  5
2950
330
2949
100
AcDbEntity
  8
AM_0
100
AcDbVertex
100
AcDb2dVertex
 10
-5.000000000000056
 20
-9.586480039066433
 30
0.0
 42
-0.2374584988068722
  0
VERTEX
  5
2951
330
2949
100
AcDbEntity
  8
AM_0
100
AcDbVertex
100
AcDb2dVertex
 10
-4.869149070653733
 20
-9.404663247363458
 30
0.0
 42
-0.0987776704921028
  0
VERTEX
  5
2952
330
2949
100
AcDbEntity
  8
AM_0
100
AcDbVertex
100
AcDb2dVertex
 10
-4.375000000000056
 20
-9.26054251668236
 30
0.0
 42
-0.0800554842556619
  0
VERTEX
  5
2953
330
2949
100
AcDbEntity
  8
AM_0
100
AcDbVertex
100
AcDb2dVertex
 10
-3.763182742121699
 20
-9.305225649375195
 30
0.0
 42
-0.0248354955603466
  0
VERTEX
  5
2954
330
2949
100
AcDbEntity
  8
AM_0
100
AcDbVertex
100
AcDb2dVertex
 10
-1.875000000000056
 20
-9.852957534548806
 30
0.0
 42
-0.0116235723303201
  0
VERTEX
  5
2955
330
2949
100
AcDbEntity
  8
AM_0
100
AcDbVertex
100
AcDb2dVertex
 10
-1.544673485398952
 20
-9.975502172039139
 30
0.0
 42
-0.0249611087696398
  0
SEQEND
  5
2956
330
2949
100
AcDbEntity
  8
AM_0
  0
SPLINE
  5
2957
330
2938
100
AcDbEntity
  8
AM_0
100
AcDbSpline
210
0.0
220
0.0
230
1.0
 70
     8
 71
     3
 72
     8
 73
     4
 74
     0
 42
0.0000000001
 43
0.0000000001
 40
0.0
 40
0.0
 40
0.0
 40
0.0
 40
1.168827779827945
 40
1.168827779827945
 40
1.168827779827945
 40
1.168827779827945
 10
-3.022507614835106
 20
-12.49999999999999
 30
0.0
 10
-1.985707614730024
 20
-12.49999999999999
 30
0.0
 10
-0.9794850921272058
 20
-12.4014287296245
 30
0.0
 10
0.0000000024813644
 20
-12.21666518770418
 30
0.0
  0
SPLINE
  5
2958
330
2938
100
AcDbEntity
  8
AM_0
100
AcDbSpline
210
0.0
220
0.0
230
1.0
 70
     8
 71
     3
 72
     8
 73
     4
 74
     0
 42
0.0000000001
 43
0.0000000001
 40
0.0
 40
0.0
 40
0.0
 40
0.0
 40
1.229985673975173
 40
1.229985673975173
 40
1.229985673975173
 40
1.229985673975173
 10
-0.0022202929091861
 20
-12.21708385316559
 30
0.0
 10
0.9734682976901467
 20
-12.21708385316559
 30
0.0
 10
2.031633470418881
 20
-12.10900193312141
 30
0.0
 10
3.061288361351948
 20
-11.90721484556561
 30
0.0
  0
POLYLINE
  5
2959
330
2938
100
AcDbEntity
  8
AM_0
100
AcDb2dPolyline
 66
     1
 10
0.0
 20
0.0
 30
0.0
 70
     2
  0
VERTEX
  5
295A
330
2959
100
AcDbEntity
  8
AM_0
100
AcDbVertex
100
AcDb2dVertex
 10
-0.1175813581287599
 20
0.0000000000000062
 30
0.0
 42
-0.0127375777047685
  0
VERTEX
  5
295B
330
2959
100
AcDbEntity
  8
AM_0
100
AcDbVertex
100
AcDb2dVertex
 10
-1.353303940584311
 20
1.361387544314486
 30
0.0
 42
-0.0248093973610095
 70
     1
  0
VERTEX
  5
295C
330
2959
100
AcDbEntity
  8
AM_0
100
AcDbVertex
100
AcDb2dVertex
 10
-1.933790679064415
 20
2.106306535872535
 30
0.0
 42
-0.0083836245974647
  0
VERTEX
  5
295D
330
2959
100
AcDbEntity
  8
AM_0
100
AcDbVertex
100
AcDb2dVertex
 10
-3.512785199379294
 20
4.43629151269926
 30
0.0
 42
-0.0143113302193792
 70
     1
  0
VERTEX
  5
295E
330
2959
100
AcDbEntity
  8
AM_0
100
AcDbVertex
100
AcDb2dVertex
 10
-4.375000000000078
 20
5.841956030713458
 30
0.0
 42
-0.0388452244960751
  0
VERTEX
  5
295F
330
2959
100
AcDbEntity
  8
AM_0
100
AcDbVertex
100
AcDb2dVertex
 10
-4.911174141365066
 20
6.969336815881978
 30
0.0
 42
-0.0958601720223094
 70
     1
  0
VERTEX
  5
2960
330
2959
100
AcDbEntity
  8
AM_0
100
AcDbVertex
100
AcDb2dVertex
 10
-5.000000000000078
 20
7.471298989681847
 30
0.0
 42
-0.1958397271905712
  0
VERTEX
  5
2961
330
2959
100
AcDbEntity
  8
AM_0
100
AcDbVertex
100
AcDb2dVertex
 10
-4.8674912884304
 20
7.782301375442426
 30
0.0
 42
-0.1110351864371754
 70
     1
  0
VERTEX
  5
2962
330
2959
100
AcDbEntity
  8
AM_0
100
AcDbVertex
100
AcDb2dVertex
 10
-4.375000000000085
 20
8.091117449678215
 30
0.0
 42
-0.1149197439922528
  0
VERTEX
  5
2963
330
2959
100
AcDbEntity
  8
AM_0
100
AcDbVertex
100
AcDb2dVertex
 10
-3.706470846726027
 20
8.165001869124392
 30
0.0
 42
-0.0408875130900929
 70
     1
  0
VERTEX
  5
2964
330
2959
100
AcDbEntity
  8
AM_0
100
AcDbVertex
100
AcDb2dVertex
 10
-1.875000000000085
 20
7.792802410366967
 30
0.0
 42
-0.0433088016869432
  0
VERTEX
  5
2965
330
2959
100
AcDbEntity
  8
AM_0
100
AcDbVertex
100
AcDb2dVertex
 10
-0.9600670025820505
 20
7.439209809629642
 30
0.0
 42
-0.0381261598452643
 70
     1
  0
VERTEX
  5
2966
330
2959
100
AcDbEntity
  8
AM_0
100
AcDbVertex
100
AcDb2dVertex
 10
-0.0000000000000782
 20
6.874668911059356
 30
0.0
  0
SEQEND
  5
2967
330
2959
100
AcDbEntity
  8
AM_0
  0
POLYLINE
  5
2968
330
2938
100
AcDbEntity
  8
AM_0
100
AcDb2dPolyline
 66
     1
 10
0.0
 20
0.0
 30
0.0
  0
VERTEX
  5
2969
330
2968
100
AcDbEntity
  8
AM_0
100
AcDbVertex
100
AcDb2dVertex
 10
-3.599862845136428
 20
10.71885503346777
 30
0.0
 42
-0.0145870599255934
  0
VERTEX
  5
296A
330
2968
100
AcDbEntity
  8
AM_0
100
AcDbVertex
100
AcDb2dVertex
 10
-4.375000000000085
 20
11.30119047089986
 30
0.0
 42
-0.0050435334132596
  0
VERTEX
  5
296B
330
2968
100
AcDbEntity
  8
AM_0
100
AcDbVertex
100
AcDb2dVertex
 10
-4.994704818693016
 20
11.80599245027657
 30
0.0
 42
-0.2742987476584449
  0
VERTEX
  5
296C
330
2968
100
AcDbEntity
  8
AM_0
100
AcDbVertex
100
AcDb2dVertex
 10
-5.000000000000085
 20
11.82088068338448
 30
0.0
 42
-0.2776516060307496
  0
VERTEX
  5
296D
330
2968
100
AcDbEntity
  8
AM_0
100
AcDbVertex
100
AcDb2dVertex
 10
-4.939808306754791
 20
11.88741666087717
 30
0.0
 42
-0.0400827094855082
  0
VERTEX
  5
296E
330
2968
100
AcDbEntity
  8
AM_0
100
AcDbVertex
100
AcDb2dVertex
 10
-4.374999999676511
 20
12.00995036720946
 30
0.0
 42
-0.0136313623974274
  0
VERTEX
  5
296F
330
2968
100
AcDbEntity
  8
AM_0
100
AcDbVertex
100
AcDb2dVertex
 10
-3.796315511176004
 20
12.07166990340448
 30
0.0
 42
-0.0041179133630786
  0
VERTEX
  5
2970
330
2968
100
AcDbEntity
  8
AM_0
100
AcDbVertex
100
AcDb2dVertex
 10
-1.874999999676511
 20
12.20784261925655
 30
0.0
 42
-0.0144548307118866
  0
VERTEX
  5
2971
330
2968
100
AcDbEntity
  8
AM_0
100
AcDbVertex
100
AcDb2dVertex
 10
-1.210124198978832
 20
12.23019949909155
 30
0.0
 42
-0.0079447181452264
  0
VERTEX
  5
2972
330
2968
100
AcDbEntity
  8
AM_0
100
AcDbVertex
100
AcDb2dVertex
 10
-0.0000000000000853
 20
12.2166651881719
 30
0.0
  0
SEQEND
  5
2973
330
2968
100
AcDbEntity
  8
AM_0
  0
ENDBLK
  5
2975
330
2938
100
AcDbEntity
  8
0
100
AcDbBlockEnd
  0
ENDSEC
  0
SECTION
  2
ENTITIES
  0
TEXT
  5
C58
330
1F
100
AcDbEntity
  8
AM_6
100
AcDbText
 10
-76.54761904761909
 20
-56.50000099999964
 30
0.0
 40
5.0
  1
HHM8160ZX-R20
 50
0.0000000000002036
 72
     4
 11
-45.00000000000006
 21
-54.00000099999953
 31
0.0
100
AcDbText
  0
DIMENSION
  5
2434
330
1F
100
AcDbEntity
  8
AM_5
100
AcDbDimension
  2
*D5
 10
17.92025509623977
 20
-8.000000000019941
 30
0.0
 11
14.82025509623978
 21
-0.0000000000099719
 31
0.0
 70
    32
  1
%%c<>
  3
AM_JIS
100
AcDbAlignedDimension
 13
-0.0000000000000568
 23
7.999999999999996
 33
0.0
 14
-0.0000000000003126
 24
-8.000000000019936
 34
0.0
 50
90.0
100
AcDbRotatedDimension
1001
GENIUS_GENDTOL_13
1000

1000
h7
1000

1040
0.0
  0
LINE
  5
247F
330
1F
100
AcDbEntity
  8
AM_0
100
AcDbLine
 10
-73.88742354336546
 20
7.999999999999911
 30
0.0
 11
-75.76615846808794
 21
7.999999999999911
 31
0.0
  0
LINE
  5
2480
330
1F
100
AcDbEntity
  8
AM_0
100
AcDbLine
 10
-73.21198048538953
 20
-8.000000000000182
 30
0.0
 11
-75.76615846808794
 21
-8.000000000000182
 31
0.0
  0
LINE
  5
2481
330
1F
100
AcDbEntity
  8
AM_0
100
AcDbLine
 10
-90.00000000000005
 20
6.000000000000005
 30
0.0
 11
-89.10000000000007
 21
7.999999999999996
 31
0.0
1001
GENIUS_GENFIL_13
1070
     0
1040
0.5
1040
0.5
1040
0.4999999999999716
1040
45.0
1002
{
1002
}
  0
LINE
  5
2482
330
1F
100
AcDbEntity
  8
AM_0
100
AcDbLine
 10
-90.00000000000005
 20
-5.999999999999993
 30
0.0
 11
-89.10000000000007
 21
-7.999999999999993
 31
0.0
1001
GENIUS_GENFIL_13
1070
     0
1040
0.5
1040
0.5
1040
0.4999999999999716
1040
45.00000000000036
1002
{
1002
}
  0
DIMENSION
  5
2483
330
1F
100
AcDbEntity
  8
AM_5
100
AcDbDimension
  2
*D6
 10
-108.594919767424
 20
8.000000000000003
 30
0.0
 11
-108.594919767424
 21
-0.0000000000000158
 31
0.0
 70
   160
  1
%%c<>
  3
AM_JIS
100
AcDbAlignedDimension
 13
-89.10000000000007
 23
-8.0
 33
0.0
 14
-89.10000000000007
 24
7.999999999999998
 34
0.0
 50
270.0
100
AcDbRotatedDimension
1001
ACAD
1000
DSTYLE
1002
{
1070
    48
1040
0.1
1070
    47
1040
0.1
1070
   274
1070
     2
1070
   272
1070
     3
1002
}
1001
GENIUS_GENDTOL_13
1000

1000
h6
1000

1040
0.0
  0
LINE
  5
2490
330
1F
100
AcDbEntity
  8
0
100
AcDbLine
 10
-89.10000000000007
 20
-7.999999999999993
 30
0.0
 11
-89.10000000000007
 21
7.999999999999996
 31
0.0
  0
LINE
  5
2491
330
1F
100
AcDbEntity
  8
AM_0
100
AcDbLine
 10
-90.00000000000005
 20
-5.999999999999993
 30
0.0
 11
-90.00000000000005
 21
6.000000000000005
 31
0.0
  0
LINE
  5
2492
330
1F
100
AcDbEntity
  8
AM_0
100
AcDbLine
 10
-89.10000000000007
 20
-7.999999999999993
 30
0.0
 11
-33.93485722305659
 21
-7.999999999999993
 31
0.0
1001
GENIUS_GENODEF_13
1002
{
1000
HIER
1070
     0
1002
}
1002
{
1000
MANEDIT
1070
     0
1002
}
1002
{
1000
NOSEL
1070
     0
1002
}
1002
{
1000
BEHIND
1070
     0
1002
}
1002
{
1000
REACTOR
1002
}
1001
GENIUS_GENOBJ-N-CEN_13
1002
{
1000
OWNER
1000
GEN
1002
}
  0
LINE
  5
2493
330
1F
100
AcDbEntity
  8
AM_0
100
AcDbLine
 10
-89.10000000000007
 20
7.999999999999996
 30
0.0
 11
-33.60248423933671
 21
7.999999999999996
 31
0.0
1001
GENIUS_GENODEF_13
1002
{
1000
HIER
1070
     0
1002
}
1002
{
1000
MANEDIT
1070
     0
1002
}
1002
{
1000
NOSEL
1070
     0
1002
}
1002
{
1000
BEHIND
1070
     0
1002
}
1002
{
1000
REACTOR
1002
}
1001
GENIUS_GENOBJ-N-CEN_13
1002
{
1000
OWNER
1000
GEN
1002
}
  0
LINE
  5
2494
330
1F
100
AcDbEntity
  8
AM_7
100
AcDbLine
 10
-94.59491876742395
 20
-0.0000000000000036
 30
0.0
 11
3.920254096239677
 21
-0.0000000000000036
 31
0.0
1001
GENIUS_GENODEF_13
1002
{
1000
HIER
1070
     0
1002
}
1002
{
1000
MANEDIT
1070
     0
1002
}
1002
{
1000
NOSEL
1070
     0
1002
}
1002
{
1000
BEHIND
1070
     0
1002
}
1002
{
1000
REACTOR
1002
}
1001
GENIUS_GENOBJ-N-CEN_13
1002
{
1000
OWNER
1000
GEN
1002
}
  0
DIMENSION
  5
2495
330
1F
100
AcDbEntity
  8
AM_5
100
AcDbDimension
  2
*D7
 10
-0.0000000000000585
 20
-34.00000099999953
 30
0.0
 11
-45.00000000000006
 21
-30.90000099999953
 31
0.0
 70
    32
  1
<>
  3
AM_JIS
100
AcDbAlignedDimension
 13
-90.00000000000005
 23
-5.999999999999993
 33
0.0
 14
-0.000000000000057
 24
-8.000000000021092
 34
0.0
 50
0.0000000000003016
100
AcDbRotatedDimension
1001
GENIUS_GENDTOL_13
1000

1000
H7
1000

1040
0.0
  0
LINE
  5
2674
330
1F
100
AcDbEntity
  8
AM_11
100
AcDbLine
 10
-0.0000000000000737
 20
5.86584148502918
 30
0.0
 11
-0.0000000000000545
 21
-8.000000000021092
 31
0.0
  0
LINE
  5
268C
330
1F
100
AcDbEntity
  8
AM_11
 48
0.4
100
AcDbLine
 10
-32.00044342353825
 20
8.005290831022024
 30
0.0
 11
-32.00044342353823
 21
-7.994709168977976
 31
0.0
  0
DIMENSION
  5
26B9
330
1F
100
AcDbEntity
  8
AM_5
100
AcDbDimension
  2
*D8
 10
-0.0000000000000555
 20
-22.00000100000114
 30
0.0
 11
-16.00022171176914
 21
-18.90000100000114
 31
0.0
 70
    32
  1
<>
  3
AM_JIS
100
AcDbAlignedDimension
 13
-32.00044342353823
 23
-8.000000000000003
 33
0.0
 14
-0.0000000000000546
 24
-8.000000000021092
 34
0.0
 50
359.9999999999992
100
AcDbRotatedDimension
1001
GENIUS_GENDTOL_13
1000

1000
H7
1000

1040
0.0
  0
LINE
  5
26CC
330
1F
100
AcDbEntity
  8
AM_11
100
AcDbLine
 10
-0.0000000000000772
 20
8.005290831022024
 30
0.0
 11
-32.00044342353825
 21
8.005290831022032
 31
0.0
  0
LINE
  5
26CD
330
1F
100
AcDbEntity
  8
AM_11
100
AcDbLine
 10
-32.00044342353823
 20
-7.994709168977969
 30
0.0
 11
-0.0000000000000545
 21
-7.994709168977976
 31
0.0
  0
LINE
  5
2762
330
1F
100
AcDbEntity
  8
AM_0
100
AcDbLine
 10
-2.312043167598134
 20
-5.234237578752876
 30
0.0
 11
-1.278323005247865
 21
-5.234237578752876
 31
0.0
  0
LINE
  5
2763
330
1F
100
AcDbEntity
  8
AM_0
100
AcDbLine
 10
-0.5109388791432025
 20
-5.806017232059807
 30
0.0
 11
-0.0000000000000545
 21
-5.806017232059807
 31
0.0
  0
LINE
  5
2766
330
1F
100
AcDbEntity
  8
AM_0
100
AcDbLine
 10
-0.2128579836795992
 20
-6.758756368913116
 30
0.0
 11
-0.1641558143939762
 21
-5.806017232059807
 31
0.0
  0
SPLINE
  5
2767
330
1F
100
AcDbEntity
  8
AM_0
100
AcDbSpline
210
0.0
220
0.0
230
1.0
 70
     8
 71
     3
 72
     8
 73
     4
 74
     0
 42
0.0000000001
 43
0.0000000001
 40
0.0
 40
0.0
 40
0.0
 40
0.0
 40
1.229985673975173
 40
1.229985673975173
 40
1.229985673975173
 40
1.229985673975173
 10
-5.336561164862931
 20
-7.813642835003961
 30
0.0
 10
-4.63828616306007
 20
-7.813642835003961
 30
0.0
 10
-3.961057327555858
 20
-7.744470406175683
 30
0.0
 10
-3.302075156597768
 20
-7.615326670139971
 30
0.0
  0
LINE
  5
2768
330
1F
100
AcDbEntity
  8
AM_0
100
AcDbLine
 10
-0.3587104514252342
 20
-7.003786569013781
 30
0.0
 11
-2.312043167598134
 21
-5.587059564104023
 31
0.0
  0
LINE
  5
2769
330
1F
100
AcDbEntity
  8
AM_0
100
AcDbLine
 10
-2.312043167598134
 20
-5.587059564104023
 30
0.0
 11
-2.312043167598134
 21
-5.234237578752876
 31
0.0
  0
ELLIPSE
  5
276A
330
1F
100
AcDbEntity
  8
AM_0
100
AcDbEllipse
 10
10.15709973916587
 20
-3.751732958523904
 30
0.0
 11
10.38981766362702
 21
0.0000000000002729
 31
0.0
210
0.0
220
0.0
230
1.0
 40
0.9394470054916522
 41
3.119051463232128
 42
3.353643463775214
  0
LINE
  5
276B
330
1F
100
AcDbEntity
  8
AM_0
100
AcDbLine
 10
-0.0000000000000546
 20
-5.865841485021545
 30
0.0
 11
-0.0000000000000545
 21
-1.833186800063581
 31
0.0
  0
SPLINE
  5
276C
330
1F
100
AcDbEntity
  8
AM_0
100
AcDbSpline
210
0.0
220
0.0
230
1.0
 70
     8
 71
     3
 72
     8
 73
     4
 74
     0
 42
0.0000000001
 43
0.0000000001
 40
0.0
 40
0.0
 40
0.0
 40
0.0
 40
9.307120929696711
 40
9.307120929696711
 40
9.307120929696711
 40
9.307120929696711
 10
-7.195722547915813
 20
-7.994709168977973
 30
0.0
 10
-12.47946692110035
 20
-7.994709168977973
 30
0.0
 10
-16.52237840329347
 20
-3.994709168977972
 30
0.0
 10
-20.56528988548659
 20
0.0052908310220285
 30
0.0
  0
SPLINE
  5
276D
330
1F
100
AcDbEntity
  8
AM_0
100
AcDbSpline
210
0.0
220
0.0
230
1.0
 70
     8
 71
     3
 72
     8
 73
     4
 74
     0
 42
0.0000000001
 43
0.0000000001
 40
0.0
 40
0.0
 40
0.0
 40
0.0
 40
1.168827779827945
 40
1.168827779827945
 40
1.168827779827945
 40
1.168827779827945
 10
-7.195722547931691
 20
-7.994709168977973
 30
0.0
 10
-6.532167486002301
 20
-7.994709168977973
 30
0.0
 10
-5.888182099975313
 20
-7.931623555937662
 30
0.0
 10
-5.261308746825589
 20
-7.813374889108659
 30
0.0
  0
SPLINE
  5
276E
330
1F
100
AcDbEntity
  8
AM_0
100
AcDbSpline
210
0.0
220
0.0
230
1.0
 70
     8
 71
     3
 72
     8
 73
     4
 74
     0
 42
0.0000000001
 43
0.0000000001
 40
4.323648603745047
 40
4.323648603745047
 40
4.323648603745047
 40
4.323648603745047
 40
9.307120929696758
 40
9.307120929696758
 40
9.307120929696758
 40
9.307120929696758
 10
-0.5109388791424281
 20
-5.806017232059807
 30
0.0
 10
-2.866190861386021
 20
-4.27828718507579
 30
0.0
 10
-5.030956704655371
 20
-2.136498177026882
 30
0.0
 10
-7.195722547924333
 20
0.0052908310220268
 30
0.0
  0
SPLINE
  5
276F
330
1F
100
AcDbEntity
  8
AM_0
100
AcDbSpline
210
0.0
220
0.0
230
1.0
 70
     8
 71
     3
 72
     8
 73
     4
 74
     0
 42
0.0000000001
 43
0.0000000001
 40
0.0
 40
0.0
 40
0.0
 40
0.0
 40
9.246817942408453
 40
9.246817942408453
 40
9.246817942408453
 40
9.246817942408453
 10
-5.336561164847054
 20
-7.813642835003961
 30
0.0
 10
-10.58607093721601
 20
-7.813642835003961
 30
0.0
 10
-14.64609971981711
 20
-3.904176001990967
 30
0.0
 10
-18.70612850241822
 20
0.0052908310220277
 30
0.0
  0
SPLINE
  5
2771
330
1F
100
AcDbEntity
  8
AM_0
100
AcDbSpline
210
0.0
220
0.0
230
1.0
 70
     8
 71
     3
 72
     8
 73
     4
 74
     0
 42
0.0000000001
 43
0.0000000001
 40
1.392543440170051
 40
1.392543440170051
 40
1.392543440170051
 40
1.392543440170051
 40
9.246817942408316
 40
9.246817942408316
 40
9.246817942408316
 40
9.246817942408316
 10
-0.9465916772023675
 20
-7.561001566514687
 30
0.0
 10
-5.124143927520139
 20
-6.636134544739761
 30
0.0
 10
-8.572744380578422
 20
-3.315421856858867
 30
0.0
 10
-12.0213448336367
 20
0.0052908310220277
 30
0.0
  0
SPLINE
  5
2772
330
1F
100
AcDbEntity
  8
AM_0
100
AcDbSpline
210
0.0
220
0.0
230
1.0
 70
     8
 71
     3
 72
     8
 73
     4
 74
     0
 42
0.0000000001
 43
0.0000000001
 40
0.0
 40
0.0
 40
0.0
 40
0.0
 40
1.168827779827945
 40
1.168827779827945
 40
1.168827779827945
 40
1.168827779827945
 10
-13.8805062167132
 20
-7.994709168977973
 30
0.0
 10
-13.21695115478382
 20
-7.994709168977973
 30
0.0
 10
-12.57296576875683
 20
-7.931623555937662
 30
0.0
 10
-11.94609241560671
 20
-7.813374889108658
 30
0.0
  0
SPLINE
  5
2773
330
1F
100
AcDbEntity
  8
AM_0
100
AcDbSpline
210
0.0
220
0.0
230
1.0
 70
     8
 71
     3
 72
     8
 73
     4
 74
     0
 42
0.0000000001
 43
0.0000000001
 40
0.0
 40
0.0
 40
0.0
 40
0.0
 40
1.229985673975173
 40
1.229985673975173
 40
1.229985673975173
 40
1.229985673975173
 10
-12.02134483364406
 20
-7.81364283500396
 30
0.0
 10
-11.3230698318412
 20
-7.81364283500396
 30
0.0
 10
-10.64584099633737
 20
-7.744470406175682
 30
0.0
 10
-9.986858825378899
 20
-7.615326670139969
 30
0.0
  0
SPLINE
  5
2774
330
1F
100
AcDbEntity
  8
AM_0
100
AcDbSpline
210
0.0
220
0.0
230
1.0
 70
     8
 71
     3
 72
     8
 73
     4
 74
     0
 42
0.0000000001
 43
0.0000000001
 40
0.0
 40
0.0
 40
0.0
 40
0.0
 40
9.246817942408453
 40
9.246817942408453
 40
9.246817942408453
 40
9.246817942408453
 10
-12.02134483362779
 20
-7.81364283500396
 30
0.0
 10
-17.27085460599675
 20
-7.81364283500396
 30
0.0
 10
-21.33088338859786
 20
-3.904176001990965
 30
0.0
 10
-25.39091217119896
 20
0.0052908310220285
 30
0.0
  0
SPLINE
  5
2775
330
1F
100
AcDbEntity
  8
AM_0
100
AcDbSpline
210
0.0
220
0.0
230
1.0
 70
     8
 71
     3
 72
     8
 73
     4
 74
     0
 42
0.0000000001
 43
0.0000000001
 40
0.0
 40
0.0
 40
0.0
 40
0.0
 40
9.307120929696711
 40
9.307120929696711
 40
9.307120929696711
 40
9.307120929696711
 10
-13.88050621669694
 20
-7.994709168977973
 30
0.0
 10
-19.16425058988149
 20
-7.994709168977973
 30
0.0
 10
-23.2071620720746
 20
-3.994709168977972
 30
0.0
 10
-27.25007355426772
 20
0.0052908310220294
 30
0.0
  0
SPLINE
  5
2776
330
1F
100
AcDbEntity
  8
AM_0
100
AcDbSpline
210
0.0
220
0.0
230
1.0
 70
     8
 71
     3
 72
     8
 73
     4
 74
     0
 42
0.0000000001
 43
0.0000000001
 40
0.1961179252418163
 40
0.1961179252418163
 40
0.1961179252418163
 40
0.1961179252418163
 40
9.307120929696711
 40
9.307120929696711
 40
9.307120929696711
 40
9.307120929696711
 10
-33.6024842393368
 20
7.999999999997461
 30
0.0
 10
-28.48072988873731
 20
7.836716315467125
 30
0.0
 10
-24.52300988711195
 20
3.921003573244576
 30
0.0
 10
-20.56528988548659
 20
0.0052908310220285
 30
0.0
  0
SPLINE
  5
2777
330
1F
100
AcDbEntity
  8
AM_0
100
AcDbSpline
210
0.0
220
0.0
230
1.0
 70
     8
 71
     3
 72
     8
 73
     4
 74
     0
 42
0.0000000001
 43
0.0000000001
 40
0.0
 40
0.0
 40
0.0
 40
0.0
 40
9.246817942408423
 40
9.246817942408423
 40
9.246817942408423
 40
9.246817942408423
 10
-32.075695839989
 20
7.824224497047925
 30
0.0
 10
-26.82618606762006
 20
7.824224497047925
 30
0.0
 10
-22.76615728501894
 20
3.914757664034976
 30
0.0
 10
-18.70612850241783
 20
0.0052908310220277
 30
0.0
  0
SPLINE
  5
2778
330
1F
100
AcDbEntity
  8
AM_0
100
AcDbSpline
210
0.0
220
0.0
230
1.0
 70
     8
 71
     3
 72
     8
 73
     4
 74
     0
 42
0.0000000001
 43
0.0000000001
 40
0.0
 40
0.0
 40
0.0
 40
0.0
 40
9.246817942408229
 40
9.246817942408229
 40
9.246817942408229
 40
9.246817942408229
 10
-25.39091217120748
 20
7.824224497047925
 30
0.0
 10
-20.14140239883865
 20
7.824224497047922
 30
0.0
 10
-16.08137361623767
 20
3.914757664034974
 30
0.0
 10
-12.0213448336367
 20
0.0052908310220277
 30
0.0
  0
SPLINE
  5
2779
330
1F
100
AcDbEntity
  8
AM_0
100
AcDbSpline
210
0.0
220
0.0
230
1.0
 70
     8
 71
     3
 72
     8
 73
     4
 74
     0
 42
0.0000000001
 43
0.0000000001
 40
0.0
 40
0.0
 40
0.0
 40
0.0
 40
9.307120929696711
 40
9.307120929696711
 40
9.307120929696711
 40
9.307120929696711
 10
-27.25007355427624
 20
8.005290831022028
 30
0.0
 10
-21.9663291810917
 20
8.005290831022026
 30
0.0
 10
-17.92341769889858
 20
4.005290831022026
 30
0.0
 10
-13.88050621670546
 20
0.0052908310220277
 30
0.0
  0
SPLINE
  5
277A
330
1F
100
AcDbEntity
  8
AM_0
100
AcDbSpline
210
0.0
220
0.0
230
1.0
 70
     8
 71
     3
 72
     8
 73
     4
 74
     0
 42
0.0000000001
 43
0.0000000001
 40
0.0
 40
0.0
 40
0.0
 40
0.0
 40
9.307120929696711
 40
9.307120929696711
 40
9.307120929696711
 40
9.307120929696711
 10
-20.56528988549511
 20
8.005290831022028
 30
0.0
 10
-15.28154551231057
 20
8.005290831022026
 30
0.0
 10
-11.23863403011745
 20
4.005290831022026
 30
0.0
 10
-7.195722547924333
 20
0.0052908310220268
 30
0.0
  0
SPLINE
  5
277B
330
1F
100
AcDbEntity
  8
AM_0
100
AcDbSpline
210
0.0
220
0.0
230
1.0
 70
     8
 71
     3
 72
     8
 73
     4
 74
     0
 42
0.0000000001
 43
0.0000000001
 40
0.0
 40
0.0
 40
0.0
 40
0.0
 40
9.246817942408423
 40
9.246817942408423
 40
9.246817942408423
 40
9.246817942408423
 10
-18.70612850242635
 20
7.824224497047925
 30
0.0
 10
-13.45661873005741
 20
7.824224497047922
 30
0.0
 10
-9.396589947456298
 20
3.914757664034974
 30
0.0
 10
-5.336561164855186
 20
0.0052908310220268
 30
0.0
  0
SPLINE
  5
277D
330
1F
100
AcDbEntity
  8
AM_0
100
AcDbSpline
210
0.0
220
0.0
230
1.0
 70
     8
 71
     3
 72
     8
 73
     4
 74
     0
 42
0.0000000001
 43
0.0000000001
 40
0.3079570354960721
 40
0.3079570354960721
 40
0.3079570354960721
 40
0.3079570354960721
 40
0.5596836519003795
 40
0.5596836519003795
 40
0.5596836519003795
 40
0.5596836519003795
 10
-0.7995986384533205
 20
7.460603942510291
 30
0.0
 10
-0.9306018840329233
 20
7.306408670633789
 30
0.0
 10
-1.093978185737838
 20
7.154822347964937
 30
0.0
 10
-1.264175024952111
 20
7.02383806646441
 30
0.0
  0
SPLINE
  5
277F
330
1F
100
AcDbEntity
  8
AM_0
100
AcDbSpline
210
0.0
220
0.0
230
1.0
 70
     8
 71
     3
 72
     8
 73
     4
 74
     0
 42
0.0000000001
 43
0.0000000001
 40
0.0
 40
0.0
 40
0.0
 40
0.0
 40
3.208811545131809
 40
3.208811545131809
 40
3.208811545131809
 40
3.208811545131809
 10
-5.336561164862931
 20
7.824224497048012
 30
0.0
 10
-3.514887193473794
 20
7.824224497048012
 30
0.0
 10
-1.836452233360823
 20
7.353440879154653
 30
0.0
 10
-0.2515497805180444
 20
6.575243996041095
 30
0.0
  0
LINE
  5
2780
330
1F
100
AcDbEntity
  8
AM_0
100
AcDbLine
 10
-0.5109388791424281
 20
5.816598894104224
 30
0.0
 11
-0.0000000000000545
 21
5.816598894104224
 31
0.0
  0
SPLINE
  5
2781
330
1F
100
AcDbEntity
  8
AM_0
100
AcDbSpline
210
0.0
220
0.0
230
1.0
 70
     8
 71
     3
 72
     8
 73
     4
 74
     0
 42
0.0000000001
 43
0.0000000001
 40
0.0
 40
0.0
 40
0.0
 40
0.0
 40
1.132300688333841
 40
1.132300688333841
 40
1.132300688333841
 40
1.132300688333841
 10
-0.5109388791424281
 20
5.816598894104224
 30
0.0
 10
-0.6777177893582537
 20
5.233384529226245
 30
0.0
 10
-1.576703614956398
 20
4.976498925260708
 30
0.0
 10
-2.219521886678573
 20
4.976498925260708
 30
0.0
  0
LINE
  5
2782
330
1F
100
AcDbEntity
  8
AM_0
100
AcDbLine
 10
-0.0000000000000545
 20
1.880796106455742
 30
0.0
 11
-0.1473113024624938
 21
1.36431325865216
 31
0.0
  0
LINE
  5
2783
330
1F
100
AcDbEntity
  8
AM_0
100
AcDbLine
 10
-0.2300784757073408
 20
2.104106216198593
 30
0.0
 11
-2.219521886678573
 21
4.110830370296131
 31
0.0
  0
LINE
  5
2784
330
1F
100
AcDbEntity
  8
AM_0
100
AcDbLine
 10
-2.219521886678573
 20
4.976498925260708
 30
0.0
 11
-0.8257974497124948
 21
2.704999736264394
 31
0.0
  0
LINE
  5
2785
330
1F
100
AcDbEntity
  8
AM_0
100
AcDbLine
 10
-0.0000000000000545
 20
5.816598894104224
 30
0.0
 11
-0.2515497805180444
 21
6.575243996041095
 31
0.0
  0
LINE
  5
2786
330
1F
100
AcDbEntity
  8
AM_0
100
AcDbLine
 10
-0.0000000000000545
 20
1.880796106455559
 30
0.0
 11
-0.0000000000000544
 21
5.865841485021448
 31
0.0
  0
LINE
  5
2787
330
1F
100
AcDbEntity
  8
AM_0
100
AcDbLine
 10
-0.0000000000000545
 20
0.0000000000001048
 30
0.0
 11
-0.1473113024624938
 21
-1.316703952259908
 31
0.0
  0
LINE
  5
2788
330
1F
100
AcDbEntity
  8
AM_0
100
AcDbLine
 10
-0.0000000000000545
 20
-1.833186800063581
 30
0.0
 11
-0.5296513346078866
 21
0.0238046531961258
 31
0.0
  0
LINE
  5
2789
330
1F
100
AcDbEntity
  8
AM_0
100
AcDbLine
 10
-2.294065337714872
 20
-0.9547091689774642
 30
0.0
 11
-2.294065337714872
 21
0.0052908310220259
 31
0.0
  0
LINE
  5
278A
330
1F
100
AcDbEntity
  8
AM_0
100
AcDbLine
 10
-0.0000000000000545
 20
0.0052908310220259
 30
0.0
 11
-2.294065337714872
 21
0.0052908310220259
 31
0.0
  0
LINE
  5
278B
330
1F
100
AcDbEntity
  8
AM_0
100
AcDbLine
 10
-0.0000000000000545
 20
-1.833186800063581
 30
0.0
 11
-0.2300784757073408
 21
-3.531734174461311
 31
0.0
  0
LINE
  5
278C
330
1F
100
AcDbEntity
  8
AM_0
100
AcDbLine
 10
-0.2300784757073408
 20
-3.531734174461311
 30
0.0
 11
-2.294065337714872
 21
-0.9547091689774642
 31
0.0
  0
SPLINE
  5
278D
330
1F
100
AcDbEntity
  8
AM_0
100
AcDbSpline
210
0.0
220
0.0
230
1.0
 70
     8
 71
     3
 72
     8
 73
     4
 74
     0
 42
0.0000000001
 43
0.0000000001
 40
5.407991289528681
 40
5.407991289528681
 40
5.407991289528681
 40
5.407991289528681
 40
9.246817942408341
 40
9.246817942408341
 40
9.246817942408341
 40
9.246817942408341
 10
-0.1948757851020457
 20
-4.584039439982084
 30
0.0
 10
-1.965510323543828
 20
-3.240748091900863
 30
0.0
 10
-3.651035744199507
 20
-1.617728630439418
 30
0.0
 10
-5.336561164855574
 20
0.0052908310220268
 30
0.0
  0
LINE
  5
278E
330
1F
100
AcDbEntity
  8
AM_0
100
AcDbLine
 10
-0.0000000000000545
 20
0.0476093063920553
 30
0.0
 11
-0.2300784757073408
 21
2.104106216198593
 31
0.0
  0
SPLINE
  5
278F
330
1F
100
AcDbEntity
  8
AM_0
100
AcDbSpline
210
0.0
220
0.0
230
1.0
 70
     8
 71
     3
 72
     8
 73
     4
 74
     0
 42
0.0000000001
 43
0.0000000001
 40
0.0
 40
0.0
 40
0.0
 40
0.0
 40
4.323648603744882
 40
4.323648603744882
 40
4.323648603744882
 40
4.323648603744882
 10
-7.195722547931691
 20
8.005290831022026
 30
0.0
 10
-4.741144579703868
 20
8.005290831022024
 30
0.0
 10
-2.554349834083323
 20
7.142053808370214
 30
0.0
 10
-0.5109388791424281
 20
5.816598894104224
 30
0.0
  0
SPLINE
  5
2790
330
1F
100
AcDbEntity
  8
AM_0
100
AcDbSpline
210
0.0
220
0.0
230
1.0
 70
     8
 71
     3
 72
     8
 73
     4
 74
     0
 42
0.0000000001
 43
0.0000000001
 40
0.0
 40
0.0
 40
0.0
 40
0.0
 40
8.106327806688073
 40
8.106327806688073
 40
8.106327806688073
 40
8.106327806688073
 10
-12.02134483364483
 20
7.824224497047922
 30
0.0
 10
-7.419302563074117
 20
7.824224497047922
 30
0.0
 10
-3.731418189605427
 20
4.819661994913545
 30
0.0
 10
-0.1562848263363175
 20
1.444520779412155
 30
0.0
  0
SPLINE
  5
2791
330
1F
100
AcDbEntity
  8
AM_0
100
AcDbSpline
210
0.0
220
0.0
230
1.0
 70
     8
 71
     3
 72
     8
 73
     4
 74
     0
 42
0.0000000001
 43
0.0000000001
 40
0.0
 40
0.0
 40
0.0
 40
0.0
 40
9.307120929696711
 40
9.307120929696711
 40
9.307120929696711
 40
9.307120929696711
 10
-13.8805062167132
 20
8.005290831022026
 30
0.0
 10
-8.596761843528664
 20
8.005290831022024
 30
0.0
 10
-4.553850361335546
 20
4.005290831022026
 30
0.0
 10
-0.5109388791424281
 20
0.0052908310220259
 30
0.0
  0
LINE
  5
2792
330
1F
100
AcDbEntity
  8
AM_0
100
AcDbLine
 10
-2.219521886678573
 20
4.110830370296131
 30
0.0
 11
-2.219521886678573
 21
4.976498925260708
 31
0.0
  0
SPLINE
  5
2793
330
1F
100
AcDbEntity
  8
AM_0
100
AcDbSpline
210
0.0
220
0.0
230
1.0
 70
     8
 71
     3
 72
     8
 73
     4
 74
     0
 42
0.0000000001
 43
0.0000000001
 40
0.0
 40
0.0
 40
0.0
 40
0.0
 40
1.707928658540872
 40
1.707928658540872
 40
1.707928658540872
 40
1.707928658540872
 10
-7.195722547915813
 20
8.005290831022026
 30
0.0
 10
-8.16533049730531
 20
8.005290831022026
 30
0.0
 10
-9.09315329000689
 20
7.870590479373657
 30
0.0
 10
-9.986858825378899
 20
7.625908332183932
 30
0.0
  0
SPLINE
  5
2794
330
1F
100
AcDbEntity
  8
AM_0
100
AcDbSpline
210
0.0
220
0.0
230
1.0
 70
     8
 71
     3
 72
     8
 73
     4
 74
     0
 42
0.0000000001
 43
0.0000000001
 40
0.0
 40
0.0
 40
0.0
 40
0.0
 40
1.168827779827945
 40
1.168827779827945
 40
1.168827779827945
 40
1.168827779827945
 10
-20.56528988549395
 20
-7.994709168977971
 30
0.0
 10
-19.90173482356456
 20
-7.994709168977971
 30
0.0
 10
-19.25774943753757
 20
-7.93162355593766
 30
0.0
 10
-18.63087608438785
 20
-7.813374889108656
 30
0.0
  0
SPLINE
  5
2795
330
1F
100
AcDbEntity
  8
AM_0
100
AcDbSpline
210
0.0
220
0.0
230
1.0
 70
     8
 71
     3
 72
     8
 73
     4
 74
     0
 42
0.0000000001
 43
0.0000000001
 40
0.0
 40
0.0
 40
0.0
 40
0.0
 40
1.229985673975173
 40
1.229985673975173
 40
1.229985673975173
 40
1.229985673975173
 10
-18.70612850242519
 20
-7.813642835003959
 30
0.0
 10
-18.00785350062232
 20
-7.813642835003959
 30
0.0
 10
-17.33062466511811
 20
-7.744470406175682
 30
0.0
 10
-16.67164249416003
 20
-7.615326670139969
 30
0.0
  0
SPLINE
  5
2796
330
1F
100
AcDbEntity
  8
AM_0
100
AcDbSpline
210
0.0
220
0.0
230
1.0
 70
     8
 71
     3
 72
     8
 73
     4
 74
     0
 42
0.0000000001
 43
0.0000000001
 40
0.0
 40
0.0
 40
0.0
 40
0.0
 40
1.229985673975173
 40
1.229985673975173
 40
1.229985673975173
 40
1.229985673975173
 10
-25.39091217120632
 20
-7.813642835003959
 30
0.0
 10
-24.69263716940346
 20
-7.813642835003959
 30
0.0
 10
-24.01540833389925
 20
-7.74447040617568
 30
0.0
 10
-23.35642616294115
 20
-7.615326670139968
 30
0.0
  0
SPLINE
  5
2797
330
1F
100
AcDbEntity
  8
AM_0
100
AcDbSpline
210
0.0
220
0.0
230
1.0
 70
     8
 71
     3
 72
     8
 73
     4
 74
     0
 42
0.0000000001
 43
0.0000000001
 40
0.0
 40
0.0
 40
0.0
 40
0.0
 40
1.168827779827945
 40
1.168827779827945
 40
1.168827779827945
 40
1.168827779827945
 10
-27.25007355427508
 20
-7.994709168977971
 30
0.0
 10
-26.58651849234569
 20
-7.994709168977971
 30
0.0
 10
-25.9425331063187
 20
-7.93162355593766
 30
0.0
 10
-25.31565975316897
 20
-7.813374889108656
 30
0.0
  0
SPLINE
  5
279A
330
1F
100
AcDbEntity
  8
AM_0
100
AcDbSpline
210
0.0
220
0.0
230
1.0
 70
     8
 71
     3
 72
     8
 73
     4
 74
     0
 42
0.0000000001
 43
0.0000000001
 40
0.0
 40
0.0
 40
0.0
 40
0.0
 40
8.073273448037706
 40
8.073273448037706
 40
8.073273448037706
 40
8.073273448037706
 10
-20.56528988547807
 20
-7.994709168977971
 30
0.0
 10
-25.1485668705381
 20
-7.994709168977971
 30
0.0
 10
-28.79819857033414
 20
-4.984971783573869
 30
0.0
 10
-32.32405666788654
 20
-1.576232717468834
 30
0.0
  0
SPLINE
  5
279B
330
1F
100
AcDbEntity
  8
AM_0
100
AcDbSpline
210
0.0
220
0.0
230
1.0
 70
     8
 71
     3
 72
     8
 73
     4
 74
     0
 42
0.0000000001
 43
0.0000000001
 40
0.0
 40
0.0
 40
0.0
 40
0.0
 40
9.246817942408453
 40
9.246817942408453
 40
9.246817942408453
 40
9.246817942408453
 10
-18.70612850240893
 20
-7.813642835003959
 30
0.0
 10
-23.95563827477788
 20
-7.813642835003959
 30
0.0
 10
-28.01566705737898
 20
-3.904176001990964
 30
0.0
 10
-32.0756958399801
 20
0.0052908310220294
 30
0.0
  0
SPLINE
  5
279D
330
1F
100
AcDbEntity
  8
AM_0
100
AcDbSpline
210
0.0
220
0.0
230
1.0
 70
     8
 71
     3
 72
     8
 73
     4
 74
     0
 42
0.0000000001
 43
0.0000000001
 40
0.0
 40
0.0
 40
0.0
 40
0.0
 40
4.256691489953091
 40
4.256691489953091
 40
4.256691489953091
 40
4.256691489953091
 10
-25.39091217119044
 20
-7.813642835003959
 30
0.0
 10
-27.80747792533876
 20
-7.813642835003959
 30
0.0
 10
-29.97197595442366
 20
-6.985171914253206
 30
0.0
 10
-32.00044342353825
 20
-5.709609390479979
 30
0.0
  0
SPLINE
  5
279E
330
1F
100
AcDbEntity
  8
AM_0
100
AcDbSpline
210
0.0
220
0.0
230
1.0
 70
     8
 71
     3
 72
     8
 73
     4
 74
     0
 42
0.0000000001
 43
0.0000000001
 40
0.0
 40
0.0
 40
0.0
 40
0.0
 40
3.66394618992002
 40
3.66394618992002
 40
3.66394618992002
 40
3.66394618992002
 10
-27.2500735542592
 20
-7.994709168977971
 30
0.0
 10
-29.33013195372299
 20
-7.994709168977971
 30
0.0
 10
-31.21788970112782
 20
-7.37480086881902
 30
0.0
 10
-32.98905003990985
 20
-6.379024361202613
 30
0.0
  0
SPLINE
  5
279F
330
1F
100
AcDbEntity
  8
AM_0
100
AcDbSpline
210
0.0
220
0.0
230
1.0
 70
     8
 71
     3
 72
     8
 73
     4
 74
     0
 42
0.0000000001
 43
0.0000000001
 40
0.0
 40
0.0
 40
0.0
 40
0.0
 40
1.707928658540872
 40
1.707928658540872
 40
1.707928658540872
 40
1.707928658540872
 10
-13.88050621669694
 20
8.005290831022026
 30
0.0
 10
-14.85011416608643
 20
8.005290831022026
 30
0.0
 10
-15.77793695878802
 20
7.870590479373657
 30
0.0
 10
-16.67164249416003
 20
7.625908332183932
 30
0.0
  0
SPLINE
  5
27A0
330
1F
100
AcDbEntity
  8
AM_0
100
AcDbSpline
210
0.0
220
0.0
230
1.0
 70
     8
 71
     3
 72
     8
 73
     4
 74
     0
 42
0.0000000001
 43
0.0000000001
 40
0.0
 40
0.0
 40
0.0
 40
0.0
 40
1.707928658540872
 40
1.707928658540872
 40
1.707928658540872
 40
1.707928658540872
 10
-20.56528988547807
 20
8.005290831022028
 30
0.0
 10
-21.53489783486756
 20
8.005290831022028
 30
0.0
 10
-22.46272062756915
 20
7.870590479373657
 30
0.0
 10
-23.35642616294115
 20
7.625908332183932
 30
0.0
  0
SPLINE
  5
27A2
330
1F
100
AcDbEntity
  8
AM_0
100
AcDbSpline
210
0.0
220
0.0
230
1.0
 70
     8
 71
     3
 72
     8
 73
     4
 74
     0
 42
0.0000000001
 43
0.0000000001
 40
0.0
 40
0.0
 40
0.0
 40
0.0
 40
1.707928658540872
 40
1.707928658540872
 40
1.707928658540872
 40
1.707928658540872
 10
-27.2500735542592
 20
8.005290831022028
 30
0.0
 10
-28.21968150364869
 20
8.005290831022028
 30
0.0
 10
-29.14750429635028
 20
7.870590479373657
 30
0.0
 10
-30.04120983172229
 20
7.625908332183932
 30
0.0
  0
SPLINE
  5
27C6
330
1F
100
AcDbEntity
  8
AM_0
100
AcDbSpline
210
0.0
220
0.0
230
1.0
 70
     8
 71
     3
 72
     8
 73
     4
 74
     0
 42
0.0000000001
 43
0.0000000001
 40
5.716542545374498
 40
5.716542545374498
 40
5.716542545374498
 40
5.716542545374498
 40
9.307120929696711
 40
9.307120929696711
 40
9.307120929696711
 40
9.307120929696711
 10
-32.00044342354385
 20
4.405078934103881
 30
0.0
 10
-30.36948946974648
 20
3.091597250757541
 30
0.0
 10
-28.80978151200709
 20
1.548444040889785
 30
0.0
 10
-27.25007355426772
 20
0.0052908310220294
 30
0.0
  0
SPLINE
  5
27C7
330
1F
100
AcDbEntity
  8
AM_0
100
AcDbSpline
210
0.0
220
0.0
230
1.0
 70
     8
 71
     3
 72
     8
 73
     4
 74
     0
 42
0.0000000001
 43
0.0000000001
 40
2.787730709580991
 40
2.787730709580991
 40
2.787730709580991
 40
2.787730709580991
 40
9.246817942408423
 40
9.246817942408423
 40
9.246817942408423
 40
9.246817942408423
 10
-34.30435564442555
 20
6.865353466101802
 30
0.0
 10
-31.06293474976368
 20
5.466972344716717
 30
0.0
 10
-28.22692346048112
 20
2.736131587869372
 30
0.0
 10
-25.39091217119857
 20
0.0052908310220285
 30
0.0
  0
ARC
  5
283F
330
1F
100
AcDbEntity
  8
AM_0
100
AcDbCircle
 10
-1.999993896564582
 20
-5.860900462390942
 30
0.0
 40
2.0
100
AcDbArc
 50
260.2182481416359
 51
0.1415500156281574
  0
SPLINE
  5
284D
330
1F
100
AcDbEntity
  8
AM_0
100
AcDbSpline
210
0.0
220
0.0
230
1.0
 70
     8
 71
     3
 72
     8
 73
     4
 74
     0
 42
0.0000000001
 43
0.0000000001
 40
1.104548038917461
 40
1.104548038917461
 40
1.104548038917461
 40
1.104548038917461
 40
1.707928658540872
 40
1.707928658540872
 40
1.707928658540872
 40
1.707928658540872
 10
-2.339785192215373
 20
7.831824579499444
 30
0.0
 10
-2.6663567087761
 20
7.78506534234649
 30
0.0
 10
-2.986344990119781
 20
7.712350154471901
 30
0.0
 10
-3.302075156597768
 20
7.62590833218393
 30
0.0
  0
SPLINE
  5
288E
330
1F
100
AcDbEntity
  8
AM_0
100
AcDbSpline
210
0.0
220
0.0
230
1.0
 70
     8
 71
     3
 72
     8
 73
     4
 74
     0
 42
0.0000000001
 43
0.0000000001
 40
1.076973117211214
 40
1.076973117211214
 40
1.076973117211214
 40
1.076973117211214
 40
9.307120929696711
 40
9.307120929696711
 40
9.307120929696711
 40
9.307120929696711
 10
-2.297242161241617
 20
-7.840227418887254
 30
0.0
 10
-6.730333925492208
 20
-7.06898949661411
 30
0.0
 10
-10.30542007109883
 20
-3.53184933279604
 30
0.0
 10
-13.88050621670546
 20
0.0052908310220277
 30
0.0
  0
ARC
  5
288F
330
1F
100
AcDbEntity
  8
AM_0
100
AcDbCircle
 10
-1.999993896564582
 20
5.860900462390935
 30
0.0
 40
2.0
100
AcDbArc
 50
359.8584499843718
 51
99.78175185836406
  0
DIMENSION
  5
28D0
330
1F
100
AcDbEntity
  8
AM_5
100
AcDbDimension
  2
*D9
 10
-1.999993896564582
 20
-5.860900462390942
 30
0.0
 11
7.824701773838061
 21
-12.0074278908188
 31
0.0
 70
    36
  1
<>
  3
AM_JIS$4
100
AcDbRadialDimension
 15
-0.6500033284981193
 25
-7.336544547572592
 35
0.0
 40
0.0
1001
GENIUS_GENDTOL_13
1000

1000
h7
1000

1040
0.0
1001
ACAD
1000
DSTYLE
1002
{
1070
   287
1070
     3
1070
   271
1070
     3
1070
   288
1070
     1
1070
   289
1070
     3
1070
   172
1070
     1
1070
    74
1070
     0
1002
}
  0
POLYLINE
  5
2977
330
1F
100
AcDbEntity
  8
AM_0
100
AcDb2dPolyline
 66
     1
 10
0.0
 20
0.0
 30
0.0
 70
     2
  0
VERTEX
  5
2978
330
2977
100
AcDbEntity
  8
AM_0
100
AcDbVertex
100
AcDb2dVertex
 10
-32.00044342353828
 20
-5.709609390479998
 30
0.0
 42
-0.0178156365317552
  0
VERTEX
  5
2979
330
2977
100
AcDbEntity
  8
AM_0
100
AcDbVertex
100
AcDb2dVertex
 10
-32.80912887911351
 20
-4.964004119935492
 30
0.0
 42
-0.0331959452416026
 70
     1
  0
VERTEX
  5
297A
330
2977
100
AcDbEntity
  8
AM_0
100
AcDbVertex
100
AcDb2dVertex
 10
-33.20044342353828
 20
-4.521394805985011
 30
0.0
 42
-0.0146039106870926
  0
VERTEX
  5
297B
330
2977
100
AcDbEntity
  8
AM_0
100
AcDbVertex
100
AcDb2dVertex
 10
-34.20968077201151
 20
-3.132513834022541
 30
0.0
 42
-0.0223520491893001
 70
     1
  0
VERTEX
  5
297C
330
2977
100
AcDbEntity
  8
AM_0
100
AcDbVertex
100
AcDb2dVertex
 10
-34.80044342353829
 20
-2.17859347199921
 30
0.0
 42
-0.0441009200707103
  0
VERTEX
  5
297D
330
2977
100
AcDbEntity
  8
AM_0
100
AcDbVertex
100
AcDb2dVertex
 10
-35.14250478812964
 20
-1.416001757407287
 30
0.0
 42
-0.0936531610333872
 70
     1
  0
VERTEX
  5
297E
330
2977
100
AcDbEntity
  8
AM_0
100
AcDbVertex
100
AcDb2dVertex
 10
-35.20044342353829
 20
-1.024006722508394
 30
0.0
 42
-0.1702954566684844
  0
VERTEX
  5
297F
330
2977
100
AcDbEntity
  8
AM_0
100
AcDbVertex
100
AcDb2dVertex
 10
-35.09813722627594
 20
-0.7658996037418352
 30
0.0
 42
-0.1297006245562602
 70
     1
  0
VERTEX
  5
2980
330
2977
100
AcDbEntity
  8
AM_0
100
AcDbVertex
100
AcDb2dVertex
 10
-34.80044342353829
 20
-0.5630627784649565
 30
0.0
 42
-0.1520873745504847
  0
VERTEX
  5
2981
330
2977
100
AcDbEntity
  8
AM_0
100
AcDbVertex
100
AcDb2dVertex
 10
-34.39776667880518
 20
-0.5476392698714549
 30
0.0
 42
-0.046970576622812
 70
     1
  0
VERTEX
  5
2982
330
2977
100
AcDbEntity
  8
AM_0
100
AcDbVertex
100
AcDb2dVertex
 10
-33.20044342353829
 20
-0.9948326662686454
 30
0.0
 42
-0.0471052227454502
  0
VERTEX
  5
2983
330
2977
100
AcDbEntity
  8
AM_0
100
AcDbVertex
100
AcDb2dVertex
 10
-32.57595063421669
 20
-1.373824836777015
 30
0.0
 42
-0.0445950027858137
 70
     1
  0
VERTEX
  5
2984
330
2977
100
AcDbEntity
  8
AM_0
100
AcDbVertex
100
AcDb2dVertex
 10
-32.00044342353828
 20
-1.887546498115775
 30
0.0
  0
SEQEND
  5
2985
330
2977
100
AcDbEntity
  8
AM_0
  0
POLYLINE
  5
2987
330
1F
100
AcDbEntity
  8
AM_0
100
AcDb2dPolyline
 66
     1
 10
0.0
 20
0.0
 30
0.0
  0
VERTEX
  5
2988
330
2987
100
AcDbEntity
  8
AM_0
100
AcDbVertex
100
AcDb2dVertex
 10
-32.00044342353827
 20
-7.813374888233169
 30
0.0
 42
-0.0221539577337636
  0
VERTEX
  5
2989
330
2987
100
AcDbEntity
  8
AM_0
100
AcDbVertex
100
AcDb2dVertex
 10
-32.73640932785531
 20
-7.646938875113427
 30
0.0
 42
-0.0340466909705598
  0
VERTEX
  5
298A
330
2987
100
AcDbEntity
  8
AM_0
100
AcDbVertex
100
AcDb2dVertex
 10
-33.20044342333332
 20
-7.485516870180664
 30
0.0
 42
-0.0203576778786898
  0
VERTEX
  5
298B
330
2987
100
AcDbEntity
  8
AM_0
100
AcDbVertex
100
AcDb2dVertex
 10
-34.28451388202859
 20
-6.970448478564234
 30
0.0
 42
-0.0400624909263087
  0
VERTEX
  5
298C
330
2987
100
AcDbEntity
  8
AM_0
100
AcDbVertex
100
AcDb2dVertex
 10
-34.80044342333332
 20
-6.643857623054324
 30
0.0
 42
-0.0663150629504314
  0
VERTEX
  5
298D
330
2987
100
AcDbEntity
  8
AM_0
100
AcDbVertex
100
AcDb2dVertex
 10
-35.15888208533166
 20
-6.291488006169287
 30
0.0
 42
-0.2076691274107043
  0
VERTEX
  5
298E
330
2987
100
AcDbEntity
  8
AM_0
100
AcDbVertex
100
AcDb2dVertex
 10
-35.20044342353828
 20
-6.130056393980493
 30
0.0
 42
-0.2374584988068722
  0
VERTEX
  5
298F
330
2987
100
AcDbEntity
  8
AM_0
100
AcDbVertex
100
AcDb2dVertex
 10
-35.11669882875663
 20
-6.013693647290589
 30
0.0
 42
-0.0987776704921028
  0
VERTEX
  5
2990
330
2987
100
AcDbEntity
  8
AM_0
100
AcDbVertex
100
AcDb2dVertex
 10
-34.80044342353828
 20
-5.921456379654686
 30
0.0
 42
-0.0800554842556619
  0
VERTEX
  5
2991
330
2987
100
AcDbEntity
  8
AM_0
100
AcDbVertex
100
AcDb2dVertex
 10
-34.40888037849612
 20
-5.950053584578101
 30
0.0
 42
-0.0248354955603466
  0
VERTEX
  5
2992
330
2987
100
AcDbEntity
  8
AM_0
100
AcDbVertex
100
AcDb2dVertex
 10
-33.20044342353828
 20
-6.300601991089212
 30
0.0
 42
-0.0116235723303201
  0
VERTEX
  5
2993
330
2987
100
AcDbEntity
  8
AM_0
100
AcDbVertex
100
AcDb2dVertex
 10
-32.98903445419357
 20
-6.379030559083025
 30
0.0
 42
-0.0249611087696398
  0
SEQEND
  5
2994
330
2987
100
AcDbEntity
  8
AM_0
  0
SPLINE
  5
2995
330
1F
100
AcDbEntity
  8
AM_0
100
AcDbSpline
210
0.0
220
0.0
230
1.0
 70
     8
 71
     3
 72
     8
 73
     4
 74
     0
 42
0.0000000001
 43
0.0000000001
 40
0.0
 40
0.0
 40
0.0
 40
0.0
 40
1.168827779827945
 40
1.168827779827945
 40
1.168827779827945
 40
1.168827779827945
 10
-33.93485722305659
 20
-7.999999999999993
 30
0.0
 10
-33.27129629696546
 20
-7.994709168977971
 30
0.0
 10
-32.62731388249966
 20
-7.931623555937659
 30
0.0
 10
-32.00044342195017
 20
-7.813374889108655
 30
0.0
  0
SPLINE
  5
2996
330
1F
100
AcDbEntity
  8
AM_0
100
AcDbSpline
210
0.0
220
0.0
230
1.0
 70
     8
 71
     3
 72
     8
 73
     4
 74
     0
 42
0.0000000001
 43
0.0000000001
 40
0.0
 40
0.0
 40
0.0
 40
0.0
 40
1.229985673975173
 40
1.229985673975173
 40
1.229985673975173
 40
1.229985673975173
 10
-32.00186441100012
 20
-7.813642835003958
 30
0.0
 10
-31.37742371301655
 20
-7.813642835003958
 30
0.0
 10
-30.70019800247016
 20
-7.744470406175682
 30
0.0
 10
-30.04121887227299
 20
-7.615326670139969
 30
0.0
  0
POLYLINE
  5
2997
330
1F
100
AcDbEntity
  8
AM_0
100
AcDb2dPolyline
 66
     1
 10
0.0
 20
0.0
 30
0.0
 70
     2
  0
VERTEX
  5
2998
330
2997
100
AcDbEntity
  8
AM_0
100
AcDbVertex
100
AcDb2dVertex
 10
-32.07569549274065
 20
0.0052908310220281
 30
0.0
 42
-0.0127375777047685
  0
VERTEX
  5
2999
330
2997
100
AcDbEntity
  8
AM_0
100
AcDbVertex
100
AcDb2dVertex
 10
-32.8665579455122
 20
0.8765788593832954
 30
0.0
 42
-0.0248093973610095
 70
     1
  0
VERTEX
  5
299A
330
2997
100
AcDbEntity
  8
AM_0
100
AcDbVertex
100
AcDb2dVertex
 10
-33.23806945813947
 20
1.353327013980446
 30
0.0
 42
-0.0083836245974647
  0
VERTEX
  5
299B
330
2997
100
AcDbEntity
  8
AM_0
100
AcDbVertex
100
AcDb2dVertex
 10
-34.24862595114099
 20
2.84451739914955
 30
0.0
 42
-0.0143113302193792
 70
     1
  0
VERTEX
  5
299C
330
2997
100
AcDbEntity
  8
AM_0
100
AcDbVertex
100
AcDb2dVertex
 10
-34.80044342353829
 20
3.744142690678637
 30
0.0
 42
-0.0388452244960751
  0
VERTEX
  5
299D
330
2997
100
AcDbEntity
  8
AM_0
100
AcDbVertex
100
AcDb2dVertex
 10
-35.14359487401188
 20
4.46566639318649
 30
0.0
 42
-0.0958601720223094
 70
     1
  0
VERTEX
  5
299E
330
2997
100
AcDbEntity
  8
AM_0
100
AcDbVertex
100
AcDb2dVertex
 10
-35.20044342353829
 20
4.786922184418406
 30
0.0
 42
-0.1958397271905712
  0
VERTEX
  5
299F
330
2997
100
AcDbEntity
  8
AM_0
100
AcDbVertex
100
AcDb2dVertex
 10
-35.1156378481337
 20
4.985963711305177
 30
0.0
 42
-0.1110351864371754
 70
     1
  0
VERTEX
  5
29A0
330
2997
100
AcDbEntity
  8
AM_0
100
AcDbVertex
100
AcDb2dVertex
 10
-34.8004434235383
 20
5.183605998816082
 30
0.0
 42
-0.1149197439922528
  0
VERTEX
  5
29A1
330
2997
100
AcDbEntity
  8
AM_0
100
AcDbVertex
100
AcDb2dVertex
 10
-34.3725847654429
 20
5.230892027261635
 30
0.0
 42
-0.0408875130900929
 70
     1
  0
VERTEX
  5
29A2
330
2997
100
AcDbEntity
  8
AM_0
100
AcDbVertex
100
AcDb2dVertex
 10
-33.20044342353829
 20
4.992684373656883
 30
0.0
 42
-0.0433088016869432
  0
VERTEX
  5
29A3
330
2997
100
AcDbEntity
  8
AM_0
100
AcDbVertex
100
AcDb2dVertex
 10
-32.61488630519076
 20
4.766385109184994
 30
0.0
 42
-0.0381261598452643
 70
     1
  0
VERTEX
  5
29A4
330
2997
100
AcDbEntity
  8
AM_0
100
AcDbVertex
100
AcDb2dVertex
 10
-32.00044342353829
 20
4.405078934100012
 30
0.0
  0
SEQEND
  5
29A5
330
2997
100
AcDbEntity
  8
AM_0
  0
POLYLINE
  5
29A6
330
1F
100
AcDbEntity
  8
AM_0
100
AcDb2dPolyline
 66
     1
 10
0.0
 20
0.0
 30
0.0
  0
VERTEX
  5
29A7
330
29A6
100
AcDbEntity
  8
AM_0
100
AcDbVertex
100
AcDb2dVertex
 10
-34.30435564442555
 20
6.865353466101803
 30
0.0
 42
-0.0145810856030358
  0
VERTEX
  5
29A8
330
29A6
100
AcDbEntity
  8
AM_0
100
AcDbVertex
100
AcDb2dVertex
 10
-34.8004434235383
 20
7.23805273239794
 30
0.0
 42
-0.0050435334132596
  0
VERTEX
  5
29A9
330
29A6
100
AcDbEntity
  8
AM_0
100
AcDbVertex
100
AcDb2dVertex
 10
-35.19705450750177
 20
7.56112599919903
 30
0.0
 42
-0.2742987476584449
  0
VERTEX
  5
29AA
330
29A6
100
AcDbEntity
  8
AM_0
100
AcDbVertex
100
AcDb2dVertex
 10
-35.20044342353829
 20
7.570654468388096
 30
0.0
 42
-0.2776516060307496
  0
VERTEX
  5
29AB
330
29A6
100
AcDbEntity
  8
AM_0
100
AcDbVertex
100
AcDb2dVertex
 10
-35.16192073986131
 20
7.613237493983413
 30
0.0
 42
-0.0400827094855082
  0
VERTEX
  5
29AC
330
29A6
100
AcDbEntity
  8
AM_0
100
AcDbVertex
100
AcDb2dVertex
 10
-34.80044342333121
 20
7.691659066036078
 30
0.0
 42
-0.0136313623974274
  0
VERTEX
  5
29AD
330
29A6
100
AcDbEntity
  8
AM_0
100
AcDbVertex
100
AcDb2dVertex
 10
-34.43008535069088
 20
7.731159569200891
 30
0.0
 42
-0.0041179133630786
  0
VERTEX
  5
29AE
330
29A6
100
AcDbEntity
  8
AM_0
100
AcDbVertex
100
AcDb2dVertex
 10
-33.20044342333121
 20
7.81831010734622
 30
0.0
 42
-0.0144548307118866
  0
VERTEX
  5
29AF
330
29A6
100
AcDbEntity
  8
AM_0
100
AcDbVertex
100
AcDb2dVertex
 10
-32.77492291088469
 20
7.832618510440621
 30
0.0
 42
-0.0079447181452264
  0
VERTEX
  5
29B0
330
29A6
100
AcDbEntity
  8
AM_0
100
AcDbVertex
100
AcDb2dVertex
 10
-32.0004434235383
 20
7.823956551452043
 30
0.0
  0
SEQEND
  5
29B1
330
29A6
100
AcDbEntity
  8
AM_0
  0
VIEWPORT
  5
110
330
101
100
AcDbEntity
 67
     1
  8
0
100
AcDbViewport
 10
420.5
 20
297.0
 30
0.0
 40
948.9782706766916
 41
628.452
 68
     1
 69
     1
1001
ACAD
1000
MVIEW
1002
{
1070
    16
1010
0.0
1020
0.0
1030
0.0
1010
0.0
1020
0.0
1030
1.0
1040
0.0
1040
628.452
1040
420.5
1040
297.0
1040
50.0
1040
0.0
1040
0.0
1070
     0
1070
   100
1070
     1
1070
     1
1070
     0
1070
     0
1070
     0
1070
     0
1040
0.0
1040
0.0
1040
0.0
1040
10.0
1040
10.0
1040
10.0
1040
10.0
1070
     0
1002
{
1002
}
1002
}
  0
ENDSEC
  0
SECTION
  2
OBJECTS
  0
DICTIONARY
  5
C
330
0
100
AcDbDictionary
  3
ACAD_GROUP
350
D
  3
ACAD_LAYOUT
350
1A
  3
ACAD_MLINESTYLE
350
17
  3
ACAD_PLOTSETTINGS
350
19
  3
ACAD_PLOTSTYLENAME
350
E
  3
ACDBVARIABLEDICTIONARY
350
34
  3
ACMDICTIONARY
350
43
  3
AMG
350
2B
  3
AMGSNAPSETTINGS
350
6E
  3
DWGPROPS
350
29FA
  3
ACDBHEADERROUNDTRIPXREC
350
2A06
  0
DICTIONARY
  5
74
330
1F
100
AcDbDictionary
280
     1
  3
ACAD_INDEX
360
29FC
  3
ACAD_LAYOUTSELFREF
360
2A29
  0
DICTIONARY
  5
2A2E
330
101
100
AcDbDictionary
280
     1
  3
ACAD_LAYOUTSELFREF
360
2A2F
  0
DICTIONARY
  5
D
102
{ACAD_REACTORS
330
C
102
}
330
C
100
AcDbDictionary
  0
DICTIONARY
  5
1A
102
{ACAD_REACTORS
330
C
102
}
330
C
100
AcDbDictionary
  0
DICTIONARY
  5
17
102
{ACAD_REACTORS
330
C
102
}
330
C
100
AcDbDictionary
  3
STANDARD
350
18
  0
DICTIONARY
  5
19
102
{ACAD_REACTORS
330
C
102
}
330
C
100
AcDbDictionary
  0
ACDBDICTIONARYWDFLT
  5
E
102
{ACAD_REACTORS
330
C
102
}
330
C
100
AcDbDictionary
281
     1
  3
Normal
350
F
100
AcDbDictionaryWithDefault
340
F
  0
DICTIONARY
  5
34
102
{ACAD_REACTORS
330
C
102
}
330
C
100
AcDbDictionary
  3
INDEXCTL
350
35
  3
SORTENTS
350
B5E
  0
DICTIONARY
  5
43
102
{ACAD_REACTORS
330
C
102
}
330
C
100
AcDbDictionary
  3
ACMSTDDICTIONARY
350
260
  0
DICTIONARY
  5
2B
102
{ACAD_REACTORS
330
C
102
}
330
C
100
AcDbDictionary
  3
ACMGSETTINGS
350
2C
  0
DICTIONARY
  5
6E
102
{ACAD_REACTORS
330
C
102
}
330
C
100
AcDbDictionary
  0
XRECORD
  5
29FA
102
{ACAD_REACTORS
330
C
102
}
330
C
100
AcDbXrecord
  1
DWGPROPS COOKIE
  2

  3

  4

  6

  7

  8

  9

300
AmdtFileType=82
301
=
302
=
303
=
304
=
305
=
306
=
307
=
308
=
309
=
 40
0.2227531828703704
 41
2452838.620506898
 42
2452849.707793148
  1

 90
        1
  0
DICTIONARY
  5
2A06
102
{ACAD_REACTORS
330
C
102
}
330
C
100
AcDbDictionary
  3
TSTACKALIGN
350
2A07
  3
TSTACKSIZE
350
2A08
  3
HYPERLINKBASE
350
2A09
  3
STYLESHEET
350
2A0A
  3
LAYOUTDICT
350
2A0B
  3
PLOTSETDICT
350
2A0C
  3
PLOTSTYLNAMDICT
350
2A0D
  3
LWETCUNION
350
2A0E
  3
INSUNITS
350
2A0F
  3
CEPSNTYPE
350
2A10
  3
FINGERPRINTGUID
350
2A11
  3
VERSIONGUID
350
2A12
  3
PSVPSCALE
350
2A13
  3
DIMSTYLEDATA
350
2A14
  3
PUCSORTHOREF
350
2A15
  3
PUCSORTHOVIEW
350
2A16
  3
PUCSBASE
350
2A17
  3
PUCSORGTOP
350
2A18
  3
PUCSORGBOTTOM
350
2A19
  3
PUCSORGLEFT
350
2A1A
  3
PUCSORGRIGHT
350
2A1B
  3
PUCSORGFRONT
350
2A1C
  3
PUCSORGBACK
350
2A1D
  3
UCSORTHOREF
350
2A1E
  3
UCSORTHOVIEW
350
2A1F
  3
UCSBASE
350
2A20
  3
UCSORGTOP
350
2A21
  3
UCSORGBOTTOM
350
2A22
  3
UCSORGLEFT
350
2A23
  3
UCSORGRIGHT
350
2A24
  3
UCSORGFRONT
350
2A25
  3
UCSORGBACK
350
2A26
  0
DICTIONARY
  5
29FC
102
{ACAD_REACTORS
330
74
102
}
330
74
100
AcDbDictionary
  3
*A1
350
29FD
  0
XRECORD
  5
2A29
102
{ACAD_REACTORS
330
74
102
}
330
74
100
AcDbXrecord
340
1F
  0
XRECORD
  5
2A2F
102
{ACAD_REACTORS
330
2A2E
102
}
330
2A2E
100
AcDbXrecord
340
101
  0
MLINESTYLE
  5
18
102
{ACAD_REACTORS
330
17
102
}
330
17
100
AcDbMlineStyle
  2
STANDARD
 70
     0
  3

 62
   256
 51
90.0
 52
90.0
 71
     2
 49
0.5
 62
   256
  6
BYLAYER
 49
-0.5
 62
   256
  6
BYLAYER
  0
ACDBPLACEHOLDER
  5
F
102
{ACAD_REACTORS
330
E
102
}
330
E
100
AcDbPlaceHolder
280
     0
  0
DICTIONARYVAR
  5
35
102
{ACAD_REACTORS
330
34
102
}
330
34
100
DictionaryVariables
280
     0
  1
1
  0
DICTIONARYVAR
  5
B5E
102
{ACAD_REACTORS
330
34
102
}
330
34
100
DictionaryVariables
280
     0
  1
96
  0
DICTIONARY
  5
260
102
{ACAD_REACTORS
330
43
102
}
330
43
100
AcDbDictionary
  0
DICTIONARY
  5
2C
102
{ACAD_REACTORS
330
2B
102
}
330
2B
100
AcDbDictionary
  3
DWGSETTINGS
350
2D
  0
XRECORD
  5
2A07
102
{ACAD_REACTORS
330
2A06
102
}
330
2A06
100
AcDbXrecord
 90
        1
  0
XRECORD
  5
2A08
102
{ACAD_REACTORS
330
2A06
102
}
330
2A06
100
AcDbXrecord
 90
       70
  0
XRECORD
  5
2A09
102
{ACAD_REACTORS
330
2A06
102
}
330
2A06
100
AcDbXrecord
  1

  0
XRECORD
  5
2A0A
102
{ACAD_REACTORS
330
2A06
102
}
330
2A06
100
AcDbXrecord
  1
ASAMI.ctb
  0
XRECORD
  5
2A0B
102
{ACAD_REACTORS
330
2A06
102
}
330
2A06
100
AcDbXrecord
340
1A
  0
XRECORD
  5
2A0C
102
{ACAD_REACTORS
330
2A06
102
}
330
2A06
100
AcDbXrecord
340
19
  0
XRECORD
  5
2A0D
102
{ACAD_REACTORS
330
2A06
102
}
330
2A06
100
AcDbXrecord
340
E
  0
XRECORD
  5
2A0E
102
{ACAD_REACTORS
330
2A06
102
}
330
2A06
100
AcDbXrecord
 90
    10781
  0
XRECORD
  5
2A0F
102
{ACAD_REACTORS
330
2A06
102
}
330
2A06
100
AcDbXrecord
 90
        4
  0
XRECORD
  5
2A10
102
{ACAD_REACTORS
330
2A06
102
}
330
2A06
100
AcDbXrecord
 90
        0
  0
XRECORD
  5
2A11
102
{ACAD_REACTORS
330
2A06
102
}
330
2A06
100
AcDbXrecord
  1
{AFB28963-8C59-40AE-9337-C84526B81ACE}
  0
XRECORD
  5
2A12
102
{ACAD_REACTORS
330
2A06
102
}
330
2A06
100
AcDbXrecord
  1
{86E7385B-EDA0-49E4-9C64-CCAB13E64B00}
  0
XRECORD
  5
2A13
102
{ACAD_REACTORS
330
2A06
102
}
330
2A06
100
AcDbXrecord
 40
0.0
  0
XRECORD
  5
2A14
102
{ACAD_REACTORS
330
2A06
102
}
330
2A06
100
AcDbXrecord
1000
DSTYLE
1002
{
1070
    79
 70
     2
1070
   341
340
59
1070
   342
340
59
1070
   371
 70
    -1
1070
   372
 70
    -1
1002
}
  0
XRECORD
  5
2A15
102
{ACAD_REACTORS
330
2A06
102
}
330
2A06
100
AcDbXrecord
340
0
  0
XRECORD
  5
2A16
102
{ACAD_REACTORS
330
2A06
102
}
330
2A06
100
AcDbXrecord
 70
     0
  0
XRECORD
  5
2A17
102
{ACAD_REACTORS
330
2A06
102
}
330
2A06
100
AcDbXrecord
340
0
  0
XRECORD
  5
2A18
102
{ACAD_REACTORS
330
2A06
102
}
330
2A06
100
AcDbXrecord
 10
0.0
 20
0.0
 30
0.0
  0
XRECORD
  5
2A19
102
{ACAD_REACTORS
330
2A06
102
}
330
2A06
100
AcDbXrecord
 10
0.0
 20
0.0
 30
0.0
  0
XRECORD
  5
2A1A
102
{ACAD_REACTORS
330
2A06
102
}
330
2A06
100
AcDbXrecord
 10
0.0
 20
0.0
 30
0.0
  0
XRECORD
  5
2A1B
102
{ACAD_REACTORS
330
2A06
102
}
330
2A06
100
AcDbXrecord
 10
0.0
 20
0.0
 30
0.0
  0
XRECORD
  5
2A1C
102
{ACAD_REACTORS
330
2A06
102
}
330
2A06
100
AcDbXrecord
 10
0.0
 20
0.0
 30
0.0
  0
XRECORD
  5
2A1D
102
{ACAD_REACTORS
330
2A06
102
}
330
2A06
100
AcDbXrecord
 10
0.0
 20
0.0
 30
0.0
  0
XRECORD
  5
2A1E
102
{ACAD_REACTORS
330
2A06
102
}
330
2A06
100
AcDbXrecord
340
0
  0
XRECORD
  5
2A1F
102
{ACAD_REACTORS
330
2A06
102
}
330
2A06
100
AcDbXrecord
 70
     0
  0
XRECORD
  5
2A20
102
{ACAD_REACTORS
330
2A06
102
}
330
2A06
100
AcDbXrecord
340
0
  0
XRECORD
  5
2A21
102
{ACAD_REACTORS
330
2A06
102
}
330
2A06
100
AcDbXrecord
 10
0.0
 20
0.0
 30
0.0
  0
XRECORD
  5
2A22
102
{ACAD_REACTORS
330
2A06
102
}
330
2A06
100
AcDbXrecord
 10
0.0
 20
0.0
 30
0.0
  0
XRECORD
  5
2A23
102
{ACAD_REACTORS
330
2A06
102
}
330
2A06
100
AcDbXrecord
 10
0.0
 20
0.0
 30
0.0
  0
XRECORD
  5
2A24
102
{ACAD_REACTORS
330
2A06
102
}
330
2A06
100
AcDbXrecord
 10
0.0
 20
0.0
 30
0.0
  0
XRECORD
  5
2A25
102
{ACAD_REACTORS
330
2A06
102
}
330
2A06
100
AcDbXrecord
 10
0.0
 20
0.0
 30
0.0
  0
XRECORD
  5
2A26
102
{ACAD_REACTORS
330
2A06
102
}
330
2A06
100
AcDbXrecord
 10
0.0
 20
0.0
 30
0.0
  0
LAYER_INDEX
  5
29FD
102
{ACAD_REACTORS
330
29FC
102
}
330
29FC
100
AcDbIndex
 40
2453152.476280775
100
AcDbLayerIndex
  8
0
360
29FE
 90
        1
  8
AM_0
360
29FF
 90
       75
  8
AM_11
360
2A00
 90
        4
  8
AM_7
360
2A01
 90
        1
  8
AM_5
360
2A02
 90
        5
  8
Defpoints
360
2A03
 90
        0
  8
AM_6
360
2A04
 90
        1
  0
XRECORD
  5
2D
102
{ACAD_REACTORS
330
2C
102
}
330
2C
100
AcDbXrecord
  1
VERSION
140
15.0
  1
PRODUCT
  2
AutoCAD Mechanical 2000
  0
IDBUFFER
  5
29FE
330
0
100
AcDbIdBuffer
330
2490
  0
IDBUFFER
  5
29FF
330
0
100
AcDbIdBuffer
330
2790
330
2791
330
2792
330
2793
330
2794
330
2795
330
2796
330
2797
330
279A
330
279B
330
279D
330
279E
330
279F
330
27A0
330
27A2
330
27C6
330
27C7
330
283F
330
284D
330
288E
330
288F
330
2977
330
2987
330
2995
330
2996
330
2997
330
29A6
330
247F
330
2480
330
2481
330
2482
330
2491
330
2492
330
2493
330
2762
330
2763
330
2766
330
2767
330
2768
330
2769
330
276A
330
276B
330
276C
330
276D
330
276E
330
276F
330
2771
330
2772
330
2773
330
2774
330
2775
330
2776
330
2777
330
2778
330
2779
330
277A
330
277B
330
277D
330
277F
330
2780
330
2781
330
2782
330
2783
330
2784
330
2785
330
2786
330
2787
330
2788
330
2789
330
278A
330
278B
330
278C
330
278D
330
278E
330
278F
  0
IDBUFFER
  5
2A00
330
0
100
AcDbIdBuffer
330
2674
330
268C
330
26CC
330
26CD
  0
IDBUFFER
  5
2A01
330
0
100
AcDbIdBuffer
330
2494
  0
IDBUFFER
  5
2A02
330
0
100
AcDbIdBuffer
330
2434
330
2483
330
2495
330
26B9
330
28D0
  0
IDBUFFER
  5
2A03
330
0
100
AcDbIdBuffer
  0
IDBUFFER
  5
2A04
330
0
100
AcDbIdBuffer
330
C58
  0
ENDSEC
  0
EOF
