  0
SECTION
  2
HEADER
  9
$ACADVER
  1
AC1014
  9
$ACADMAINTVER
 70
     9
  9
$DWGCODEPAGE
  3
ANSI_932
  9
$INSBASE
 10
0.0
 20
0.0
 30
0.0
  9
$EXTMIN
 10
-132.6006832816327
 20
-65.00000124999953
 30
-0.00000001
  9
$EXTMAX
 10
22.1060782244602
 20
11.97105222396833
 30
0.00000001
  9
$LIMMIN
 10
-172.3993596335785
 20
-87.58424417536602
  9
$LIMMAX
 10
46.34551392547291
 20
38.29441105930078
  9
$ORTHOMODE
 70
     0
  9
$REGENMODE
 70
     1
  9
$FILLMODE
 70
     1
  9
$QTEXTMODE
 70
     0
  9
$MIRRTEXT
 70
     0
  9
$DRAGMODE
 70
     2
  9
$LTSCALE
 40
1.0
  9
$OSMODE
 70
    55
  9
$ATTMODE
 70
     1
  9
$TEXTSIZE
 40
2.5
  9
$TRACEWID
 40
1.0
  9
$TEXTSTYLE
  7
STANDARD
  9
$CLAYER
  8
AM_0
  9
$CELTYPE
  6
BYLAYER
  9
$CECOLOR
 62
   256
  9
$CELTSCALE
 40
1.0
  9
$DELOBJ
 70
     1
  9
$DISPSILH
 70
     0
  9
$DIMSCALE
 40
1.0
  9
$DIMASZ
 40
2.5
  9
$DIMEXO
 40
1.0
  9
$DIMDLI
 40
12.0
  9
$DIMRND
 40
0.0
  9
$DIMDLE
 40
0.0
  9
$DIMEXE
 40
1.0
  9
$DIMTP
 40
0.1
  9
$DIMTM
 40
0.1
  9
$DIMTXT
 40
3.2
  9
$DIMCEN
 40
0.0
  9
$DIMTSZ
 40
0.0
  9
$DIMTOL
 70
     0
  9
$DIMLIM
 70
     0
  9
$DIMTIH
 70
     0
  9
$DIMTOH
 70
     0
  9
$DIMSE1
 70
     0
  9
$DIMSE2
 70
     0
  9
$DIMTAD
 70
     3
  9
$DIMZIN
 70
     8
  9
$DIMBLK
  1
OPEN30
  9
$DIMASO
 70
     1
  9
$DIMSHO
 70
     1
  9
$DIMPOST
  1

  9
$DIMAPOST
  1
"
  9
$DIMALT
 70
     0
  9
$DIMALTD
 70
     2
  9
$DIMALTF
 40
0.0393701
  9
$DIMLFAC
 40
1.0
  9
$DIMTOFL
 70
     1
  9
$DIMTVP
 40
0.0
  9
$DIMTIX
 70
     0
  9
$DIMSOXD
 70
     0
  9
$DIMSAH
 70
     0
  9
$DIMBLK1
  1

  9
$DIMBLK2
  1

  9
$DIMSTYLE
  2
AM_JIS
  9
$DIMCLRD
 70
   256
  9
$DIMCLRE
 70
   256
  9
$DIMCLRT
 70
     2
  9
$DIMTFAC
 40
0.71
  9
$DIMGAP
 40
1.5
  9
$DIMJUST
 70
     0
  9
$DIMSD1
 70
     0
  9
$DIMSD2
 70
     0
  9
$DIMTOLJ
 70
     0
  9
$DIMTZIN
 70
     0
  9
$DIMALTZ
 70
     0
  9
$DIMALTTZ
 70
     0
  9
$DIMFIT
 70
     3
  9
$DIMUPT
 70
     0
  9
$DIMUNIT
 70
     2
  9
$DIMDEC
 70
     3
  9
$DIMTDEC
 70
     3
  9
$DIMALTU
 70
     2
  9
$DIMALTTD
 70
     2
  9
$DIMTXSTY
  7
ASAMI
  9
$DIMAUNIT
 70
     0
  9
$LUNITS
 70
     2
  9
$LUPREC
 70
     2
  9
$SKETCHINC
 40
1.0
  9
$FILLETRAD
 40
2.5
  9
$AUNITS
 70
     0
  9
$AUPREC
 70
     0
  9
$MENU
  1
.
  9
$ELEVATION
 40
0.0
  9
$PELEVATION
 40
0.0
  9
$THICKNESS
 40
0.0
  9
$LIMCHECK
 70
     0
  9
$BLIPMODE
 70
     0
  9
$CHAMFERA
 40
2.5
  9
$CHAMFERB
 40
2.5
  9
$CHAMFERC
 40
20.0
  9
$CHAMFERD
 40
0.0
  9
$SKPOLY
 70
     0
  9
$TDCREATE
 40
2452838.620506898
  9
$TDUPDATE
 40
2453152.476633981
  9
$TDINDWG
 40
0.2147833218
  9
$TDUSRTIMER
 40
0.2147833218
  9
$USRTIMER
 70
     1
  9
$ANGBASE
 50
0.0
  9
$ANGDIR
 70
     0
  9
$PDMODE
 70
     0
  9
$PDSIZE
 40
0.0
  9
$PLINEWID
 40
0.0
  9
$COORDS
 70
     1
  9
$SPLFRAME
 70
     0
  9
$SPLINETYPE
 70
     6
  9
$SPLINESEGS
 70
     8
  9
$ATTDIA
 70
     1
  9
$ATTREQ
 70
     1
  9
$HANDLING
 70
 12289
  9
$HANDSEED
  5
2C22
  9
$SURFTAB1
 70
     6
  9
$SURFTAB2
 70
     6
  9
$SURFTYPE
 70
     6
  9
$SURFU
 70
     6
  9
$SURFV
 70
     6
  9
$UCSNAME
  2

  9
$UCSORG
 10
-0.0000000000000711
 20
-0.0000000000000036
 30
0.0
  9
$UCSXDIR
 10
1.0
 20
0.0
 30
0.0
  9
$UCSYDIR
 10
0.0
 20
1.0
 30
0.0
  9
$PUCSNAME
  2

  9
$PUCSORG
 10
0.0
 20
0.0
 30
0.0
  9
$PUCSXDIR
 10
1.0
 20
0.0
 30
0.0
  9
$PUCSYDIR
 10
0.0
 20
1.0
 30
0.0
  9
$USERI1
 70
     0
  9
$USERI2
 70
     0
  9
$USERI3
 70
     0
  9
$USERI4
 70
     0
  9
$USERI5
 70
     0
  9
$USERR1
 40
0.0
  9
$USERR2
 40
0.0
  9
$USERR3
 40
0.0
  9
$USERR4
 40
0.0
  9
$USERR5
 40
0.0
  9
$WORLDVIEW
 70
     1
  9
$SHADEDGE
 70
     3
  9
$SHADEDIF
 70
    70
  9
$TILEMODE
 70
     1
  9
$MAXACTVP
 70
    64
  9
$PINSBASE
 10
0.0
 20
0.0
 30
0.0
  9
$PLIMCHECK
 70
     0
  9
$PEXTMIN
 10
1.000000000000000E+20
 20
1.000000000000000E+20
 30
1.000000000000000E+20
  9
$PEXTMAX
 10
-1.000000000000000E+20
 20
-1.000000000000000E+20
 30
-1.000000000000000E+20
  9
$PLIMMIN
 10
0.0
 20
0.0
  9
$PLIMMAX
 10
841.0
 20
594.0
  9
$UNITMODE
 70
     0
  9
$VISRETAIN
 70
     1
  9
$PLINEGEN
 70
     0
  9
$PSLTSCALE
 70
     0
  9
$TREEDEPTH
 70
  3020
  9
$PICKSTYLE
 70
     0
  9
$CMLSTYLE
  2
STANDARD
  9
$CMLJUST
 70
     0
  9
$CMLSCALE
 40
20.0
  9
$PROXYGRAPHICS
 70
     1
  9
$MEASUREMENT
 70
     1
  0
ENDSEC
  0
SECTION
  2
CLASSES
  0
CLASS
  1
ACDBDICTIONARYWDFLT
  2
AcDbDictionaryWithDefault
  3
AutoCAD 2000
 90
        0
280
     0
281
     0
  0
CLASS
  1
ACDBPLACEHOLDER
  2
AcDbPlaceHolder
  3
AutoCAD 2000
 90
        0
280
     0
281
     0
  0
CLASS
  1
LAYOUT
  2
AcDbLayout
  3
AutoCAD 2000
 90
        0
280
     0
281
     0
  0
CLASS
  1
AMGSETTINGSOBJ
  2
AmgSettingsObj
  3
"AcadM|Product Description: AutoCAD Mechanical 2000|Company: Autodesk"
 90
        0
280
     0
281
     0
  0
CLASS
  1
ACME_DOCUMENT
  2
AcMeDbDoc
  3
AcMeServices
 90
        0
280
     0
281
     0
  0
CLASS
  1
ACMESCOPE
  2
AcMeScope
  3
AcMeServices
 90
        0
280
     0
281
     0
  0
CLASS
  1
ACMECOMMANDHISTORY
  2
AcMeCommandHistory
  3
AcMeServices
 90
        0
280
     0
281
     0
  0
CLASS
  1
DICTIONARYVAR
  2
AcDbDictionaryVar
  3
AutoCAD 2000
 90
        0
280
     0
281
     0
  0
CLASS
  1
ACIMSYSVARMAN
  2
AcImSysVarManager
  3
AcMeServices
 90
        0
280
     0
281
     0
  0
CLASS
  1
ACIMREALSYSVAR
  2
AcImRealSysVar
  3
AcMeServices
 90
        0
280
     0
281
     0
  0
CLASS
  1
ACIMINTSYSVAR
  2
AcImIntSysVar
  3
AcMeServices
 90
        0
280
     0
281
     0
  0
CLASS
  1
ACMEDRAWINGMAN
  2
AcMeDrawingMan
  3
AcMeServices
 90
        0
280
     0
281
     0
  0
CLASS
  1
ACMEVIEW
  2
AcMeView
  3
AcMeServices
 90
        0
280
     0
281
     0
  0
CLASS
  1
ACDBENTITYCACHE
  2
AcMeEntityCache
  3
AcMeServices
 90
        0
280
     0
281
     0
  0
CLASS
  1
GSMANAGER
  2
AcMeGSManager
  3
AcMeServices
 90
        0
280
     0
281
     0
  0
CLASS
  1
AmdtInternalReactor
  2
AmdtInternalReactor
  3
AcMeServices
 90
        0
280
     0
281
     0
  0
CLASS
  1
ACMESTATEMGR
  2
AcMeStateMgr
  3
AcMeServices
 90
        0
280
     0
281
     0
  0
CLASS
  1
ACME_DATABASE
  2
AcMeDbDatabase
  3
AcMeServices
 90
        0
280
     0
281
     0
  0
CLASS
  1
ACRFINSADJUSTERMGR
  2
AcRfInsAdjusterMgr
  3
AcMeServices
 90
        0
280
     0
281
     0
  0
CLASS
  1
ACMDATADICTIONARY
  2
AcmDataDictionary
  3
"AcmSymBB|Product Description: AutoCAD Mechanical 2000|Company: Autodesk"
 90
        0
280
     0
281
     0
  0
CLASS
  1
ACMDATAENTRYBLOCK
  2
AcmDataEntryBlock
  3
"AcmSymBB|Product Description: AutoCAD Mechanical 2000|Company: Autodesk"
 90
        0
280
     0
281
     0
  0
CLASS
  1
AMGOBJPROPCFG
  2
AmgObjPropCfg
  3
"AmgLay|Product Description: AutoCAD Mechanical 2000|Company: Autodesk"
 90
        1
280
     0
281
     0
  0
CLASS
  1
ACAMGFILTERDAT
  2
AcAmgFilterDat
  3
"AcadM|Product Description: AutoCAD Mechanical 2000|Company: Autodesk"
 90
        0
280
     0
281
     0
  0
CLASS
  1
LAYER_INDEX
  2
AcDbLayerIndex
  3
AutoCAD 2000
 90
        0
280
     0
281
     0
  0
CLASS
  1
IDBUFFER
  2
AcDbIdBuffer
  3
AutoCAD 2000
 90
        0
280
     0
281
     0
  0
CLASS
  1
ACIMSTRSYSVAR
  2
AcImStrSysVar
  3
AcMeServices
 90
        0
280
     0
281
     0
  0
CLASS
  1
ACMSTANDARDJIS
  2
AcmStandardJIS
  3
"AcmSymBB|Product Description: AutoCAD Mechanical 2000|Company: Autodesk"
 90
        0
280
     0
281
     0
  0
CLASS
  1
ACMSURFSTANDARDJIS
  2
AcmSurfTextStdJIS
  3
"AcmSymBB|Product Description: AutoCAD Mechanical 2000|Company: Autodesk"
 90
        0
280
     0
281
     0
  0
CLASS
  1
ACMFCFSTANDARDJIS
  2
AcmFCFStdJIS
  3
"AcmSymBB|Product Description: AutoCAD Mechanical 2000|Company: Autodesk"
 90
        0
280
     0
281
     0
  0
CLASS
  1
ACMWELDSTANDARDJIS
  2
AcmWeldingStdJIS
  3
"AcmSymBB|Product Description: AutoCAD Mechanical 2000|Company: Autodesk"
 90
        0
280
     0
281
     0
  0
CLASS
  1
ACMIDSTANDARDJIS
  2
AcmIdStdJIS
  3
"AcmSymBB|Product Description: AutoCAD Mechanical 2000|Company: Autodesk"
 90
        0
280
     0
281
     0
  0
CLASS
  1
ACMDATUMSTANDARDJIS
  2
AcmDatumStdJIS
  3
"AcmSymBB|Product Description: AutoCAD Mechanical 2000|Company: Autodesk"
 90
        0
280
     0
281
     0
  0
CLASS
  1
ACMBOMSTANDARDJIS
  2
AcmBOMStdJIS
  3
"AcmSymBB|Product Description: AutoCAD Mechanical 2000|Company: Autodesk"
 90
        0
280
     0
281
     0
  0
CLASS
  1
ACMSTANDARDANSI
  2
AcmStandardANSI
  3
"AcmSymBB|Product Description: AutoCAD Mechanical 2000|Company: Autodesk"
 90
        0
280
     0
281
     0
  0
CLASS
  1
ACMSURFSTANDARDANSI
  2
AcmSurfTextStdANSI
  3
"AcmSymBB|Product Description: AutoCAD Mechanical 2000|Company: Autodesk"
 90
        0
280
     0
281
     0
  0
CLASS
  1
ACMFCFSTANDARDANSI
  2
AcmFCFStdANSI
  3
"AcmSymBB|Product Description: AutoCAD Mechanical 2000|Company: Autodesk"
 90
        0
280
     0
281
     0
  0
CLASS
  1
ACMWELDSTANDARDANSI
  2
AcmWeldingStdANSI
  3
"AcmSymBB|Product Description: AutoCAD Mechanical 2000|Company: Autodesk"
 90
        0
280
     0
281
     0
  0
CLASS
  1
ACMIDSTANDARDANSI
  2
AcmIdStdANSI
  3
"AcmSymBB|Product Description: AutoCAD Mechanical 2000|Company: Autodesk"
 90
        0
280
     0
281
     0
  0
CLASS
  1
ACMDATUMSTANDARDANSI
  2
AcmDatumStdANSI
  3
"AcmSymBB|Product Description: AutoCAD Mechanical 2000|Company: Autodesk"
 90
        0
280
     0
281
     0
  0
CLASS
  1
ACMBOMSTANDARDANSI
  2
AcmBOMStdANSI
  3
"AcmSymBB|Product Description: AutoCAD Mechanical 2000|Company: Autodesk"
 90
        0
280
     0
281
     0
  0
CLASS
  1
ACMSTANDARDBSI
  2
AcmStandardBSI
  3
"AcmSymBB|Product Description: AutoCAD Mechanical 2000|Company: Autodesk"
 90
        0
280
     0
281
     0
  0
CLASS
  1
ACMSURFSTANDARDBSI
  2
AcmSurfTextStdBSI
  3
"AcmSymBB|Product Description: AutoCAD Mechanical 2000|Company: Autodesk"
 90
        0
280
     0
281
     0
  0
CLASS
  1
ACMFCFSTANDARDBSI
  2
AcmFCFStdBSI
  3
"AcmSymBB|Product Description: AutoCAD Mechanical 2000|Company: Autodesk"
 90
        0
280
     0
281
     0
  0
CLASS
  1
ACMWELDSTANDARDBSI
  2
AcmWeldingStdBSI
  3
"AcmSymBB|Product Description: AutoCAD Mechanical 2000|Company: Autodesk"
 90
        0
280
     0
281
     0
  0
CLASS
  1
ACMIDSTANDARDBSI
  2
AcmIdStdBSI
  3
"AcmSymBB|Product Description: AutoCAD Mechanical 2000|Company: Autodesk"
 90
        0
280
     0
281
     0
  0
CLASS
  1
ACMDATUMSTANDARDBSI
  2
AcmDatumStdBSI
  3
"AcmSymBB|Product Description: AutoCAD Mechanical 2000|Company: Autodesk"
 90
        0
280
     0
281
     0
  0
CLASS
  1
ACMBOMSTANDARDBSI
  2
AcmBOMStdBSI
  3
"AcmSymBB|Product Description: AutoCAD Mechanical 2000|Company: Autodesk"
 90
        0
280
     0
281
     0
  0
CLASS
  1
LONG_TRANSACTION
  2
AcDbLongTransaction
  3
AutoCAD 2000
 90
        0
280
     0
281
     0
  0
CLASS
  1
LWPOLYLINE
  2
AcDbPolyline
  3
AutoCAD 2000
 90
        0
280
     0
281
     1
  0
CLASS
  1
HATCH
  2
AcDbHatch
  3
AutoCAD 2000
 90
        0
280
     0
281
     1
  0
CLASS
  1
XRECORD
  2
AcDbXrecord
  3
AutoCAD 2000
 90
        0
280
     0
281
     0
  0
ENDSEC
  0
SECTION
  2
TABLES
  0
TABLE
  2
VPORT
  5
8
330
0
100
AcDbSymbolTable
 70
     3
  0
VPORT
  5
2BF1
330
8
100
AcDbSymbolTableRecord
100
AcDbViewportTableRecord
  2
*ACTIVE
 70
     0
 10
0.0
 20
0.0
 11
1.0
 21
1.0
 12
-41.4944740733225
 22
-17.45714824153964
 13
0.0
 23
0.0
 14
2.5
 24
2.5
 15
10.0
 25
10.0
 16
0.0
 26
0.0
 36
1.0
 17
0.0
 27
0.0
 37
0.0
 40
136.293266345049
 41
1.56570841889117
 42
50.0
 43
0.0
 44
0.0
 50
0.0
 51
0.0
 71
     0
 72
   100
 73
     1
 74
     3
 75
     0
 76
     0
 77
     0
 78
     0
  0
ENDTAB
  0
TABLE
  2
LTYPE
  5
5
330
0
100
AcDbSymbolTable
 70
    10
  0
LTYPE
  5
14
330
5
100
AcDbSymbolTableRecord
100
AcDbLinetypeTableRecord
  2
BYBLOCK
 70
     0
  3

 72
    65
 73
     0
 40
0.0
  0
LTYPE
  5
15
330
5
100
AcDbSymbolTableRecord
100
AcDbLinetypeTableRecord
  2
BYLAYER
 70
     0
  3

 72
    65
 73
     0
 40
0.0
  0
LTYPE
  5
16
330
5
100
AcDbSymbolTableRecord
100
AcDbLinetypeTableRecord
  2
CONTINUOUS
 70
     0
  3
Solid line
 72
    65
 73
     0
 40
0.0
  0
LTYPE
  5
4B
330
5
100
AcDbSymbolTableRecord
100
AcDbLinetypeTableRecord
  2
AM_ISO02W050
 70
     0
  3
__ __ __ __ __ __ __ __ __ __ __ __ __ __ __
 72
    65
 73
     2
 40
7.5
 49
6.0
 74
     0
 49
-1.5
 74
     0
  0
LTYPE
  5
4C
330
5
100
AcDbSymbolTableRecord
100
AcDbLinetypeTableRecord
  2
AM_ISO08W050
 70
     0
  3
____ . ____ . ____ . ____ . ____ . ____ . ____
 72
    65
 73
     4
 40
18.0
 49
12.0
 74
     0
 49
-1.5
 74
     0
 49
3.0
 74
     0
 49
-1.5
 74
     0
  0
LTYPE
  5
4D
330
5
100
AcDbSymbolTableRecord
100
AcDbLinetypeTableRecord
  2
AM_ISO09W050
 70
     0
  3
_____ . . _____ . . _____ . . ____ .. ____
 72
    65
 73
     6
 40
22.5
 49
12.0
 74
     0
 49
-1.5
 74
     0
 49
3.0
 74
     0
 49
-1.5
 74
     0
 49
3.0
 74
     0
 49
-1.5
 74
     0
  0
LTYPE
  5
4E
330
5
100
AcDbSymbolTableRecord
100
AcDbLinetypeTableRecord
  2
AMCONSTR
 70
     0
  3
_______________________
 72
    65
 73
     2
 40
9999.0
 49
9999.0
 74
     0
 49
0.0
 74
     0
  0
LTYPE
  5
4F
330
5
100
AcDbSymbolTableRecord
100
AcDbLinetypeTableRecord
  2
AM_ISO02W050X2
 70
     0
  3
 _ _ _ _ _ _ _ _ _ _ _ _
 72
    65
 73
     2
 40
3.75
 49
3.0
 74
     0
 49
-0.75
 74
     0
  0
LTYPE
  5
50
330
5
100
AcDbSymbolTableRecord
100
AcDbLinetypeTableRecord
  2
AM_ISO08W050X2
 70
     0
  3
__ . __ . __ . __ . __ . __
 72
    65
 73
     4
 40
9.0
 49
6.0
 74
     0
 49
-0.75
 74
     0
 49
1.5
 74
     0
 49
-0.75
 74
     0
  0
LTYPE
  5
53
330
5
100
AcDbSymbolTableRecord
100
AcDbLinetypeTableRecord
  2
AMZIGZAG
 70
     0
  3
/\/-/\/-/\/-/\/-/\/-/\/
 72
    65
 73
     2
 40
11.00009999999999
 49
0.0001
 74
     4
 75
   135
340
52
 46
0.04
 50
0.0
 44
0.0
 45
0.0
 49
-11.0
 74
     0
  0
LTYPE
  5
166
330
5
100
AcDbSymbolTableRecord
100
AcDbLinetypeTableRecord
  2
ACJISTGL
 70
     0
  3
_ _ _ _ _
 72
    65
 73
     2
 40
3.0
 49
2.0
 74
     0
 49
-1.0
 74
     0
  0
LTYPE
  5
26A
330
5
100
AcDbSymbolTableRecord
100
AcDbLinetypeTableRecord
  2
ACJISTGB
 70
     0
  3
__ . . __ . .
 72
    65
 73
     6
 40
9.0
 49
4.0
 74
     0
 49
-1.0
 74
     0
 49
1.0
 74
     0
 49
-1.0
 74
     0
 49
1.0
 74
     0
 49
-1.0
 74
     0
  0
ENDTAB
  0
TABLE
  2
LAYER
  5
2
330
0
100
AcDbSymbolTable
 70
     8
  0
LAYER
  5
10
330
2
100
AcDbSymbolTableRecord
100
AcDbLayerTableRecord
  2
0
 70
     0
 62
     7
  6
CONTINUOUS
  0
LAYER
  5
3F9
330
2
100
AcDbSymbolTableRecord
100
AcDbLayerTableRecord
  2
AM_0
 70
     0
 62
     7
  6
CONTINUOUS
  0
LAYER
  5
BD6
330
2
100
AcDbSymbolTableRecord
100
AcDbLayerTableRecord
  2
AM_11
 70
     0
 62
     3
  6
AM_ISO09W050
  0
LAYER
  5
BD7
330
2
100
AcDbSymbolTableRecord
100
AcDbLayerTableRecord
  2
AM_7
 70
     0
 62
     4
  6
AM_ISO08W050
  0
LAYER
  5
BD8
330
2
100
AcDbSymbolTableRecord
100
AcDbLayerTableRecord
  2
AM_5
 70
     0
 62
     3
  6
CONTINUOUS
  0
LAYER
  5
BD9
330
2
100
AcDbSymbolTableRecord
100
AcDbLayerTableRecord
  2
DEFPOINTS
 70
     0
 62
     7
  6
CONTINUOUS
  0
LAYER
  5
BDA
330
2
100
AcDbSymbolTableRecord
100
AcDbLayerTableRecord
  2
AM_6
 70
     0
 62
     2
  6
CONTINUOUS
  0
LAYER
  5
26DC
330
2
100
AcDbSymbolTableRecord
100
AcDbLayerTableRecord
  2
AM_CL
 70
     0
 62
     1
  6
AMCONSTR
  0
ENDTAB
  0
TABLE
  2
STYLE
  5
3
330
0
100
AcDbSymbolTable
 70
     5
  0
STYLE
  5
11
330
3
100
AcDbSymbolTableRecord
100
AcDbTextStyleTableRecord
  2
STANDARD
 70
     0
 40
0.0
 41
1.0
 50
0.0
 71
     0
 42
2.5
  3
simplex.shx
  4
EXTFONT.SHX
  0
STYLE
  5
52
330
3
100
AcDbSymbolTableRecord
100
AcDbTextStyleTableRecord
  2

 70
     1
 40
0.0
 41
1.0
 50
0.0
 71
     0
 42
2.5
  3
ltypeshp.shx
  4

  0
STYLE
  5
6B
330
3
100
AcDbSymbolTableRecord
100
AcDbTextStyleTableRecord
  2
ASAMI
 70
     0
 40
0.0
 41
1.0
 50
0.0
 71
     0
 42
2.5
  3
simplex.shx
  4
EXTFONT.SHX
  0
STYLE
  5
262
330
3
100
AcDbSymbolTableRecord
100
AcDbTextStyleTableRecord
  2
ACJISTS
 70
     0
 40
1.0
 41
1.0
 50
0.0
 71
     0
 42
2.5
  3
simplex.shx
  4
bigfont.shx
  0
STYLE
  5
269
330
3
100
AcDbSymbolTableRecord
100
AcDbTextStyleTableRecord
  2
ACJISGDT
 70
     0
 40
0.0
 41
1.0
 50
0.0
 71
     0
 42
2.5
  3
amgdtans.shx
  4

  0
ENDTAB
  0
TABLE
  2
VIEW
  5
6
330
0
100
AcDbSymbolTable
 70
     0
  0
ENDTAB
  0
TABLE
  2
UCS
  5
7
330
0
100
AcDbSymbolTable
 70
     0
  0
ENDTAB
  0
TABLE
  2
APPID
  5
9
330
0
100
AcDbSymbolTable
 70
    13
  0
APPID
  5
12
330
9
100
AcDbSymbolTableRecord
100
AcDbRegAppTableRecord
  2
ACAD
 70
     0
  0
APPID
  5
30
330
9
100
AcDbSymbolTableRecord
100
AcDbRegAppTableRecord
  2
MCAD_NO_VIS
 70
     0
  0
APPID
  5
31
330
9
100
AcDbSymbolTableRecord
100
AcDbRegAppTableRecord
  2
ACAD_TEMP_GRAPHIC
 70
     0
  0
APPID
  5
2C2
330
9
100
AcDbSymbolTableRecord
100
AcDbRegAppTableRecord
  2
GENIUS_GENDTOL_13
 70
     0
  0
APPID
  5
339
330
9
100
AcDbSymbolTableRecord
100
AcDbRegAppTableRecord
  2
GENIUS_GENODEF_13
 70
     0
  0
APPID
  5
33A
330
9
100
AcDbSymbolTableRecord
100
AcDbRegAppTableRecord
  2
GENIUS_GENOBJ-N-RSBK_13
 70
     0
  0
APPID
  5
33B
330
9
100
AcDbSymbolTableRecord
100
AcDbRegAppTableRecord
  2
GENIUS_GENOBJ-N-LIB_13
 70
     0
  0
APPID
  5
33C
330
9
100
AcDbSymbolTableRecord
100
AcDbRegAppTableRecord
  2
GENIUS_GENSCALE_13
 70
     0
  0
APPID
  5
378
330
9
100
AcDbSymbolTableRecord
100
AcDbRegAppTableRecord
  2
GENIUS_GENDIMSH_14
 70
     0
  0
APPID
  5
BDB
330
9
100
AcDbSymbolTableRecord
100
AcDbRegAppTableRecord
  2
GENIUS_GENOBJ-N-CEN_13
 70
     0
  0
APPID
  5
BDC
330
9
100
AcDbSymbolTableRecord
100
AcDbRegAppTableRecord
  2
GENIUS_GENFIL_13
 70
     0
  0
APPID
  5
BDD
330
9
100
AcDbSymbolTableRecord
100
AcDbRegAppTableRecord
  2
GENIUS_GENOBJ-N-FIL_13
 70
     0
  0
APPID
  5
12AD
330
9
100
AcDbSymbolTableRecord
100
AcDbRegAppTableRecord
  2
GENIUS_GENOREF_13
 70
     0
  0
ENDTAB
  0
TABLE
  2
DIMSTYLE
  5
A
330
0
100
AcDbSymbolTable
 70
     8
  0
DIMSTYLE
105
58
102
{ACAD_REACTORS
330
2895
330
28E9
330
2904
330
2A25
102
}
330
A
100
AcDbSymbolTableRecord
100
AcDbDimStyleTableRecord
  2
AM_JIS
 70
     0
  3

  4
"
  5
OPEN30
  6

  7

 40
1.0
 41
2.5
 42
1.0
 43
12.0
 44
1.0
 45
0.0
 46
0.0
 47
0.1
 48
0.1
140
3.2
141
0.0
142
0.0
143
0.0393701
144
1.0
145
0.0
146
0.71
147
1.5
 71
     0
 72
     0
 73
     0
 74
     0
 75
     0
 76
     0
 77
     3
 78
     8
170
     0
171
     2
172
     1
173
     0
174
     0
175
     0
176
   256
177
   256
178
     2
270
     2
271
     3
272
     3
273
     2
274
     2
340
6B
275
     0
280
     0
281
     0
282
     0
283
     0
284
     0
285
     0
286
     0
287
     3
288
     0
  0
DIMSTYLE
105
5F
330
A
100
AcDbSymbolTableRecord
100
AcDbDimStyleTableRecord
  2
AM_JIS$3
 70
     0
  3

  4
"
  5
OPEN30
  6

  7

 40
1.0
 41
2.5
 42
1.0
 43
10.0
 44
1.0
 45
0.0
 46
0.0
 47
0.1
 48
0.1
140
3.2
141
0.0
142
0.0
143
0.0393701
144
1.0
145
0.0
146
0.71
147
1.5
 71
     0
 72
     0
 73
     0
 74
     1
 75
     0
 76
     0
 77
     3
 78
     8
170
     0
171
     2
172
     0
173
     0
174
     0
175
     0
176
   256
177
   256
178
     2
270
     2
271
     2
272
     3
273
     2
274
     2
340
6B
275
     0
280
     0
281
     0
282
     0
283
     0
284
     0
285
     0
286
     0
287
     0
288
     1
  0
DIMSTYLE
105
60
102
{ACAD_REACTORS
330
2B33
102
}
330
A
100
AcDbSymbolTableRecord
100
AcDbDimStyleTableRecord
  2
AM_JIS$4
 70
     0
  3

  4
"
  5
OPEN30
  6

  7

 40
1.0
 41
2.5
 42
1.0
 43
10.0
 44
1.0
 45
0.0
 46
0.0
 47
0.1
 48
0.1
140
3.2
141
0.0
142
0.0
143
0.0393701
144
1.0
145
0.0
146
0.71
147
1.5
 71
     0
 72
     0
 73
     0
 74
     1
 75
     0
 76
     0
 77
     3
 78
     8
170
     0
171
     2
172
     0
173
     0
174
     0
175
     0
176
   256
177
   256
178
     2
270
     2
271
     2
272
     3
273
     2
274
     2
340
6B
275
     0
280
     0
281
     0
282
     0
283
     0
284
     0
285
     0
286
     0
287
     0
288
     1
  0
DIMSTYLE
105
61
330
A
100
AcDbSymbolTableRecord
100
AcDbDimStyleTableRecord
  2
AM_JIS$6
 70
     0
  3

  4
"
  5
OPEN30
  6

  7

 40
1.0
 41
2.5
 42
1.0
 43
10.0
 44
1.0
 45
0.0
 46
0.0
 47
0.1
 48
0.1
140
3.2
141
0.0
142
0.0
143
0.0393701
144
1.0
145
0.0
146
0.71
147
1.5
 71
     0
 72
     0
 73
     0
 74
     0
 75
     0
 76
     0
 77
     0
 78
     8
170
     0
171
     2
172
     1
173
     0
174
     0
175
     0
176
   256
177
   256
178
     2
270
     2
271
     2
272
     2
273
     2
274
     2
340
6B
275
     0
280
     0
281
     0
282
     0
283
     0
284
     0
285
     0
286
     0
287
     3
288
     0
  0
DIMSTYLE
105
62
330
A
100
AcDbSymbolTableRecord
100
AcDbDimStyleTableRecord
  2
AM_JIS$7
 70
     0
  3

  4
"
  5
OPEN30
  6

  7

 40
1.0
 41
2.5
 42
1.0
 43
10.0
 44
1.0
 45
0.0
 46
0.0
 47
0.1
 48
0.1
140
3.2
141
0.0
142
0.0
143
0.0393701
144
1.0
145
0.0
146
0.71
147
1.5
 71
     0
 72
     0
 73
     0
 74
     0
 75
     0
 76
     0
 77
     3
 78
     8
170
     0
171
     2
172
     1
173
     0
174
     0
175
     0
176
   256
177
   256
178
     2
270
     2
271
     2
272
     3
273
     2
274
     2
340
6B
275
     0
280
     0
281
     0
282
     0
283
     0
284
     0
285
     0
286
     0
287
     3
288
     0
  0
DIMSTYLE
105
63
330
A
100
AcDbSymbolTableRecord
100
AcDbDimStyleTableRecord
  2
AM_JIS$SF
 70
     0
  3

  4
"
  5
OPEN30
  6

  7

 40
1.0
 41
2.5
 42
1.0
 43
10.0
 44
1.0
 45
0.0
 46
0.0
 47
0.1
 48
0.1
140
3.2
141
0.0
142
0.0
143
0.0393701
144
1.0
145
0.0
146
0.71
147
1.5
 71
     0
 72
     0
 73
     0
 74
     0
 75
     1
 76
     1
 77
     3
 78
     8
170
     0
171
     2
172
     1
173
     0
174
     0
175
     0
176
   256
177
   256
178
     2
270
     2
271
     2
272
     2
273
     2
274
     2
340
6B
275
     0
280
     0
281
     0
282
     0
283
     0
284
     0
285
     0
286
     0
287
     3
288
     0
  0
DIMSTYLE
105
68
330
A
100
AcDbSymbolTableRecord
100
AcDbDimStyleTableRecord
  2
AM_JIS$SH
 70
     0
  3

  4
"
  5

  6
GENAXEH
  7
OPEN30
 40
1.0
 41
2.5
 42
1.0
 43
10.0
 44
1.0
 45
0.0
 46
0.0
 47
0.1
 48
0.1
140
3.2
141
0.0
142
0.0
143
0.0393701
144
2.0
145
0.0
146
0.71
147
1.5
 71
     0
 72
     0
 73
     0
 74
     0
 75
     1
 76
     1
 77
     3
 78
     8
170
     0
171
     2
172
     1
173
     1
174
     0
175
     0
176
   256
177
   256
178
     2
270
     2
271
     2
272
     2
273
     2
274
     2
340
6B
275
     0
280
     0
281
     0
282
     0
283
     0
284
     0
285
     0
286
     0
287
     3
288
     0
  0
DIMSTYLE
105
B34
330
A
100
AcDbSymbolTableRecord
100
AcDbDimStyleTableRecord
  2
AM_JIS$2
 70
     0
  3

  4
"
  5
OPEN30
  6

  7

 40
1.0
 41
2.5
 42
1.0
 43
12.0
 44
1.0
 45
0.0
 46
0.0
 47
0.1
 48
0.1
140
3.2
141
0.0
142
0.0
143
0.0393701
144
1.0
145
0.0
146
0.71
147
1.5
 71
     0
 72
     0
 73
     0
 74
     0
 75
     0
 76
     0
 77
     3
 78
     8
170
     0
171
     2
172
     1
173
     0
174
     0
175
     0
176
   256
177
   256
178
     2
270
     2
271
     3
272
     3
273
     2
274
     2
340
6B
275
     0
280
     0
281
     0
282
     0
283
     0
284
     0
285
     0
286
     0
287
     3
288
     0
  0
ENDTAB
  0
TABLE
  2
BLOCK_RECORD
  5
1
330
0
100
AcDbSymbolTable
 70
    11
  0
BLOCK_RECORD
  5
1F
102
{ACAD_XDICTIONARY
360
74
102
}
330
1
100
AcDbSymbolTableRecord
100
AcDbBlockTableRecord
  2
*MODEL_SPACE
  0
BLOCK_RECORD
  5
101
102
{ACAD_XDICTIONARY
360
2C1A
102
}
330
1
100
AcDbSymbolTableRecord
100
AcDbBlockTableRecord
  2
*PAPER_SPACE
  0
BLOCK_RECORD
  5
59
330
1
100
AcDbSymbolTableRecord
100
AcDbBlockTableRecord
  2
_OPEN30
  0
BLOCK_RECORD
  5
64
330
1
100
AcDbSymbolTableRecord
100
AcDbBlockTableRecord
  2
GENAXEH
  0
BLOCK_RECORD
  5
2896
330
1
100
AcDbSymbolTableRecord
100
AcDbBlockTableRecord
  2
*D5
  0
BLOCK_RECORD
  5
28EA
330
1
100
AcDbSymbolTableRecord
100
AcDbBlockTableRecord
  2
*D6
  0
BLOCK_RECORD
  5
2905
330
1
100
AcDbSymbolTableRecord
100
AcDbBlockTableRecord
  2
*D7
  0
BLOCK_RECORD
  5
2A26
330
1
100
AcDbSymbolTableRecord
100
AcDbBlockTableRecord
  2
*D8
  0
BLOCK_RECORD
  5
2AA4
330
1
100
AcDbSymbolTableRecord
100
AcDbBlockTableRecord
  2
A$C5D8843B1
  0
BLOCK_RECORD
  5
2B34
330
1
100
AcDbSymbolTableRecord
100
AcDbBlockTableRecord
  2
*D10
  0
ENDTAB
  0
ENDSEC
  0
SECTION
  2
BLOCKS
  0
BLOCK
  5
20
330
1F
100
AcDbEntity
  8
0
100
AcDbBlockBegin
  2
*MODEL_SPACE
 70
     0
 10
0.0
 20
0.0
 30
0.0
  3
*MODEL_SPACE
  1

  0
ENDBLK
  5
21
330
1F
100
AcDbEntity
  8
0
100
AcDbBlockEnd
  0
BLOCK
  5
103
330
101
100
AcDbEntity
 67
     1
  8
0
100
AcDbBlockBegin
  2
*PAPER_SPACE
 70
     0
 10
0.0
 20
0.0
 30
0.0
  3
*PAPER_SPACE
  1

  0
ENDBLK
  5
104
330
101
100
AcDbEntity
 67
     1
  8
0
100
AcDbBlockEnd
  0
BLOCK
  5
5D
330
59
100
AcDbEntity
  8
0
100
AcDbBlockBegin
  2
_OPEN30
 70
     0
 10
0.0
 20
0.0
 30
0.0
  3
_OPEN30
  1

  0
LINE
  5
5A
330
59
100
AcDbEntity
  8
0
 62
     0
100
AcDbLine
 10
-1.0
 20
0.26794919
 30
0.0
 11
0.0
 21
0.0
 31
0.0
  0
LINE
  5
5B
330
59
100
AcDbEntity
  8
0
 62
     0
100
AcDbLine
 10
0.0
 20
0.0
 30
0.0
 11
-1.0
 21
-0.26794919
 31
0.0
  0
LINE
  5
5C
330
59
100
AcDbEntity
  8
0
 62
     0
100
AcDbLine
 10
0.0
 20
0.0
 30
0.0
 11
-1.0
 21
0.0
 31
0.0
  0
ENDBLK
  5
5E
330
59
100
AcDbEntity
  8
0
100
AcDbBlockEnd
  0
BLOCK
  5
66
330
64
100
AcDbEntity
  8
0
100
AcDbBlockBegin
  2
GENAXEH
 70
     0
 10
0.0
 20
0.0
 30
0.0
  3
GENAXEH
  1

  0
LINE
  5
65
330
64
100
AcDbEntity
  8
0
100
AcDbLine
 10
-1.0
 20
0.0
 30
0.0
 11
1.0
 21
0.0
 31
0.0
  0
ENDBLK
  5
67
330
64
100
AcDbEntity
  8
0
100
AcDbBlockEnd
  0
BLOCK
  5
28A0
330
2896
100
AcDbEntity
  8
0
100
AcDbBlockBegin
  2
*D5
 70
     1
 10
0.0
 20
0.0
 30
0.0
  3
*D5
  1

  0
LINE
  5
291E
330
2896
100
AcDbEntity
  8
AM_5
100
AcDbLine
 10
0.9999999999999456
 20
9.999999999999996
 30
0.0
 11
22.1060782244602
 21
9.999999999999989
 31
0.0
  0
LINE
  5
291F
330
2896
100
AcDbEntity
  8
AM_5
100
AcDbLine
 10
0.9999999999996443
 20
-10.00000000002492
 30
0.0
 11
22.10607822446019
 21
-10.00000000002492
 31
0.0
  0
LINE
  5
2920
330
2896
100
AcDbEntity
  8
AM_5
100
AcDbLine
 10
21.1060782244602
 20
7.49999999999999
 30
0.0
 11
21.1060782244602
 21
-7.500000000024924
 31
0.0
  0
INSERT
  5
2921
330
2896
100
AcDbEntity
  8
AM_5
100
AcDbBlockReference
  2
_OPEN30
 10
21.1060782244602
 20
9.999999999999989
 30
0.0
 41
2.5
 42
2.5
 43
2.5
 50
90.0
  0
INSERT
  5
2922
330
2896
100
AcDbEntity
  8
AM_5
100
AcDbBlockReference
  2
_OPEN30
 10
21.10607822446019
 20
-10.00000000002492
 30
0.0
 41
2.5
 42
2.5
 43
2.5
 50
270.0
  0
MTEXT
  5
2923
330
2896
100
AcDbEntity
  8
AM_5
 62
     2
100
AcDbMText
 10
18.00607822446019
 20
-0.0000000000124638
 30
0.0
 40
3.2
 41
0.0
 71
     5
 72
     1
  1
%%c20
  7
ASAMI
 11
0.0000000000000001
 21
1.0
 31
0.0
1001
ACAD
1000
MTEXTBEGIN
1070
    73
1070
     1
1070
    44
1040
1.0
1070
    74
1070
     0
1000
MTEXTEND
  0
POINT
  5
2924
330
2896
100
AcDbEntity
  8
DEFPOINTS
 62
     0
100
AcDbPoint
 10
-0.0000000000000543
 20
9.999999999999996
 30
0.0
  0
POINT
  5
2925
330
2896
100
AcDbEntity
  8
DEFPOINTS
 62
     0
100
AcDbPoint
 10
-0.0000000000003556
 20
-10.00000000002492
 30
0.0
  0
POINT
  5
2926
330
2896
100
AcDbEntity
  8
DEFPOINTS
 62
     0
100
AcDbPoint
 10
21.10607822446019
 20
-10.00000000002492
 30
0.0
  0
ENDBLK
  5
28A1
330
2896
100
AcDbEntity
  8
0
100
AcDbBlockEnd
  0
BLOCK
  5
28F4
330
28EA
100
AcDbEntity
  8
0
100
AcDbBlockBegin
  2
*D6
 70
     1
 10
0.0
 20
0.0
 30
0.0
  3
*D6
  1

  0
LINE
  5
2927
330
28EA
100
AcDbEntity
  8
AM_5
100
AcDbLine
 10
-105.94
 20
-10.0
 30
0.0
 11
-128.9006832816327
 21
-9.999999999999992
 31
0.0
  0
LINE
  5
2928
330
28EA
100
AcDbEntity
  8
AM_5
100
AcDbLine
 10
-105.94
 20
9.999999999999998
 30
0.0
 11
-128.9006832816327
 21
10.0
 31
0.0
  0
LINE
  5
2929
330
28EA
100
AcDbEntity
  8
AM_5
100
AcDbLine
 10
-127.9006832816327
 20
-7.499999999999992
 30
0.0
 11
-127.9006832816327
 21
7.500000000000005
 31
0.0
  0
INSERT
  5
292A
330
28EA
100
AcDbEntity
  8
AM_5
100
AcDbBlockReference
  2
_OPEN30
 10
-127.9006832816327
 20
-9.999999999999992
 30
0.0
 41
2.5
 42
2.5
 43
2.5
 50
270.0
  0
INSERT
  5
292B
330
28EA
100
AcDbEntity
  8
AM_5
100
AcDbBlockReference
  2
_OPEN30
 10
-127.9006832816327
 20
10.0
 30
0.0
 41
2.5
 42
2.5
 43
2.5
 50
90.0
  0
MTEXT
  5
292C
330
28EA
100
AcDbEntity
  8
AM_5
 62
     2
100
AcDbMText
 10
-131.0006832816327
 20
-0.0000000000000185
 30
0.0
 40
3.2
 41
0.0
 71
     5
 72
     1
  1
%%c20
  7
ASAMI
 11
0.0000000000000001
 21
1.0
 31
0.0
1001
ACAD
1000
MTEXTBEGIN
1070
    73
1070
     1
1070
    44
1040
1.0
1070
    74
1070
     0
1000
MTEXTEND
  0
POINT
  5
292D
330
28EA
100
AcDbEntity
  8
DEFPOINTS
 62
     0
100
AcDbPoint
 10
-104.94
 20
-10.0
 30
0.0
  0
POINT
  5
292E
330
28EA
100
AcDbEntity
  8
DEFPOINTS
 62
     0
100
AcDbPoint
 10
-104.94
 20
9.999999999999998
 30
0.0
  0
POINT
  5
292F
330
28EA
100
AcDbEntity
  8
DEFPOINTS
 62
     0
100
AcDbPoint
 10
-127.9006832816327
 20
10.0
 30
0.0
  0
ENDBLK
  5
28F5
330
28EA
100
AcDbEntity
  8
0
100
AcDbBlockEnd
  0
BLOCK
  5
290F
330
2905
100
AcDbEntity
  8
0
100
AcDbBlockBegin
  2
*D7
 70
     1
 10
0.0
 20
0.0
 30
0.0
  3
*D7
  1

  0
LINE
  5
2930
330
2905
100
AcDbEntity
  8
AM_5
100
AcDbLine
 10
-106.0
 20
-8.499999999999991
 30
0.0
 11
-106.0
 21
-43.50000124999941
 31
0.0
  0
LINE
  5
2931
330
2905
100
AcDbEntity
  8
AM_5
100
AcDbLine
 10
-0.0000000000000545
 20
-11.00000000002636
 30
0.0
 11
-0.0000000000000565
 21
-43.50000124999941
 31
0.0
  0
LINE
  5
2932
330
2905
100
AcDbEntity
  8
AM_5
100
AcDbLine
 10
-103.5
 20
-42.50000124999941
 30
0.0
 11
-2.500000000000056
 21
-42.50000124999941
 31
0.0
  0
INSERT
  5
2933
330
2905
100
AcDbEntity
  8
AM_5
100
AcDbBlockReference
  2
_OPEN30
 10
-106.0
 20
-42.50000124999941
 30
0.0
 41
2.5
 42
2.5
 43
2.5
 50
180.0
  0
INSERT
  5
2934
330
2905
100
AcDbEntity
  8
AM_5
100
AcDbBlockReference
  2
_OPEN30
 10
-0.0000000000000564
 20
-42.50000124999941
 30
0.0
 41
2.5
 42
2.5
 43
2.5
  0
MTEXT
  5
2935
330
2905
100
AcDbEntity
  8
AM_5
 62
     2
100
AcDbMText
 10
-53.00000000000006
 20
-39.40000124999941
 30
0.0
 40
3.2
 41
0.0
 71
     5
 72
     1
  1
106
  7
ASAMI
1001
ACAD
1000
MTEXTBEGIN
1070
    73
1070
     1
1070
    44
1040
1.0
1070
    74
1070
     0
1000
MTEXTEND
  0
POINT
  5
2936
330
2905
100
AcDbEntity
  8
DEFPOINTS
 62
     0
100
AcDbPoint
 10
-106.0
 20
-7.499999999999991
 30
0.0
  0
POINT
  5
2937
330
2905
100
AcDbEntity
  8
DEFPOINTS
 62
     0
100
AcDbPoint
 10
-0.0000000000000544
 20
-10.00000000002636
 30
0.0
  0
POINT
  5
2938
330
2905
100
AcDbEntity
  8
DEFPOINTS
 62
     0
100
AcDbPoint
 10
-0.0000000000000564
 20
-42.50000124999941
 30
0.0
  0
ENDBLK
  5
2910
330
2905
100
AcDbEntity
  8
0
100
AcDbBlockEnd
  0
BLOCK
  5
2A30
330
2A26
100
AcDbEntity
  8
0
100
AcDbBlockBegin
  2
*D8
 70
     1
 10
0.0
 20
0.0
 30
0.0
  3
*D8
  1

  0
LINE
  5
2A32
330
2A26
100
AcDbEntity
  8
AM_5
100
AcDbLine
 10
-40.00081679616631
 20
-11.0
 30
0.0
 11
-40.00081679616631
 21
-28.50000125000142
 31
0.0
  0
LINE
  5
2A33
330
2A26
100
AcDbEntity
  8
AM_5
100
AcDbLine
 10
-0.0003804425583138
 20
-11.00000000002636
 30
0.0
 11
-0.0003804425583149
 21
-28.50000125000142
 31
0.0
  0
LINE
  5
2A34
330
2A26
100
AcDbEntity
  8
AM_5
100
AcDbLine
 10
-37.50081679616631
 20
-27.50000125000142
 30
0.0
 11
-2.500380442558314
 21
-27.50000125000142
 31
0.0
  0
INSERT
  5
2A35
330
2A26
100
AcDbEntity
  8
AM_5
100
AcDbBlockReference
  2
_OPEN30
 10
-40.00081679616631
 20
-27.50000125000142
 30
0.0
 41
2.5
 42
2.5
 43
2.5
 50
180.0
  0
INSERT
  5
2A36
330
2A26
100
AcDbEntity
  8
AM_5
100
AcDbBlockReference
  2
_OPEN30
 10
-0.0003804425583148
 20
-27.50000125000142
 30
0.0
 41
2.5
 42
2.5
 43
2.5
  0
MTEXT
  5
2A37
330
2A26
100
AcDbEntity
  8
AM_5
 62
     2
100
AcDbMText
 10
-20.00059861936231
 20
-24.40000125000142
 30
0.0
 40
3.2
 41
0.0
 71
     5
 72
     1
  1
40
  7
ASAMI
1001
ACAD
1000
MTEXTBEGIN
1070
    73
1070
     1
1070
    44
1040
1.0
1070
    74
1070
     0
1000
MTEXTEND
  0
POINT
  5
2A38
330
2A26
100
AcDbEntity
  8
DEFPOINTS
 62
     0
100
AcDbPoint
 10
-40.00081679616631
 20
-10.0
 30
0.0
  0
POINT
  5
2A39
330
2A26
100
AcDbEntity
  8
DEFPOINTS
 62
     0
100
AcDbPoint
 10
-0.0003804425583138
 20
-10.00000000002636
 30
0.0
  0
POINT
  5
2A3A
330
2A26
100
AcDbEntity
  8
DEFPOINTS
 62
     0
100
AcDbPoint
 10
-0.0003804425583148
 20
-27.50000125000142
 30
0.0
  0
ENDBLK
  5
2A31
330
2A26
100
AcDbEntity
  8
0
100
AcDbBlockEnd
  0
BLOCK
  5
2AE0
330
2AA4
100
AcDbEntity
  8
0
100
AcDbBlockBegin
  2
A$C5D8843B1
 70
     0
 10
0.0
 20
0.0
 30
0.0
  3
A$C5D8843B1
  1

  0
POLYLINE
  5
2AA5
330
2AA4
100
AcDbEntity
  8
AM_0
100
AcDb2dPolyline
 66
     1
 10
0.0
 20
0.0
 30
0.0
 70
     2
  0
VERTEX
  5
2AA6
330
2AA5
100
AcDbEntity
  8
AM_0
100
AcDbVertex
100
AcDb2dVertex
 10
-0.0000000000000568
 20
-8.929531596096911
 30
0.0
 42
-0.0178156365317552
  0
VERTEX
  5
2AA7
330
2AA5
100
AcDbEntity
  8
AM_0
100
AcDbVertex
100
AcDb2dVertex
 10
-1.263571024336357
 20
-7.764523360871119
 30
0.0
 42
-0.0331959452416026
 70
     1
  0
VERTEX
  5
2AA8
330
2AA5
100
AcDbEntity
  8
AM_0
100
AcDbVertex
100
AcDb2dVertex
 10
-1.875000000000056
 20
-7.072946307823493
 30
0.0
 42
-0.0146039106870926
  0
VERTEX
  5
2AA9
330
2AA5
100
AcDbEntity
  8
AM_0
100
AcDbVertex
100
AcDb2dVertex
 10
-3.451933356989485
 20
-4.902819789132133
 30
0.0
 42
-0.0223520491893001
 70
     1
  0
VERTEX
  5
2AAA
330
2AA5
100
AcDbEntity
  8
AM_0
100
AcDbVertex
100
AcDb2dVertex
 10
-4.375000000000071
 20
-3.412319223470679
 30
0.0
 42
-0.0441009200707103
  0
VERTEX
  5
2AAB
330
2AA5
100
AcDbEntity
  8
AM_0
100
AcDbVertex
100
AcDb2dVertex
 10
-4.909470882174055
 20
-2.220769669420799
 30
0.0
 42
-0.0936531610333872
 70
     1
  0
VERTEX
  5
2AAC
330
2AA5
100
AcDbEntity
  8
AM_0
100
AcDbVertex
100
AcDb2dVertex
 10
-5.000000000000071
 20
-1.608277427391279
 30
0.0
 42
-0.1702954566684844
  0
VERTEX
  5
2AAD
330
2AA5
100
AcDbEntity
  8
AM_0
100
AcDbVertex
100
AcDb2dVertex
 10
-4.840146566777647
 20
-1.204985054318529
 30
0.0
 42
-0.1297006245562602
 70
     1
  0
VERTEX
  5
2AAE
330
2AA5
100
AcDbEntity
  8
AM_0
100
AcDbVertex
100
AcDb2dVertex
 10
-4.375000000000071
 20
-0.888052514823407
 30
0.0
 42
-0.1520873745504847
  0
VERTEX
  5
2AAF
330
2AA5
100
AcDbEntity
  8
AM_0
100
AcDbVertex
100
AcDb2dVertex
 10
-3.745817586354597
 20
-0.8639532826460607
 30
0.0
 42
-0.046970576622812
 70
     1
  0
VERTEX
  5
2AB0
330
2AA5
100
AcDbEntity
  8
AM_0
100
AcDbVertex
100
AcDb2dVertex
 10
-1.875000000000071
 20
-1.562692964516671
 30
0.0
 42
-0.0471052227454502
  0
VERTEX
  5
2AB1
330
2AA5
100
AcDbEntity
  8
AM_0
100
AcDbVertex
100
AcDb2dVertex
 10
-0.8992300166850668
 20
-2.154868230935998
 30
0.0
 42
-0.0445950027858137
 70
     1
  0
VERTEX
  5
2AB2
330
2AA5
100
AcDbEntity
  8
AM_0
100
AcDbVertex
100
AcDb2dVertex
 10
-0.0000000000000639
 20
-2.957558326777811
 30
0.0
  0
SEQEND
  5
2AB3
330
2AA5
100
AcDbEntity
  8
AM_0
  0
LINE
  5
2AB4
330
2AA4
100
AcDbEntity
  8
AM_11
100
AcDbLine
 10
-0.0000000000000853
 20
12.5
 30
0.0
 11
-0.0000000000000497
 21
-12.5
 31
0.0
  0
POLYLINE
  5
2AB5
330
2AA4
100
AcDbEntity
  8
AM_0
100
AcDb2dPolyline
 66
     1
 10
0.0
 20
0.0
 30
0.0
  0
VERTEX
  5
2AB6
330
2AB5
100
AcDbEntity
  8
AM_0
100
AcDbVertex
100
AcDb2dVertex
 10
-0.0000000000000497
 20
-12.21666518633623
 30
0.0
 42
-0.0221539577337636
  0
VERTEX
  5
2AB7
330
2AB5
100
AcDbEntity
  8
AM_0
100
AcDbVertex
100
AcDb2dVertex
 10
-1.149946725495425
 20
-11.95660891583664
 30
0.0
 42
-0.0340466909705598
  0
VERTEX
  5
2AB8
330
2AB5
100
AcDbEntity
  8
AM_0
100
AcDbVertex
100
AcDb2dVertex
 10
-1.874999999679801
 20
-11.7043870331292
 30
0.0
 42
-0.0203576778786898
  0
VERTEX
  5
2AB9
330
2AB5
100
AcDbEntity
  8
AM_0
100
AcDbVertex
100
AcDb2dVertex
 10
-3.568860091391172
 20
-10.89959267122852
 30
0.0
 42
-0.0400624909263087
  0
VERTEX
  5
2ABA
330
2AB5
100
AcDbEntity
  8
AM_0
100
AcDbVertex
100
AcDb2dVertex
 10
-4.374999999679808
 20
-10.38929445949429
 30
0.0
 42
-0.0663150629504314
  0
VERTEX
  5
2ABB
330
2AB5
100
AcDbEntity
  8
AM_0
100
AcDbVertex
100
AcDb2dVertex
 10
-4.935060409052212
 20
-9.838716933111424
 30
0.0
 42
-0.2076691274107043
  0
VERTEX
  5
2ABC
330
2AB5
100
AcDbEntity
  8
AM_0
100
AcDbVertex
100
AcDb2dVertex
 10
-5.000000000000056
 20
-9.586480039066433
 30
0.0
 42
-0.2374584988068722
  0
VERTEX
  5
2ABD
330
2AB5
100
AcDbEntity
  8
AM_0
100
AcDbVertex
100
AcDb2dVertex
 10
-4.869149070653733
 20
-9.404663247363458
 30
0.0
 42
-0.0987776704921028
  0
VERTEX
  5
2ABE
330
2AB5
100
AcDbEntity
  8
AM_0
100
AcDbVertex
100
AcDb2dVertex
 10
-4.375000000000056
 20
-9.26054251668236
 30
0.0
 42
-0.0800554842556619
  0
VERTEX
  5
2ABF
330
2AB5
100
AcDbEntity
  8
AM_0
100
AcDbVertex
100
AcDb2dVertex
 10
-3.763182742121699
 20
-9.305225649375195
 30
0.0
 42
-0.0248354955603466
  0
VERTEX
  5
2AC0
330
2AB5
100
AcDbEntity
  8
AM_0
100
AcDbVertex
100
AcDb2dVertex
 10
-1.875000000000056
 20
-9.852957534548806
 30
0.0
 42
-0.0116235723303201
  0
VERTEX
  5
2AC1
330
2AB5
100
AcDbEntity
  8
AM_0
100
AcDbVertex
100
AcDb2dVertex
 10
-1.544673485398952
 20
-9.975502172039139
 30
0.0
 42
-0.0249611087696398
  0
SEQEND
  5
2AC2
330
2AB5
100
AcDbEntity
  8
AM_0
  0
SPLINE
  5
2AC3
330
2AA4
100
AcDbEntity
  8
AM_0
100
AcDbSpline
210
0.0
220
0.0
230
1.0
 70
     8
 71
     3
 72
     8
 73
     4
 74
     0
 42
0.0000000001
 43
0.0000000001
 40
0.0
 40
0.0
 40
0.0
 40
0.0
 40
1.168827779827945
 40
1.168827779827945
 40
1.168827779827945
 40
1.168827779827945
 10
-3.022507614835106
 20
-12.49999999999999
 30
0.0
 10
-1.985707614730024
 20
-12.49999999999999
 30
0.0
 10
-0.9794850921272058
 20
-12.4014287296245
 30
0.0
 10
0.0000000024813644
 20
-12.21666518770418
 30
0.0
  0
SPLINE
  5
2AC4
330
2AA4
100
AcDbEntity
  8
AM_0
100
AcDbSpline
210
0.0
220
0.0
230
1.0
 70
     8
 71
     3
 72
     8
 73
     4
 74
     0
 42
0.0000000001
 43
0.0000000001
 40
0.0
 40
0.0
 40
0.0
 40
0.0
 40
1.229985673975173
 40
1.229985673975173
 40
1.229985673975173
 40
1.229985673975173
 10
-0.0022202929091861
 20
-12.21708385316559
 30
0.0
 10
0.9734682976901467
 20
-12.21708385316559
 30
0.0
 10
2.031633470418881
 20
-12.10900193312141
 30
0.0
 10
3.061288361351948
 20
-11.90721484556561
 30
0.0
  0
POLYLINE
  5
2AC5
330
2AA4
100
AcDbEntity
  8
AM_0
100
AcDb2dPolyline
 66
     1
 10
0.0
 20
0.0
 30
0.0
 70
     2
  0
VERTEX
  5
2AC6
330
2AC5
100
AcDbEntity
  8
AM_0
100
AcDbVertex
100
AcDb2dVertex
 10
-0.1175813581287599
 20
0.0000000000000062
 30
0.0
 42
-0.0127375777047685
  0
VERTEX
  5
2AC7
330
2AC5
100
AcDbEntity
  8
AM_0
100
AcDbVertex
100
AcDb2dVertex
 10
-1.353303940584311
 20
1.361387544314486
 30
0.0
 42
-0.0248093973610095
 70
     1
  0
VERTEX
  5
2AC8
330
2AC5
100
AcDbEntity
  8
AM_0
100
AcDbVertex
100
AcDb2dVertex
 10
-1.933790679064415
 20
2.106306535872535
 30
0.0
 42
-0.0083836245974647
  0
VERTEX
  5
2AC9
330
2AC5
100
AcDbEntity
  8
AM_0
100
AcDbVertex
100
AcDb2dVertex
 10
-3.512785199379294
 20
4.43629151269926
 30
0.0
 42
-0.0143113302193792
 70
     1
  0
VERTEX
  5
2ACA
330
2AC5
100
AcDbEntity
  8
AM_0
100
AcDbVertex
100
AcDb2dVertex
 10
-4.375000000000078
 20
5.841956030713458
 30
0.0
 42
-0.0388452244960751
  0
VERTEX
  5
2ACB
330
2AC5
100
AcDbEntity
  8
AM_0
100
AcDbVertex
100
AcDb2dVertex
 10
-4.911174141365066
 20
6.969336815881978
 30
0.0
 42
-0.0958601720223094
 70
     1
  0
VERTEX
  5
2ACC
330
2AC5
100
AcDbEntity
  8
AM_0
100
AcDbVertex
100
AcDb2dVertex
 10
-5.000000000000078
 20
7.471298989681847
 30
0.0
 42
-0.1958397271905712
  0
VERTEX
  5
2ACD
330
2AC5
100
AcDbEntity
  8
AM_0
100
AcDbVertex
100
AcDb2dVertex
 10
-4.8674912884304
 20
7.782301375442426
 30
0.0
 42
-0.1110351864371754
 70
     1
  0
VERTEX
  5
2ACE
330
2AC5
100
AcDbEntity
  8
AM_0
100
AcDbVertex
100
AcDb2dVertex
 10
-4.375000000000085
 20
8.091117449678215
 30
0.0
 42
-0.1149197439922528
  0
VERTEX
  5
2ACF
330
2AC5
100
AcDbEntity
  8
AM_0
100
AcDbVertex
100
AcDb2dVertex
 10
-3.706470846726027
 20
8.165001869124392
 30
0.0
 42
-0.0408875130900929
 70
     1
  0
VERTEX
  5
2AD0
330
2AC5
100
AcDbEntity
  8
AM_0
100
AcDbVertex
100
AcDb2dVertex
 10
-1.875000000000085
 20
7.792802410366967
 30
0.0
 42
-0.0433088016869432
  0
VERTEX
  5
2AD1
330
2AC5
100
AcDbEntity
  8
AM_0
100
AcDbVertex
100
AcDb2dVertex
 10
-0.9600670025820505
 20
7.439209809629642
 30
0.0
 42
-0.0381261598452643
 70
     1
  0
VERTEX
  5
2AD2
330
2AC5
100
AcDbEntity
  8
AM_0
100
AcDbVertex
100
AcDb2dVertex
 10
-0.0000000000000782
 20
6.874668911059356
 30
0.0
  0
SEQEND
  5
2AD3
330
2AC5
100
AcDbEntity
  8
AM_0
  0
POLYLINE
  5
2AD4
330
2AA4
100
AcDbEntity
  8
AM_0
100
AcDb2dPolyline
 66
     1
 10
0.0
 20
0.0
 30
0.0
  0
VERTEX
  5
2AD5
330
2AD4
100
AcDbEntity
  8
AM_0
100
AcDbVertex
100
AcDb2dVertex
 10
-3.599862845136428
 20
10.71885503346777
 30
0.0
 42
-0.0145870599255934
  0
VERTEX
  5
2AD6
330
2AD4
100
AcDbEntity
  8
AM_0
100
AcDbVertex
100
AcDb2dVertex
 10
-4.375000000000085
 20
11.30119047089986
 30
0.0
 42
-0.0050435334132596
  0
VERTEX
  5
2AD7
330
2AD4
100
AcDbEntity
  8
AM_0
100
AcDbVertex
100
AcDb2dVertex
 10
-4.994704818693016
 20
11.80599245027657
 30
0.0
 42
-0.2742987476584449
  0
VERTEX
  5
2AD8
330
2AD4
100
AcDbEntity
  8
AM_0
100
AcDbVertex
100
AcDb2dVertex
 10
-5.000000000000085
 20
11.82088068338448
 30
0.0
 42
-0.2776516060307496
  0
VERTEX
  5
2AD9
330
2AD4
100
AcDbEntity
  8
AM_0
100
AcDbVertex
100
AcDb2dVertex
 10
-4.939808306754791
 20
11.88741666087717
 30
0.0
 42
-0.0400827094855082
  0
VERTEX
  5
2ADA
330
2AD4
100
AcDbEntity
  8
AM_0
100
AcDbVertex
100
AcDb2dVertex
 10
-4.374999999676511
 20
12.00995036720946
 30
0.0
 42
-0.0136313623974274
  0
VERTEX
  5
2ADB
330
2AD4
100
AcDbEntity
  8
AM_0
100
AcDbVertex
100
AcDb2dVertex
 10
-3.796315511176004
 20
12.07166990340448
 30
0.0
 42
-0.0041179133630786
  0
VERTEX
  5
2ADC
330
2AD4
100
AcDbEntity
  8
AM_0
100
AcDbVertex
100
AcDb2dVertex
 10
-1.874999999676511
 20
12.20784261925655
 30
0.0
 42
-0.0144548307118866
  0
VERTEX
  5
2ADD
330
2AD4
100
AcDbEntity
  8
AM_0
100
AcDbVertex
100
AcDb2dVertex
 10
-1.210124198978832
 20
12.23019949909155
 30
0.0
 42
-0.0079447181452264
  0
VERTEX
  5
2ADE
330
2AD4
100
AcDbEntity
  8
AM_0
100
AcDbVertex
100
AcDb2dVertex
 10
-0.0000000000000853
 20
12.2166651881719
 30
0.0
  0
SEQEND
  5
2ADF
330
2AD4
100
AcDbEntity
  8
AM_0
  0
ENDBLK
  5
2AE1
330
2AA4
100
AcDbEntity
  8
0
100
AcDbBlockEnd
  0
BLOCK
  5
2B3B
330
2B34
100
AcDbEntity
  8
0
100
AcDbBlockBegin
  2
*D10
 70
     1
 10
0.0
 20
0.0
 30
0.0
  3
*D10
  1

  0
LINE
  5
2C1C
330
2B34
100
AcDbEntity
  8
AM_5
100
AcDbLine
 10
10.80832893466131
 20
-22.66605102935893
 30
0.0
 11
1.119776942404727
 21
-11.48432349788485
 31
0.0
  0
MTEXT
  5
2C1D
330
2B34
100
AcDbEntity
  8
AM_5
 62
     2
100
AcDbMText
 10
9.125478597032209
 20
-15.98988186614938
 30
0.0
 40
3.2
 41
0.0
 71
     5
 72
     1
  1
R1.5
  7
ASAMI
 11
0.6548425871818099
 21
-0.7557652982328797
 31
0.0
  0
LINE
  5
2C1E
330
2B34
100
AcDbEntity
  8
AM_5
100
AcDbLine
 10
-1.499593406322514
 20
-8.461262304953329
 30
0.0
 11
-0.5173295255497985
 21
-9.59491025230265
 31
0.0
  0
INSERT
  5
2C1F
330
2B34
100
AcDbEntity
  8
AM_5
100
AcDbBlockReference
  2
_OPEN30
 10
-0.5173295255497985
 20
-9.59491025230265
 30
0.0
 41
2.5
 42
2.5
 43
2.5
 50
130.9077151595329
  0
POINT
  5
2C20
330
2B34
100
AcDbEntity
  8
DEFPOINTS
 62
     0
100
AcDbPoint
 10
-0.5173295255497985
 20
-9.59491025230265
 30
0.0
  0
POINT
  5
2C21
330
2B34
100
AcDbEntity
  8
DEFPOINTS
 62
     0
100
AcDbPoint
 10
-1.499593406322514
 20
-8.461262304953329
 30
0.0
  0
ENDBLK
  5
2B3C
330
2B34
100
AcDbEntity
  8
0
100
AcDbBlockEnd
  0
ENDSEC
  0
SECTION
  2
ENTITIES
  0
TEXT
  5
C58
330
1F
100
AcDbEntity
  8
AM_6
100
AcDbText
 10
-84.54761904761907
 20
-65.00000124999953
 30
0.0
 40
5.0
  1
HHM8200ZX-R15
 50
0.0000000000002036
 72
     4
 11
-53.00000000000006
 21
-62.50000124999941
 31
0.0
100
AcDbText
  0
DIMENSION
  5
2895
330
1F
100
AcDbEntity
  8
AM_5
100
AcDbDimension
  2
*D5
 10
21.10607822446019
 20
-10.00000000002492
 30
0.0
 11
18.00607822446019
 21
-0.0000000000124638
 31
0.0
 70
    32
  1
%%c<>
  3
AM_JIS
100
AcDbAlignedDimension
 13
-0.0000000000000543
 23
9.999999999999996
 33
0.0
 14
-0.0000000000003556
 24
-10.00000000002492
 34
0.0
 50
90.0
100
AcDbRotatedDimension
1001
GENIUS_GENDTOL_13
1000

1000
h7
1000

1040
0.0
  0
LINE
  5
28E3
330
1F
100
AcDbEntity
  8
AM_0
100
AcDbLine
 10
-87.0229655066304
 20
9.999999999999889
 30
0.0
 11
-89.23569775130356
 21
9.999999999999889
 31
0.0
  0
LINE
  5
28E4
330
1F
100
AcDbEntity
  8
AM_0
100
AcDbLine
 10
-106.0
 20
7.500000000000007
 30
0.0
 11
-104.94
 21
9.999999999999996
 31
0.0
1001
GENIUS_GENFIL_13
1070
     0
1040
0.5
1040
0.5
1040
0.4999999999999716
1040
45.0
1002
{
1002
}
  0
LINE
  5
28E5
330
1F
100
AcDbEntity
  8
AM_0
100
AcDbLine
 10
-86.2274436827921
 20
-10.00000000000022
 30
0.0
 11
-89.23569775130356
 21
-10.00000000000022
 31
0.0
  0
LINE
  5
28E6
330
1F
100
AcDbEntity
  8
AM_0
100
AcDbLine
 10
-106.0
 20
-7.499999999999991
 30
0.0
 11
-104.94
 21
-9.999999999999991
 31
0.0
1001
GENIUS_GENFIL_13
1070
     0
1040
0.5
1040
0.5
1040
0.4999999999999716
1040
45.00000000000036
1002
{
1002
}
  0
LINE
  5
28E7
330
1F
100
AcDbEntity
  8
0
100
AcDbLine
 10
-104.94
 20
-9.999999999999991
 30
0.0
 11
-104.94
 21
9.999999999999996
 31
0.0
  0
LINE
  5
28E8
330
1F
100
AcDbEntity
  8
AM_0
100
AcDbLine
 10
-106.0
 20
-7.499999999999991
 30
0.0
 11
-106.0
 21
7.500000000000007
 31
0.0
  0
DIMENSION
  5
28E9
330
1F
100
AcDbEntity
  8
AM_5
100
AcDbDimension
  2
*D6
 10
-127.9006832816327
 20
10.0
 30
0.0
 11
-127.9006832816327
 21
-0.0000000000000189
 31
0.0
 70
   160
  1
%%c<>
  3
AM_JIS
100
AcDbAlignedDimension
 13
-104.94
 23
-10.0
 33
0.0
 14
-104.94
 24
9.999999999999998
 34
0.0
 50
270.0
100
AcDbRotatedDimension
1001
ACAD
1000
DSTYLE
1002
{
1070
    48
1040
0.1
1070
    47
1040
0.1
1070
   274
1070
     2
1070
   272
1070
     3
1002
}
1001
GENIUS_GENDTOL_13
1000

1000
h6
1000

1040
0.0
  0
LINE
  5
28F6
330
1F
100
AcDbEntity
  8
AM_0
100
AcDbLine
 10
-104.94
 20
9.999999999999996
 30
0.0
 11
-42.00336191218466
 21
9.999999999999996
 31
0.0
1001
GENIUS_GENODEF_13
1002
{
1000
HIER
1070
     0
1002
}
1002
{
1000
MANEDIT
1070
     0
1002
}
1002
{
1000
NOSEL
1070
     0
1002
}
1002
{
1000
BEHIND
1070
     0
1002
}
1002
{
1000
REACTOR
1002
}
1001
GENIUS_GENOBJ-N-CEN_13
1002
{
1000
OWNER
1000
GEN
1002
}
  0
LINE
  5
28F7
330
1F
100
AcDbEntity
  8
AM_0
100
AcDbLine
 10
-104.94
 20
-9.999999999999991
 30
0.0
 11
-42.41882691699671
 21
-9.999999999999991
 31
0.0
1001
GENIUS_GENODEF_13
1002
{
1000
HIER
1070
     0
1002
}
1002
{
1000
MANEDIT
1070
     0
1002
}
1002
{
1000
NOSEL
1070
     0
1002
}
1002
{
1000
BEHIND
1070
     0
1002
}
1002
{
1000
REACTOR
1002
}
1001
GENIUS_GENOBJ-N-CEN_13
1002
{
1000
OWNER
1000
GEN
1002
}
  0
LINE
  5
28F8
330
1F
100
AcDbEntity
  8
AM_7
100
AcDbLine
 10
-111.4117932149659
 20
-0.0000000000000036
 30
0.0
 11
4.61718815779341
 21
-0.0000000000000036
 31
0.0
1001
GENIUS_GENODEF_13
1002
{
1000
HIER
1070
     0
1002
}
1002
{
1000
MANEDIT
1070
     0
1002
}
1002
{
1000
NOSEL
1070
     0
1002
}
1002
{
1000
BEHIND
1070
     0
1002
}
1002
{
1000
REACTOR
1002
}
1001
GENIUS_GENOBJ-N-CEN_13
1002
{
1000
OWNER
1000
GEN
1002
}
  0
DIMENSION
  5
2904
330
1F
100
AcDbEntity
  8
AM_5
100
AcDbDimension
  2
*D7
 10
-0.0000000000000564
 20
-42.50000124999941
 30
0.0
 11
-53.00000000000006
 21
-39.40000124999941
 31
0.0
 70
    32
  1
<>
  3
AM_JIS
100
AcDbAlignedDimension
 13
-106.0
 23
-7.499999999999991
 33
0.0
 14
-0.0000000000000544
 24
-10.00000000002636
 34
0.0
 50
0.0000000000003201
100
AcDbRotatedDimension
1001
GENIUS_GENDTOL_13
1000

1000
H7
1000

1040
0.0
  0
SPLINE
  5
29BC
330
1F
100
AcDbEntity
  8
AM_0
100
AcDbSpline
210
0.0
220
0.0
230
1.0
 70
     8
 71
     3
 72
     8
 73
     4
 74
     0
 42
0.0000000001
 43
0.0000000001
 40
0.4744877324192465
 40
0.4744877324192465
 40
0.4744877324192465
 40
0.4744877324192465
 40
1.707928658540872
 40
1.707928658540872
 40
1.707928658540872
 40
1.707928658540872
 10
-1.637303531335162
 20
9.968289893108657
 30
0.0
 10
-2.492172213631869
 20
9.902448551311282
 30
0.0
 10
-3.321188377093231
 20
9.753267719597472
 30
0.0
 10
-4.127962219727104
 20
9.532385415229914
 30
0.0
  0
LINE
  5
29BD
330
1F
100
AcDbEntity
  8
AM_0
100
AcDbLine
 10
-0.6390521586097594
 20
7.270748617630281
 30
0.0
 11
-0.0003804425583136
 21
7.270748617630281
 31
0.0
  0
LINE
  5
29BE
330
1F
100
AcDbEntity
  8
AM_0
100
AcDbLine
 10
-0.0003804425583136
 20
7.270748617630281
 30
0.0
 11
-0.314816741211996
 21
8.219054995051369
 31
0.0
  0
SPLINE
  5
29BF
330
1F
100
AcDbEntity
  8
AM_0
100
AcDbSpline
210
0.0
220
0.0
230
1.0
 70
     8
 71
     3
 72
     8
 73
     4
 74
     0
 42
0.0000000001
 43
0.0000000001
 40
0.1250948486480074
 40
0.1250948486480074
 40
0.1250948486480074
 40
0.1250948486480074
 40
0.5596836519003795
 40
0.5596836519003795
 40
0.5596836519003795
 40
0.5596836519003795
 10
-0.719314946413887
 20
9.74234213267781
 30
0.0
 10
-0.871424952030207
 20
9.421893300870712
 30
0.0
 10
-1.213304130789213
 20
9.062466848230636
 30
0.0
 10
-1.580594565098259
 20
8.779797583080513
 30
0.0
  0
LINE
  5
29C0
330
1F
100
AcDbEntity
  8
AM_0
100
AcDbLine
 10
-2.774774621678339
 20
5.138537962870165
 30
0.0
 11
-2.774774621678339
 21
6.220623656575886
 31
0.0
  0
LINE
  5
29C1
330
1F
100
AcDbEntity
  8
AM_0
100
AcDbLine
 10
-0.0003804425583136
 20
2.350995133069678
 30
0.0
 11
-0.1845190277749677
 21
1.705391573315201
 31
0.0
  0
LINE
  5
29C2
330
1F
100
AcDbEntity
  8
AM_0
100
AcDbLine
 10
-0.2879776893231798
 20
2.630132770248242
 30
0.0
 11
-2.774774621678339
 21
5.138537962870165
 31
0.0
  0
LINE
  5
29C3
330
1F
100
AcDbEntity
  8
AM_0
100
AcDbLine
 10
-2.774774621678339
 20
6.220623656575886
 30
0.0
 11
-1.032624211527375
 21
3.381249670330493
 31
0.0
  0
SPLINE
  5
29C4
330
1F
100
AcDbEntity
  8
AM_0
100
AcDbSpline
210
0.0
220
0.0
230
1.0
 70
     8
 71
     3
 72
     8
 73
     4
 74
     0
 42
0.0000000001
 43
0.0000000001
 40
0.0
 40
0.0
 40
0.0
 40
0.0
 40
1.132300688333841
 40
1.132300688333841
 40
1.132300688333841
 40
1.132300688333841
 10
-0.6390521586097594
 20
7.270748617630281
 30
0.0
 10
-0.8475251817774683
 20
6.541730661532808
 30
0.0
 10
-1.971254150894933
 20
6.220623656575886
 30
0.0
 10
-2.774774621678339
 20
6.220623656575886
 30
0.0
  0
LINE
  5
29C5
330
1F
100
AcDbEntity
  8
AM_0
100
AcDbLine
 10
-0.0003804425583136
 20
2.350995133069449
 30
0.0
 11
-0.0003804425583136
 21
8.509855940437907
 31
0.0
  0
LINE
  5
29C6
330
1F
100
AcDbEntity
  8
AM_0
100
AcDbLine
 10
-0.0003804425583136
 20
0.0000000000001319
 30
0.0
 11
-0.1845190277749677
 21
-1.645879940324884
 31
0.0
  0
LINE
  5
29C7
330
1F
100
AcDbEntity
  8
AM_0
100
AcDbLine
 10
-0.0003804425583136
 20
-2.291483500079475
 30
0.0
 11
-0.6624426589837392
 21
0.0297558164951581
 31
0.0
  0
LINE
  5
29C8
330
1F
100
AcDbEntity
  8
AM_0
100
AcDbLine
 10
-2.867953660771357
 20
-1.193386461221829
 30
0.0
 11
-2.867953660771357
 21
0.0066135387775332
 31
0.0
  0
LINE
  5
29C9
330
1F
100
AcDbEntity
  8
AM_0
100
AcDbLine
 10
-0.0003804425583136
 20
0.0066135387775332
 30
0.0
 11
-2.867953660771357
 21
0.0066135387775332
 31
0.0
  0
LINE
  5
29CA
330
1F
100
AcDbEntity
  8
AM_0
100
AcDbLine
 10
-0.0003804425583136
 20
-2.291483500079475
 30
0.0
 11
-0.2879776893231798
 21
-4.414667718076637
 31
0.0
  0
LINE
  5
29CB
330
1F
100
AcDbEntity
  8
AM_0
100
AcDbLine
 10
-0.2879776893231798
 20
-4.414667718076637
 30
0.0
 11
-2.867953660771357
 21
-1.193386461221829
 31
0.0
  0
LINE
  5
29CC
330
1F
100
AcDbEntity
  8
AM_0
100
AcDbLine
 10
-0.6390521586107272
 20
-7.257521540074758
 30
0.0
 11
-0.0003804425583136
 21
-7.257521540074758
 31
0.0
  0
LINE
  5
29CD
330
1F
100
AcDbEntity
  8
AM_0
100
AcDbLine
 10
-2.890425881874783
 20
-6.983824455130029
 30
0.0
 11
-2.890425881874783
 21
-6.542796973441095
 31
0.0
  0
LINE
  5
29CE
330
1F
100
AcDbEntity
  8
AM_0
100
AcDbLine
 10
-2.890425881874783
 20
-6.542796973441095
 30
0.0
 11
-1.598279488330796
 21
-6.542796973441095
 31
0.0
  0
ELLIPSE
  5
29D0
330
1F
100
AcDbEntity
  8
AM_0
100
AcDbEllipse
 10
1.353439966610154
 20
-8.894176900568803
 30
0.0
 11
1.663607474913564
 21
0.0000000000000097
 31
0.0
210
0.0
220
0.0
230
1.0
 40
0.939449775087773
 41
2.978080377989203
 42
3.402262833371233
  0
LINE
  5
29D1
330
1F
100
AcDbEntity
  8
AM_0
100
AcDbLine
 10
-0.2879776893231798
 20
-8.86954160920207
 30
0.0
 11
-0.2055746056150935
 21
-7.257521540074758
 31
0.0
  0
LINE
  5
29D2
330
1F
100
AcDbEntity
  8
AM_0
100
AcDbLine
 10
-0.3061306424266251
 20
-8.858185959355392
 30
0.0
 11
-2.890425881874783
 21
-6.983824455130029
 31
0.0
  0
LINE
  5
29D3
330
1F
100
AcDbEntity
  8
AM_0
100
AcDbLine
 10
-0.0003804425583136
 20
-8.462033033098295
 30
0.0
 11
-0.0003804425583136
 21
-2.291483500079475
 31
0.0
  0
ELLIPSE
  5
29D4
330
1F
100
AcDbEntity
  8
AM_0
100
AcDbEllipse
 10
12.69595680115958
 20
-4.689666198154879
 30
0.0
 11
12.98723379169831
 21
0.0000000000001046
 31
0.0
210
0.0
220
0.0
230
1.0
 40
0.939449775087777
 41
3.119051463232146
 42
3.353643463775233
  0
LINE
  5
29D5
330
1F
100
AcDbEntity
  8
AM_11
100
AcDbLine
 10
-0.0003804425583419
 20
9.999999999999996
 30
0.0
 11
-0.0003804425583135
 21
-9.99338646122247
 31
0.0
  0
LINE
  5
29D6
330
1F
100
AcDbEntity
  8
AM_0
100
AcDbLine
 10
-0.0003804425583136
 20
0.05951163299007
 30
0.0
 11
-0.2879776893231798
 21
2.630132770248242
 31
0.0
  0
SPLINE
  5
29D7
330
1F
100
AcDbEntity
  8
AM_0
100
AcDbSpline
210
0.0
220
0.0
230
1.0
 70
     8
 71
     3
 72
     8
 73
     4
 74
     0
 42
0.0000000001
 43
0.0000000001
 40
0.0
 40
0.0
 40
0.0
 40
0.0
 40
1.707928658540872
 40
1.707928658540872
 40
1.707928658540872
 40
1.707928658540872
 10
-8.995007110275336
 20
10.00661353877753
 30
0.0
 10
-10.20701347388023
 20
10.00661353877753
 30
0.0
 10
-11.366788545609
 20
9.838238099217072
 30
0.0
 10
-12.48391717140236
 20
9.532385415229917
 30
0.0
  0
SPLINE
  5
29D8
330
1F
100
AcDbEntity
  8
AM_0
100
AcDbSpline
210
0.0
220
0.0
230
1.0
 70
     8
 71
     3
 72
     8
 73
     4
 74
     0
 42
0.0000000001
 43
0.0000000001
 40
0.0
 40
0.0
 40
0.0
 40
0.0
 40
1.707928658540872
 40
1.707928658540872
 40
1.707928658540872
 40
1.707928658540872
 10
-17.35096206195059
 20
10.00661353877753
 30
0.0
 10
-18.56296842555549
 20
10.00661353877753
 30
0.0
 10
-19.72274349728426
 20
9.838238099217072
 30
0.0
 10
-20.83987212307762
 20
9.532385415229917
 30
0.0
  0
SPLINE
  5
29D9
330
1F
100
AcDbEntity
  8
AM_0
100
AcDbSpline
210
0.0
220
0.0
230
1.0
 70
     8
 71
     3
 72
     8
 73
     4
 74
     0
 42
0.0000000001
 43
0.0000000001
 40
0.0
 40
0.0
 40
0.0
 40
0.0
 40
1.707928658540872
 40
1.707928658540872
 40
1.707928658540872
 40
1.707928658540872
 10
-25.70691701362585
 20
10.00661353877753
 30
0.0
 10
-26.91892337723075
 20
10.00661353877753
 30
0.0
 10
-28.07869844895952
 20
9.838238099217072
 30
0.0
 10
-29.19582707475287
 20
9.532385415229917
 30
0.0
  0
SPLINE
  5
29DA
330
1F
100
AcDbEntity
  8
AM_0
100
AcDbSpline
210
0.0
220
0.0
230
1.0
 70
     8
 71
     3
 72
     8
 73
     4
 74
     0
 42
0.0000000001
 43
0.0000000001
 40
0.0
 40
0.0
 40
0.0
 40
0.0
 40
1.707928658540872
 40
1.707928658540872
 40
1.707928658540872
 40
1.707928658540872
 10
-34.06287196530111
 20
10.00661353877753
 30
0.0
 10
-35.27487832890601
 20
10.00661353877753
 30
0.0
 10
-36.43465340063478
 20
9.838238099217072
 30
0.0
 10
-37.55178202642814
 20
9.532385415229917
 30
0.0
  0
SPLINE
  5
29DB
330
1F
100
AcDbEntity
  8
AM_0
100
AcDbSpline
210
0.0
220
0.0
230
1.0
 70
     8
 71
     3
 72
     8
 73
     4
 74
     0
 42
0.0000000001
 43
0.0000000001
 40
0.0
 40
0.0
 40
0.0
 40
0.0
 40
1.168827779827945
 40
1.168827779827945
 40
1.168827779827945
 40
1.168827779827945
 10
-8.995007110295183
 20
-9.993386461222465
 30
0.0
 10
-8.165565728170541
 20
-9.993386461222465
 30
0.0
 10
-7.360586368807086
 20
-9.914529444922077
 30
0.0
 10
-6.576996987480135
 20
-9.766718611385822
 30
0.0
  0
SPLINE
  5
29DC
330
1F
100
AcDbEntity
  8
AM_0
100
AcDbSpline
210
0.0
220
0.0
230
1.0
 70
     8
 71
     3
 72
     8
 73
     4
 74
     0
 42
0.0000000001
 43
0.0000000001
 40
0.0
 40
0.0
 40
0.0
 40
0.0
 40
1.168827779827945
 40
1.168827779827945
 40
1.168827779827945
 40
1.168827779827945
 10
-17.35096206197092
 20
-9.993386461222465
 30
0.0
 10
-16.52152067984628
 20
-9.993386461222465
 30
0.0
 10
-15.71654132048283
 20
-9.914529444922077
 30
0.0
 10
-14.93295193915539
 20
-9.766718611385822
 30
0.0
  0
SPLINE
  5
29DD
330
1F
100
AcDbEntity
  8
AM_0
100
AcDbSpline
210
0.0
220
0.0
230
1.0
 70
     8
 71
     3
 72
     8
 73
     4
 74
     0
 42
0.0000000001
 43
0.0000000001
 40
0.0
 40
0.0
 40
0.0
 40
0.0
 40
1.229985673975173
 40
1.229985673975173
 40
1.229985673975173
 40
1.229985673975173
 10
-15.02701718438707
 20
-9.767053543754951
 30
0.0
 10
-14.15417600536811
 20
-9.767053543754951
 30
0.0
 10
-13.30764245666506
 20
-9.680588007719601
 30
0.0
 10
-12.48391717140236
 20
-9.51915833767496
 30
0.0
  0
SPLINE
  5
29DE
330
1F
100
AcDbEntity
  8
AM_0
100
AcDbSpline
210
0.0
220
0.0
230
1.0
 70
     8
 71
     3
 72
     8
 73
     4
 74
     0
 42
0.0000000001
 43
0.0000000001
 40
0.0
 40
0.0
 40
0.0
 40
0.0
 40
1.168827779827945
 40
1.168827779827945
 40
1.168827779827945
 40
1.168827779827945
 10
-25.7069170136457
 20
-9.993386461222463
 30
0.0
 10
-24.87747563152106
 20
-9.993386461222463
 30
0.0
 10
-24.0724962721576
 20
-9.914529444922074
 30
0.0
 10
-23.28890689083065
 20
-9.766718611385819
 30
0.0
  0
SPLINE
  5
29DF
330
1F
100
AcDbEntity
  8
AM_0
100
AcDbSpline
210
0.0
220
0.0
230
1.0
 70
     8
 71
     3
 72
     8
 73
     4
 74
     0
 42
0.0000000001
 43
0.0000000001
 40
0.0
 40
0.0
 40
0.0
 40
0.0
 40
1.168827779827945
 40
1.168827779827945
 40
1.168827779827945
 40
1.168827779827945
 10
-34.06287196532096
 20
-9.993386461222463
 30
0.0
 10
-33.23343058319632
 20
-9.993386461222463
 30
0.0
 10
-32.42845122383286
 20
-9.914529444922074
 30
0.0
 10
-31.64486184250591
 20
-9.766718611385819
 30
0.0
  0
SPLINE
  5
29E0
330
1F
100
AcDbEntity
  8
AM_0
100
AcDbSpline
210
0.0
220
0.0
230
1.0
 70
     8
 71
     3
 72
     8
 73
     4
 74
     0
 42
0.0000000001
 43
0.0000000001
 40
0.0
 40
0.0
 40
0.0
 40
0.0
 40
1.229985673975173
 40
1.229985673975173
 40
1.229985673975173
 40
1.229985673975173
 10
-31.73892708773759
 20
-9.767053543754947
 30
0.0
 10
-30.86608590871863
 20
-9.767053543754947
 30
0.0
 10
-30.0195523600151
 20
-9.680588007719599
 30
0.0
 10
-29.19582707475287
 20
-9.519158337674959
 30
0.0
  0
SPLINE
  5
29E1
330
1F
100
AcDbEntity
  8
AM_0
100
AcDbSpline
210
0.0
220
0.0
230
1.0
 70
     8
 71
     3
 72
     8
 73
     4
 74
     0
 42
0.0000000001
 43
0.0000000001
 40
0.0
 40
0.0
 40
0.0
 40
0.0
 40
1.229985673975173
 40
1.229985673975173
 40
1.229985673975173
 40
1.229985673975173
 10
-23.38297213606234
 20
-9.767053543754947
 30
0.0
 10
-22.51013095704336
 20
-9.767053543754947
 30
0.0
 10
-21.66359740833983
 20
-9.680588007719601
 30
0.0
 10
-20.83987212307762
 20
-9.51915833767496
 30
0.0
  0
SPLINE
  5
29E2
330
1F
100
AcDbEntity
  8
AM_0
100
AcDbSpline
210
0.0
220
0.0
230
1.0
 70
     8
 71
     3
 72
     8
 73
     4
 74
     0
 42
0.0000000001
 43
0.0000000001
 40
0.0
 40
0.0
 40
0.0
 40
0.0
 40
9.307120929696711
 40
9.307120929696711
 40
9.307120929696711
 40
9.307120929696711
 10
-8.995007110275336
 20
-9.993386461222465
 30
0.0
 10
-15.5996681054677
 20
-9.993386461222465
 30
0.0
 10
-20.6532925595521
 20
-4.993386461222464
 30
0.0
 10
-25.7069170136365
 20
0.0066135387775366
 30
0.0
  0
SPLINE
  5
29E3
330
1F
100
AcDbEntity
  8
AM_0
100
AcDbSpline
210
0.0
220
0.0
230
1.0
 70
     8
 71
     3
 72
     8
 73
     4
 74
     0
 42
0.0000000001
 43
0.0000000001
 40
0.0
 40
0.0
 40
0.0
 40
0.0
 40
9.246817942408453
 40
9.246817942408453
 40
9.246817942408453
 40
9.246817942408453
 10
-15.02701718436674
 20
-9.767053543754951
 30
0.0
 10
-21.5888850546986
 20
-9.767053543754951
 30
0.0
 10
-26.66390607121351
 20
-4.880220002488705
 30
0.0
 10
-31.7389270877284
 20
0.0066135387775366
 30
0.0
  0
SPLINE
  5
29E4
330
1F
100
AcDbEntity
  8
AM_0
100
AcDbSpline
210
0.0
220
0.0
230
1.0
 70
     8
 71
     3
 72
     8
 73
     4
 74
     0
 42
0.0000000001
 43
0.0000000001
 40
0.0
 40
0.0
 40
0.0
 40
0.0
 40
9.307120929696711
 40
9.307120929696711
 40
9.307120929696711
 40
9.307120929696711
 10
-17.35096206195059
 20
-9.993386461222465
 30
0.0
 10
-23.95562305714296
 20
-9.993386461222465
 30
0.0
 10
-29.00924751122735
 20
-4.993386461222464
 30
0.0
 10
-34.06287196531175
 20
0.0066135387775377
 30
0.0
  0
SPLINE
  5
29E5
330
1F
100
AcDbEntity
  8
AM_0
100
AcDbSpline
210
0.0
220
0.0
230
1.0
 70
     8
 71
     3
 72
     8
 73
     4
 74
     0
 42
0.0000000001
 43
0.0000000001
 40
0.0
 40
0.0
 40
0.0
 40
0.0
 40
9.246817942408453
 40
9.246817942408453
 40
9.246817942408453
 40
9.246817942408453
 10
-6.671062232691975
 20
-9.767053543754951
 30
0.0
 10
-13.23293010302383
 20
-9.767053543754951
 30
0.0
 10
-18.30795111953873
 20
-4.880220002488707
 30
0.0
 10
-23.38297213605363
 20
0.0066135387775355
 30
0.0
  0
SPLINE
  5
29E6
330
1F
100
AcDbEntity
  8
AM_0
100
AcDbSpline
210
0.0
220
0.0
230
1.0
 70
     8
 71
     3
 72
     8
 73
     4
 74
     0
 42
0.0000000001
 43
0.0000000001
 40
0.0
 40
0.0
 40
0.0
 40
0.0
 40
9.246817942408229
 40
9.246817942408229
 40
9.246817942408229
 40
9.246817942408229
 10
-31.73892708773905
 20
9.780280621309907
 30
0.0
 10
-25.17705921740734
 20
9.780280621309902
 30
0.0
 10
-20.10203820089261
 20
4.893447080043719
 30
0.0
 10
-15.02701718437788
 20
0.0066135387775355
 30
0.0
  0
SPLINE
  5
29E7
330
1F
100
AcDbEntity
  8
AM_0
100
AcDbSpline
210
0.0
220
0.0
230
1.0
 70
     8
 71
     3
 72
     8
 73
     4
 74
     0
 42
0.0000000001
 43
0.0000000001
 40
0.0
 40
0.0
 40
0.0
 40
0.0
 40
9.307120929696711
 40
9.307120929696711
 40
9.307120929696711
 40
9.307120929696711
 10
-34.0628719653224
 20
10.00661353877753
 30
0.0
 10
-27.45821097013005
 20
10.00661353877753
 30
0.0
 10
-22.40458651604565
 20
5.006613538777534
 30
0.0
 10
-17.35096206196124
 20
0.0066135387775355
 30
0.0
  0
SPLINE
  5
29E8
330
1F
100
AcDbEntity
  8
AM_0
100
AcDbSpline
210
0.0
220
0.0
230
1.0
 70
     8
 71
     3
 72
     8
 73
     4
 74
     0
 42
0.0000000001
 43
0.0000000001
 40
0.0
 40
0.0
 40
0.0
 40
0.0
 40
9.307120929696711
 40
9.307120929696711
 40
9.307120929696711
 40
9.307120929696711
 10
-25.70691701364715
 20
10.00661353877753
 30
0.0
 10
-19.10225601845478
 20
10.00661353877753
 30
0.0
 10
-14.04863156437038
 20
5.006613538777534
 30
0.0
 10
-8.995007110285987
 20
0.0066135387775343
 30
0.0
  0
SPLINE
  5
29E9
330
1F
100
AcDbEntity
  8
AM_0
100
AcDbSpline
210
0.0
220
0.0
230
1.0
 70
     8
 71
     3
 72
     8
 73
     4
 74
     0
 42
0.0000000001
 43
0.0000000001
 40
0.0
 40
0.0
 40
0.0
 40
0.0
 40
9.246817942408423
 40
9.246817942408423
 40
9.246817942408423
 40
9.246817942408423
 10
-23.38297213606379
 20
9.780280621309907
 30
0.0
 10
-16.82110426573195
 20
9.780280621309902
 30
0.0
 10
-11.74608324921704
 20
4.893447080043719
 30
0.0
 10
-6.671062232702141
 20
0.0066135387775343
 30
0.0
  0
SPLINE
  5
29FB
330
1F
100
AcDbEntity
  8
AM_0
100
AcDbSpline
210
0.0
220
0.0
230
1.0
 70
     8
 71
     3
 72
     8
 73
     4
 74
     0
 42
0.0000000001
 43
0.0000000001
 40
0.0
 40
0.0
 40
0.0
 40
0.0
 40
1.168827779827945
 40
1.168827779827945
 40
1.168827779827945
 40
1.168827779827945
 10
-42.41882691699671
 20
-9.999999999999991
 30
0.0
 10
-41.58938553487206
 20
-9.99338646122246
 30
0.0
 10
-40.7844061755086
 20
-9.914529444922072
 30
0.0
 10
-40.00081679418117
 20
-9.766718611385817
 30
0.0
  0
LINE
  5
29FD
330
1F
100
AcDbEntity
  8
AM_11
 48
0.5
100
AcDbLine
 10
-40.00081679616633
 20
10.00661353877753
 30
0.0
 11
-40.00081679616631
 21
-9.99338646122247
 31
0.0
  0
SPLINE
  5
2A12
330
1F
100
AcDbEntity
  8
AM_0
100
AcDbSpline
210
0.0
220
0.0
230
1.0
 70
     8
 71
     3
 72
     8
 73
     4
 74
     0
 42
0.0000000001
 43
0.0000000001
 40
0.0
 40
0.0
 40
0.0
 40
0.0
 40
8.073267131986114
 40
8.073267131986114
 40
8.073267131986114
 40
8.073267131986114
 10
-25.70691701362585
 20
-9.993386461222463
 30
0.0
 10
-31.43599187288362
 20
-9.993386461222463
 30
0.0
 10
-35.99801539223227
 20
-6.231220616066278
 30
0.0
 10
-40.40532181498927
 20
-1.970300897319416
 30
0.0
  0
SPLINE
  5
2A13
330
1F
100
AcDbEntity
  8
AM_0
100
AcDbSpline
210
0.0
220
0.0
230
1.0
 70
     8
 71
     3
 72
     8
 73
     4
 74
     0
 42
0.0000000001
 43
0.0000000001
 40
0.0
 40
0.0
 40
0.0
 40
0.0
 40
9.246817942408453
 40
9.246817942408453
 40
9.246817942408453
 40
9.246817942408453
 10
-23.38297213604201
 20
-9.767053543754947
 30
0.0
 10
-29.94484000637386
 20
-9.767053543754947
 30
0.0
 10
-35.01986102288876
 20
-4.880220002488704
 30
0.0
 10
-40.09488203940366
 20
0.0066135387775377
 30
0.0
  0
SPLINE
  5
2A14
330
1F
100
AcDbEntity
  8
AM_0
100
AcDbSpline
210
0.0
220
0.0
230
1.0
 70
     8
 71
     3
 72
     8
 73
     4
 74
     0
 42
0.0000000001
 43
0.0000000001
 40
0.1961179252418373
 40
0.1961179252418373
 40
0.1961179252418373
 40
0.1961179252418373
 40
9.307120929696711
 40
9.307120929696711
 40
9.307120929696711
 40
9.307120929696711
 10
-42.00336191218476
 20
9.999999999996827
 30
0.0
 10
-35.60118784826936
 20
9.795895394333882
 30
0.0
 10
-30.65405243095292
 20
4.90125446655571
 30
0.0
 10
-25.7069170136365
 20
0.0066135387775366
 30
0.0
  0
SPLINE
  5
2A15
330
1F
100
AcDbEntity
  8
AM_0
100
AcDbSpline
210
0.0
220
0.0
230
1.0
 70
     8
 71
     3
 72
     8
 73
     4
 74
     0
 42
0.0000000001
 43
0.0000000001
 40
0.0
 40
0.0
 40
0.0
 40
0.0
 40
9.246817942408423
 40
9.246817942408423
 40
9.246817942408423
 40
9.246817942408423
 10
-40.09488203941478
 20
9.780280621309907
 30
0.0
 10
-33.53301416908295
 20
9.780280621309907
 30
0.0
 10
-28.45799315256804
 20
4.893447080043721
 30
0.0
 10
-23.38297213605314
 20
0.0066135387775355
 30
0.0
  0
SPLINE
  5
2A16
330
1F
100
AcDbEntity
  8
AM_0
100
AcDbSpline
210
0.0
220
0.0
230
1.0
 70
     8
 71
     3
 72
     8
 73
     4
 74
     0
 42
0.0000000001
 43
0.0000000001
 40
0.0
 40
0.0
 40
0.0
 40
0.0
 40
4.256691489953096
 40
4.256691489953096
 40
4.256691489953096
 40
4.256691489953096
 10
-31.73892708771775
 20
-9.767053543754947
 30
0.0
 10
-34.75962537504264
 20
-9.767053543754947
 30
0.0
 10
-37.46523993494074
 20
-8.731464892816504
 30
0.0
 10
-40.00081679616636
 20
-7.137011738099967
 30
0.0
  0
SPLINE
  5
2A17
330
1F
100
AcDbEntity
  8
AM_0
100
AcDbSpline
210
0.0
220
0.0
230
1.0
 70
     8
 71
     3
 72
     8
 73
     4
 74
     0
 42
0.0000000001
 43
0.0000000001
 40
0.0
 40
0.0
 40
0.0
 40
0.0
 40
3.663941333440355
 40
3.663941333440355
 40
3.663941333440355
 40
3.663941333440355
 10
-34.06287196530111
 20
-9.993386461222463
 30
0.0
 10
-36.66293385301477
 20
-9.993386461222463
 30
0.0
 10
-39.02262127153113
 20
-9.218503140209278
 30
0.0
 10
-41.23656261988449
 20
-7.973785401049829
 30
0.0
  0
SPLINE
  5
2A18
330
1F
100
AcDbEntity
  8
AM_0
100
AcDbSpline
210
0.0
220
0.0
230
1.0
 70
     8
 71
     3
 72
     8
 73
     4
 74
     0
 42
0.0000000001
 43
0.0000000001
 40
5.716542545374528
 40
5.716542545374528
 40
5.716542545374528
 40
5.716542545374528
 40
9.307120929696711
 40
9.307120929696711
 40
9.307120929696711
 40
9.307120929696711
 10
-40.0008167961733
 20
5.50634866762981
 30
0.0
 10
-37.96213036420498
 20
3.864496563446893
 30
0.0
 10
-36.01250116475837
 20
1.935555051112215
 30
0.0
 10
-34.06287196531175
 20
0.0066135387775377
 30
0.0
  0
SPLINE
  5
2A19
330
1F
100
AcDbEntity
  8
AM_0
100
AcDbSpline
210
0.0
220
0.0
230
1.0
 70
     8
 71
     3
 72
     8
 73
     4
 74
     0
 42
0.0000000001
 43
0.0000000001
 40
2.787726198044073
 40
2.787726198044073
 40
2.787726198044073
 40
2.787726198044073
 40
9.246817942408423
 40
9.246817942408423
 40
9.246817942408423
 40
9.246817942408423
 10
-42.88070707227548
 20
8.581695495399344
 30
0.0
 10
-38.82893936101142
 20
6.833720199483335
 30
0.0
 10
-35.28393322436967
 20
3.420166869130434
 30
0.0
 10
-31.73892708772791
 20
0.0066135387775366
 30
0.0
  0
SPLINE
  5
2A1A
330
1F
100
AcDbEntity
  8
AM_0
100
AcDbSpline
210
0.0
220
0.0
230
1.0
 70
     8
 71
     3
 72
     8
 73
     4
 74
     0
 42
0.0000000001
 43
0.0000000001
 40
0.0
 40
0.0
 40
0.0
 40
0.0
 40
3.208811545131809
 40
3.208811545131809
 40
3.208811545131809
 40
3.208811545131809
 10
-6.671062232711822
 20
9.780280621310016
 30
0.0
 10
-4.393976481581977
 20
9.780280621310016
 30
0.0
 10
-2.295938966692872
 20
9.191801098943319
 30
0.0
 10
-0.314816741211996
 20
8.219054995051369
 30
0.0
  0
SPLINE
  5
2A1B
330
1F
100
AcDbEntity
  8
AM_0
100
AcDbSpline
210
0.0
220
0.0
230
1.0
 70
     8
 71
     3
 72
     8
 73
     4
 74
     0
 42
0.0000000001
 43
0.0000000001
 40
5.407991289528681
 40
5.407991289528681
 40
5.407991289528681
 40
5.407991289528681
 40
9.246817942408341
 40
9.246817942408341
 40
9.246817942408341
 40
9.246817942408341
 10
-0.2439744557930749
 20
-5.730049299977604
 30
0.0
 10
-2.457261103825703
 20
-4.050935114876079
 30
0.0
 10
-4.564161668263921
 20
-2.022160788049272
 30
0.0
 10
-6.671062232702624
 20
0.0066135387775343
 30
0.0
  0
SPLINE
  5
2A1C
330
1F
100
AcDbEntity
  8
AM_0
100
AcDbSpline
210
0.0
220
0.0
230
1.0
 70
     8
 71
     3
 72
     8
 73
     4
 74
     0
 42
0.0000000001
 43
0.0000000001
 40
0.0
 40
0.0
 40
0.0
 40
0.0
 40
1.229985673975173
 40
1.229985673975173
 40
1.229985673975173
 40
1.229985673975173
 10
-6.671062232711822
 20
-9.767053543754951
 30
0.0
 10
-5.798221053692852
 20
-9.767053543754951
 30
0.0
 10
-4.951687504989323
 20
-9.680588007719602
 30
0.0
 10
-4.127962219727104
 20
-9.519158337674962
 30
0.0
  0
LINE
  5
2A1D
330
1F
100
AcDbEntity
  8
AM_11
100
AcDbLine
 10
-0.000380442558342
 20
10.00661353877753
 30
0.0
 11
-40.00081679616633
 21
10.00661353877754
 31
0.0
  0
LINE
  5
2A1E
330
1F
100
AcDbEntity
  8
AM_11
100
AcDbLine
 10
-40.00081679616631
 20
-9.99338646122246
 30
0.0
 11
-0.0003804425583136
 21
-9.99338646122247
 31
0.0
  0
SPLINE
  5
2A1F
330
1F
100
AcDbEntity
  8
AM_0
100
AcDbSpline
210
0.0
220
0.0
230
1.0
 70
     8
 71
     3
 72
     8
 73
     4
 74
     0
 42
0.0000000001
 43
0.0000000001
 40
4.323648603745047
 40
4.323648603745047
 40
4.323648603745047
 40
4.323648603745047
 40
9.307120929696758
 40
9.307120929696758
 40
9.307120929696758
 40
9.307120929696758
 10
-0.6390521586097594
 20
-7.257521540074758
 30
0.0
 10
-3.583108457002994
 20
-5.347858981344737
 30
0.0
 10
-6.289057783644732
 20
-2.670622721283602
 30
0.0
 10
-8.995007110285987
 20
0.0066135387775343
 30
0.0
  0
SPLINE
  5
2A20
330
1F
100
AcDbEntity
  8
AM_0
100
AcDbSpline
210
0.0
220
0.0
230
1.0
 70
     8
 71
     3
 72
     8
 73
     4
 74
     0
 42
0.0000000001
 43
0.0000000001
 40
0.4555330620747101
 40
0.4555330620747101
 40
0.4555330620747101
 40
0.4555330620747101
 40
9.307120929696711
 40
9.307120929696711
 40
9.307120929696711
 40
9.307120929696711
 10
-1.59787410390426
 20
-9.958039143528235
 30
0.0
 10
-7.738408138317529
 20
-9.503940728739054
 30
0.0
 10
-12.54468510013938
 20
-4.74866359498076
 30
0.0
 10
-17.35096206196124
 20
0.0066135387775355
 30
0.0
  0
SPLINE
  5
2A21
330
1F
100
AcDbEntity
  8
AM_0
100
AcDbSpline
210
0.0
220
0.0
230
1.0
 70
     8
 71
     3
 72
     8
 73
     4
 74
     0
 42
0.0000000001
 43
0.0000000001
 40
1.0545992191549
 40
1.0545992191549
 40
1.0545992191549
 40
1.0545992191549
 40
9.246817942408316
 40
9.246817942408316
 40
9.246817942408316
 40
9.246817942408316
 10
-0.5044353115786016
 20
-9.583608225989118
 30
0.0
 10
-6.034587042172903
 20
-8.65236720108921
 30
0.0
 10
-10.53080211327539
 20
-4.322876831155838
 30
0.0
 10
-15.02701718437788
 20
0.0066135387775355
 30
0.0
  0
SPLINE
  5
2A22
330
1F
100
AcDbEntity
  8
AM_0
100
AcDbSpline
210
0.0
220
0.0
230
1.0
 70
     8
 71
     3
 72
     8
 73
     4
 74
     0
 42
0.0000000001
 43
0.0000000001
 40
0.0
 40
0.0
 40
0.0
 40
0.0
 40
4.323648603744882
 40
4.323648603744882
 40
4.323648603744882
 40
4.323648603744882
 10
-8.995007110295183
 20
10.00661353877753
 30
0.0
 10
-5.926793695450896
 20
10.00661353877753
 30
0.0
 10
-3.193308322049547
 20
8.927567260462769
 30
0.0
 10
-0.6390521586097594
 20
7.270748617630281
 30
0.0
  0
SPLINE
  5
2A23
330
1F
100
AcDbEntity
  8
AM_0
100
AcDbSpline
210
0.0
220
0.0
230
1.0
 70
     8
 71
     3
 72
     8
 73
     4
 74
     0
 42
0.0000000001
 43
0.0000000001
 40
0.0
 40
0.0
 40
0.0
 40
0.0
 40
8.106327806688073
 40
8.106327806688073
 40
8.106327806688073
 40
8.106327806688073
 10
-15.02701718438805
 20
9.780280621309902
 30
0.0
 10
-9.27448130530165
 20
9.780280621309902
 30
0.0
 10
-4.66463942880151
 20
6.024577493641932
 30
0.0
 10
-0.1957358995486394
 20
1.805650974265194
 30
0.0
  0
SPLINE
  5
2A24
330
1F
100
AcDbEntity
  8
AM_0
100
AcDbSpline
210
0.0
220
0.0
230
1.0
 70
     8
 71
     3
 72
     8
 73
     4
 74
     0
 42
0.0000000001
 43
0.0000000001
 40
0.0
 40
0.0
 40
0.0
 40
0.0
 40
9.307120929696711
 40
9.307120929696711
 40
9.307120929696711
 40
9.307120929696711
 10
-17.35096206197092
 20
10.00661353877753
 30
0.0
 10
-10.74630106677855
 20
10.00661353877753
 30
0.0
 10
-5.692676612694157
 20
5.006613538777534
 30
0.0
 10
-0.6390521586097594
 20
0.0066135387775332
 30
0.0
  0
DIMENSION
  5
2A25
330
1F
100
AcDbEntity
  8
AM_5
100
AcDbDimension
  2
*D8
 10
-0.0003804425583148
 20
-27.50000125000142
 30
0.0
 11
-20.00059861936231
 21
-24.40000125000142
 31
0.0
 70
    32
  1
<>
  3
AM_JIS
100
AcDbAlignedDimension
 13
-40.00081679616631
 23
-10.0
 33
0.0
 14
-0.0003804425583138
 24
-10.00000000002636
 34
0.0
 50
359.9999999999992
100
AcDbRotatedDimension
1001
GENIUS_GENDTOL_13
1000

1000
H7
1000

1040
0.0
  0
ARC
  5
2A57
330
1F
100
AcDbEntity
  8
AM_0
100
AcDbCircle
 10
-1.499593406322513
 20
-8.461262304953329
 30
0.0
 40
1.5
100
AcDbArc
 50
262.9694940233358
 51
0.0
  0
ARC
  5
2A77
330
1F
100
AcDbEntity
  8
AM_0
100
AcDbCircle
 10
-1.499593406322513
 20
8.474624628911556
 30
0.0
 40
1.5
100
AcDbArc
 50
0.0
 51
97.00714112051763
  0
POLYLINE
  5
2AE3
330
1F
100
AcDbEntity
  8
AM_0
100
AcDb2dPolyline
 66
     1
 10
0.0
 20
0.0
 30
0.0
 70
     2
  0
VERTEX
  5
2AE4
330
2AE3
100
AcDbEntity
  8
AM_0
100
AcDbVertex
100
AcDb2dVertex
 10
-40.00081679616638
 20
-7.137011738099999
 30
0.0
 42
-0.0178156365317552
  0
VERTEX
  5
2AE5
330
2AE3
100
AcDbEntity
  8
AM_0
100
AcDbVertex
100
AcDb2dVertex
 10
-41.01167361563542
 20
-6.205005149919365
 30
0.0
 42
-0.0331959452416026
 70
     1
  0
VERTEX
  5
2AE6
330
2AE3
100
AcDbEntity
  8
AM_0
100
AcDbVertex
100
AcDb2dVertex
 10
-41.50081679616638
 20
-5.651743507481265
 30
0.0
 42
-0.0146039106870926
  0
VERTEX
  5
2AE7
330
2AE3
100
AcDbEntity
  8
AM_0
100
AcDbVertex
100
AcDb2dVertex
 10
-42.76236348175793
 20
-3.915642292528177
 30
0.0
 42
-0.0223520491893001
 70
     1
  0
VERTEX
  5
2AE8
330
2AE3
100
AcDbEntity
  8
AM_0
100
AcDbVertex
100
AcDb2dVertex
 10
-43.50081679616639
 20
-2.723241839999013
 30
0.0
 42
-0.0441009200707103
  0
VERTEX
  5
2AE9
330
2AE3
100
AcDbEntity
  8
AM_0
100
AcDbVertex
100
AcDb2dVertex
 10
-43.92839350190558
 20
-1.770002196759109
 30
0.0
 42
-0.0936531610333872
 70
     1
  0
VERTEX
  5
2AEA
330
2AE3
100
AcDbEntity
  8
AM_0
100
AcDbVertex
100
AcDb2dVertex
 10
-44.00081679616639
 20
-1.280008403135493
 30
0.0
 42
-0.1702954566684844
  0
VERTEX
  5
2AEB
330
2AE3
100
AcDbEntity
  8
AM_0
100
AcDbVertex
100
AcDb2dVertex
 10
-43.87293404958845
 20
-0.9573745046772938
 30
0.0
 42
-0.1297006245562602
 70
     1
  0
VERTEX
  5
2AEC
330
2AE3
100
AcDbEntity
  8
AM_0
100
AcDbVertex
100
AcDb2dVertex
 10
-43.50081679616639
 20
-0.7038284730811956
 30
0.0
 42
-0.1520873745504847
  0
VERTEX
  5
2AED
330
2AE3
100
AcDbEntity
  8
AM_0
100
AcDbVertex
100
AcDb2dVertex
 10
-42.99747086525001
 20
-0.6845490873393186
 30
0.0
 42
-0.046970576622812
 70
     1
  0
VERTEX
  5
2AEE
330
2AE3
100
AcDbEntity
  8
AM_0
100
AcDbVertex
100
AcDb2dVertex
 10
-41.50081679616639
 20
-1.243540832835806
 30
0.0
 42
-0.0471052227454502
  0
VERTEX
  5
2AEF
330
2AE3
100
AcDbEntity
  8
AM_0
100
AcDbVertex
100
AcDb2dVertex
 10
-40.72020080951439
 20
-1.717281045971269
 30
0.0
 42
-0.0445950027858137
 70
     1
  0
VERTEX
  5
2AF0
330
2AE3
100
AcDbEntity
  8
AM_0
100
AcDbVertex
100
AcDb2dVertex
 10
-40.00081679616639
 20
-2.359433122644719
 30
0.0
  0
SEQEND
  5
2AF1
330
2AE3
100
AcDbEntity
  8
AM_0
  0
POLYLINE
  5
2AF3
330
1F
100
AcDbEntity
  8
AM_0
100
AcDb2dPolyline
 66
     1
 10
0.0
 20
0.0
 30
0.0
  0
VERTEX
  5
2AF4
330
2AF3
100
AcDbEntity
  8
AM_0
100
AcDbVertex
100
AcDb2dVertex
 10
-40.00081679616638
 20
-9.76671861029146
 30
0.0
 42
-0.0221539577337636
  0
VERTEX
  5
2AF5
330
2AF3
100
AcDbEntity
  8
AM_0
100
AcDbVertex
100
AcDb2dVertex
 10
-40.92077417656268
 20
-9.558673593891784
 30
0.0
 42
-0.0340466909705598
  0
VERTEX
  5
2AF6
330
2AF3
100
AcDbEntity
  8
AM_0
100
AcDbVertex
100
AcDb2dVertex
 10
-41.50081679591018
 20
-9.35689608772583
 30
0.0
 42
-0.0203576778786898
  0
VERTEX
  5
2AF7
330
2AF3
100
AcDbEntity
  8
AM_0
100
AcDbVertex
100
AcDb2dVertex
 10
-42.85590486927928
 20
-8.713060598205291
 30
0.0
 42
-0.0400624909263087
  0
VERTEX
  5
2AF8
330
2AF3
100
AcDbEntity
  8
AM_0
100
AcDbVertex
100
AcDb2dVertex
 10
-43.50081679591019
 20
-8.304822028817905
 30
0.0
 42
-0.0663150629504314
  0
VERTEX
  5
2AF9
330
2AF3
100
AcDbEntity
  8
AM_0
100
AcDbVertex
100
AcDb2dVertex
 10
-43.94886512340811
 20
-7.864360007711609
 30
0.0
 42
-0.2076691274107043
  0
VERTEX
  5
2AFA
330
2AF3
100
AcDbEntity
  8
AM_0
100
AcDbVertex
100
AcDb2dVertex
 10
-44.00081679616638
 20
-7.662570492475617
 30
0.0
 42
-0.2374584988068722
  0
VERTEX
  5
2AFB
330
2AF3
100
AcDbEntity
  8
AM_0
100
AcDbVertex
100
AcDb2dVertex
 10
-43.89613605268933
 20
-7.517117059113237
 30
0.0
 42
-0.0987776704921028
  0
VERTEX
  5
2AFC
330
2AF3
100
AcDbEntity
  8
AM_0
100
AcDbVertex
100
AcDb2dVertex
 10
-43.50081679616638
 20
-7.401820474568358
 30
0.0
 42
-0.0800554842556619
  0
VERTEX
  5
2AFD
330
2AF3
100
AcDbEntity
  8
AM_0
100
AcDbVertex
100
AcDb2dVertex
 10
-43.0113629898637
 20
-7.437566980722627
 30
0.0
 42
-0.0248354955603466
  0
VERTEX
  5
2AFE
330
2AF3
100
AcDbEntity
  8
AM_0
100
AcDbVertex
100
AcDb2dVertex
 10
-41.50081679616638
 20
-7.875752488861516
 30
0.0
 42
-0.0116235723303201
  0
VERTEX
  5
2AFF
330
2AF3
100
AcDbEntity
  8
AM_0
100
AcDbVertex
100
AcDb2dVertex
 10
-41.23655558448549
 20
-7.973788198853781
 30
0.0
 42
-0.0249611087696398
  0
SEQEND
  5
2B00
330
2AF3
100
AcDbEntity
  8
AM_0
  0
SPLINE
  5
2B02
330
1F
100
AcDbEntity
  8
AM_0
100
AcDbSpline
210
0.0
220
0.0
230
1.0
 70
     8
 71
     3
 72
     8
 73
     4
 74
     0
 42
0.0000000001
 43
0.0000000001
 40
0.0
 40
0.0
 40
0.0
 40
0.0
 40
1.229985673975173
 40
1.229985673975173
 40
1.229985673975173
 40
1.229985673975173
 10
-40.00259303049369
 20
-9.767053543754947
 30
0.0
 10
-39.22204215801422
 20
-9.767053543754947
 30
0.0
 10
-38.37551001983123
 20
-9.680588007719602
 30
0.0
 10
-37.55178610708478
 20
-9.519158337674962
 30
0.0
  0
POLYLINE
  5
2B03
330
1F
100
AcDbEntity
  8
AM_0
100
AcDb2dPolyline
 66
     1
 10
0.0
 20
0.0
 30
0.0
 70
     2
  0
VERTEX
  5
2B04
330
2B03
100
AcDbEntity
  8
AM_0
100
AcDbVertex
100
AcDb2dVertex
 10
-40.09488203940366
 20
0.0066135387775397
 30
0.0
 42
-0.01303855722906
  0
VERTEX
  5
2B05
330
2B03
100
AcDbEntity
  8
AM_0
100
AcDbVertex
100
AcDb2dVertex
 10
-41.08345994863379
 20
1.095723574229119
 30
0.0
 42
-0.0248093973610095
 70
     1
  0
VERTEX
  5
2B06
330
2B03
100
AcDbEntity
  8
AM_0
100
AcDbVertex
100
AcDb2dVertex
 10
-41.54784933941787
 20
1.691658767475558
 30
0.0
 42
-0.0083836245974647
  0
VERTEX
  5
2B07
330
2B03
100
AcDbEntity
  8
AM_0
100
AcDbVertex
100
AcDb2dVertex
 10
-42.81104495566977
 20
3.555646748936938
 30
0.0
 42
-0.0143113302193792
 70
     1
  0
VERTEX
  5
2B08
330
2B03
100
AcDbEntity
  8
AM_0
100
AcDbVertex
100
AcDb2dVertex
 10
-43.5008167961664
 20
4.680178363348296
 30
0.0
 42
-0.0388452244960751
  0
VERTEX
  5
2B09
330
2B03
100
AcDbEntity
  8
AM_0
100
AcDbVertex
100
AcDb2dVertex
 10
-43.92975610925839
 20
5.582082991483113
 30
0.0
 42
-0.0958601720223094
 70
     1
  0
VERTEX
  5
2B0A
330
2B03
100
AcDbEntity
  8
AM_0
100
AcDbVertex
100
AcDb2dVertex
 10
-44.0008167961664
 20
5.983652730523008
 30
0.0
 42
-0.1958397271905712
  0
VERTEX
  5
2B0B
330
2B03
100
AcDbEntity
  8
AM_0
100
AcDbVertex
100
AcDb2dVertex
 10
-43.89480982691066
 20
6.232454639131471
 30
0.0
 42
-0.1110351864371754
 70
     1
  0
VERTEX
  5
2B0C
330
2B03
100
AcDbEntity
  8
AM_0
100
AcDbVertex
100
AcDb2dVertex
 10
-43.50081679616641
 20
6.479507498520102
 30
0.0
 42
-0.1149197439922528
  0
VERTEX
  5
2B0D
330
2B03
100
AcDbEntity
  8
AM_0
100
AcDbVertex
100
AcDb2dVertex
 10
-42.96599347354717
 20
6.538615034077044
 30
0.0
 42
-0.0408875130900929
 70
     1
  0
VERTEX
  5
2B0E
330
2B03
100
AcDbEntity
  8
AM_0
100
AcDbVertex
100
AcDb2dVertex
 10
-41.50081679616641
 20
6.240855467071104
 30
0.0
 42
-0.0433088016869432
  0
VERTEX
  5
2B0F
330
2B03
100
AcDbEntity
  8
AM_0
100
AcDbVertex
100
AcDb2dVertex
 10
-40.76887039823198
 20
5.957981386481244
 30
0.0
 42
-0.0381261598452643
 70
     1
  0
VERTEX
  5
2B10
330
2B03
100
AcDbEntity
  8
AM_0
100
AcDbVertex
100
AcDb2dVertex
 10
-40.0008167961664
 20
5.506348667625015
 30
0.0
  0
SEQEND
  5
2B11
330
2B03
100
AcDbEntity
  8
AM_0
  0
POLYLINE
  5
2B12
330
1F
100
AcDbEntity
  8
AM_0
100
AcDb2dPolyline
 66
     1
 10
0.0
 20
0.0
 30
0.0
  0
VERTEX
  5
2B13
330
2B12
100
AcDbEntity
  8
AM_0
100
AcDbVertex
100
AcDb2dVertex
 10
-42.88070707227548
 20
8.581695495399348
 30
0.0
 42
-0.0145849025925099
  0
VERTEX
  5
2B14
330
2B12
100
AcDbEntity
  8
AM_0
100
AcDbVertex
100
AcDb2dVertex
 10
-43.50081679616641
 20
9.047565915497425
 30
0.0
 42
-0.0050435334132596
  0
VERTEX
  5
2B15
330
2B12
100
AcDbEntity
  8
AM_0
100
AcDbVertex
100
AcDb2dVertex
 10
-43.99658065112075
 20
9.45140749899879
 30
0.0
 42
-0.2742987476584449
  0
VERTEX
  5
2B16
330
2B12
100
AcDbEntity
  8
AM_0
100
AcDbVertex
100
AcDb2dVertex
 10
-44.00081679616641
 20
9.46331808548512
 30
0.0
 42
-0.2776516060307496
  0
VERTEX
  5
2B17
330
2B12
100
AcDbEntity
  8
AM_0
100
AcDbVertex
100
AcDb2dVertex
 10
-43.95266344157017
 20
9.516546867479268
 30
0.0
 42
-0.0400827094855082
  0
VERTEX
  5
2B18
330
2B12
100
AcDbEntity
  8
AM_0
100
AcDbVertex
100
AcDb2dVertex
 10
-43.50081679590754
 20
9.614573832545099
 30
0.0
 42
-0.0136313623974274
  0
VERTEX
  5
2B19
330
2B12
100
AcDbEntity
  8
AM_0
100
AcDbVertex
100
AcDb2dVertex
 10
-43.03786920510714
 20
9.663949461501115
 30
0.0
 42
-0.0041179133630786
  0
VERTEX
  5
2B1A
330
2B12
100
AcDbEntity
  8
AM_0
100
AcDbVertex
100
AcDb2dVertex
 10
-41.50081679590754
 20
9.772887634182776
 30
0.0
 42
-0.0144548307118866
  0
VERTEX
  5
2B1B
330
2B12
100
AcDbEntity
  8
AM_0
100
AcDbVertex
100
AcDb2dVertex
 10
-40.9689161553494
 20
9.790773138050777
 30
0.0
 42
-0.0079447181452264
  0
VERTEX
  5
2B1C
330
2B12
100
AcDbEntity
  8
AM_0
100
AcDbVertex
100
AcDb2dVertex
 10
-40.0008167961664
 20
9.779945689315056
 30
0.0
  0
SEQEND
  5
2B1D
330
2B12
100
AcDbEntity
  8
AM_0
  0
DIMENSION
  5
2B33
330
1F
100
AcDbEntity
  8
AM_5
100
AcDbDimension
  2
*D10
 10
-1.499593406322514
 20
-8.461262304953329
 30
0.0
 11
9.125478597032209
 21
-15.98988186614938
 31
0.0
 70
    36
  1
<>
  3
AM_JIS$4
100
AcDbRadialDimension
 15
-0.5173295255497985
 25
-9.59491025230265
 35
0.0
 40
0.0
1001
GENIUS_GENDTOL_13
1000

1000
h7
1000

1040
0.0
1001
ACAD
1000
DSTYLE
1002
{
1070
   287
1070
     3
1070
   271
1070
     3
1070
   288
1070
     1
1070
   289
1070
     3
1070
   172
1070
     1
1070
    74
1070
     0
1002
}
  0
VIEWPORT
  5
110
330
101
100
AcDbEntity
 67
     1
  8
0
100
AcDbViewport
 10
420.5
 20
297.0
 30
0.0
 40
948.9782706766916
 41
628.452
 68
     1
 69
     1
1001
ACAD
1000
MVIEW
1002
{
1070
    16
1010
0.0
1020
0.0
1030
0.0
1010
0.0
1020
0.0
1030
1.0
1040
0.0
1040
628.452
1040
420.5
1040
297.0
1040
50.0
1040
0.0
1040
0.0
1070
     0
1070
   100
1070
     1
1070
     1
1070
     0
1070
     0
1070
     0
1070
     0
1040
0.0
1040
0.0
1040
0.0
1040
10.0
1040
10.0
1040
10.0
1040
10.0
1070
     0
1002
{
1002
}
1002
}
  0
ENDSEC
  0
SECTION
  2
OBJECTS
  0
DICTIONARY
  5
C
330
0
100
AcDbDictionary
  3
ACAD_GROUP
350
D
  3
ACAD_LAYOUT
350
1A
  3
ACAD_MLINESTYLE
350
17
  3
ACAD_PLOTSETTINGS
350
19
  3
ACAD_PLOTSTYLENAME
350
E
  3
ACDBVARIABLEDICTIONARY
350
34
  3
ACMDICTIONARY
350
43
  3
AMG
350
2B
  3
AMGSNAPSETTINGS
350
6E
  3
DWGPROPS
350
2BE5
  3
ACDBHEADERROUNDTRIPXREC
350
2BF2
  0
DICTIONARY
  5
74
330
1F
100
AcDbDictionary
280
     1
  3
ACAD_INDEX
360
2BE7
  3
ACAD_LAYOUTSELFREF
360
2C15
  0
DICTIONARY
  5
2C1A
330
101
100
AcDbDictionary
280
     1
  3
ACAD_LAYOUTSELFREF
360
2C1B
  0
DICTIONARY
  5
D
102
{ACAD_REACTORS
330
C
102
}
330
C
100
AcDbDictionary
  0
DICTIONARY
  5
1A
102
{ACAD_REACTORS
330
C
102
}
330
C
100
AcDbDictionary
  0
DICTIONARY
  5
17
102
{ACAD_REACTORS
330
C
102
}
330
C
100
AcDbDictionary
  3
STANDARD
350
18
  0
DICTIONARY
  5
19
102
{ACAD_REACTORS
330
C
102
}
330
C
100
AcDbDictionary
  0
ACDBDICTIONARYWDFLT
  5
E
102
{ACAD_REACTORS
330
C
102
}
330
C
100
AcDbDictionary
281
     1
  3
Normal
350
F
100
AcDbDictionaryWithDefault
340
F
  0
DICTIONARY
  5
34
102
{ACAD_REACTORS
330
C
102
}
330
C
100
AcDbDictionary
  3
INDEXCTL
350
35
  3
SORTENTS
350
B5E
  0
DICTIONARY
  5
43
102
{ACAD_REACTORS
330
C
102
}
330
C
100
AcDbDictionary
  3
ACMSTDDICTIONARY
350
260
  0
DICTIONARY
  5
2B
102
{ACAD_REACTORS
330
C
102
}
330
C
100
AcDbDictionary
  3
ACMGSETTINGS
350
2C
  0
DICTIONARY
  5
6E
102
{ACAD_REACTORS
330
C
102
}
330
C
100
AcDbDictionary
  0
XRECORD
  5
2BE5
102
{ACAD_REACTORS
330
C
102
}
330
C
100
AcDbXrecord
  1
DWGPROPS COOKIE
  2

  3

  4

  6

  7

  8

  9

300
AmdtFileType=82
301
=
302
=
303
=
304
=
305
=
306
=
307
=
308
=
309
=
 40
0.214639375
 41
2452838.620506898
 42
2452848.442705879
  1

 90
        1
  0
DICTIONARY
  5
2BF2
102
{ACAD_REACTORS
330
C
102
}
330
C
100
AcDbDictionary
  3
TSTACKALIGN
350
2BF3
  3
TSTACKSIZE
350
2BF4
  3
HYPERLINKBASE
350
2BF5
  3
STYLESHEET
350
2BF6
  3
LAYOUTDICT
350
2BF7
  3
PLOTSETDICT
350
2BF8
  3
PLOTSTYLNAMDICT
350
2BF9
  3
LWETCUNION
350
2BFA
  3
INSUNITS
350
2BFB
  3
CEPSNTYPE
350
2BFC
  3
FINGERPRINTGUID
350
2BFD
  3
VERSIONGUID
350
2BFE
  3
PSVPSCALE
350
2BFF
  3
DIMSTYLEDATA
350
2C00
  3
PUCSORTHOREF
350
2C01
  3
PUCSORTHOVIEW
350
2C02
  3
PUCSBASE
350
2C03
  3
PUCSORGTOP
350
2C04
  3
PUCSORGBOTTOM
350
2C05
  3
PUCSORGLEFT
350
2C06
  3
PUCSORGRIGHT
350
2C07
  3
PUCSORGFRONT
350
2C08
  3
PUCSORGBACK
350
2C09
  3
UCSORTHOREF
350
2C0A
  3
UCSORTHOVIEW
350
2C0B
  3
UCSBASE
350
2C0C
  3
UCSORGTOP
350
2C0D
  3
UCSORGBOTTOM
350
2C0E
  3
UCSORGLEFT
350
2C0F
  3
UCSORGRIGHT
350
2C10
  3
UCSORGFRONT
350
2C11
  3
UCSORGBACK
350
2C12
  0
DICTIONARY
  5
2BE7
102
{ACAD_REACTORS
330
74
102
}
330
74
100
AcDbDictionary
  3
*A1
350
2BE8
  0
XRECORD
  5
2C15
102
{ACAD_REACTORS
330
74
102
}
330
74
100
AcDbXrecord
340
1F
  0
XRECORD
  5
2C1B
102
{ACAD_REACTORS
330
2C1A
102
}
330
2C1A
100
AcDbXrecord
340
101
  0
MLINESTYLE
  5
18
102
{ACAD_REACTORS
330
17
102
}
330
17
100
AcDbMlineStyle
  2
STANDARD
 70
     0
  3

 62
   256
 51
90.0
 52
90.0
 71
     2
 49
0.5
 62
   256
  6
BYLAYER
 49
-0.5
 62
   256
  6
BYLAYER
  0
ACDBPLACEHOLDER
  5
F
102
{ACAD_REACTORS
330
E
102
}
330
E
100
AcDbPlaceHolder
280
     0
  0
DICTIONARYVAR
  5
35
102
{ACAD_REACTORS
330
34
102
}
330
34
100
DictionaryVariables
280
     0
  1
1
  0
DICTIONARYVAR
  5
B5E
102
{ACAD_REACTORS
330
34
102
}
330
34
100
DictionaryVariables
280
     0
  1
96
  0
DICTIONARY
  5
260
102
{ACAD_REACTORS
330
43
102
}
330
43
100
AcDbDictionary
  0
DICTIONARY
  5
2C
102
{ACAD_REACTORS
330
2B
102
}
330
2B
100
AcDbDictionary
  3
DWGSETTINGS
350
2D
  0
XRECORD
  5
2BF3
102
{ACAD_REACTORS
330
2BF2
102
}
330
2BF2
100
AcDbXrecord
 90
        1
  0
XRECORD
  5
2BF4
102
{ACAD_REACTORS
330
2BF2
102
}
330
2BF2
100
AcDbXrecord
 90
       70
  0
XRECORD
  5
2BF5
102
{ACAD_REACTORS
330
2BF2
102
}
330
2BF2
100
AcDbXrecord
  1

  0
XRECORD
  5
2BF6
102
{ACAD_REACTORS
330
2BF2
102
}
330
2BF2
100
AcDbXrecord
  1
ACAD_M_9400.ctb
  0
XRECORD
  5
2BF7
102
{ACAD_REACTORS
330
2BF2
102
}
330
2BF2
100
AcDbXrecord
340
1A
  0
XRECORD
  5
2BF8
102
{ACAD_REACTORS
330
2BF2
102
}
330
2BF2
100
AcDbXrecord
340
19
  0
XRECORD
  5
2BF9
102
{ACAD_REACTORS
330
2BF2
102
}
330
2BF2
100
AcDbXrecord
340
E
  0
XRECORD
  5
2BFA
102
{ACAD_REACTORS
330
2BF2
102
}
330
2BF2
100
AcDbXrecord
 90
    10781
  0
XRECORD
  5
2BFB
102
{ACAD_REACTORS
330
2BF2
102
}
330
2BF2
100
AcDbXrecord
 90
        4
  0
XRECORD
  5
2BFC
102
{ACAD_REACTORS
330
2BF2
102
}
330
2BF2
100
AcDbXrecord
 90
        0
  0
XRECORD
  5
2BFD
102
{ACAD_REACTORS
330
2BF2
102
}
330
2BF2
100
AcDbXrecord
  1
{AFB28963-8C59-40AE-9337-C84526B81ACE}
  0
XRECORD
  5
2BFE
102
{ACAD_REACTORS
330
2BF2
102
}
330
2BF2
100
AcDbXrecord
  1
{D53C3DB2-286D-4486-90F5-2085026A95C1}
  0
XRECORD
  5
2BFF
102
{ACAD_REACTORS
330
2BF2
102
}
330
2BF2
100
AcDbXrecord
 40
0.0
  0
XRECORD
  5
2C00
102
{ACAD_REACTORS
330
2BF2
102
}
330
2BF2
100
AcDbXrecord
1000
DSTYLE
1002
{
1070
    79
 70
     2
1070
   341
340
59
1070
   342
340
59
1070
   371
 70
    -1
1070
   372
 70
    -1
1002
}
  0
XRECORD
  5
2C01
102
{ACAD_REACTORS
330
2BF2
102
}
330
2BF2
100
AcDbXrecord
340
0
  0
XRECORD
  5
2C02
102
{ACAD_REACTORS
330
2BF2
102
}
330
2BF2
100
AcDbXrecord
 70
     0
  0
XRECORD
  5
2C03
102
{ACAD_REACTORS
330
2BF2
102
}
330
2BF2
100
AcDbXrecord
340
0
  0
XRECORD
  5
2C04
102
{ACAD_REACTORS
330
2BF2
102
}
330
2BF2
100
AcDbXrecord
 10
0.0
 20
0.0
 30
0.0
  0
XRECORD
  5
2C05
102
{ACAD_REACTORS
330
2BF2
102
}
330
2BF2
100
AcDbXrecord
 10
0.0
 20
0.0
 30
0.0
  0
XRECORD
  5
2C06
102
{ACAD_REACTORS
330
2BF2
102
}
330
2BF2
100
AcDbXrecord
 10
0.0
 20
0.0
 30
0.0
  0
XRECORD
  5
2C07
102
{ACAD_REACTORS
330
2BF2
102
}
330
2BF2
100
AcDbXrecord
 10
0.0
 20
0.0
 30
0.0
  0
XRECORD
  5
2C08
102
{ACAD_REACTORS
330
2BF2
102
}
330
2BF2
100
AcDbXrecord
 10
0.0
 20
0.0
 30
0.0
  0
XRECORD
  5
2C09
102
{ACAD_REACTORS
330
2BF2
102
}
330
2BF2
100
AcDbXrecord
 10
0.0
 20
0.0
 30
0.0
  0
XRECORD
  5
2C0A
102
{ACAD_REACTORS
330
2BF2
102
}
330
2BF2
100
AcDbXrecord
340
0
  0
XRECORD
  5
2C0B
102
{ACAD_REACTORS
330
2BF2
102
}
330
2BF2
100
AcDbXrecord
 70
     0
  0
XRECORD
  5
2C0C
102
{ACAD_REACTORS
330
2BF2
102
}
330
2BF2
100
AcDbXrecord
340
0
  0
XRECORD
  5
2C0D
102
{ACAD_REACTORS
330
2BF2
102
}
330
2BF2
100
AcDbXrecord
 10
0.0
 20
0.0
 30
0.0
  0
XRECORD
  5
2C0E
102
{ACAD_REACTORS
330
2BF2
102
}
330
2BF2
100
AcDbXrecord
 10
0.0
 20
0.0
 30
0.0
  0
XRECORD
  5
2C0F
102
{ACAD_REACTORS
330
2BF2
102
}
330
2BF2
100
AcDbXrecord
 10
0.0
 20
0.0
 30
0.0
  0
XRECORD
  5
2C10
102
{ACAD_REACTORS
330
2BF2
102
}
330
2BF2
100
AcDbXrecord
 10
0.0
 20
0.0
 30
0.0
  0
XRECORD
  5
2C11
102
{ACAD_REACTORS
330
2BF2
102
}
330
2BF2
100
AcDbXrecord
 10
0.0
 20
0.0
 30
0.0
  0
XRECORD
  5
2C12
102
{ACAD_REACTORS
330
2BF2
102
}
330
2BF2
100
AcDbXrecord
 10
0.0
 20
0.0
 30
0.0
  0
LAYER_INDEX
  5
2BE8
102
{ACAD_REACTORS
330
2BE7
102
}
330
2BE7
100
AcDbIndex
 40
2453152.476633981
100
AcDbLayerIndex
  8
0
360
2BE9
 90
        1
  8
AM_0
360
2BEA
 90
       76
  8
AM_11
360
2BEB
 90
        4
  8
AM_7
360
2BEC
 90
        1
  8
AM_5
360
2BED
 90
        5
  8
Defpoints
360
2BEE
 90
        0
  8
AM_6
360
2BEF
 90
        1
  8
AM_CL
360
2BF0
 90
        0
  0
XRECORD
  5
2D
102
{ACAD_REACTORS
330
2C
102
}
330
2C
100
AcDbXrecord
  1
VERSION
140
15.0
  1
PRODUCT
  2
AutoCAD Mechanical 2000
  0
IDBUFFER
  5
2BE9
330
0
100
AcDbIdBuffer
330
28E7
  0
IDBUFFER
  5
2BEA
330
0
100
AcDbIdBuffer
330
29E7
330
29E8
330
29E9
330
29FB
330
2A12
330
2A13
330
2A14
330
2A15
330
2A16
330
2A17
330
2A18
330
2A19
330
2A1A
330
2A1B
330
2A1C
330
2A1F
330
2A20
330
2A21
330
2A22
330
2A23
330
2A24
330
2A57
330
2A77
330
2AE3
330
2AF3
330
2B02
330
2B03
330
2B12
330
28E3
330
28E4
330
28E5
330
28E6
330
28E8
330
28F6
330
28F7
330
29BC
330
29BD
330
29BE
330
29BF
330
29C0
330
29C1
330
29C2
330
29C3
330
29C4
330
29C5
330
29C6
330
29C7
330
29C8
330
29C9
330
29CA
330
29CB
330
29CC
330
29CD
330
29CE
330
29D0
330
29D1
330
29D2
330
29D3
330
29D4
330
29D6
330
29D7
330
29D8
330
29D9
330
29DA
330
29DB
330
29DC
330
29DD
330
29DE
330
29DF
330
29E0
330
29E1
330
29E2
330
29E3
330
29E4
330
29E5
330
29E6
  0
IDBUFFER
  5
2BEB
330
0
100
AcDbIdBuffer
330
29D5
330
29FD
330
2A1D
330
2A1E
  0
IDBUFFER
  5
2BEC
330
0
100
AcDbIdBuffer
330
28F8
  0
IDBUFFER
  5
2BED
330
0
100
AcDbIdBuffer
330
2895
330
28E9
330
2904
330
2A25
330
2B33
  0
IDBUFFER
  5
2BEE
330
0
100
AcDbIdBuffer
  0
IDBUFFER
  5
2BEF
330
0
100
AcDbIdBuffer
330
C58
  0
IDBUFFER
  5
2BF0
330
0
100
AcDbIdBuffer
  0
ENDSEC
  0
EOF
