  0
SECTION
  2
HEADER
  9
$ACADVER
  1
AC1014
  9
$ACADMAINTVER
 70
     9
  9
$DWGCODEPAGE
  3
ANSI_932
  9
$INSBASE
 10
0.0
 20
0.0
 30
0.0
  9
$EXTMIN
 10
-144.826509109435
 20
-61.0000009999994
 30
-0.00000001
  9
$EXTMAX
 10
20.22705670878344
 20
14.96381323225841
 30
0.00000001
  9
$LIMMIN
 10
-172.3993596335785
 20
-87.58424417536602
  9
$LIMMAX
 10
46.34551392547291
 20
38.29441105930078
  9
$ORTHOMODE
 70
     0
  9
$REGENMODE
 70
     1
  9
$FILLMODE
 70
     1
  9
$QTEXTMODE
 70
     0
  9
$MIRRTEXT
 70
     0
  9
$DRAGMODE
 70
     2
  9
$LTSCALE
 40
1.0
  9
$OSMODE
 70
    55
  9
$ATTMODE
 70
     1
  9
$TEXTSIZE
 40
2.5
  9
$TRACEWID
 40
1.0
  9
$TEXTSTYLE
  7
STANDARD
  9
$CLAYER
  8
AM_0
  9
$CELTYPE
  6
BYLAYER
  9
$CECOLOR
 62
   256
  9
$CELTSCALE
 40
1.0
  9
$DELOBJ
 70
     1
  9
$DISPSILH
 70
     0
  9
$DIMSCALE
 40
1.0
  9
$DIMASZ
 40
2.5
  9
$DIMEXO
 40
1.0
  9
$DIMDLI
 40
12.0
  9
$DIMRND
 40
0.0
  9
$DIMDLE
 40
0.0
  9
$DIMEXE
 40
1.0
  9
$DIMTP
 40
0.1
  9
$DIMTM
 40
0.1
  9
$DIMTXT
 40
3.2
  9
$DIMCEN
 40
0.0
  9
$DIMTSZ
 40
0.0
  9
$DIMTOL
 70
     0
  9
$DIMLIM
 70
     0
  9
$DIMTIH
 70
     0
  9
$DIMTOH
 70
     0
  9
$DIMSE1
 70
     0
  9
$DIMSE2
 70
     0
  9
$DIMTAD
 70
     3
  9
$DIMZIN
 70
     8
  9
$DIMBLK
  1
OPEN30
  9
$DIMASO
 70
     1
  9
$DIMSHO
 70
     1
  9
$DIMPOST
  1

  9
$DIMAPOST
  1
"
  9
$DIMALT
 70
     0
  9
$DIMALTD
 70
     2
  9
$DIMALTF
 40
0.0393701
  9
$DIMLFAC
 40
1.0
  9
$DIMTOFL
 70
     1
  9
$DIMTVP
 40
0.0
  9
$DIMTIX
 70
     0
  9
$DIMSOXD
 70
     0
  9
$DIMSAH
 70
     0
  9
$DIMBLK1
  1

  9
$DIMBLK2
  1

  9
$DIMSTYLE
  2
AM_JIS
  9
$DIMCLRD
 70
   256
  9
$DIMCLRE
 70
   256
  9
$DIMCLRT
 70
     2
  9
$DIMTFAC
 40
0.71
  9
$DIMGAP
 40
1.5
  9
$DIMJUST
 70
     0
  9
$DIMSD1
 70
     0
  9
$DIMSD2
 70
     0
  9
$DIMTOLJ
 70
     0
  9
$DIMTZIN
 70
     0
  9
$DIMALTZ
 70
     0
  9
$DIMALTTZ
 70
     0
  9
$DIMFIT
 70
     3
  9
$DIMUPT
 70
     0
  9
$DIMUNIT
 70
     2
  9
$DIMDEC
 70
     3
  9
$DIMTDEC
 70
     3
  9
$DIMALTU
 70
     2
  9
$DIMALTTD
 70
     2
  9
$DIMTXSTY
  7
ASAMI
  9
$DIMAUNIT
 70
     0
  9
$LUNITS
 70
     2
  9
$LUPREC
 70
     2
  9
$SKETCHINC
 40
1.0
  9
$FILLETRAD
 40
2.5
  9
$AUNITS
 70
     0
  9
$AUPREC
 70
     0
  9
$MENU
  1
.
  9
$ELEVATION
 40
0.0
  9
$PELEVATION
 40
0.0
  9
$THICKNESS
 40
0.0
  9
$LIMCHECK
 70
     0
  9
$BLIPMODE
 70
     0
  9
$CHAMFERA
 40
2.5
  9
$CHAMFERB
 40
2.5
  9
$CHAMFERC
 40
20.0
  9
$CHAMFERD
 40
0.0
  9
$SKPOLY
 70
     0
  9
$TDCREATE
 40
2452838.620506898
  9
$TDUPDATE
 40
2453152.476987534
  9
$TDINDWG
 40
0.2210415046
  9
$TDUSRTIMER
 40
0.2210415046
  9
$USRTIMER
 70
     1
  9
$ANGBASE
 50
0.0
  9
$ANGDIR
 70
     0
  9
$PDMODE
 70
     0
  9
$PDSIZE
 40
0.0
  9
$PLINEWID
 40
0.0
  9
$COORDS
 70
     1
  9
$SPLFRAME
 70
     0
  9
$SPLINETYPE
 70
     6
  9
$SPLINESEGS
 70
     8
  9
$ATTDIA
 70
     1
  9
$ATTREQ
 70
     1
  9
$HANDLING
 70
 12289
  9
$HANDSEED
  5
3018
  9
$SURFTAB1
 70
     6
  9
$SURFTAB2
 70
     6
  9
$SURFTYPE
 70
     6
  9
$SURFU
 70
     6
  9
$SURFV
 70
     6
  9
$UCSNAME
  2

  9
$UCSORG
 10
-0.0000000000000711
 20
-0.0000000000000036
 30
0.0
  9
$UCSXDIR
 10
1.0
 20
0.0
 30
0.0
  9
$UCSYDIR
 10
0.0
 20
1.0
 30
0.0
  9
$PUCSNAME
  2

  9
$PUCSORG
 10
0.0
 20
0.0
 30
0.0
  9
$PUCSXDIR
 10
1.0
 20
0.0
 30
0.0
  9
$PUCSYDIR
 10
0.0
 20
1.0
 30
0.0
  9
$USERI1
 70
     0
  9
$USERI2
 70
     0
  9
$USERI3
 70
     0
  9
$USERI4
 70
     0
  9
$USERI5
 70
     0
  9
$USERR1
 40
0.0
  9
$USERR2
 40
0.0
  9
$USERR3
 40
0.0
  9
$USERR4
 40
0.0
  9
$USERR5
 40
0.0
  9
$WORLDVIEW
 70
     1
  9
$SHADEDGE
 70
     3
  9
$SHADEDIF
 70
    70
  9
$TILEMODE
 70
     1
  9
$MAXACTVP
 70
    64
  9
$PINSBASE
 10
0.0
 20
0.0
 30
0.0
  9
$PLIMCHECK
 70
     0
  9
$PEXTMIN
 10
1.000000000000000E+20
 20
1.000000000000000E+20
 30
1.000000000000000E+20
  9
$PEXTMAX
 10
-1.000000000000000E+20
 20
-1.000000000000000E+20
 30
-1.000000000000000E+20
  9
$PLIMMIN
 10
0.0
 20
0.0
  9
$PLIMMAX
 10
841.0
 20
594.0
  9
$UNITMODE
 70
     0
  9
$VISRETAIN
 70
     1
  9
$PLINEGEN
 70
     0
  9
$PSLTSCALE
 70
     0
  9
$TREEDEPTH
 70
  3020
  9
$PICKSTYLE
 70
     0
  9
$CMLSTYLE
  2
STANDARD
  9
$CMLJUST
 70
     0
  9
$CMLSCALE
 40
20.0
  9
$PROXYGRAPHICS
 70
     1
  9
$MEASUREMENT
 70
     1
  0
ENDSEC
  0
SECTION
  2
CLASSES
  0
CLASS
  1
ACDBDICTIONARYWDFLT
  2
AcDbDictionaryWithDefault
  3
AutoCAD 2000
 90
        0
280
     0
281
     0
  0
CLASS
  1
ACDBPLACEHOLDER
  2
AcDbPlaceHolder
  3
AutoCAD 2000
 90
        0
280
     0
281
     0
  0
CLASS
  1
LAYOUT
  2
AcDbLayout
  3
AutoCAD 2000
 90
        0
280
     0
281
     0
  0
CLASS
  1
AMGSETTINGSOBJ
  2
AmgSettingsObj
  3
"AcadM|Product Description: AutoCAD Mechanical 2000|Company: Autodesk"
 90
        0
280
     0
281
     0
  0
CLASS
  1
ACME_DOCUMENT
  2
AcMeDbDoc
  3
AcMeServices
 90
        0
280
     0
281
     0
  0
CLASS
  1
ACMESCOPE
  2
AcMeScope
  3
AcMeServices
 90
        0
280
     0
281
     0
  0
CLASS
  1
ACMECOMMANDHISTORY
  2
AcMeCommandHistory
  3
AcMeServices
 90
        0
280
     0
281
     0
  0
CLASS
  1
DICTIONARYVAR
  2
AcDbDictionaryVar
  3
AutoCAD 2000
 90
        0
280
     0
281
     0
  0
CLASS
  1
ACIMSYSVARMAN
  2
AcImSysVarManager
  3
AcMeServices
 90
        0
280
     0
281
     0
  0
CLASS
  1
ACIMREALSYSVAR
  2
AcImRealSysVar
  3
AcMeServices
 90
        0
280
     0
281
     0
  0
CLASS
  1
ACIMINTSYSVAR
  2
AcImIntSysVar
  3
AcMeServices
 90
        0
280
     0
281
     0
  0
CLASS
  1
ACMEDRAWINGMAN
  2
AcMeDrawingMan
  3
AcMeServices
 90
        0
280
     0
281
     0
  0
CLASS
  1
ACMEVIEW
  2
AcMeView
  3
AcMeServices
 90
        0
280
     0
281
     0
  0
CLASS
  1
ACDBENTITYCACHE
  2
AcMeEntityCache
  3
AcMeServices
 90
        0
280
     0
281
     0
  0
CLASS
  1
GSMANAGER
  2
AcMeGSManager
  3
AcMeServices
 90
        0
280
     0
281
     0
  0
CLASS
  1
AmdtInternalReactor
  2
AmdtInternalReactor
  3
AcMeServices
 90
        0
280
     0
281
     0
  0
CLASS
  1
ACMESTATEMGR
  2
AcMeStateMgr
  3
AcMeServices
 90
        0
280
     0
281
     0
  0
CLASS
  1
ACME_DATABASE
  2
AcMeDbDatabase
  3
AcMeServices
 90
        0
280
     0
281
     0
  0
CLASS
  1
ACRFINSADJUSTERMGR
  2
AcRfInsAdjusterMgr
  3
AcMeServices
 90
        0
280
     0
281
     0
  0
CLASS
  1
ACMDATADICTIONARY
  2
AcmDataDictionary
  3
"AcmSymBB|Product Description: AutoCAD Mechanical 2000|Company: Autodesk"
 90
        0
280
     0
281
     0
  0
CLASS
  1
ACMDATAENTRYBLOCK
  2
AcmDataEntryBlock
  3
"AcmSymBB|Product Description: AutoCAD Mechanical 2000|Company: Autodesk"
 90
        0
280
     0
281
     0
  0
CLASS
  1
AMGOBJPROPCFG
  2
AmgObjPropCfg
  3
"AmgLay|Product Description: AutoCAD Mechanical 2000|Company: Autodesk"
 90
        1
280
     0
281
     0
  0
CLASS
  1
ACAMGFILTERDAT
  2
AcAmgFilterDat
  3
"AcadM|Product Description: AutoCAD Mechanical 2000|Company: Autodesk"
 90
        0
280
     0
281
     0
  0
CLASS
  1
LAYER_INDEX
  2
AcDbLayerIndex
  3
AutoCAD 2000
 90
        0
280
     0
281
     0
  0
CLASS
  1
IDBUFFER
  2
AcDbIdBuffer
  3
AutoCAD 2000
 90
        0
280
     0
281
     0
  0
CLASS
  1
ACIMSTRSYSVAR
  2
AcImStrSysVar
  3
AcMeServices
 90
        0
280
     0
281
     0
  0
CLASS
  1
ACMSTANDARDJIS
  2
AcmStandardJIS
  3
"AcmSymBB|Product Description: AutoCAD Mechanical 2000|Company: Autodesk"
 90
        0
280
     0
281
     0
  0
CLASS
  1
ACMSURFSTANDARDJIS
  2
AcmSurfTextStdJIS
  3
"AcmSymBB|Product Description: AutoCAD Mechanical 2000|Company: Autodesk"
 90
        0
280
     0
281
     0
  0
CLASS
  1
ACMFCFSTANDARDJIS
  2
AcmFCFStdJIS
  3
"AcmSymBB|Product Description: AutoCAD Mechanical 2000|Company: Autodesk"
 90
        0
280
     0
281
     0
  0
CLASS
  1
ACMWELDSTANDARDJIS
  2
AcmWeldingStdJIS
  3
"AcmSymBB|Product Description: AutoCAD Mechanical 2000|Company: Autodesk"
 90
        0
280
     0
281
     0
  0
CLASS
  1
ACMIDSTANDARDJIS
  2
AcmIdStdJIS
  3
"AcmSymBB|Product Description: AutoCAD Mechanical 2000|Company: Autodesk"
 90
        0
280
     0
281
     0
  0
CLASS
  1
ACMDATUMSTANDARDJIS
  2
AcmDatumStdJIS
  3
"AcmSymBB|Product Description: AutoCAD Mechanical 2000|Company: Autodesk"
 90
        0
280
     0
281
     0
  0
CLASS
  1
ACMBOMSTANDARDJIS
  2
AcmBOMStdJIS
  3
"AcmSymBB|Product Description: AutoCAD Mechanical 2000|Company: Autodesk"
 90
        0
280
     0
281
     0
  0
CLASS
  1
ACMSTANDARDANSI
  2
AcmStandardANSI
  3
"AcmSymBB|Product Description: AutoCAD Mechanical 2000|Company: Autodesk"
 90
        0
280
     0
281
     0
  0
CLASS
  1
ACMSURFSTANDARDANSI
  2
AcmSurfTextStdANSI
  3
"AcmSymBB|Product Description: AutoCAD Mechanical 2000|Company: Autodesk"
 90
        0
280
     0
281
     0
  0
CLASS
  1
ACMFCFSTANDARDANSI
  2
AcmFCFStdANSI
  3
"AcmSymBB|Product Description: AutoCAD Mechanical 2000|Company: Autodesk"
 90
        0
280
     0
281
     0
  0
CLASS
  1
ACMWELDSTANDARDANSI
  2
AcmWeldingStdANSI
  3
"AcmSymBB|Product Description: AutoCAD Mechanical 2000|Company: Autodesk"
 90
        0
280
     0
281
     0
  0
CLASS
  1
ACMIDSTANDARDANSI
  2
AcmIdStdANSI
  3
"AcmSymBB|Product Description: AutoCAD Mechanical 2000|Company: Autodesk"
 90
        0
280
     0
281
     0
  0
CLASS
  1
ACMDATUMSTANDARDANSI
  2
AcmDatumStdANSI
  3
"AcmSymBB|Product Description: AutoCAD Mechanical 2000|Company: Autodesk"
 90
        0
280
     0
281
     0
  0
CLASS
  1
ACMBOMSTANDARDANSI
  2
AcmBOMStdANSI
  3
"AcmSymBB|Product Description: AutoCAD Mechanical 2000|Company: Autodesk"
 90
        0
280
     0
281
     0
  0
CLASS
  1
ACMSTANDARDBSI
  2
AcmStandardBSI
  3
"AcmSymBB|Product Description: AutoCAD Mechanical 2000|Company: Autodesk"
 90
        0
280
     0
281
     0
  0
CLASS
  1
ACMSURFSTANDARDBSI
  2
AcmSurfTextStdBSI
  3
"AcmSymBB|Product Description: AutoCAD Mechanical 2000|Company: Autodesk"
 90
        0
280
     0
281
     0
  0
CLASS
  1
ACMFCFSTANDARDBSI
  2
AcmFCFStdBSI
  3
"AcmSymBB|Product Description: AutoCAD Mechanical 2000|Company: Autodesk"
 90
        0
280
     0
281
     0
  0
CLASS
  1
ACMWELDSTANDARDBSI
  2
AcmWeldingStdBSI
  3
"AcmSymBB|Product Description: AutoCAD Mechanical 2000|Company: Autodesk"
 90
        0
280
     0
281
     0
  0
CLASS
  1
ACMIDSTANDARDBSI
  2
AcmIdStdBSI
  3
"AcmSymBB|Product Description: AutoCAD Mechanical 2000|Company: Autodesk"
 90
        0
280
     0
281
     0
  0
CLASS
  1
ACMDATUMSTANDARDBSI
  2
AcmDatumStdBSI
  3
"AcmSymBB|Product Description: AutoCAD Mechanical 2000|Company: Autodesk"
 90
        0
280
     0
281
     0
  0
CLASS
  1
ACMBOMSTANDARDBSI
  2
AcmBOMStdBSI
  3
"AcmSymBB|Product Description: AutoCAD Mechanical 2000|Company: Autodesk"
 90
        0
280
     0
281
     0
  0
CLASS
  1
LONG_TRANSACTION
  2
AcDbLongTransaction
  3
AutoCAD 2000
 90
        0
280
     0
281
     0
  0
CLASS
  1
LWPOLYLINE
  2
AcDbPolyline
  3
AutoCAD 2000
 90
        0
280
     0
281
     1
  0
CLASS
  1
HATCH
  2
AcDbHatch
  3
AutoCAD 2000
 90
        0
280
     0
281
     1
  0
CLASS
  1
XRECORD
  2
AcDbXrecord
  3
AutoCAD 2000
 90
        0
280
     0
281
     0
  0
ENDSEC
  0
SECTION
  2
TABLES
  0
TABLE
  2
VPORT
  5
8
330
0
100
AcDbSymbolTable
 70
     3
  0
VPORT
  5
2FE7
330
8
100
AcDbSymbolTableRecord
100
AcDbViewportTableRecord
  2
*ACTIVE
 70
     0
 10
0.0
 20
0.0
 11
1.0
 21
1.0
 12
-65.00140184693638
 22
-15.46396688877575
 13
0.0
 23
0.0
 14
2.5
 24
2.5
 15
10.0
 25
10.0
 16
0.0
 26
0.0
 36
1.0
 17
0.0
 27
0.0
 37
0.0
 40
145.4079061236736
 41
1.56570841889117
 42
50.0
 43
0.0
 44
0.0
 50
0.0
 51
0.0
 71
     0
 72
   100
 73
     1
 74
     3
 75
     0
 76
     0
 77
     0
 78
     0
  0
ENDTAB
  0
TABLE
  2
LTYPE
  5
5
330
0
100
AcDbSymbolTable
 70
    10
  0
LTYPE
  5
14
330
5
100
AcDbSymbolTableRecord
100
AcDbLinetypeTableRecord
  2
BYBLOCK
 70
     0
  3

 72
    65
 73
     0
 40
0.0
  0
LTYPE
  5
15
330
5
100
AcDbSymbolTableRecord
100
AcDbLinetypeTableRecord
  2
BYLAYER
 70
     0
  3

 72
    65
 73
     0
 40
0.0
  0
LTYPE
  5
16
330
5
100
AcDbSymbolTableRecord
100
AcDbLinetypeTableRecord
  2
CONTINUOUS
 70
     0
  3
Solid line
 72
    65
 73
     0
 40
0.0
  0
LTYPE
  5
4B
330
5
100
AcDbSymbolTableRecord
100
AcDbLinetypeTableRecord
  2
AM_ISO02W050
 70
     0
  3
__ __ __ __ __ __ __ __ __ __ __ __ __ __ __
 72
    65
 73
     2
 40
7.5
 49
6.0
 74
     0
 49
-1.5
 74
     0
  0
LTYPE
  5
4C
330
5
100
AcDbSymbolTableRecord
100
AcDbLinetypeTableRecord
  2
AM_ISO08W050
 70
     0
  3
____ . ____ . ____ . ____ . ____ . ____ . ____
 72
    65
 73
     4
 40
18.0
 49
12.0
 74
     0
 49
-1.5
 74
     0
 49
3.0
 74
     0
 49
-1.5
 74
     0
  0
LTYPE
  5
4D
330
5
100
AcDbSymbolTableRecord
100
AcDbLinetypeTableRecord
  2
AM_ISO09W050
 70
     0
  3
_____ . . _____ . . _____ . . ____ .. ____
 72
    65
 73
     6
 40
22.5
 49
12.0
 74
     0
 49
-1.5
 74
     0
 49
3.0
 74
     0
 49
-1.5
 74
     0
 49
3.0
 74
     0
 49
-1.5
 74
     0
  0
LTYPE
  5
4E
330
5
100
AcDbSymbolTableRecord
100
AcDbLinetypeTableRecord
  2
AMCONSTR
 70
     0
  3
_______________________
 72
    65
 73
     2
 40
9999.0
 49
9999.0
 74
     0
 49
0.0
 74
     0
  0
LTYPE
  5
4F
330
5
100
AcDbSymbolTableRecord
100
AcDbLinetypeTableRecord
  2
AM_ISO02W050X2
 70
     0
  3
 _ _ _ _ _ _ _ _ _ _ _ _
 72
    65
 73
     2
 40
3.75
 49
3.0
 74
     0
 49
-0.75
 74
     0
  0
LTYPE
  5
50
330
5
100
AcDbSymbolTableRecord
100
AcDbLinetypeTableRecord
  2
AM_ISO08W050X2
 70
     0
  3
__ . __ . __ . __ . __ . __
 72
    65
 73
     4
 40
9.0
 49
6.0
 74
     0
 49
-0.75
 74
     0
 49
1.5
 74
     0
 49
-0.75
 74
     0
  0
LTYPE
  5
53
330
5
100
AcDbSymbolTableRecord
100
AcDbLinetypeTableRecord
  2
AMZIGZAG
 70
     0
  3
/\/-/\/-/\/-/\/-/\/-/\/
 72
    65
 73
     2
 40
11.00009999999999
 49
0.0001
 74
     4
 75
   135
340
52
 46
0.04
 50
0.0
 44
0.0
 45
0.0
 49
-11.0
 74
     0
  0
LTYPE
  5
166
330
5
100
AcDbSymbolTableRecord
100
AcDbLinetypeTableRecord
  2
ACJISTGL
 70
     0
  3
_ _ _ _ _
 72
    65
 73
     2
 40
3.0
 49
2.0
 74
     0
 49
-1.0
 74
     0
  0
LTYPE
  5
26A
330
5
100
AcDbSymbolTableRecord
100
AcDbLinetypeTableRecord
  2
ACJISTGB
 70
     0
  3
__ . . __ . .
 72
    65
 73
     6
 40
9.0
 49
4.0
 74
     0
 49
-1.0
 74
     0
 49
1.0
 74
     0
 49
-1.0
 74
     0
 49
1.0
 74
     0
 49
-1.0
 74
     0
  0
ENDTAB
  0
TABLE
  2
LAYER
  5
2
330
0
100
AcDbSymbolTable
 70
     8
  0
LAYER
  5
10
330
2
100
AcDbSymbolTableRecord
100
AcDbLayerTableRecord
  2
0
 70
     0
 62
     7
  6
CONTINUOUS
  0
LAYER
  5
3F9
330
2
100
AcDbSymbolTableRecord
100
AcDbLayerTableRecord
  2
AM_0
 70
     0
 62
     7
  6
CONTINUOUS
  0
LAYER
  5
BD6
330
2
100
AcDbSymbolTableRecord
100
AcDbLayerTableRecord
  2
AM_11
 70
     0
 62
     3
  6
AM_ISO09W050
  0
LAYER
  5
BD7
330
2
100
AcDbSymbolTableRecord
100
AcDbLayerTableRecord
  2
AM_7
 70
     0
 62
     4
  6
AM_ISO08W050
  0
LAYER
  5
BD8
330
2
100
AcDbSymbolTableRecord
100
AcDbLayerTableRecord
  2
AM_5
 70
     0
 62
     3
  6
CONTINUOUS
  0
LAYER
  5
BD9
330
2
100
AcDbSymbolTableRecord
100
AcDbLayerTableRecord
  2
DEFPOINTS
 70
     0
 62
     7
  6
CONTINUOUS
  0
LAYER
  5
BDA
330
2
100
AcDbSymbolTableRecord
100
AcDbLayerTableRecord
  2
AM_6
 70
     0
 62
     2
  6
CONTINUOUS
  0
LAYER
  5
26DC
330
2
100
AcDbSymbolTableRecord
100
AcDbLayerTableRecord
  2
AM_CL
 70
     0
 62
     1
  6
AMCONSTR
  0
ENDTAB
  0
TABLE
  2
STYLE
  5
3
330
0
100
AcDbSymbolTable
 70
     5
  0
STYLE
  5
11
330
3
100
AcDbSymbolTableRecord
100
AcDbTextStyleTableRecord
  2
STANDARD
 70
     0
 40
0.0
 41
1.0
 50
0.0
 71
     0
 42
2.5
  3
simplex.shx
  4
EXTFONT.SHX
  0
STYLE
  5
52
330
3
100
AcDbSymbolTableRecord
100
AcDbTextStyleTableRecord
  2

 70
     1
 40
0.0
 41
1.0
 50
0.0
 71
     0
 42
2.5
  3
ltypeshp.shx
  4

  0
STYLE
  5
6B
330
3
100
AcDbSymbolTableRecord
100
AcDbTextStyleTableRecord
  2
ASAMI
 70
     0
 40
0.0
 41
1.0
 50
0.0
 71
     0
 42
2.5
  3
simplex.shx
  4
EXTFONT.SHX
  0
STYLE
  5
262
330
3
100
AcDbSymbolTableRecord
100
AcDbTextStyleTableRecord
  2
ACJISTS
 70
     0
 40
1.0
 41
1.0
 50
0.0
 71
     0
 42
2.5
  3
simplex.shx
  4
bigfont.shx
  0
STYLE
  5
269
330
3
100
AcDbSymbolTableRecord
100
AcDbTextStyleTableRecord
  2
ACJISGDT
 70
     0
 40
0.0
 41
1.0
 50
0.0
 71
     0
 42
2.5
  3
amgdtans.shx
  4

  0
ENDTAB
  0
TABLE
  2
VIEW
  5
6
330
0
100
AcDbSymbolTable
 70
     0
  0
ENDTAB
  0
TABLE
  2
UCS
  5
7
330
0
100
AcDbSymbolTable
 70
     0
  0
ENDTAB
  0
TABLE
  2
APPID
  5
9
330
0
100
AcDbSymbolTable
 70
    13
  0
APPID
  5
12
330
9
100
AcDbSymbolTableRecord
100
AcDbRegAppTableRecord
  2
ACAD
 70
     0
  0
APPID
  5
30
330
9
100
AcDbSymbolTableRecord
100
AcDbRegAppTableRecord
  2
MCAD_NO_VIS
 70
     0
  0
APPID
  5
31
330
9
100
AcDbSymbolTableRecord
100
AcDbRegAppTableRecord
  2
ACAD_TEMP_GRAPHIC
 70
     0
  0
APPID
  5
2C2
330
9
100
AcDbSymbolTableRecord
100
AcDbRegAppTableRecord
  2
GENIUS_GENDTOL_13
 70
     0
  0
APPID
  5
339
330
9
100
AcDbSymbolTableRecord
100
AcDbRegAppTableRecord
  2
GENIUS_GENODEF_13
 70
     0
  0
APPID
  5
33A
330
9
100
AcDbSymbolTableRecord
100
AcDbRegAppTableRecord
  2
GENIUS_GENOBJ-N-RSBK_13
 70
     0
  0
APPID
  5
33B
330
9
100
AcDbSymbolTableRecord
100
AcDbRegAppTableRecord
  2
GENIUS_GENOBJ-N-LIB_13
 70
     0
  0
APPID
  5
33C
330
9
100
AcDbSymbolTableRecord
100
AcDbRegAppTableRecord
  2
GENIUS_GENSCALE_13
 70
     0
  0
APPID
  5
378
330
9
100
AcDbSymbolTableRecord
100
AcDbRegAppTableRecord
  2
GENIUS_GENDIMSH_14
 70
     0
  0
APPID
  5
BDB
330
9
100
AcDbSymbolTableRecord
100
AcDbRegAppTableRecord
  2
GENIUS_GENOBJ-N-CEN_13
 70
     0
  0
APPID
  5
BDC
330
9
100
AcDbSymbolTableRecord
100
AcDbRegAppTableRecord
  2
GENIUS_GENFIL_13
 70
     0
  0
APPID
  5
BDD
330
9
100
AcDbSymbolTableRecord
100
AcDbRegAppTableRecord
  2
GENIUS_GENOBJ-N-FIL_13
 70
     0
  0
APPID
  5
12AD
330
9
100
AcDbSymbolTableRecord
100
AcDbRegAppTableRecord
  2
GENIUS_GENOREF_13
 70
     0
  0
ENDTAB
  0
TABLE
  2
DIMSTYLE
  5
A
330
0
100
AcDbSymbolTable
 70
     8
  0
DIMSTYLE
105
58
102
{ACAD_REACTORS
330
2ADC
330
2B37
330
2B45
330
2DC3
102
}
330
A
100
AcDbSymbolTableRecord
100
AcDbDimStyleTableRecord
  2
AM_JIS
 70
     0
  3

  4
"
  5
OPEN30
  6

  7

 40
1.0
 41
2.5
 42
1.0
 43
12.0
 44
1.0
 45
0.0
 46
0.0
 47
0.1
 48
0.1
140
3.2
141
0.0
142
0.0
143
0.0393701
144
1.0
145
0.0
146
0.71
147
1.5
 71
     0
 72
     0
 73
     0
 74
     0
 75
     0
 76
     0
 77
     3
 78
     8
170
     0
171
     2
172
     1
173
     0
174
     0
175
     0
176
   256
177
   256
178
     2
270
     2
271
     3
272
     3
273
     2
274
     2
340
6B
275
     0
280
     0
281
     0
282
     0
283
     0
284
     0
285
     0
286
     0
287
     3
288
     0
  0
DIMSTYLE
105
5F
330
A
100
AcDbSymbolTableRecord
100
AcDbDimStyleTableRecord
  2
AM_JIS$3
 70
     0
  3

  4
"
  5
OPEN30
  6

  7

 40
1.0
 41
2.5
 42
1.0
 43
10.0
 44
1.0
 45
0.0
 46
0.0
 47
0.1
 48
0.1
140
3.2
141
0.0
142
0.0
143
0.0393701
144
1.0
145
0.0
146
0.71
147
1.5
 71
     0
 72
     0
 73
     0
 74
     1
 75
     0
 76
     0
 77
     3
 78
     8
170
     0
171
     2
172
     0
173
     0
174
     0
175
     0
176
   256
177
   256
178
     2
270
     2
271
     2
272
     3
273
     2
274
     2
340
6B
275
     0
280
     0
281
     0
282
     0
283
     0
284
     0
285
     0
286
     0
287
     0
288
     1
  0
DIMSTYLE
105
60
102
{ACAD_REACTORS
330
2F21
102
}
330
A
100
AcDbSymbolTableRecord
100
AcDbDimStyleTableRecord
  2
AM_JIS$4
 70
     0
  3

  4
"
  5
OPEN30
  6

  7

 40
1.0
 41
2.5
 42
1.0
 43
10.0
 44
1.0
 45
0.0
 46
0.0
 47
0.1
 48
0.1
140
3.2
141
0.0
142
0.0
143
0.0393701
144
1.0
145
0.0
146
0.71
147
1.5
 71
     0
 72
     0
 73
     0
 74
     1
 75
     0
 76
     0
 77
     3
 78
     8
170
     0
171
     2
172
     0
173
     0
174
     0
175
     0
176
   256
177
   256
178
     2
270
     2
271
     2
272
     3
273
     2
274
     2
340
6B
275
     0
280
     0
281
     0
282
     0
283
     0
284
     0
285
     0
286
     0
287
     0
288
     1
  0
DIMSTYLE
105
61
330
A
100
AcDbSymbolTableRecord
100
AcDbDimStyleTableRecord
  2
AM_JIS$6
 70
     0
  3

  4
"
  5
OPEN30
  6

  7

 40
1.0
 41
2.5
 42
1.0
 43
10.0
 44
1.0
 45
0.0
 46
0.0
 47
0.1
 48
0.1
140
3.2
141
0.0
142
0.0
143
0.0393701
144
1.0
145
0.0
146
0.71
147
1.5
 71
     0
 72
     0
 73
     0
 74
     0
 75
     0
 76
     0
 77
     0
 78
     8
170
     0
171
     2
172
     1
173
     0
174
     0
175
     0
176
   256
177
   256
178
     2
270
     2
271
     2
272
     2
273
     2
274
     2
340
6B
275
     0
280
     0
281
     0
282
     0
283
     0
284
     0
285
     0
286
     0
287
     3
288
     0
  0
DIMSTYLE
105
62
330
A
100
AcDbSymbolTableRecord
100
AcDbDimStyleTableRecord
  2
AM_JIS$7
 70
     0
  3

  4
"
  5
OPEN30
  6

  7

 40
1.0
 41
2.5
 42
1.0
 43
10.0
 44
1.0
 45
0.0
 46
0.0
 47
0.1
 48
0.1
140
3.2
141
0.0
142
0.0
143
0.0393701
144
1.0
145
0.0
146
0.71
147
1.5
 71
     0
 72
     0
 73
     0
 74
     0
 75
     0
 76
     0
 77
     3
 78
     8
170
     0
171
     2
172
     1
173
     0
174
     0
175
     0
176
   256
177
   256
178
     2
270
     2
271
     2
272
     3
273
     2
274
     2
340
6B
275
     0
280
     0
281
     0
282
     0
283
     0
284
     0
285
     0
286
     0
287
     3
288
     0
  0
DIMSTYLE
105
63
330
A
100
AcDbSymbolTableRecord
100
AcDbDimStyleTableRecord
  2
AM_JIS$SF
 70
     0
  3

  4
"
  5
OPEN30
  6

  7

 40
1.0
 41
2.5
 42
1.0
 43
10.0
 44
1.0
 45
0.0
 46
0.0
 47
0.1
 48
0.1
140
3.2
141
0.0
142
0.0
143
0.0393701
144
1.0
145
0.0
146
0.71
147
1.5
 71
     0
 72
     0
 73
     0
 74
     0
 75
     1
 76
     1
 77
     3
 78
     8
170
     0
171
     2
172
     1
173
     0
174
     0
175
     0
176
   256
177
   256
178
     2
270
     2
271
     2
272
     2
273
     2
274
     2
340
6B
275
     0
280
     0
281
     0
282
     0
283
     0
284
     0
285
     0
286
     0
287
     3
288
     0
  0
DIMSTYLE
105
68
330
A
100
AcDbSymbolTableRecord
100
AcDbDimStyleTableRecord
  2
AM_JIS$SH
 70
     0
  3

  4
"
  5

  6
GENAXEH
  7
OPEN30
 40
1.0
 41
2.5
 42
1.0
 43
10.0
 44
1.0
 45
0.0
 46
0.0
 47
0.1
 48
0.1
140
3.2
141
0.0
142
0.0
143
0.0393701
144
2.0
145
0.0
146
0.71
147
1.5
 71
     0
 72
     0
 73
     0
 74
     0
 75
     1
 76
     1
 77
     3
 78
     8
170
     0
171
     2
172
     1
173
     1
174
     0
175
     0
176
   256
177
   256
178
     2
270
     2
271
     2
272
     2
273
     2
274
     2
340
6B
275
     0
280
     0
281
     0
282
     0
283
     0
284
     0
285
     0
286
     0
287
     3
288
     0
  0
DIMSTYLE
105
B34
330
A
100
AcDbSymbolTableRecord
100
AcDbDimStyleTableRecord
  2
AM_JIS$2
 70
     0
  3

  4
"
  5
OPEN30
  6

  7

 40
1.0
 41
2.5
 42
1.0
 43
12.0
 44
1.0
 45
0.0
 46
0.0
 47
0.1
 48
0.1
140
3.2
141
0.0
142
0.0
143
0.0393701
144
1.0
145
0.0
146
0.71
147
1.5
 71
     0
 72
     0
 73
     0
 74
     0
 75
     0
 76
     0
 77
     3
 78
     8
170
     0
171
     2
172
     1
173
     0
174
     0
175
     0
176
   256
177
   256
178
     2
270
     2
271
     3
272
     3
273
     2
274
     2
340
6B
275
     0
280
     0
281
     0
282
     0
283
     0
284
     0
285
     0
286
     0
287
     3
288
     0
  0
ENDTAB
  0
TABLE
  2
BLOCK_RECORD
  5
1
330
0
100
AcDbSymbolTable
 70
    10
  0
BLOCK_RECORD
  5
1F
102
{ACAD_XDICTIONARY
360
74
102
}
330
1
100
AcDbSymbolTableRecord
100
AcDbBlockTableRecord
  2
*MODEL_SPACE
  0
BLOCK_RECORD
  5
101
102
{ACAD_XDICTIONARY
360
3010
102
}
330
1
100
AcDbSymbolTableRecord
100
AcDbBlockTableRecord
  2
*PAPER_SPACE
  0
BLOCK_RECORD
  5
59
330
1
100
AcDbSymbolTableRecord
100
AcDbBlockTableRecord
  2
_OPEN30
  0
BLOCK_RECORD
  5
64
330
1
100
AcDbSymbolTableRecord
100
AcDbBlockTableRecord
  2
GENAXEH
  0
BLOCK_RECORD
  5
2ADD
330
1
100
AcDbSymbolTableRecord
100
AcDbBlockTableRecord
  2
*D5
  0
BLOCK_RECORD
  5
2B38
330
1
100
AcDbSymbolTableRecord
100
AcDbBlockTableRecord
  2
*D6
  0
BLOCK_RECORD
  5
2B46
330
1
100
AcDbSymbolTableRecord
100
AcDbBlockTableRecord
  2
*D7
  0
BLOCK_RECORD
  5
2DC4
330
1
100
AcDbSymbolTableRecord
100
AcDbBlockTableRecord
  2
*D8
  0
BLOCK_RECORD
  5
2F22
330
1
100
AcDbSymbolTableRecord
100
AcDbBlockTableRecord
  2
*D9
  0
ENDTAB
  0
ENDSEC
  0
SECTION
  2
BLOCKS
  0
BLOCK
  5
20
330
1F
100
AcDbEntity
  8
0
100
AcDbBlockBegin
  2
*MODEL_SPACE
 70
     0
 10
0.0
 20
0.0
 30
0.0
  3
*MODEL_SPACE
  1

  0
ENDBLK
  5
21
330
1F
100
AcDbEntity
  8
0
100
AcDbBlockEnd
  0
BLOCK
  5
103
330
101
100
AcDbEntity
 67
     1
  8
0
100
AcDbBlockBegin
  2
*PAPER_SPACE
 70
     0
 10
0.0
 20
0.0
 30
0.0
  3
*PAPER_SPACE
  1

  0
ENDBLK
  5
104
330
101
100
AcDbEntity
 67
     1
  8
0
100
AcDbBlockEnd
  0
BLOCK
  5
5D
330
59
100
AcDbEntity
  8
0
100
AcDbBlockBegin
  2
_OPEN30
 70
     0
 10
0.0
 20
0.0
 30
0.0
  3
_OPEN30
  1

  0
LINE
  5
5A
330
59
100
AcDbEntity
  8
0
 62
     0
100
AcDbLine
 10
-1.0
 20
0.26794919
 30
0.0
 11
0.0
 21
0.0
 31
0.0
  0
LINE
  5
5B
330
59
100
AcDbEntity
  8
0
 62
     0
100
AcDbLine
 10
0.0
 20
0.0
 30
0.0
 11
-1.0
 21
-0.26794919
 31
0.0
  0
LINE
  5
5C
330
59
100
AcDbEntity
  8
0
 62
     0
100
AcDbLine
 10
0.0
 20
0.0
 30
0.0
 11
-1.0
 21
0.0
 31
0.0
  0
ENDBLK
  5
5E
330
59
100
AcDbEntity
  8
0
100
AcDbBlockEnd
  0
BLOCK
  5
66
330
64
100
AcDbEntity
  8
0
100
AcDbBlockBegin
  2
GENAXEH
 70
     0
 10
0.0
 20
0.0
 30
0.0
  3
GENAXEH
  1

  0
LINE
  5
65
330
64
100
AcDbEntity
  8
0
100
AcDbLine
 10
-1.0
 20
0.0
 30
0.0
 11
1.0
 21
0.0
 31
0.0
  0
ENDBLK
  5
67
330
64
100
AcDbEntity
  8
0
100
AcDbBlockEnd
  0
BLOCK
  5
2AE7
330
2ADD
100
AcDbEntity
  8
0
100
AcDbBlockBegin
  2
*D5
 70
     1
 10
0.0
 20
0.0
 30
0.0
  3
*D5
  1

  0
LINE
  5
2DF5
330
2ADD
100
AcDbEntity
  8
AM_5
100
AcDbLine
 10
1.000050247130283
 20
12.49999999999999
 30
0.0
 11
20.22705670878344
 21
12.49999999999999
 31
0.0
  0
LINE
  5
2DF6
330
2ADD
100
AcDbEntity
  8
AM_5
100
AcDbLine
 10
1.000050247129941
 20
-12.50000000003114
 30
0.0
 11
20.22705670878343
 21
-12.50000000003115
 31
0.0
  0
LINE
  5
2DF7
330
2ADD
100
AcDbEntity
  8
AM_5
100
AcDbLine
 10
19.22705670878344
 20
9.999999999999991
 30
0.0
 11
19.22705670878343
 21
-10.00000000003115
 31
0.0
  0
INSERT
  5
2DF8
330
2ADD
100
AcDbEntity
  8
AM_5
100
AcDbBlockReference
  2
_OPEN30
 10
19.22705670878344
 20
12.49999999999999
 30
0.0
 41
2.5
 42
2.5
 43
2.5
 50
90.0
  0
INSERT
  5
2DF9
330
2ADD
100
AcDbEntity
  8
AM_5
100
AcDbBlockReference
  2
_OPEN30
 10
19.22705670878343
 20
-12.50000000003115
 30
0.0
 41
2.5
 42
2.5
 43
2.5
 50
270.0
  0
MTEXT
  5
2DFA
330
2ADD
100
AcDbEntity
  8
AM_5
 62
     2
100
AcDbMText
 10
16.12705670878343
 20
-0.0000000000155777
 30
0.0
 40
3.2
 41
0.0
 71
     5
 72
     1
  1
%%c25
  7
ASAMI
 11
0.0000000000000001
 21
1.0
 31
0.0
1001
ACAD
1000
MTEXTBEGIN
1070
    73
1070
     1
1070
    44
1040
1.0
1070
    74
1070
     0
1000
MTEXTEND
  0
POINT
  5
2DFB
330
2ADD
100
AcDbEntity
  8
DEFPOINTS
 62
     0
100
AcDbPoint
 10
0.0000502471302832
 20
12.49999999999999
 30
0.0
  0
POINT
  5
2DFC
330
2ADD
100
AcDbEntity
  8
DEFPOINTS
 62
     0
100
AcDbPoint
 10
0.0000502471299421
 20
-12.50000000003114
 30
0.0
  0
POINT
  5
2DFD
330
2ADD
100
AcDbEntity
  8
DEFPOINTS
 62
     0
100
AcDbPoint
 10
19.22705670878343
 20
-12.50000000003115
 30
0.0
  0
ENDBLK
  5
2AE8
330
2ADD
100
AcDbEntity
  8
0
100
AcDbBlockEnd
  0
BLOCK
  5
2B42
330
2B38
100
AcDbEntity
  8
0
100
AcDbBlockBegin
  2
*D6
 70
     1
 10
0.0
 20
0.0
 30
0.0
  3
*D6
  1

  0
LINE
  5
2DEC
330
2B38
100
AcDbEntity
  8
AM_5
100
AcDbLine
 10
-119.7999497528697
 20
-12.5
 30
0.0
 11
-141.126509109435
 21
-12.49999999999999
 31
0.0
  0
LINE
  5
2DED
330
2B38
100
AcDbEntity
  8
AM_5
100
AcDbLine
 10
-119.7999497528697
 20
12.5
 30
0.0
 11
-141.126509109435
 21
12.5
 31
0.0
  0
LINE
  5
2DEE
330
2B38
100
AcDbEntity
  8
AM_5
100
AcDbLine
 10
-140.126509109435
 20
-9.999999999999992
 30
0.0
 11
-140.126509109435
 21
10.0
 31
0.0
  0
INSERT
  5
2DEF
330
2B38
100
AcDbEntity
  8
AM_5
100
AcDbBlockReference
  2
_OPEN30
 10
-140.126509109435
 20
-12.49999999999999
 30
0.0
 41
2.5
 42
2.5
 43
2.5
 50
270.0
  0
INSERT
  5
2DF0
330
2B38
100
AcDbEntity
  8
AM_5
100
AcDbBlockReference
  2
_OPEN30
 10
-140.126509109435
 20
12.5
 30
0.0
 41
2.5
 42
2.5
 43
2.5
 50
90.0
  0
MTEXT
  5
2DF1
330
2B38
100
AcDbEntity
  8
AM_5
 62
     2
100
AcDbMText
 10
-143.226509109435
 20
-0.0000000000000223
 30
0.0
 40
3.2
 41
0.0
 71
     5
 72
     1
  1
%%c25
  7
ASAMI
 11
0.0000000000000001
 21
1.0
 31
0.0
1001
ACAD
1000
MTEXTBEGIN
1070
    73
1070
     1
1070
    44
1040
1.0
1070
    74
1070
     0
1000
MTEXTEND
  0
POINT
  5
2DF2
330
2B38
100
AcDbEntity
  8
DEFPOINTS
 62
     0
100
AcDbPoint
 10
-118.7999497528697
 20
-12.5
 30
0.0
  0
POINT
  5
2DF3
330
2B38
100
AcDbEntity
  8
DEFPOINTS
 62
     0
100
AcDbPoint
 10
-118.7999497528697
 20
12.5
 30
0.0
  0
POINT
  5
2DF4
330
2B38
100
AcDbEntity
  8
DEFPOINTS
 62
     0
100
AcDbPoint
 10
-140.126509109435
 20
12.5
 30
0.0
  0
ENDBLK
  5
2B43
330
2B38
100
AcDbEntity
  8
0
100
AcDbBlockEnd
  0
BLOCK
  5
2B50
330
2B46
100
AcDbEntity
  8
0
100
AcDbBlockBegin
  2
*D7
 70
     1
 10
0.0
 20
0.0
 30
0.0
  3
*D7
  1

  0
LINE
  5
2DE3
330
2B46
100
AcDbEntity
  8
AM_5
100
AcDbLine
 10
-119.9999497528697
 20
-10.37499999999998
 30
0.0
 11
-119.9999497528697
 21
-39.50000099999929
 31
0.0
  0
LINE
  5
2DE4
330
2B46
100
AcDbEntity
  8
AM_5
100
AcDbLine
 10
0.000050247130283
 20
-13.50000000003295
 30
0.0
 11
0.0000502471302814
 21
-39.50000099999929
 31
0.0
  0
LINE
  5
2DE5
330
2B46
100
AcDbEntity
  8
AM_5
100
AcDbLine
 10
-117.4999497528697
 20
-38.50000099999928
 30
0.0
 11
-2.499949752869718
 21
-38.50000099999928
 31
0.0
  0
INSERT
  5
2DE6
330
2B46
100
AcDbEntity
  8
AM_5
100
AcDbBlockReference
  2
_OPEN30
 10
-119.9999497528697
 20
-38.50000099999928
 30
0.0
 41
2.5
 42
2.5
 43
2.5
 50
180.0
  0
INSERT
  5
2DE7
330
2B46
100
AcDbEntity
  8
AM_5
100
AcDbBlockReference
  2
_OPEN30
 10
0.0000502471302815
 20
-38.50000099999928
 30
0.0
 41
2.5
 42
2.5
 43
2.5
  0
MTEXT
  5
2DE8
330
2B46
100
AcDbEntity
  8
AM_5
 62
     2
100
AcDbMText
 10
-59.99994975286972
 20
-35.40000099999928
 30
0.0
 40
3.2
 41
0.0
 71
     5
 72
     1
  1
120
  7
ASAMI
1001
ACAD
1000
MTEXTBEGIN
1070
    73
1070
     1
1070
    44
1040
1.0
1070
    74
1070
     0
1000
MTEXTEND
  0
POINT
  5
2DE9
330
2B46
100
AcDbEntity
  8
DEFPOINTS
 62
     0
100
AcDbPoint
 10
-119.9999497528697
 20
-9.374999999999987
 30
0.0
  0
POINT
  5
2DEA
330
2B46
100
AcDbEntity
  8
DEFPOINTS
 62
     0
100
AcDbPoint
 10
0.000050247130283
 20
-12.50000000003295
 30
0.0
  0
POINT
  5
2DEB
330
2B46
100
AcDbEntity
  8
DEFPOINTS
 62
     0
100
AcDbPoint
 10
0.0000502471302815
 20
-38.50000099999928
 30
0.0
  0
ENDBLK
  5
2B51
330
2B46
100
AcDbEntity
  8
0
100
AcDbBlockEnd
  0
BLOCK
  5
2DCE
330
2DC4
100
AcDbEntity
  8
0
100
AcDbBlockBegin
  2
*D8
 70
     1
 10
0.0
 20
0.0
 30
0.0
  3
*D8
  1

  0
LINE
  5
2DDA
330
2DC4
100
AcDbEntity
  8
AM_5
100
AcDbLine
 10
-50.00084257213162
 20
-13.5
 30
0.0
 11
-50.00084257213162
 21
-27.50000100000165
 31
0.0
  0
LINE
  5
2DDB
330
2DC4
100
AcDbEntity
  8
AM_5
100
AcDbLine
 10
-0.0003804425583113
 20
-13.50000000003295
 30
0.0
 11
-0.0003804425583121
 21
-27.50000100000165
 31
0.0
  0
LINE
  5
2DDC
330
2DC4
100
AcDbEntity
  8
AM_5
100
AcDbLine
 10
-47.50084257213162
 20
-26.50000100000164
 30
0.0
 11
-2.500380442558312
 21
-26.50000100000164
 31
0.0
  0
INSERT
  5
2DDD
330
2DC4
100
AcDbEntity
  8
AM_5
100
AcDbBlockReference
  2
_OPEN30
 10
-50.00084257213162
 20
-26.50000100000164
 30
0.0
 41
2.5
 42
2.5
 43
2.5
 50
180.0
  0
INSERT
  5
2DDE
330
2DC4
100
AcDbEntity
  8
AM_5
100
AcDbBlockReference
  2
_OPEN30
 10
-0.0003804425583121
 20
-26.50000100000164
 30
0.0
 41
2.5
 42
2.5
 43
2.5
  0
MTEXT
  5
2DDF
330
2DC4
100
AcDbEntity
  8
AM_5
 62
     2
100
AcDbMText
 10
-25.00061150734496
 20
-23.40000100000164
 30
0.0
 40
3.2
 41
0.0
 71
     5
 72
     1
  1
50
  7
ASAMI
1001
ACAD
1000
MTEXTBEGIN
1070
    73
1070
     1
1070
    44
1040
1.0
1070
    74
1070
     0
1000
MTEXTEND
  0
POINT
  5
2DE0
330
2DC4
100
AcDbEntity
  8
DEFPOINTS
 62
     0
100
AcDbPoint
 10
-50.00084257213162
 20
-12.5
 30
0.0
  0
POINT
  5
2DE1
330
2DC4
100
AcDbEntity
  8
DEFPOINTS
 62
     0
100
AcDbPoint
 10
-0.0003804425583112
 20
-12.50000000003295
 30
0.0
  0
POINT
  5
2DE2
330
2DC4
100
AcDbEntity
  8
DEFPOINTS
 62
     0
100
AcDbPoint
 10
-0.0003804425583121
 20
-26.50000100000164
 30
0.0
  0
ENDBLK
  5
2DCF
330
2DC4
100
AcDbEntity
  8
0
100
AcDbBlockEnd
  0
BLOCK
  5
2F28
330
2F22
100
AcDbEntity
  8
0
100
AcDbBlockBegin
  2
*D9
 70
     1
 10
0.0
 20
0.0
 30
0.0
  3
*D9
  1

  0
LINE
  5
3012
330
2F22
100
AcDbEntity
  8
AM_5
100
AcDbLine
 10
10.83535534382518
 20
-25.44194072394371
 30
0.0
 11
1.264433433847533
 21
-14.15936459577624
 31
0.0
  0
MTEXT
  5
3013
330
2F22
100
AcDbEntity
  8
AM_5
 62
     2
100
AcDbMText
 10
9.222512367853465
 20
-18.74851428530204
 30
0.0
 40
3.2
 41
0.0
 71
     5
 72
     1
  1
R1.0
  7
ASAMI
 11
0.6468920505617337
 21
-0.7625815857467553
 31
0.0
  0
LINE
  5
3014
330
2F22
100
AcDbEntity
  8
AM_5
100
AcDbLine
 10
-0.9996887431185363
 20
-11.49032904566259
 30
0.0
 11
-0.3527966925568
 21
-12.25291063140935
 31
0.0
  0
INSERT
  5
3015
330
2F22
100
AcDbEntity
  8
AM_5
100
AcDbBlockReference
  2
_OPEN30
 10
-0.3527966925568
 20
-12.25291063140935
 30
0.0
 41
2.5
 42
2.5
 43
2.5
 50
130.3076835927493
  0
POINT
  5
3016
330
2F22
100
AcDbEntity
  8
DEFPOINTS
 62
     0
100
AcDbPoint
 10
-0.3527966925568
 20
-12.25291063140935
 30
0.0
  0
POINT
  5
3017
330
2F22
100
AcDbEntity
  8
DEFPOINTS
 62
     0
100
AcDbPoint
 10
-0.9996887431185363
 20
-11.49032904566259
 30
0.0
  0
ENDBLK
  5
2F29
330
2F22
100
AcDbEntity
  8
0
100
AcDbBlockEnd
  0
ENDSEC
  0
SECTION
  2
ENTITIES
  0
TEXT
  5
C58
330
1F
100
AcDbEntity
  8
AM_6
100
AcDbText
 10
-91.54756880048875
 20
-61.0000009999994
 30
0.0
 40
5.0
  1
HHM8250ZX-R10
 50
0.0000000000002036
 72
     4
 11
-59.99994975286972
 21
-58.50000099999928
 31
0.0
100
AcDbText
  0
DIMENSION
  5
2ADC
330
1F
100
AcDbEntity
  8
AM_5
100
AcDbDimension
  2
*D5
 10
19.22705670878343
 20
-12.50000000003115
 30
0.0
 11
16.12705670878343
 21
-0.0000000000155777
 31
0.0
 70
    32
  1
%%c<>
  3
AM_JIS
100
AcDbAlignedDimension
 13
0.0000502471302832
 23
12.49999999999999
 33
0.0
 14
0.0000502471299421
 24
-12.50000000003114
 34
0.0
 50
90.0
100
AcDbRotatedDimension
1001
GENIUS_GENDTOL_13
1000

1000
h7
1000

1040
0.0
  0
LINE
  5
2B2F
330
1F
100
AcDbEntity
  8
AM_0
100
AcDbLine
 10
-98.5165144773569
 20
12.49999999999986
 30
0.0
 11
-101.0214943769868
 21
12.49999999999986
 31
0.0
  0
LINE
  5
2B30
330
1F
100
AcDbEntity
  8
AM_0
100
AcDbLine
 10
-97.61592373338901
 20
-12.50000000000028
 30
0.0
 11
-101.0214943769868
 21
-12.50000000000028
 31
0.0
  0
LINE
  5
2B31
330
1F
100
AcDbEntity
  8
AM_0
100
AcDbLine
 10
-119.9999497528697
 20
9.37500000000001
 30
0.0
 11
-118.7999497528697
 21
12.49999999999999
 31
0.0
1001
GENIUS_GENFIL_13
1070
     0
1040
0.5
1040
0.5
1040
0.4999999999999716
1040
45.0
1002
{
1002
}
  0
LINE
  5
2B32
330
1F
100
AcDbEntity
  8
AM_0
100
AcDbLine
 10
-119.9999497528697
 20
-9.374999999999987
 30
0.0
 11
-118.7999497528697
 21
-12.49999999999998
 31
0.0
1001
GENIUS_GENFIL_13
1070
     0
1040
0.5
1040
0.5
1040
0.4999999999999716
1040
45.00000000000036
1002
{
1002
}
  0
LINE
  5
2B33
330
1F
100
AcDbEntity
  8
0
100
AcDbLine
 10
-118.7999497528697
 20
-12.49999999999998
 30
0.0
 11
-118.7999497528697
 21
12.49999999999999
 31
0.0
  0
LINE
  5
2B34
330
1F
100
AcDbEntity
  8
AM_0
100
AcDbLine
 10
-119.9999497528697
 20
-9.374999999999987
 30
0.0
 11
-119.9999497528697
 21
9.37500000000001
 31
0.0
  0
LINE
  5
2B35
330
1F
100
AcDbEntity
  8
AM_0
100
AcDbLine
 10
-118.7999497528697
 20
12.49999999999999
 30
0.0
 11
-53.02335018696789
 21
12.50826692347192
 31
0.0
1001
GENIUS_GENODEF_13
1002
{
1000
HIER
1070
     0
1002
}
1002
{
1000
MANEDIT
1070
     0
1002
}
1002
{
1000
NOSEL
1070
     0
1002
}
1002
{
1000
BEHIND
1070
     0
1002
}
1002
{
1000
REACTOR
1002
}
1001
GENIUS_GENOBJ-N-CEN_13
1002
{
1000
OWNER
1000
GEN
1002
}
  0
LINE
  5
2B36
330
1F
100
AcDbEntity
  8
AM_0
100
AcDbLine
 10
-118.7999497528697
 20
-12.49999999999998
 30
0.0
 11
-53.02335018696675
 21
-12.49173307652807
 31
0.0
1001
GENIUS_GENODEF_13
1002
{
1000
HIER
1070
     0
1002
}
1002
{
1000
MANEDIT
1070
     0
1002
}
1002
{
1000
NOSEL
1070
     0
1002
}
1002
{
1000
BEHIND
1070
     0
1002
}
1002
{
1000
REACTOR
1002
}
1001
GENIUS_GENOBJ-N-CEN_13
1002
{
1000
OWNER
1000
GEN
1002
}
  0
DIMENSION
  5
2B37
330
1F
100
AcDbEntity
  8
AM_5
100
AcDbDimension
  2
*D6
 10
-140.126509109435
 20
12.5
 30
0.0
 11
-140.126509109435
 21
-0.0000000000000227
 31
0.0
 70
   160
  1
%%c<>
  3
AM_JIS
100
AcDbAlignedDimension
 13
-118.7999497528697
 23
-12.5
 33
0.0
 14
-118.7999497528697
 24
12.5
 34
0.0
 50
270.0
100
AcDbRotatedDimension
1001
ACAD
1000
DSTYLE
1002
{
1070
    48
1040
0.1
1070
    47
1040
0.1
1070
   274
1070
     2
1070
   272
1070
     3
1002
}
1001
GENIUS_GENDTOL_13
1000

1000
h6
1000

1040
0.0
  0
LINE
  5
2B44
330
1F
100
AcDbEntity
  8
AM_7
100
AcDbLine
 10
-126.1265081094348
 20
-0.0000000000000036
 30
0.0
 11
5.227055708783262
 21
-0.0000000000000036
 31
0.0
1001
GENIUS_GENODEF_13
1002
{
1000
HIER
1070
     0
1002
}
1002
{
1000
MANEDIT
1070
     0
1002
}
1002
{
1000
NOSEL
1070
     0
1002
}
1002
{
1000
BEHIND
1070
     0
1002
}
1002
{
1000
REACTOR
1002
}
1001
GENIUS_GENOBJ-N-CEN_13
1002
{
1000
OWNER
1000
GEN
1002
}
  0
DIMENSION
  5
2B45
330
1F
100
AcDbEntity
  8
AM_5
100
AcDbDimension
  2
*D7
 10
0.0000502471302815
 20
-38.50000099999928
 30
0.0
 11
-59.99994975286972
 21
-35.40000099999928
 31
0.0
 70
    32
  1
<>
  3
AM_JIS
100
AcDbAlignedDimension
 13
-119.9999497528697
 23
-9.374999999999987
 33
0.0
 14
0.000050247130283
 24
-12.50000000003295
 34
0.0
 50
0.0000000000003534
100
AcDbRotatedDimension
1001
GENIUS_GENDTOL_13
1000

1000
H7
1000

1040
0.0
  0
LINE
  5
2D5A
330
1F
100
AcDbEntity
  8
AM_0
100
AcDbLine
 10
-0.7987187574047066
 20
9.088435772037852
 30
0.0
 11
-0.0003804425583109
 21
9.088435772037852
 31
0.0
  0
SPLINE
  5
2D5B
330
1F
100
AcDbEntity
  8
AM_0
100
AcDbSpline
210
0.0
220
0.0
230
1.0
 70
     8
 71
     3
 72
     8
 73
     4
 74
     0
 42
0.0000000001
 43
0.0000000001
 40
0.0
 40
0.0
 40
0.0
 40
0.0
 40
1.132300688333841
 40
1.132300688333841
 40
1.132300688333841
 40
1.132300688333841
 10
-0.7987187574047066
 20
9.088435772037852
 30
0.0
 10
-1.05930960215919
 20
8.17716332691601
 30
0.0
 10
-2.463968473066589
 20
7.775779570719858
 30
0.0
 10
-3.468367387982894
 20
7.775779570719858
 30
0.0
  0
LINE
  5
2D5C
330
1F
100
AcDbEntity
  8
AM_0
100
AcDbLine
 10
-0.0003804425583109
 20
9.088435772037852
 30
0.0
 11
-0.3934251609712027
 21
10.27381874381421
 31
0.0
  0
LINE
  5
2D5D
330
1F
100
AcDbEntity
  8
AM_0
100
AcDbLine
 10
-0.0003804425583109
 20
2.938743916337099
 30
0.0
 11
-0.2305532905574568
 21
2.131739466644002
 31
0.0
  0
LINE
  5
2D5E
330
1F
100
AcDbEntity
  8
AM_0
100
AcDbLine
 10
-0.359876402010243
 20
3.287665962810303
 30
0.0
 11
-3.468367387982894
 21
6.423172453587707
 31
0.0
  0
LINE
  5
2D5F
330
1F
100
AcDbEntity
  8
AM_0
100
AcDbLine
 10
-3.468367387982894
 20
6.423172453587707
 30
0.0
 11
-3.468367387982894
 21
7.775779570719858
 31
0.0
  0
LINE
  5
2D60
330
1F
100
AcDbEntity
  8
AM_0
100
AcDbLine
 10
-3.468367387982894
 20
7.775779570719858
 30
0.0
 11
-1.2906830038245
 21
4.226562087913118
 31
0.0
  0
LINE
  5
2D61
330
1F
100
AcDbEntity
  8
AM_0
100
AcDbLine
 10
-0.0003804425583109
 20
0.0000000000001658
 30
0.0
 11
-0.2305532905574568
 21
-2.057349925406105
 31
0.0
  0
LINE
  5
2D62
330
1F
100
AcDbEntity
  8
AM_0
100
AcDbLine
 10
-3.584840992776964
 20
-1.491733076527285
 30
0.0
 11
-3.584840992776964
 21
0.0082669234719174
 31
0.0
  0
LINE
  5
2D63
330
1F
100
AcDbEntity
  8
AM_0
100
AcDbLine
 10
-0.0003804425583109
 20
0.0082669234719174
 30
0.0
 11
-3.584840992776964
 21
0.0082669234719174
 31
0.0
  0
LINE
  5
2D64
330
1F
100
AcDbEntity
  8
AM_0
100
AcDbLine
 10
-0.0003804425583109
 20
-2.864354375099343
 30
0.0
 11
-0.8279568341547234
 21
0.0371947706189486
 31
0.0
  0
LINE
  5
2D65
330
1F
100
AcDbEntity
  8
AM_0
100
AcDbLine
 10
-3.61293122235137
 20
-8.178496216801368
 30
0.0
 11
-1.997750921688642
 21
-8.178496216801368
 31
0.0
  0
LINE
  5
2D66
330
1F
100
AcDbEntity
  8
AM_0
100
AcDbLine
 10
-0.7987187574059166
 20
-9.071901925093447
 30
0.0
 11
-0.0003804425583109
 21
-9.071901925093447
 31
0.0
  0
LINE
  5
2D67
330
1F
100
AcDbEntity
  8
AM_0
100
AcDbLine
 10
-0.359876402010243
 20
-11.08692701150258
 30
0.0
 11
-0.2568727190033051
 21
-9.071901925093447
 31
0.0
  0
LINE
  5
2D68
330
1F
100
AcDbEntity
  8
AM_0
100
AcDbLine
 10
-0.3825675555807931
 20
-11.07273244919424
 30
0.0
 11
-3.61293122235137
 21
-8.729780568912534
 31
0.0
  0
LINE
  5
2D69
330
1F
100
AcDbEntity
  8
AM_0
100
AcDbLine
 10
-3.61293122235137
 20
-8.729780568912534
 30
0.0
 11
-3.61293122235137
 21
-8.178496216801368
 31
0.0
  0
ELLIPSE
  5
2D6A
330
1F
100
AcDbEntity
  8
AM_0
100
AcDbEllipse
 10
15.87001466830771
 20
-5.862082747693598
 30
0.0
 11
16.23401518996564
 21
0.0000000000002713
 31
0.0
210
0.0
220
0.0
230
1.0
 40
0.9394513404302983
 41
3.119051463232137
 42
3.353643463775225
  0
LINE
  5
2D6B
330
1F
100
AcDbEntity
  8
AM_0
100
AcDbLine
 10
-0.0003804425583109
 20
-2.864354375099343
 30
0.0
 11
-0.359876402010243
 21
-5.518334647595796
 31
0.0
  0
LINE
  5
2D6C
330
1F
100
AcDbEntity
  8
AM_0
100
AcDbLine
 10
-0.359876402010243
 20
-5.518334647595796
 30
0.0
 11
-3.584840992776964
 21
-1.491733076527285
 31
0.0
  0
LINE
  5
2D6D
330
1F
100
AcDbEntity
  8
AM_0
100
AcDbLine
 10
-0.0003804425583109
 20
0.0743895412375884
 30
0.0
 11
-0.359876402010243
 21
3.287665962810303
 31
0.0
  0
SPLINE
  5
2D6F
330
1F
100
AcDbEntity
  8
AM_0
100
AcDbSpline
210
0.0
220
0.0
230
1.0
 70
     8
 71
     3
 72
     8
 73
     4
 74
     0
 42
0.0000000001
 43
0.0000000001
 40
0.0148899052473908
 40
0.0148899052473908
 40
0.0148899052473908
 40
0.0148899052473908
 40
0.5596836519003795
 40
0.5596836519003795
 40
0.5596836519003795
 40
0.5596836519003795
 10
-0.8035113812265281
 20
12.47089747401478
 30
0.0
 10
-0.8744891421036589
 20
12.01139882811344
 30
0.0
 10
-1.40010881243921
 20
11.41768420730747
 30
0.0
 10
-1.975644804481921
 20
10.97474697885064
 30
0.0
  0
LINE
  5
2D70
330
1F
100
AcDbEntity
  8
AM_0
100
AcDbLine
 10
-0.0003804425583109
 20
2.938743916336813
 30
0.0
 11
-0.0003804425583109
 21
11.52751668381613
 31
0.0
  0
ELLIPSE
  5
2D72
330
1F
100
AcDbEntity
  8
AM_0
100
AcDbEllipse
 10
1.691892249181106
 20
-11.117721125711
 30
0.0
 11
2.079505878699943
 21
0.000000000000008
 31
0.0
210
0.0
220
0.0
230
1.0
 40
0.9394513404303022
 41
2.978080377989206
 42
3.622192888834498
  0
LINE
  5
2D73
330
1F
100
AcDbEntity
  8
AM_0
100
AcDbLine
 10
-0.0003804425583108
 20
-11.49207325408132
 30
0.0
 11
-0.0003804425583109
 21
-2.864354375099343
 31
0.0
  0
LINE
  5
2D74
330
1F
100
AcDbEntity
  8
AM_11
100
AcDbLine
 10
-0.0003804425583464
 20
12.50826692347191
 30
0.0
 11
-0.0003804425583111
 21
-12.49173307652809
 31
0.0
  0
SPLINE
  5
2D75
330
1F
100
AcDbEntity
  8
AM_0
100
AcDbSpline
210
0.0
220
0.0
230
1.0
 70
     8
 71
     3
 72
     8
 73
     4
 74
     0
 42
0.0000000001
 43
0.0000000001
 40
0.0
 40
0.0
 40
0.0
 40
0.0
 40
9.246817942408423
 40
9.246817942408423
 40
9.246817942408423
 40
9.246817942408423
 10
-29.22857135845418
 20
12.22535077663738
 30
0.0
 10
-21.02625018752032
 20
12.22535077663738
 30
0.0
 10
-14.68248448707056
 20
6.116808850054649
 30
0.0
 10
-8.338718786620802
 20
0.0082669234719188
 30
0.0
  0
SPLINE
  5
2D77
330
1F
100
AcDbEntity
  8
AM_0
100
AcDbSpline
210
0.0
220
0.0
230
1.0
 70
     8
 71
     3
 72
     8
 73
     4
 74
     0
 42
0.0000000001
 43
0.0000000001
 40
2.787723648177807
 40
2.787723648177807
 40
2.787723648177807
 40
2.787723648177807
 40
9.246817942408423
 40
9.246817942408423
 40
9.246817942408423
 40
9.246817942408423
 10
-53.60070541726817
 20
10.72712195693976
 30
0.0
 10
-48.53600171762444
 20
8.542153618289319
 30
0.0
 10
-44.10474968098721
 20
4.275210270880619
 30
0.0
 10
-39.67349764434999
 20
0.0082669234719216
 30
0.0
  0
SPLINE
  5
2D78
330
1F
100
AcDbEntity
  8
AM_0
100
AcDbSpline
210
0.0
220
0.0
230
1.0
 70
     8
 71
     3
 72
     8
 73
     4
 74
     0
 42
0.0000000001
 43
0.0000000001
 40
0.0
 40
0.0
 40
0.0
 40
0.0
 40
9.246817942408229
 40
9.246817942408229
 40
9.246817942408229
 40
9.246817942408229
 10
-39.67349764436391
 20
12.22535077663738
 30
0.0
 10
-31.47117647343023
 20
12.22535077663738
 30
0.0
 10
-25.12741077298068
 20
6.116808850054649
 30
0.0
 10
-18.78364507253114
 20
0.0082669234719202
 30
0.0
  0
SPLINE
  5
2D79
330
1F
100
AcDbEntity
  8
AM_0
100
AcDbSpline
210
0.0
220
0.0
230
1.0
 70
     8
 71
     3
 72
     8
 73
     4
 74
     0
 42
0.0000000001
 43
0.0000000001
 40
0.0
 40
0.0
 40
0.0
 40
0.0
 40
9.246817942408423
 40
9.246817942408423
 40
9.246817942408423
 40
9.246817942408423
 10
-50.11842393027425
 20
12.22535077663738
 30
0.0
 10
-41.91610275934039
 20
12.22535077663738
 30
0.0
 10
-35.57233705889062
 20
6.116808850054652
 30
0.0
 10
-29.22857135844086
 20
0.0082669234719202
 30
0.0
  0
SPLINE
  5
2D7A
330
1F
100
AcDbEntity
  8
AM_0
100
AcDbSpline
210
0.0
220
0.0
230
1.0
 70
     8
 71
     3
 72
     8
 73
     4
 74
     0
 42
0.0000000001
 43
0.0000000001
 40
0.0
 40
0.0
 40
0.0
 40
0.0
 40
1.707928658540872
 40
1.707928658540872
 40
1.707928658540872
 40
1.707928658540872
 10
-11.24364504330233
 20
12.50826692347192
 30
0.0
 10
-12.75865047345591
 20
12.50826692347192
 30
0.0
 10
-14.20836689755104
 20
12.29779762402134
 30
0.0
 10
-15.60477535305042
 20
11.91548176903739
 30
0.0
  0
SPLINE
  5
2D7B
330
1F
100
AcDbEntity
  8
AM_0
100
AcDbSpline
210
0.0
220
0.0
230
1.0
 70
     8
 71
     3
 72
     8
 73
     4
 74
     0
 42
0.0000000001
 43
0.0000000001
 40
0.0
 40
0.0
 40
0.0
 40
0.0
 40
1.707928658540872
 40
1.707928658540872
 40
1.707928658540872
 40
1.707928658540872
 10
-32.1334976151218
 20
12.50826692347192
 30
0.0
 10
-33.64850304527537
 20
12.50826692347192
 30
0.0
 10
-35.0982194693705
 20
12.29779762402134
 30
0.0
 10
-36.49462792486988
 20
11.91548176903739
 30
0.0
  0
SPLINE
  5
2D7C
330
1F
100
AcDbEntity
  8
AM_0
100
AcDbSpline
210
0.0
220
0.0
230
1.0
 70
     8
 71
     3
 72
     8
 73
     4
 74
     0
 42
0.0000000001
 43
0.0000000001
 40
0.0
 40
0.0
 40
0.0
 40
0.0
 40
1.707928658540872
 40
1.707928658540872
 40
1.707928658540872
 40
1.707928658540872
 10
-21.68857132921206
 20
12.50826692347192
 30
0.0
 10
-23.20357675936564
 20
12.50826692347192
 30
0.0
 10
-24.65329318346077
 20
12.29779762402134
 30
0.0
 10
-26.04970163896015
 20
11.91548176903739
 30
0.0
  0
SPLINE
  5
2D7D
330
1F
100
AcDbEntity
  8
AM_0
100
AcDbSpline
210
0.0
220
0.0
230
1.0
 70
     8
 71
     3
 72
     8
 73
     4
 74
     0
 42
0.0000000001
 43
0.0000000001
 40
0.0
 40
0.0
 40
0.0
 40
0.0
 40
9.307120929696711
 40
9.307120929696711
 40
9.307120929696711
 40
9.307120929696711
 10
-42.57842390105815
 20
12.50826692347192
 30
0.0
 10
-34.32261141317766
 20
12.50826692347192
 30
0.0
 10
-28.00559137120153
 20
6.258266923471918
 30
0.0
 10
-21.68857132922537
 20
0.0082669234719202
 30
0.0
  0
SPLINE
  5
2D7E
330
1F
100
AcDbEntity
  8
AM_0
100
AcDbSpline
210
0.0
220
0.0
230
1.0
 70
     8
 71
     3
 72
     8
 73
     4
 74
     0
 42
0.0000000001
 43
0.0000000001
 40
0.0
 40
0.0
 40
0.0
 40
0.0
 40
9.307120929696711
 40
9.307120929696711
 40
9.307120929696711
 40
9.307120929696711
 10
-32.13349761514843
 20
12.50826692347192
 30
0.0
 10
-23.87768512726791
 20
12.50826692347192
 30
0.0
 10
-17.56066508529178
 20
6.258266923471918
 30
0.0
 10
-11.24364504331565
 20
0.0082669234719188
 30
0.0
  0
SPLINE
  5
2D80
330
1F
100
AcDbEntity
  8
AM_0
100
AcDbSpline
210
0.0
220
0.0
230
1.0
 70
     8
 71
     3
 72
     8
 73
     4
 74
     0
 42
0.0000000001
 43
0.0000000001
 40
0.0
 40
0.0
 40
0.0
 40
0.0
 40
1.707928658540872
 40
1.707928658540872
 40
1.707928658540872
 40
1.707928658540872
 10
-42.57842390103152
 20
12.50826692347192
 30
0.0
 10
-44.09342933118511
 20
12.50826692347192
 30
0.0
 10
-45.54314575528024
 20
12.29779762402134
 30
0.0
 10
-46.93955421077962
 20
11.91548176903739
 30
0.0
  0
SPLINE
  5
2D81
330
1F
100
AcDbEntity
  8
AM_0
100
AcDbSpline
210
0.0
220
0.0
230
1.0
 70
     8
 71
     3
 72
     8
 73
     4
 74
     0
 42
0.0000000001
 43
0.0000000001
 40
0.0
 40
0.0
 40
0.0
 40
0.0
 40
9.307120929696711
 40
9.307120929696711
 40
9.307120929696711
 40
9.307120929696711
 10
-53.02335018696789
 20
12.50826692347192
 30
0.0
 10
-44.76753769908738
 20
12.50826692347192
 30
0.0
 10
-38.45051765711124
 20
6.258266923471921
 30
0.0
 10
-32.13349761513511
 20
0.0082669234719216
 30
0.0
  0
SPLINE
  5
2D82
330
1F
100
AcDbEntity
  8
AM_0
100
AcDbSpline
210
0.0
220
0.0
230
1.0
 70
     8
 71
     3
 72
     8
 73
     4
 74
     0
 42
0.0000000001
 43
0.0000000001
 40
5.716542545374505
 40
5.716542545374505
 40
5.716542545374505
 40
5.716542545374505
 40
9.307120929696711
 40
9.307120929696711
 40
9.307120929696711
 40
9.307120929696711
 10
-50.0008425721404
 20
6.882935834537304
 30
0.0
 10
-47.45248877833203
 20
4.83062070430865
 30
0.0
 10
-45.01545633968842
 20
2.419443813890286
 30
0.0
 10
-42.57842390104483
 20
0.008266923471923
 30
0.0
  0
SPLINE
  5
2DA5
330
1F
100
AcDbEntity
  8
AM_0
100
AcDbSpline
210
0.0
220
0.0
230
1.0
 70
     8
 71
     3
 72
     8
 73
     4
 74
     0
 42
0.0000000001
 43
0.0000000001
 40
0.0
 40
0.0
 40
0.0
 40
0.0
 40
1.168827779827945
 40
1.168827779827945
 40
1.168827779827945
 40
1.168827779827945
 10
-11.24364504332714
 20
-12.49173307652808
 30
0.0
 10
-10.20684504322206
 20
-12.49173307652808
 30
0.0
 10
-9.200622520619251
 20
-12.39316180615259
 30
0.0
 10
-8.221137426011276
 20
-12.20839826423227
 30
0.0
  0
SPLINE
  5
2DA6
330
1F
100
AcDbEntity
  8
AM_0
100
AcDbSpline
210
0.0
220
0.0
230
1.0
 70
     8
 71
     3
 72
     8
 73
     4
 74
     0
 42
0.0000000001
 43
0.0000000001
 40
0.0
 40
0.0
 40
0.0
 40
0.0
 40
1.229985673975173
 40
1.229985673975173
 40
1.229985673975173
 40
1.229985673975173
 10
-18.78364507254263
 20
-12.20881692969368
 30
0.0
 10
-17.69259541671222
 20
-12.20881692969368
 30
0.0
 10
-16.6344302439835
 20
-12.1007350096495
 30
0.0
 10
-15.60477535305042
 20
-11.8989479220937
 30
0.0
  0
SPLINE
  5
2DA7
330
1F
100
AcDbEntity
  8
AM_0
100
AcDbSpline
210
0.0
220
0.0
230
1.0
 70
     8
 71
     3
 72
     8
 73
     4
 74
     0
 42
0.0000000001
 43
0.0000000001
 40
0.0
 40
0.0
 40
0.0
 40
0.0
 40
1.168827779827945
 40
1.168827779827945
 40
1.168827779827945
 40
1.168827779827945
 10
-32.13349761514661
 20
-12.49173307652807
 30
0.0
 10
-31.09669761504153
 20
-12.49173307652807
 30
0.0
 10
-30.09047509243871
 20
-12.39316180615259
 30
0.0
 10
-29.11098999783074
 20
-12.20839826423227
 30
0.0
  0
SPLINE
  5
2DA8
330
1F
100
AcDbEntity
  8
AM_0
100
AcDbSpline
210
0.0
220
0.0
230
1.0
 70
     8
 71
     3
 72
     8
 73
     4
 74
     0
 42
0.0000000001
 43
0.0000000001
 40
0.0
 40
0.0
 40
0.0
 40
0.0
 40
1.229985673975173
 40
1.229985673975173
 40
1.229985673975173
 40
1.229985673975173
 10
-29.22857135845237
 20
-12.20881692969368
 30
0.0
 10
-28.13752170262194
 20
-12.20881692969368
 30
0.0
 10
-27.07935652989263
 20
-12.1007350096495
 30
0.0
 10
-26.04970163896015
 20
-11.8989479220937
 30
0.0
  0
SPLINE
  5
2DA9
330
1F
100
AcDbEntity
  8
AM_0
100
AcDbSpline
210
0.0
220
0.0
230
1.0
 70
     8
 71
     3
 72
     8
 73
     4
 74
     0
 42
0.0000000001
 43
0.0000000001
 40
0.0
 40
0.0
 40
0.0
 40
0.0
 40
1.168827779827945
 40
1.168827779827945
 40
1.168827779827945
 40
1.168827779827945
 10
-21.68857132923748
 20
-12.49173307652808
 30
0.0
 10
-20.65177132913239
 20
-12.49173307652808
 30
0.0
 10
-19.64554880652958
 20
-12.39316180615259
 30
0.0
 10
-18.666063711921
 20
-12.20839826423227
 30
0.0
  0
SPLINE
  5
2DAA
330
1F
100
AcDbEntity
  8
AM_0
100
AcDbSpline
210
0.0
220
0.0
230
1.0
 70
     8
 71
     3
 72
     8
 73
     4
 74
     0
 42
0.0000000001
 43
0.0000000001
 40
0.0
 40
0.0
 40
0.0
 40
0.0
 40
1.168827779827945
 40
1.168827779827945
 40
1.168827779827945
 40
1.168827779827945
 10
-42.57842390105635
 20
-12.49173307652807
 30
0.0
 10
-41.54162390095126
 20
-12.49173307652807
 30
0.0
 10
-40.53540137834844
 20
-12.39316180615259
 30
0.0
 10
-39.55591628374046
 20
-12.20839826423227
 30
0.0
  0
SPLINE
  5
2DAB
330
1F
100
AcDbEntity
  8
AM_0
100
AcDbSpline
210
0.0
220
0.0
230
1.0
 70
     8
 71
     3
 72
     8
 73
     4
 74
     0
 42
0.0000000001
 43
0.0000000001
 40
0.0
 40
0.0
 40
0.0
 40
0.0
 40
1.229985673975173
 40
1.229985673975173
 40
1.229985673975173
 40
1.229985673975173
 10
-39.67349764436209
 20
-12.20881692969368
 30
0.0
 10
-38.58244798853169
 20
-12.20881692969368
 30
0.0
 10
-37.52428281580236
 20
-12.10073500964949
 30
0.0
 10
-36.49462792486988
 20
-11.89894792209369
 30
0.0
  0
SPLINE
  5
2DAE
330
1F
100
AcDbEntity
  8
AM_0
100
AcDbSpline
210
0.0
220
0.0
230
1.0
 70
     8
 71
     3
 72
     8
 73
     4
 74
     0
 42
0.0000000001
 43
0.0000000001
 40
0.0
 40
0.0
 40
0.0
 40
0.0
 40
9.307120929696711
 40
9.307120929696711
 40
9.307120929696711
 40
9.307120929696711
 10
-11.24364504330233
 20
-12.49173307652808
 30
0.0
 10
-19.49945753118283
 20
-12.49173307652808
 30
0.0
 10
-25.81647757315897
 20
-6.241733076528079
 30
0.0
 10
-32.13349761513511
 20
0.0082669234719216
 30
0.0
  0
SPLINE
  5
2DAF
330
1F
100
AcDbEntity
  8
AM_0
100
AcDbSpline
210
0.0
220
0.0
230
1.0
 70
     8
 71
     3
 72
     8
 73
     4
 74
     0
 42
0.0000000001
 43
0.0000000001
 40
0.0
 40
0.0
 40
0.0
 40
0.0
 40
9.246817942408453
 40
9.246817942408453
 40
9.246817942408453
 40
9.246817942408453
 10
-18.78364507251721
 20
-12.20881692969368
 30
0.0
 10
-26.9859662434511
 20
-12.20881692969368
 30
0.0
 10
-33.32973194390086
 20
-6.100275003110881
 30
0.0
 10
-39.6734976443506
 20
0.0082669234719216
 30
0.0
  0
SPLINE
  5
2DB0
330
1F
100
AcDbEntity
  8
AM_0
100
AcDbSpline
210
0.0
220
0.0
230
1.0
 70
     8
 71
     3
 72
     8
 73
     4
 74
     0
 42
0.0000000001
 43
0.0000000001
 40
0.0
 40
0.0
 40
0.0
 40
0.0
 40
9.307120929696711
 40
9.307120929696711
 40
9.307120929696711
 40
9.307120929696711
 10
-21.68857132921206
 20
-12.49173307652808
 30
0.0
 10
-29.94438381709257
 20
-12.49173307652808
 30
0.0
 10
-36.26140385906869
 20
-6.241733076528079
 30
0.0
 10
-42.57842390104483
 20
0.008266923471923
 30
0.0
  0
SPLINE
  5
2DB1
330
1F
100
AcDbEntity
  8
AM_0
100
AcDbSpline
210
0.0
220
0.0
230
1.0
 70
     8
 71
     3
 72
     8
 73
     4
 74
     0
 42
0.0000000001
 43
0.0000000001
 40
0.0
 40
0.0
 40
0.0
 40
0.0
 40
9.246817942408453
 40
9.246817942408453
 40
9.246817942408453
 40
9.246817942408453
 10
-8.338718786608096
 20
-12.20881692969368
 30
0.0
 10
-16.54103995754197
 20
-12.20881692969368
 30
0.0
 10
-22.88480565799172
 20
-6.100275003110883
 30
0.0
 10
-29.22857135844147
 20
0.0082669234719202
 30
0.0
  0
LINE
  5
2DB3
330
1F
100
AcDbEntity
  8
AM_11
100
AcDbLine
 10
-50.00084257213166
 20
12.50826692347191
 30
0.0
 11
-50.00084257213162
 21
-12.49173307652808
 31
0.0
  0
SPLINE
  5
2DB4
330
1F
100
AcDbEntity
  8
AM_0
100
AcDbSpline
210
0.0
220
0.0
230
1.0
 70
     8
 71
     3
 72
     8
 73
     4
 74
     0
 42
0.0000000001
 43
0.0000000001
 40
0.0
 40
0.0
 40
0.0
 40
0.0
 40
8.073263562228698
 40
8.073263562228698
 40
8.073263562228698
 40
8.073263562228698
 10
-32.1334976151218
 20
-12.49173307652807
 30
0.0
 10
-39.29482609021771
 20
-12.49173307652807
 30
0.0
 10
-44.99734411123362
 20
-7.789029928875138
 30
0.0
 10
-50.50646569525223
 20
-2.462883186841431
 30
0.0
  0
SPLINE
  5
2DB5
330
1F
100
AcDbEntity
  8
AM_0
100
AcDbSpline
210
0.0
220
0.0
230
1.0
 70
     8
 71
     3
 72
     8
 73
     4
 74
     0
 42
0.0000000001
 43
0.0000000001
 40
0.0
 40
0.0
 40
0.0
 40
0.0
 40
9.246817942408453
 40
9.246817942408453
 40
9.246817942408453
 40
9.246817942408453
 10
-29.22857135842695
 20
-12.20881692969368
 30
0.0
 10
-37.43089252936083
 20
-12.20881692969368
 30
0.0
 10
-43.77465822981057
 20
-6.10027500311088
 30
0.0
 10
-50.11842393026033
 20
0.008266923471923
 30
0.0
  0
SPLINE
  5
2DB6
330
1F
100
AcDbEntity
  8
AM_0
100
AcDbSpline
210
0.0
220
0.0
230
1.0
 70
     8
 71
     3
 72
     8
 73
     4
 74
     0
 42
0.0000000001
 43
0.0000000001
 40
0.0
 40
0.0
 40
0.0
 40
0.0
 40
4.256691489953095
 40
4.256691489953095
 40
4.256691489953095
 40
4.256691489953095
 10
-39.67349764433729
 20
-12.20881692969368
 30
0.0
 10
-43.44936421201866
 20
-12.20881692969368
 30
0.0
 10
-46.83137677666922
 20
-10.91433111602062
 30
0.0
 10
-50.00084257213167
 20
-8.921264672624957
 30
0.0
  0
SPLINE
  5
2DB7
330
1F
100
AcDbEntity
  8
AM_0
100
AcDbSpline
210
0.0
220
0.0
230
1.0
 70
     8
 71
     3
 72
     8
 73
     4
 74
     0
 42
0.0000000001
 43
0.0000000001
 40
0.0
 40
0.0
 40
0.0
 40
0.0
 40
3.663938588241713
 40
3.663938588241713
 40
3.663938588241713
 40
3.663938588241713
 10
-42.57842390103152
 20
-12.49173307652807
 30
0.0
 10
-45.82849341018733
 20
-12.49173307652807
 30
0.0
 10
-48.77809578374459
 20
-11.5231303767094
 30
0.0
 10
-51.54551605753056
 20
-9.967235248567192
 30
0.0
  0
SPLINE
  5
2DB8
330
1F
100
AcDbEntity
  8
AM_0
100
AcDbSpline
210
0.0
220
0.0
230
1.0
 70
     8
 71
     3
 72
     8
 73
     4
 74
     0
 42
0.0000000001
 43
0.0000000001
 40
0.0
 40
0.0
 40
0.0
 40
0.0
 40
3.208811545131809
 40
3.208811545131809
 40
3.208811545131809
 40
3.208811545131809
 10
-8.338718786632902
 20
12.22535077663752
 30
0.0
 10
-5.492366340407921
 20
12.22535077663752
 30
0.0
 10
-2.869823816564311
 20
11.48975137367915
 30
0.0
 10
-0.3934251609712027
 20
10.27381874381421
 30
0.0
  0
SPLINE
  5
2DB9
330
1F
100
AcDbEntity
  8
AM_0
100
AcDbSpline
210
0.0
220
0.0
230
1.0
 70
     8
 71
     3
 72
     8
 73
     4
 74
     0
 42
0.0000000001
 43
0.0000000001
 40
5.407991289528681
 40
5.407991289528681
 40
5.407991289528681
 40
5.407991289528681
 40
9.246817942408341
 40
9.246817942408341
 40
9.246817942408341
 40
9.246817942408341
 10
-0.3048724517470271
 20
-7.162561624972004
 30
0.0
 10
-3.071476151980507
 20
-5.063668893595098
 30
0.0
 10
-5.705097469300653
 20
-2.527700985061589
 30
0.0
 10
-8.338718786621406
 20
0.0082669234719188
 30
0.0
  0
SPLINE
  5
2DBA
330
1F
100
AcDbEntity
  8
AM_0
100
AcDbSpline
210
0.0
220
0.0
230
1.0
 70
     8
 71
     3
 72
     8
 73
     4
 74
     0
 42
0.0000000001
 43
0.0000000001
 40
0.0
 40
0.0
 40
0.0
 40
0.0
 40
1.229985673975173
 40
1.229985673975173
 40
1.229985673975173
 40
1.229985673975173
 10
-8.338718786632902
 20
-12.20881692969368
 30
0.0
 10
-7.247669130802496
 20
-12.20881692969368
 30
0.0
 10
-6.189503958073168
 20
-12.1007350096495
 30
0.0
 10
-5.159849067140694
 20
-11.8989479220937
 30
0.0
  0
LINE
  5
2DBB
330
1F
100
AcDbEntity
  8
AM_11
100
AcDbLine
 10
-0.0003804425583465
 20
12.50826692347191
 30
0.0
 11
-50.00084257213166
 21
12.50826692347192
 31
0.0
  0
LINE
  5
2DBC
330
1F
100
AcDbEntity
  8
AM_11
100
AcDbLine
 10
-50.00084257213162
 20
-12.49173307652807
 30
0.0
 11
-0.000380442558311
 21
-12.49173307652808
 31
0.0
  0
SPLINE
  5
2DBD
330
1F
100
AcDbEntity
  8
AM_0
100
AcDbSpline
210
0.0
220
0.0
230
1.0
 70
     8
 71
     3
 72
     8
 73
     4
 74
     0
 42
0.0000000001
 43
0.0000000001
 40
4.323648603745047
 40
4.323648603745047
 40
4.323648603745047
 40
4.323648603745047
 40
9.307120929696758
 40
9.307120929696758
 40
9.307120929696758
 40
9.307120929696758
 10
-0.7987187574047066
 20
-9.071901925093447
 30
0.0
 10
-4.478782998550543
 20
-6.684823726680921
 30
0.0
 10
-7.861214020933398
 20
-3.338278401604502
 30
0.0
 10
-11.24364504331565
 20
0.0082669234719188
 30
0.0
  0
SPLINE
  5
2DBF
330
1F
100
AcDbEntity
  8
AM_0
100
AcDbSpline
210
0.0
220
0.0
230
1.0
 70
     8
 71
     3
 72
     8
 73
     4
 74
     0
 42
0.0000000001
 43
0.0000000001
 40
0.873918368463309
 40
0.873918368463309
 40
0.873918368463309
 40
0.873918368463309
 40
9.246817942408316
 40
9.246817942408316
 40
9.246817942408316
 40
9.246817942408316
 10
-0.1711670338446299
 20
-12.05028598799107
 30
0.0
 10
-7.295214466171028
 20
-11.05417821453394
 30
0.0
 10
-13.03942976935108
 20
-5.522955645531014
 30
0.0
 10
-18.78364507253114
 20
0.0082669234719202
 30
0.0
  0
SPLINE
  5
2DC0
330
1F
100
AcDbEntity
  8
AM_0
100
AcDbSpline
210
0.0
220
0.0
230
1.0
 70
     8
 71
     3
 72
     8
 73
     4
 74
     0
 42
0.0000000001
 43
0.0000000001
 40
0.0
 40
0.0
 40
0.0
 40
0.0
 40
4.323648603744882
 40
4.323648603744882
 40
4.323648603744882
 40
4.323648603744882
 10
-11.24364504332714
 20
12.50826692347192
 30
0.0
 10
-7.40838466521047
 20
12.50826692347191
 30
0.0
 10
-3.991533641729853
 20
11.15945907557846
 30
0.0
 10
-0.7987187574047066
 20
9.088435772037852
 30
0.0
  0
SPLINE
  5
2DC1
330
1F
100
AcDbEntity
  8
AM_0
100
AcDbSpline
210
0.0
220
0.0
230
1.0
 70
     8
 71
     3
 72
     8
 73
     4
 74
     0
 42
0.0000000001
 43
0.0000000001
 40
0.0
 40
0.0
 40
0.0
 40
0.0
 40
8.106327806688073
 40
8.106327806688073
 40
8.106327806688073
 40
8.106327806688073
 10
-18.78364507254384
 20
12.22535077663738
 30
0.0
 10
-11.59298720499967
 20
12.22535077663738
 30
0.0
 10
-5.830694460698745
 20
7.530721867052416
 30
0.0
 10
-0.2445743569121784
 20
2.257063717831494
 30
0.0
  0
SPLINE
  5
2DC2
330
1F
100
AcDbEntity
  8
AM_0
100
AcDbSpline
210
0.0
220
0.0
230
1.0
 70
     8
 71
     3
 72
     8
 73
     4
 74
     0
 42
0.0000000001
 43
0.0000000001
 40
0.0
 40
0.0
 40
0.0
 40
0.0
 40
9.307120929696711
 40
9.307120929696711
 40
9.307120929696711
 40
9.307120929696711
 10
-21.68857132923748
 20
12.50826692347192
 30
0.0
 10
-13.43275884135698
 20
12.50826692347191
 30
0.0
 10
-7.115738799380842
 20
6.258266923471918
 30
0.0
 10
-0.7987187574047066
 20
0.0082669234719174
 30
0.0
  0
DIMENSION
  5
2DC3
330
1F
100
AcDbEntity
  8
AM_5
100
AcDbDimension
  2
*D8
 10
-0.0003804425583121
 20
-26.50000100000164
 30
0.0
 11
-25.00061150734496
 21
-23.40000100000164
 31
0.0
 70
    32
  1
<>
  3
AM_JIS
100
AcDbAlignedDimension
 13
-50.00084257213162
 23
-12.5
 33
0.0
 14
-0.0003804425583112
 24
-12.50000000003295
 34
0.0
 50
359.9999999999992
100
AcDbRotatedDimension
1001
GENIUS_GENDTOL_13
1000

1000
H7
1000

1040
0.0
  0
ARC
  5
2E1A
330
1F
100
AcDbEntity
  8
AM_0
100
AcDbCircle
 10
-0.9996887431185342
 20
-11.49032904566259
 30
0.0
 40
1.0
100
AcDbArc
 50
268.0875646663077
 51
2.131186119004275
  0
SPLINE
  5
2E1B
330
1F
100
AcDbEntity
  8
AM_0
100
AcDbSpline
210
0.0
220
0.0
230
1.0
 70
     8
 71
     3
 72
     8
 73
     4
 74
     0
 42
0.0000000001
 43
0.0000000001
 40
0.0882606451350015
 40
0.0882606451350015
 40
0.0882606451350015
 40
0.0882606451350015
 40
9.307120929696711
 40
9.307120929696711
 40
9.307120929696711
 40
9.307120929696711
 10
-1.033070194365308
 20
-12.49005222344394
 30
0.0
 10
-9.174341499904384
 20
-12.37319394154518
 30
0.0
 10
-15.43145641456488
 20
-6.18246350903663
 30
0.0
 10
-21.68857132922537
 20
0.0082669234719202
 30
0.0
  0
ARC
  5
2E1C
330
1F
100
AcDbEntity
  8
AM_0
100
AcDbCircle
 10
-0.9996988489594427
 20
11.50703091311844
 30
0.0
 40
1.0
100
AcDbArc
 50
357.8688138809957
 51
90.00057854694295
  0
SPLINE
  5
2E1E
330
1F
100
AcDbEntity
  8
AM_0
100
AcDbSpline
210
0.0
220
0.0
230
1.0
 70
     8
 71
     3
 72
     8
 73
     4
 74
     0
 42
0.0000000001
 43
0.0000000001
 40
0.0756684878933589
 40
0.0756684878933589
 40
0.0756684878933589
 40
0.0756684878933589
 40
1.707928658540872
 40
1.707928658540872
 40
1.707928658540872
 40
1.707928658540872
 10
-0.9996988489594421
 20
12.50703091311843
 30
0.0
 10
-2.44207673129397
 20
12.48928024534285
 30
0.0
 10
-3.825307432471765
 20
12.28085940912598
 30
0.0
 10
-5.159849067140694
 20
11.91548176903739
 30
0.0
  0
POLYLINE
  5
2ED5
330
1F
100
AcDbEntity
  8
AM_0
100
AcDb2dPolyline
 66
     1
 10
0.0
 20
0.0
 30
0.0
 70
     2
  0
VERTEX
  5
2ED6
330
2ED5
100
AcDbEntity
  8
AM_0
100
AcDbVertex
100
AcDb2dVertex
 10
-50.0008425721317
 20
-8.921264672624996
 30
0.0
 42
-0.0178156365317552
  0
VERTEX
  5
2ED7
330
2ED5
100
AcDbEntity
  8
AM_0
100
AcDbVertex
100
AcDb2dVertex
 10
-51.26441359646801
 20
-7.756256437399205
 30
0.0
 42
-0.0331959452416026
 70
     1
  0
VERTEX
  5
2ED8
330
2ED5
100
AcDbEntity
  8
AM_0
100
AcDbVertex
100
AcDb2dVertex
 10
-51.8758425721317
 20
-7.064679384351579
 30
0.0
 42
-0.0146039106870926
  0
VERTEX
  5
2ED9
330
2ED5
100
AcDbEntity
  8
AM_0
100
AcDbVertex
100
AcDb2dVertex
 10
-53.45277592912113
 20
-4.894552865660219
 30
0.0
 42
-0.0223520491893001
 70
     1
  0
VERTEX
  5
2EDA
330
2ED5
100
AcDbEntity
  8
AM_0
100
AcDbVertex
100
AcDb2dVertex
 10
-54.37584257213171
 20
-3.404052299998765
 30
0.0
 42
-0.0441009200707103
  0
VERTEX
  5
2EDB
330
2ED5
100
AcDbEntity
  8
AM_0
100
AcDbVertex
100
AcDb2dVertex
 10
-54.9103134543057
 20
-2.212502745948885
 30
0.0
 42
-0.0936531610333872
 70
     1
  0
VERTEX
  5
2EDC
330
2ED5
100
AcDbEntity
  8
AM_0
100
AcDbVertex
100
AcDb2dVertex
 10
-55.00084257213171
 20
-1.600010503919365
 30
0.0
 42
-0.1702954566684844
  0
VERTEX
  5
2EDD
330
2ED5
100
AcDbEntity
  8
AM_0
100
AcDbVertex
100
AcDb2dVertex
 10
-54.84098913890929
 20
-1.196718130846615
 30
0.0
 42
-0.1297006245562602
 70
     1
  0
VERTEX
  5
2EDE
330
2ED5
100
AcDbEntity
  8
AM_0
100
AcDbVertex
100
AcDb2dVertex
 10
-54.37584257213171
 20
-0.8797855913514931
 30
0.0
 42
-0.1520873745504847
  0
VERTEX
  5
2EDF
330
2ED5
100
AcDbEntity
  8
AM_0
100
AcDbVertex
100
AcDb2dVertex
 10
-53.74666015848625
 20
-0.8556863591741468
 30
0.0
 42
-0.046970576622812
 70
     1
  0
VERTEX
  5
2EE0
330
2ED5
100
AcDbEntity
  8
AM_0
100
AcDbVertex
100
AcDb2dVertex
 10
-51.87584257213171
 20
-1.554426041044757
 30
0.0
 42
-0.0471052227454502
  0
VERTEX
  5
2EE1
330
2ED5
100
AcDbEntity
  8
AM_0
100
AcDbVertex
100
AcDb2dVertex
 10
-50.90007258881671
 20
-2.146601307464084
 30
0.0
 42
-0.0445950027858137
 70
     1
  0
VERTEX
  5
2EE2
330
2ED5
100
AcDbEntity
  8
AM_0
100
AcDbVertex
100
AcDb2dVertex
 10
-50.0008425721317
 20
-2.949291403305897
 30
0.0
  0
SEQEND
  5
2EE3
330
2ED5
100
AcDbEntity
  8
AM_0
  0
LINE
  5
2EE4
330
1F
100
AcDbEntity
  8
AM_11
100
AcDbLine
 10
-50.00084257213173
 20
12.50826692347191
 30
0.0
 11
-50.0008425721317
 21
-12.49173307652809
 31
0.0
  0
POLYLINE
  5
2EE5
330
1F
100
AcDbEntity
  8
AM_0
100
AcDb2dPolyline
 66
     1
 10
0.0
 20
0.0
 30
0.0
  0
VERTEX
  5
2EE6
330
2EE5
100
AcDbEntity
  8
AM_0
100
AcDbVertex
100
AcDb2dVertex
 10
-50.0008425721317
 20
-12.20839826286432
 30
0.0
 42
-0.0221539577337636
  0
VERTEX
  5
2EE7
330
2EE5
100
AcDbEntity
  8
AM_0
100
AcDbVertex
100
AcDb2dVertex
 10
-51.15078929762707
 20
-11.94834199236472
 30
0.0
 42
-0.0340466909705598
  0
VERTEX
  5
2EE8
330
2EE5
100
AcDbEntity
  8
AM_0
100
AcDbVertex
100
AcDb2dVertex
 10
-51.87584257181145
 20
-11.69612010965728
 30
0.0
 42
-0.0203576778786898
  0
VERTEX
  5
2EE9
330
2EE5
100
AcDbEntity
  8
AM_0
100
AcDbVertex
100
AcDb2dVertex
 10
-53.56970266352282
 20
-10.89132574775661
 30
0.0
 42
-0.0400624909263087
  0
VERTEX
  5
2EEA
330
2EE5
100
AcDbEntity
  8
AM_0
100
AcDbVertex
100
AcDb2dVertex
 10
-54.37584257181145
 20
-10.38102753602238
 30
0.0
 42
-0.0663150629504314
  0
VERTEX
  5
2EEB
330
2EE5
100
AcDbEntity
  8
AM_0
100
AcDbVertex
100
AcDb2dVertex
 10
-54.93590298118386
 20
-9.830450009639509
 30
0.0
 42
-0.2076691274107043
  0
VERTEX
  5
2EEC
330
2EE5
100
AcDbEntity
  8
AM_0
100
AcDbVertex
100
AcDb2dVertex
 10
-55.0008425721317
 20
-9.578213115594518
 30
0.0
 42
-0.2374584988068722
  0
VERTEX
  5
2EED
330
2EE5
100
AcDbEntity
  8
AM_0
100
AcDbVertex
100
AcDb2dVertex
 10
-54.86999164278538
 20
-9.396396323891544
 30
0.0
 42
-0.0987776704921028
  0
VERTEX
  5
2EEE
330
2EE5
100
AcDbEntity
  8
AM_0
100
AcDbVertex
100
AcDb2dVertex
 10
-54.3758425721317
 20
-9.252275593210445
 30
0.0
 42
-0.0800554842556619
  0
VERTEX
  5
2EEF
330
2EE5
100
AcDbEntity
  8
AM_0
100
AcDbVertex
100
AcDb2dVertex
 10
-53.76402531425334
 20
-9.29695872590328
 30
0.0
 42
-0.0248354955603466
  0
VERTEX
  5
2EF0
330
2EE5
100
AcDbEntity
  8
AM_0
100
AcDbVertex
100
AcDb2dVertex
 10
-51.8758425721317
 20
-9.844690611076892
 30
0.0
 42
-0.0116235723303201
  0
VERTEX
  5
2EF1
330
2EE5
100
AcDbEntity
  8
AM_0
100
AcDbVertex
100
AcDb2dVertex
 10
-51.54551605753059
 20
-9.967235248567224
 30
0.0
 42
-0.0249611087696398
  0
SEQEND
  5
2EF2
330
2EE5
100
AcDbEntity
  8
AM_0
  0
SPLINE
  5
2EF3
330
1F
100
AcDbEntity
  8
AM_0
100
AcDbSpline
210
0.0
220
0.0
230
1.0
 70
     8
 71
     3
 72
     8
 73
     4
 74
     0
 42
0.0000000001
 43
0.0000000001
 40
0.0
 40
0.0
 40
0.0
 40
0.0
 40
1.168827779827945
 40
1.168827779827945
 40
1.168827779827945
 40
1.168827779827945
 10
-53.02335018696675
 20
-12.49173307652807
 30
0.0
 10
-51.98655018686167
 20
-12.49173307652807
 30
0.0
 10
-50.98032766425885
 20
-12.39316180615259
 30
0.0
 10
-50.00084256965028
 20
-12.20839826423227
 30
0.0
  0
SPLINE
  5
2EF4
330
1F
100
AcDbEntity
  8
AM_0
100
AcDbSpline
210
0.0
220
0.0
230
1.0
 70
     8
 71
     3
 72
     8
 73
     4
 74
     0
 42
0.0000000001
 43
0.0000000001
 40
0.0
 40
0.0
 40
0.0
 40
0.0
 40
1.229985673975173
 40
1.229985673975173
 40
1.229985673975173
 40
1.229985673975173
 10
-50.00306286504083
 20
-12.20881692969368
 30
0.0
 10
-49.0273742744415
 20
-12.20881692969368
 30
0.0
 10
-47.96920910171276
 20
-12.1007350096495
 30
0.0
 10
-46.93955421077969
 20
-11.8989479220937
 30
0.0
  0
POLYLINE
  5
2EF5
330
1F
100
AcDbEntity
  8
AM_0
100
AcDb2dPolyline
 66
     1
 10
0.0
 20
0.0
 30
0.0
 70
     2
  0
VERTEX
  5
2EF6
330
2EF5
100
AcDbEntity
  8
AM_0
100
AcDbVertex
100
AcDb2dVertex
 10
-50.1184239302604
 20
0.0082669234719202
 30
0.0
 42
-0.0127375777047685
  0
VERTEX
  5
2EF7
330
2EF5
100
AcDbEntity
  8
AM_0
100
AcDbVertex
100
AcDb2dVertex
 10
-51.35414651271595
 20
1.3696544677864
 30
0.0
 42
-0.0248093973610095
 70
     1
  0
VERTEX
  5
2EF8
330
2EF5
100
AcDbEntity
  8
AM_0
100
AcDbVertex
100
AcDb2dVertex
 10
-51.93463325119606
 20
2.114573459344449
 30
0.0
 42
-0.0083836245974647
  0
VERTEX
  5
2EF9
330
2EF5
100
AcDbEntity
  8
AM_0
100
AcDbVertex
100
AcDb2dVertex
 10
-53.51362777151094
 20
4.444558436171174
 30
0.0
 42
-0.0143113302193792
 70
     1
  0
VERTEX
  5
2EFA
330
2EF5
100
AcDbEntity
  8
AM_0
100
AcDbVertex
100
AcDb2dVertex
 10
-54.37584257213172
 20
5.850222954185372
 30
0.0
 42
-0.0388452244960751
  0
VERTEX
  5
2EFB
330
2EF5
100
AcDbEntity
  8
AM_0
100
AcDbVertex
100
AcDb2dVertex
 10
-54.91201671349671
 20
6.977603739353892
 30
0.0
 42
-0.0958601720223094
 70
     1
  0
VERTEX
  5
2EFC
330
2EF5
100
AcDbEntity
  8
AM_0
100
AcDbVertex
100
AcDb2dVertex
 10
-55.00084257213172
 20
7.479565913153761
 30
0.0
 42
-0.1958397271905712
  0
VERTEX
  5
2EFD
330
2EF5
100
AcDbEntity
  8
AM_0
100
AcDbVertex
100
AcDb2dVertex
 10
-54.86833386056204
 20
7.79056829891434
 30
0.0
 42
-0.1110351864371754
 70
     1
  0
VERTEX
  5
2EFE
330
2EF5
100
AcDbEntity
  8
AM_0
100
AcDbVertex
100
AcDb2dVertex
 10
-54.37584257213173
 20
8.09938437315013
 30
0.0
 42
-0.1149197439922528
  0
VERTEX
  5
2EFF
330
2EF5
100
AcDbEntity
  8
AM_0
100
AcDbVertex
100
AcDb2dVertex
 10
-53.70731341885767
 20
8.173268792596307
 30
0.0
 42
-0.0408875130900929
 70
     1
  0
VERTEX
  5
2F00
330
2EF5
100
AcDbEntity
  8
AM_0
100
AcDbVertex
100
AcDb2dVertex
 10
-51.87584257213173
 20
7.801069333838881
 30
0.0
 42
-0.0433088016869432
  0
VERTEX
  5
2F01
330
2EF5
100
AcDbEntity
  8
AM_0
100
AcDbVertex
100
AcDb2dVertex
 10
-50.96090957471369
 20
7.447476733101556
 30
0.0
 42
-0.0381261598452643
 70
     1
  0
VERTEX
  5
2F02
330
2EF5
100
AcDbEntity
  8
AM_0
100
AcDbVertex
100
AcDb2dVertex
 10
-50.00084257213172
 20
6.88293583453127
 30
0.0
  0
SEQEND
  5
2F03
330
2EF5
100
AcDbEntity
  8
AM_0
  0
POLYLINE
  5
2F04
330
1F
100
AcDbEntity
  8
AM_0
100
AcDb2dPolyline
 66
     1
 10
0.0
 20
0.0
 30
0.0
  0
VERTEX
  5
2F05
330
2F04
100
AcDbEntity
  8
AM_0
100
AcDbVertex
100
AcDb2dVertex
 10
-53.60070541726807
 20
10.72712195693969
 30
0.0
 42
-0.0145870599255934
  0
VERTEX
  5
2F06
330
2F04
100
AcDbEntity
  8
AM_0
100
AcDbVertex
100
AcDb2dVertex
 10
-54.37584257213173
 20
11.30945739437178
 30
0.0
 42
-0.0050435334132596
  0
VERTEX
  5
2F07
330
2F04
100
AcDbEntity
  8
AM_0
100
AcDbVertex
100
AcDb2dVertex
 10
-54.99554739082466
 20
11.81425937374848
 30
0.0
 42
-0.2742987476584449
  0
VERTEX
  5
2F08
330
2F04
100
AcDbEntity
  8
AM_0
100
AcDbVertex
100
AcDb2dVertex
 10
-55.00084257213173
 20
11.8291476068564
 30
0.0
 42
-0.2776516060307496
  0
VERTEX
  5
2F09
330
2F04
100
AcDbEntity
  8
AM_0
100
AcDbVertex
100
AcDb2dVertex
 10
-54.94065087888643
 20
11.89568358434908
 30
0.0
 42
-0.0400827094855082
  0
VERTEX
  5
2F0A
330
2F04
100
AcDbEntity
  8
AM_0
100
AcDbVertex
100
AcDb2dVertex
 10
-54.37584257180816
 20
12.01821729068137
 30
0.0
 42
-0.0136313623974274
  0
VERTEX
  5
2F0B
330
2F04
100
AcDbEntity
  8
AM_0
100
AcDbVertex
100
AcDb2dVertex
 10
-53.79715808330765
 20
12.07993682687639
 30
0.0
 42
-0.0041179133630786
  0
VERTEX
  5
2F0C
330
2F04
100
AcDbEntity
  8
AM_0
100
AcDbVertex
100
AcDb2dVertex
 10
-51.87584257180816
 20
12.21610954272847
 30
0.0
 42
-0.0144548307118866
  0
VERTEX
  5
2F0D
330
2F04
100
AcDbEntity
  8
AM_0
100
AcDbVertex
100
AcDb2dVertex
 10
-51.21096677111047
 20
12.23846642256347
 30
0.0
 42
-0.0079447181452264
  0
VERTEX
  5
2F0E
330
2F04
100
AcDbEntity
  8
AM_0
100
AcDbVertex
100
AcDb2dVertex
 10
-50.00084257213173
 20
12.22493211164382
 30
0.0
  0
SEQEND
  5
2F0F
330
2F04
100
AcDbEntity
  8
AM_0
  0
DIMENSION
  5
2F21
330
1F
100
AcDbEntity
  8
AM_5
100
AcDbDimension
  2
*D9
 10
-0.9996887431185363
 20
-11.49032904566259
 30
0.0
 11
9.222512367853465
 21
-18.74851428530204
 31
0.0
 70
    36
  1
<>
  3
AM_JIS$4
100
AcDbRadialDimension
 15
-0.3527966925568
 25
-12.25291063140935
 35
0.0
 40
0.0
1001
GENIUS_GENDTOL_13
1000

1000
h7
1000

1040
0.0
1001
ACAD
1000
DSTYLE
1002
{
1070
   287
1070
     3
1070
    78
1070
     0
1070
   271
1070
     1
1070
   288
1070
     1
1070
   289
1070
     3
1070
   172
1070
     1
1070
    74
1070
     0
1002
}
  0
VIEWPORT
  5
110
330
101
100
AcDbEntity
 67
     1
  8
0
100
AcDbViewport
 10
420.5
 20
297.0
 30
0.0
 40
948.9782706766916
 41
628.452
 68
     1
 69
     1
1001
ACAD
1000
MVIEW
1002
{
1070
    16
1010
0.0
1020
0.0
1030
0.0
1010
0.0
1020
0.0
1030
1.0
1040
0.0
1040
628.452
1040
420.5
1040
297.0
1040
50.0
1040
0.0
1040
0.0
1070
     0
1070
   100
1070
     1
1070
     1
1070
     0
1070
     0
1070
     0
1070
     0
1040
0.0
1040
0.0
1040
0.0
1040
10.0
1040
10.0
1040
10.0
1040
10.0
1070
     0
1002
{
1002
}
1002
}
  0
ENDSEC
  0
SECTION
  2
OBJECTS
  0
DICTIONARY
  5
C
330
0
100
AcDbDictionary
  3
ACAD_GROUP
350
D
  3
ACAD_LAYOUT
350
1A
  3
ACAD_MLINESTYLE
350
17
  3
ACAD_PLOTSETTINGS
350
19
  3
ACAD_PLOTSTYLENAME
350
E
  3
ACDBVARIABLEDICTIONARY
350
34
  3
ACMDICTIONARY
350
43
  3
AMG
350
2B
  3
AMGSNAPSETTINGS
350
6E
  3
DWGPROPS
350
2FDB
  3
ACDBHEADERROUNDTRIPXREC
350
2FE8
  0
DICTIONARY
  5
74
330
1F
100
AcDbDictionary
280
     1
  3
ACAD_INDEX
360
2FDD
  3
ACAD_LAYOUTSELFREF
360
300B
  0
DICTIONARY
  5
3010
330
101
100
AcDbDictionary
280
     1
  3
ACAD_LAYOUTSELFREF
360
3011
  0
DICTIONARY
  5
D
102
{ACAD_REACTORS
330
C
102
}
330
C
100
AcDbDictionary
  0
DICTIONARY
  5
1A
102
{ACAD_REACTORS
330
C
102
}
330
C
100
AcDbDictionary
  0
DICTIONARY
  5
17
102
{ACAD_REACTORS
330
C
102
}
330
C
100
AcDbDictionary
  3
STANDARD
350
18
  0
DICTIONARY
  5
19
102
{ACAD_REACTORS
330
C
102
}
330
C
100
AcDbDictionary
  0
ACDBDICTIONARYWDFLT
  5
E
102
{ACAD_REACTORS
330
C
102
}
330
C
100
AcDbDictionary
281
     1
  3
Normal
350
F
100
AcDbDictionaryWithDefault
340
F
  0
DICTIONARY
  5
34
102
{ACAD_REACTORS
330
C
102
}
330
C
100
AcDbDictionary
  3
INDEXCTL
350
35
  3
SORTENTS
350
B5E
  0
DICTIONARY
  5
43
102
{ACAD_REACTORS
330
C
102
}
330
C
100
AcDbDictionary
  3
ACMSTDDICTIONARY
350
260
  0
DICTIONARY
  5
2B
102
{ACAD_REACTORS
330
C
102
}
330
C
100
AcDbDictionary
  3
ACMGSETTINGS
350
2C
  0
DICTIONARY
  5
6E
102
{ACAD_REACTORS
330
C
102
}
330
C
100
AcDbDictionary
  0
XRECORD
  5
2FDB
102
{ACAD_REACTORS
330
C
102
}
330
C
100
AcDbXrecord
  1
DWGPROPS COOKIE
  2

  3

  4

  6

  7

  8

  9

300
AmdtFileType=82
301
=
302
=
303
=
304
=
305
=
306
=
307
=
308
=
309
=
 40
0.220896099537037
 41
2452838.620506898
 42
2452848.44493397
  1

 90
        1
  0
DICTIONARY
  5
2FE8
102
{ACAD_REACTORS
330
C
102
}
330
C
100
AcDbDictionary
  3
TSTACKALIGN
350
2FE9
  3
TSTACKSIZE
350
2FEA
  3
HYPERLINKBASE
350
2FEB
  3
STYLESHEET
350
2FEC
  3
LAYOUTDICT
350
2FED
  3
PLOTSETDICT
350
2FEE
  3
PLOTSTYLNAMDICT
350
2FEF
  3
LWETCUNION
350
2FF0
  3
INSUNITS
350
2FF1
  3
CEPSNTYPE
350
2FF2
  3
FINGERPRINTGUID
350
2FF3
  3
VERSIONGUID
350
2FF4
  3
PSVPSCALE
350
2FF5
  3
DIMSTYLEDATA
350
2FF6
  3
PUCSORTHOREF
350
2FF7
  3
PUCSORTHOVIEW
350
2FF8
  3
PUCSBASE
350
2FF9
  3
PUCSORGTOP
350
2FFA
  3
PUCSORGBOTTOM
350
2FFB
  3
PUCSORGLEFT
350
2FFC
  3
PUCSORGRIGHT
350
2FFD
  3
PUCSORGFRONT
350
2FFE
  3
PUCSORGBACK
350
2FFF
  3
UCSORTHOREF
350
3000
  3
UCSORTHOVIEW
350
3001
  3
UCSBASE
350
3002
  3
UCSORGTOP
350
3003
  3
UCSORGBOTTOM
350
3004
  3
UCSORGLEFT
350
3005
  3
UCSORGRIGHT
350
3006
  3
UCSORGFRONT
350
3007
  3
UCSORGBACK
350
3008
  0
DICTIONARY
  5
2FDD
102
{ACAD_REACTORS
330
74
102
}
330
74
100
AcDbDictionary
  3
*A1
350
2FDE
  0
XRECORD
  5
300B
102
{ACAD_REACTORS
330
74
102
}
330
74
100
AcDbXrecord
340
1F
  0
XRECORD
  5
3011
102
{ACAD_REACTORS
330
3010
102
}
330
3010
100
AcDbXrecord
340
101
  0
MLINESTYLE
  5
18
102
{ACAD_REACTORS
330
17
102
}
330
17
100
AcDbMlineStyle
  2
STANDARD
 70
     0
  3

 62
   256
 51
90.0
 52
90.0
 71
     2
 49
0.5
 62
   256
  6
BYLAYER
 49
-0.5
 62
   256
  6
BYLAYER
  0
ACDBPLACEHOLDER
  5
F
102
{ACAD_REACTORS
330
E
102
}
330
E
100
AcDbPlaceHolder
280
     0
  0
DICTIONARYVAR
  5
35
102
{ACAD_REACTORS
330
34
102
}
330
34
100
DictionaryVariables
280
     0
  1
1
  0
DICTIONARYVAR
  5
B5E
102
{ACAD_REACTORS
330
34
102
}
330
34
100
DictionaryVariables
280
     0
  1
96
  0
DICTIONARY
  5
260
102
{ACAD_REACTORS
330
43
102
}
330
43
100
AcDbDictionary
  0
DICTIONARY
  5
2C
102
{ACAD_REACTORS
330
2B
102
}
330
2B
100
AcDbDictionary
  3
DWGSETTINGS
350
2D
  0
XRECORD
  5
2FE9
102
{ACAD_REACTORS
330
2FE8
102
}
330
2FE8
100
AcDbXrecord
 90
        1
  0
XRECORD
  5
2FEA
102
{ACAD_REACTORS
330
2FE8
102
}
330
2FE8
100
AcDbXrecord
 90
       70
  0
XRECORD
  5
2FEB
102
{ACAD_REACTORS
330
2FE8
102
}
330
2FE8
100
AcDbXrecord
  1

  0
XRECORD
  5
2FEC
102
{ACAD_REACTORS
330
2FE8
102
}
330
2FE8
100
AcDbXrecord
  1
ACAD_M_9400.ctb
  0
XRECORD
  5
2FED
102
{ACAD_REACTORS
330
2FE8
102
}
330
2FE8
100
AcDbXrecord
340
1A
  0
XRECORD
  5
2FEE
102
{ACAD_REACTORS
330
2FE8
102
}
330
2FE8
100
AcDbXrecord
340
19
  0
XRECORD
  5
2FEF
102
{ACAD_REACTORS
330
2FE8
102
}
330
2FE8
100
AcDbXrecord
340
E
  0
XRECORD
  5
2FF0
102
{ACAD_REACTORS
330
2FE8
102
}
330
2FE8
100
AcDbXrecord
 90
    10781
  0
XRECORD
  5
2FF1
102
{ACAD_REACTORS
330
2FE8
102
}
330
2FE8
100
AcDbXrecord
 90
        4
  0
XRECORD
  5
2FF2
102
{ACAD_REACTORS
330
2FE8
102
}
330
2FE8
100
AcDbXrecord
 90
        0
  0
XRECORD
  5
2FF3
102
{ACAD_REACTORS
330
2FE8
102
}
330
2FE8
100
AcDbXrecord
  1
{AFB28963-8C59-40AE-9337-C84526B81ACE}
  0
XRECORD
  5
2FF4
102
{ACAD_REACTORS
330
2FE8
102
}
330
2FE8
100
AcDbXrecord
  1
{A3F56A63-2864-4E37-9CF6-D18E7649F2D9}
  0
XRECORD
  5
2FF5
102
{ACAD_REACTORS
330
2FE8
102
}
330
2FE8
100
AcDbXrecord
 40
0.0
  0
XRECORD
  5
2FF6
102
{ACAD_REACTORS
330
2FE8
102
}
330
2FE8
100
AcDbXrecord
1000
DSTYLE
1002
{
1070
    79
 70
     2
1070
   341
340
59
1070
   342
340
59
1070
   371
 70
    -1
1070
   372
 70
    -1
1002
}
  0
XRECORD
  5
2FF7
102
{ACAD_REACTORS
330
2FE8
102
}
330
2FE8
100
AcDbXrecord
340
0
  0
XRECORD
  5
2FF8
102
{ACAD_REACTORS
330
2FE8
102
}
330
2FE8
100
AcDbXrecord
 70
     0
  0
XRECORD
  5
2FF9
102
{ACAD_REACTORS
330
2FE8
102
}
330
2FE8
100
AcDbXrecord
340
0
  0
XRECORD
  5
2FFA
102
{ACAD_REACTORS
330
2FE8
102
}
330
2FE8
100
AcDbXrecord
 10
0.0
 20
0.0
 30
0.0
  0
XRECORD
  5
2FFB
102
{ACAD_REACTORS
330
2FE8
102
}
330
2FE8
100
AcDbXrecord
 10
0.0
 20
0.0
 30
0.0
  0
XRECORD
  5
2FFC
102
{ACAD_REACTORS
330
2FE8
102
}
330
2FE8
100
AcDbXrecord
 10
0.0
 20
0.0
 30
0.0
  0
XRECORD
  5
2FFD
102
{ACAD_REACTORS
330
2FE8
102
}
330
2FE8
100
AcDbXrecord
 10
0.0
 20
0.0
 30
0.0
  0
XRECORD
  5
2FFE
102
{ACAD_REACTORS
330
2FE8
102
}
330
2FE8
100
AcDbXrecord
 10
0.0
 20
0.0
 30
0.0
  0
XRECORD
  5
2FFF
102
{ACAD_REACTORS
330
2FE8
102
}
330
2FE8
100
AcDbXrecord
 10
0.0
 20
0.0
 30
0.0
  0
XRECORD
  5
3000
102
{ACAD_REACTORS
330
2FE8
102
}
330
2FE8
100
AcDbXrecord
340
0
  0
XRECORD
  5
3001
102
{ACAD_REACTORS
330
2FE8
102
}
330
2FE8
100
AcDbXrecord
 70
     0
  0
XRECORD
  5
3002
102
{ACAD_REACTORS
330
2FE8
102
}
330
2FE8
100
AcDbXrecord
340
0
  0
XRECORD
  5
3003
102
{ACAD_REACTORS
330
2FE8
102
}
330
2FE8
100
AcDbXrecord
 10
0.0
 20
0.0
 30
0.0
  0
XRECORD
  5
3004
102
{ACAD_REACTORS
330
2FE8
102
}
330
2FE8
100
AcDbXrecord
 10
0.0
 20
0.0
 30
0.0
  0
XRECORD
  5
3005
102
{ACAD_REACTORS
330
2FE8
102
}
330
2FE8
100
AcDbXrecord
 10
0.0
 20
0.0
 30
0.0
  0
XRECORD
  5
3006
102
{ACAD_REACTORS
330
2FE8
102
}
330
2FE8
100
AcDbXrecord
 10
0.0
 20
0.0
 30
0.0
  0
XRECORD
  5
3007
102
{ACAD_REACTORS
330
2FE8
102
}
330
2FE8
100
AcDbXrecord
 10
0.0
 20
0.0
 30
0.0
  0
XRECORD
  5
3008
102
{ACAD_REACTORS
330
2FE8
102
}
330
2FE8
100
AcDbXrecord
 10
0.0
 20
0.0
 30
0.0
  0
LAYER_INDEX
  5
2FDE
102
{ACAD_REACTORS
330
2FDD
102
}
330
2FDD
100
AcDbIndex
 40
2453152.476987534
100
AcDbLayerIndex
  8
0
360
2FDF
 90
        1
  8
AM_0
360
2FE0
 90
       76
  8
AM_11
360
2FE1
 90
        5
  8
AM_7
360
2FE2
 90
        1
  8
AM_5
360
2FE3
 90
        5
  8
Defpoints
360
2FE4
 90
        0
  8
AM_6
360
2FE5
 90
        1
  8
AM_CL
360
2FE6
 90
        0
  0
XRECORD
  5
2D
102
{ACAD_REACTORS
330
2C
102
}
330
2C
100
AcDbXrecord
  1
VERSION
140
15.0
  1
PRODUCT
  2
AutoCAD Mechanical 2000
  0
IDBUFFER
  5
2FDF
330
0
100
AcDbIdBuffer
330
2B33
  0
IDBUFFER
  5
2FE0
330
0
100
AcDbIdBuffer
330
2DAA
330
2DAB
330
2DAE
330
2DAF
330
2DB0
330
2DB1
330
2DB4
330
2DB5
330
2DB6
330
2DB7
330
2DB8
330
2DB9
330
2DBA
330
2DBD
330
2DBF
330
2DC0
330
2DC1
330
2DC2
330
2E1A
330
2E1B
330
2E1C
330
2E1E
330
2ED5
330
2EE5
330
2EF3
330
2EF4
330
2EF5
330
2F04
330
2B2F
330
2B30
330
2B31
330
2B32
330
2B34
330
2B35
330
2B36
330
2D5A
330
2D5B
330
2D5C
330
2D5D
330
2D5E
330
2D5F
330
2D60
330
2D61
330
2D62
330
2D63
330
2D64
330
2D65
330
2D66
330
2D67
330
2D68
330
2D69
330
2D6A
330
2D6B
330
2D6C
330
2D6D
330
2D6F
330
2D70
330
2D72
330
2D73
330
2D75
330
2D77
330
2D78
330
2D79
330
2D7A
330
2D7B
330
2D7C
330
2D7D
330
2D7E
330
2D80
330
2D81
330
2D82
330
2DA5
330
2DA6
330
2DA7
330
2DA8
330
2DA9
  0
IDBUFFER
  5
2FE1
330
0
100
AcDbIdBuffer
330
2D74
330
2DB3
330
2DBB
330
2DBC
330
2EE4
  0
IDBUFFER
  5
2FE2
330
0
100
AcDbIdBuffer
330
2B44
  0
IDBUFFER
  5
2FE3
330
0
100
AcDbIdBuffer
330
2ADC
330
2B37
330
2B45
330
2DC3
330
2F21
  0
IDBUFFER
  5
2FE4
330
0
100
AcDbIdBuffer
  0
IDBUFFER
  5
2FE5
330
0
100
AcDbIdBuffer
330
C58
  0
IDBUFFER
  5
2FE6
330
0
100
AcDbIdBuffer
  0
ENDSEC
  0
EOF
