  0
SECTION
  2
HEADER
  9
$ACADVER
  1
AC1014
  9
$ACADMAINTVER
 70
     9
  9
$DWGCODEPAGE
  3
ANSI_932
  9
$INSBASE
 10
0.0
 20
0.0
 30
0.0
  9
$EXTMIN
 10
-155.3370197483415
 20
-64.50000099999925
 30
-0.00000001
  9
$EXTMAX
 10
20.66267638806196
 20
17.95656681596574
 30
0.00000001
  9
$LIMMIN
 10
-172.3993596335785
 20
-87.58424417536602
  9
$LIMMAX
 10
46.34551392547291
 20
38.29441105930078
  9
$ORTHOMODE
 70
     0
  9
$REGENMODE
 70
     1
  9
$FILLMODE
 70
     1
  9
$QTEXTMODE
 70
     0
  9
$MIRRTEXT
 70
     0
  9
$DRAGMODE
 70
     2
  9
$LTSCALE
 40
1.0
  9
$OSMODE
 70
    55
  9
$ATTMODE
 70
     1
  9
$TEXTSIZE
 40
2.5
  9
$TRACEWID
 40
1.0
  9
$TEXTSTYLE
  7
STANDARD
  9
$CLAYER
  8
AM_0
  9
$CELTYPE
  6
BYLAYER
  9
$CECOLOR
 62
   256
  9
$CELTSCALE
 40
1.0
  9
$DELOBJ
 70
     1
  9
$DISPSILH
 70
     0
  9
$DIMSCALE
 40
1.0
  9
$DIMASZ
 40
2.5
  9
$DIMEXO
 40
1.0
  9
$DIMDLI
 40
12.0
  9
$DIMRND
 40
0.0
  9
$DIMDLE
 40
0.0
  9
$DIMEXE
 40
1.0
  9
$DIMTP
 40
0.1
  9
$DIMTM
 40
0.1
  9
$DIMTXT
 40
3.2
  9
$DIMCEN
 40
0.0
  9
$DIMTSZ
 40
0.0
  9
$DIMTOL
 70
     0
  9
$DIMLIM
 70
     0
  9
$DIMTIH
 70
     0
  9
$DIMTOH
 70
     0
  9
$DIMSE1
 70
     0
  9
$DIMSE2
 70
     0
  9
$DIMTAD
 70
     3
  9
$DIMZIN
 70
     8
  9
$DIMBLK
  1
OPEN30
  9
$DIMASO
 70
     1
  9
$DIMSHO
 70
     1
  9
$DIMPOST
  1

  9
$DIMAPOST
  1
"
  9
$DIMALT
 70
     0
  9
$DIMALTD
 70
     2
  9
$DIMALTF
 40
0.0393701
  9
$DIMLFAC
 40
1.0
  9
$DIMTOFL
 70
     1
  9
$DIMTVP
 40
0.0
  9
$DIMTIX
 70
     0
  9
$DIMSOXD
 70
     0
  9
$DIMSAH
 70
     0
  9
$DIMBLK1
  1

  9
$DIMBLK2
  1

  9
$DIMSTYLE
  2
AM_JIS
  9
$DIMCLRD
 70
   256
  9
$DIMCLRE
 70
   256
  9
$DIMCLRT
 70
     2
  9
$DIMTFAC
 40
0.71
  9
$DIMGAP
 40
1.5
  9
$DIMJUST
 70
     0
  9
$DIMSD1
 70
     0
  9
$DIMSD2
 70
     0
  9
$DIMTOLJ
 70
     0
  9
$DIMTZIN
 70
     0
  9
$DIMALTZ
 70
     0
  9
$DIMALTTZ
 70
     0
  9
$DIMFIT
 70
     3
  9
$DIMUPT
 70
     0
  9
$DIMUNIT
 70
     2
  9
$DIMDEC
 70
     3
  9
$DIMTDEC
 70
     3
  9
$DIMALTU
 70
     2
  9
$DIMALTTD
 70
     2
  9
$DIMTXSTY
  7
ASAMI
  9
$DIMAUNIT
 70
     0
  9
$LUNITS
 70
     2
  9
$LUPREC
 70
     2
  9
$SKETCHINC
 40
1.0
  9
$FILLETRAD
 40
2.5
  9
$AUNITS
 70
     0
  9
$AUPREC
 70
     0
  9
$MENU
  1
.
  9
$ELEVATION
 40
0.0
  9
$PELEVATION
 40
0.0
  9
$THICKNESS
 40
0.0
  9
$LIMCHECK
 70
     0
  9
$BLIPMODE
 70
     0
  9
$CHAMFERA
 40
2.5
  9
$CHAMFERB
 40
2.5
  9
$CHAMFERC
 40
20.0
  9
$CHAMFERD
 40
0.0
  9
$SKPOLY
 70
     0
  9
$TDCREATE
 40
2452838.620506898
  9
$TDUPDATE
 40
2453152.478046770
  9
$TDINDWG
 40
0.2479623032
  9
$TDUSRTIMER
 40
0.2479623032
  9
$USRTIMER
 70
     1
  9
$ANGBASE
 50
0.0
  9
$ANGDIR
 70
     0
  9
$PDMODE
 70
     0
  9
$PDSIZE
 40
0.0
  9
$PLINEWID
 40
0.0
  9
$COORDS
 70
     1
  9
$SPLFRAME
 70
     0
  9
$SPLINETYPE
 70
     6
  9
$SPLINESEGS
 70
     8
  9
$ATTDIA
 70
     1
  9
$ATTREQ
 70
     1
  9
$HANDLING
 70
 12289
  9
$HANDSEED
  5
35DB
  9
$SURFTAB1
 70
     6
  9
$SURFTAB2
 70
     6
  9
$SURFTYPE
 70
     6
  9
$SURFU
 70
     6
  9
$SURFV
 70
     6
  9
$UCSNAME
  2

  9
$UCSORG
 10
-0.0000000000000711
 20
-0.0000000000000036
 30
0.0
  9
$UCSXDIR
 10
1.0
 20
0.0
 30
0.0
  9
$UCSYDIR
 10
0.0
 20
1.0
 30
0.0
  9
$PUCSNAME
  2

  9
$PUCSORG
 10
0.0
 20
0.0
 30
0.0
  9
$PUCSXDIR
 10
1.0
 20
0.0
 30
0.0
  9
$PUCSYDIR
 10
0.0
 20
1.0
 30
0.0
  9
$USERI1
 70
     0
  9
$USERI2
 70
     0
  9
$USERI3
 70
     0
  9
$USERI4
 70
     0
  9
$USERI5
 70
     0
  9
$USERR1
 40
0.0
  9
$USERR2
 40
0.0
  9
$USERR3
 40
0.0
  9
$USERR4
 40
0.0
  9
$USERR5
 40
0.0
  9
$WORLDVIEW
 70
     1
  9
$SHADEDGE
 70
     3
  9
$SHADEDIF
 70
    70
  9
$TILEMODE
 70
     1
  9
$MAXACTVP
 70
    64
  9
$PINSBASE
 10
0.0
 20
0.0
 30
0.0
  9
$PLIMCHECK
 70
     0
  9
$PEXTMIN
 10
1.000000000000000E+20
 20
1.000000000000000E+20
 30
1.000000000000000E+20
  9
$PEXTMAX
 10
-1.000000000000000E+20
 20
-1.000000000000000E+20
 30
-1.000000000000000E+20
  9
$PLIMMIN
 10
0.0
 20
0.0
  9
$PLIMMAX
 10
841.0
 20
594.0
  9
$UNITMODE
 70
     0
  9
$VISRETAIN
 70
     1
  9
$PLINEGEN
 70
     0
  9
$PSLTSCALE
 70
     0
  9
$TREEDEPTH
 70
  3020
  9
$PICKSTYLE
 70
     0
  9
$CMLSTYLE
  2
STANDARD
  9
$CMLJUST
 70
     0
  9
$CMLSCALE
 40
20.0
  9
$PROXYGRAPHICS
 70
     1
  9
$MEASUREMENT
 70
     1
  0
ENDSEC
  0
SECTION
  2
CLASSES
  0
CLASS
  1
ACDBDICTIONARYWDFLT
  2
AcDbDictionaryWithDefault
  3
AutoCAD 2000
 90
        0
280
     0
281
     0
  0
CLASS
  1
ACDBPLACEHOLDER
  2
AcDbPlaceHolder
  3
AutoCAD 2000
 90
        0
280
     0
281
     0
  0
CLASS
  1
LAYOUT
  2
AcDbLayout
  3
AutoCAD 2000
 90
        0
280
     0
281
     0
  0
CLASS
  1
AMGSETTINGSOBJ
  2
AmgSettingsObj
  3
"AcadM|Product Description: AutoCAD Mechanical 2000|Company: Autodesk"
 90
        0
280
     0
281
     0
  0
CLASS
  1
ACME_DOCUMENT
  2
AcMeDbDoc
  3
AcMeServices
 90
        0
280
     0
281
     0
  0
CLASS
  1
ACMESCOPE
  2
AcMeScope
  3
AcMeServices
 90
        0
280
     0
281
     0
  0
CLASS
  1
ACMECOMMANDHISTORY
  2
AcMeCommandHistory
  3
AcMeServices
 90
        0
280
     0
281
     0
  0
CLASS
  1
DICTIONARYVAR
  2
AcDbDictionaryVar
  3
AutoCAD 2000
 90
        0
280
     0
281
     0
  0
CLASS
  1
ACIMSYSVARMAN
  2
AcImSysVarManager
  3
AcMeServices
 90
        0
280
     0
281
     0
  0
CLASS
  1
ACIMREALSYSVAR
  2
AcImRealSysVar
  3
AcMeServices
 90
        0
280
     0
281
     0
  0
CLASS
  1
ACIMINTSYSVAR
  2
AcImIntSysVar
  3
AcMeServices
 90
        0
280
     0
281
     0
  0
CLASS
  1
ACMEDRAWINGMAN
  2
AcMeDrawingMan
  3
AcMeServices
 90
        0
280
     0
281
     0
  0
CLASS
  1
ACMEVIEW
  2
AcMeView
  3
AcMeServices
 90
        0
280
     0
281
     0
  0
CLASS
  1
ACDBENTITYCACHE
  2
AcMeEntityCache
  3
AcMeServices
 90
        0
280
     0
281
     0
  0
CLASS
  1
GSMANAGER
  2
AcMeGSManager
  3
AcMeServices
 90
        0
280
     0
281
     0
  0
CLASS
  1
AmdtInternalReactor
  2
AmdtInternalReactor
  3
AcMeServices
 90
        0
280
     0
281
     0
  0
CLASS
  1
ACMESTATEMGR
  2
AcMeStateMgr
  3
AcMeServices
 90
        0
280
     0
281
     0
  0
CLASS
  1
ACME_DATABASE
  2
AcMeDbDatabase
  3
AcMeServices
 90
        0
280
     0
281
     0
  0
CLASS
  1
ACRFINSADJUSTERMGR
  2
AcRfInsAdjusterMgr
  3
AcMeServices
 90
        0
280
     0
281
     0
  0
CLASS
  1
ACMDATADICTIONARY
  2
AcmDataDictionary
  3
"AcmSymBB|Product Description: AutoCAD Mechanical 2000|Company: Autodesk"
 90
        0
280
     0
281
     0
  0
CLASS
  1
ACMDATAENTRYBLOCK
  2
AcmDataEntryBlock
  3
"AcmSymBB|Product Description: AutoCAD Mechanical 2000|Company: Autodesk"
 90
        0
280
     0
281
     0
  0
CLASS
  1
AMGOBJPROPCFG
  2
AmgObjPropCfg
  3
"AmgLay|Product Description: AutoCAD Mechanical 2000|Company: Autodesk"
 90
        1
280
     0
281
     0
  0
CLASS
  1
ACAMGFILTERDAT
  2
AcAmgFilterDat
  3
"AcadM|Product Description: AutoCAD Mechanical 2000|Company: Autodesk"
 90
        0
280
     0
281
     0
  0
CLASS
  1
LAYER_INDEX
  2
AcDbLayerIndex
  3
AutoCAD 2000
 90
        0
280
     0
281
     0
  0
CLASS
  1
IDBUFFER
  2
AcDbIdBuffer
  3
AutoCAD 2000
 90
        0
280
     0
281
     0
  0
CLASS
  1
ACIMSTRSYSVAR
  2
AcImStrSysVar
  3
AcMeServices
 90
        0
280
     0
281
     0
  0
CLASS
  1
ACMSTANDARDJIS
  2
AcmStandardJIS
  3
"AcmSymBB|Product Description: AutoCAD Mechanical 2000|Company: Autodesk"
 90
        0
280
     0
281
     0
  0
CLASS
  1
ACMSURFSTANDARDJIS
  2
AcmSurfTextStdJIS
  3
"AcmSymBB|Product Description: AutoCAD Mechanical 2000|Company: Autodesk"
 90
        0
280
     0
281
     0
  0
CLASS
  1
ACMFCFSTANDARDJIS
  2
AcmFCFStdJIS
  3
"AcmSymBB|Product Description: AutoCAD Mechanical 2000|Company: Autodesk"
 90
        0
280
     0
281
     0
  0
CLASS
  1
ACMWELDSTANDARDJIS
  2
AcmWeldingStdJIS
  3
"AcmSymBB|Product Description: AutoCAD Mechanical 2000|Company: Autodesk"
 90
        0
280
     0
281
     0
  0
CLASS
  1
ACMIDSTANDARDJIS
  2
AcmIdStdJIS
  3
"AcmSymBB|Product Description: AutoCAD Mechanical 2000|Company: Autodesk"
 90
        0
280
     0
281
     0
  0
CLASS
  1
ACMDATUMSTANDARDJIS
  2
AcmDatumStdJIS
  3
"AcmSymBB|Product Description: AutoCAD Mechanical 2000|Company: Autodesk"
 90
        0
280
     0
281
     0
  0
CLASS
  1
ACMBOMSTANDARDJIS
  2
AcmBOMStdJIS
  3
"AcmSymBB|Product Description: AutoCAD Mechanical 2000|Company: Autodesk"
 90
        0
280
     0
281
     0
  0
CLASS
  1
ACMSTANDARDANSI
  2
AcmStandardANSI
  3
"AcmSymBB|Product Description: AutoCAD Mechanical 2000|Company: Autodesk"
 90
        0
280
     0
281
     0
  0
CLASS
  1
ACMSURFSTANDARDANSI
  2
AcmSurfTextStdANSI
  3
"AcmSymBB|Product Description: AutoCAD Mechanical 2000|Company: Autodesk"
 90
        0
280
     0
281
     0
  0
CLASS
  1
ACMFCFSTANDARDANSI
  2
AcmFCFStdANSI
  3
"AcmSymBB|Product Description: AutoCAD Mechanical 2000|Company: Autodesk"
 90
        0
280
     0
281
     0
  0
CLASS
  1
ACMWELDSTANDARDANSI
  2
AcmWeldingStdANSI
  3
"AcmSymBB|Product Description: AutoCAD Mechanical 2000|Company: Autodesk"
 90
        0
280
     0
281
     0
  0
CLASS
  1
ACMIDSTANDARDANSI
  2
AcmIdStdANSI
  3
"AcmSymBB|Product Description: AutoCAD Mechanical 2000|Company: Autodesk"
 90
        0
280
     0
281
     0
  0
CLASS
  1
ACMDATUMSTANDARDANSI
  2
AcmDatumStdANSI
  3
"AcmSymBB|Product Description: AutoCAD Mechanical 2000|Company: Autodesk"
 90
        0
280
     0
281
     0
  0
CLASS
  1
ACMBOMSTANDARDANSI
  2
AcmBOMStdANSI
  3
"AcmSymBB|Product Description: AutoCAD Mechanical 2000|Company: Autodesk"
 90
        0
280
     0
281
     0
  0
CLASS
  1
ACMSTANDARDBSI
  2
AcmStandardBSI
  3
"AcmSymBB|Product Description: AutoCAD Mechanical 2000|Company: Autodesk"
 90
        0
280
     0
281
     0
  0
CLASS
  1
ACMSURFSTANDARDBSI
  2
AcmSurfTextStdBSI
  3
"AcmSymBB|Product Description: AutoCAD Mechanical 2000|Company: Autodesk"
 90
        0
280
     0
281
     0
  0
CLASS
  1
ACMFCFSTANDARDBSI
  2
AcmFCFStdBSI
  3
"AcmSymBB|Product Description: AutoCAD Mechanical 2000|Company: Autodesk"
 90
        0
280
     0
281
     0
  0
CLASS
  1
ACMWELDSTANDARDBSI
  2
AcmWeldingStdBSI
  3
"AcmSymBB|Product Description: AutoCAD Mechanical 2000|Company: Autodesk"
 90
        0
280
     0
281
     0
  0
CLASS
  1
ACMIDSTANDARDBSI
  2
AcmIdStdBSI
  3
"AcmSymBB|Product Description: AutoCAD Mechanical 2000|Company: Autodesk"
 90
        0
280
     0
281
     0
  0
CLASS
  1
ACMDATUMSTANDARDBSI
  2
AcmDatumStdBSI
  3
"AcmSymBB|Product Description: AutoCAD Mechanical 2000|Company: Autodesk"
 90
        0
280
     0
281
     0
  0
CLASS
  1
ACMBOMSTANDARDBSI
  2
AcmBOMStdBSI
  3
"AcmSymBB|Product Description: AutoCAD Mechanical 2000|Company: Autodesk"
 90
        0
280
     0
281
     0
  0
CLASS
  1
LONG_TRANSACTION
  2
AcDbLongTransaction
  3
AutoCAD 2000
 90
        0
280
     0
281
     0
  0
CLASS
  1
LWPOLYLINE
  2
AcDbPolyline
  3
AutoCAD 2000
 90
        0
280
     0
281
     1
  0
CLASS
  1
HATCH
  2
AcDbHatch
  3
AutoCAD 2000
 90
        0
280
     0
281
     1
  0
CLASS
  1
XRECORD
  2
AcDbXrecord
  3
AutoCAD 2000
 90
        0
280
     0
281
     0
  0
ENDSEC
  0
SECTION
  2
TABLES
  0
TABLE
  2
VPORT
  5
8
330
0
100
AcDbSymbolTable
 70
     3
  0
VPORT
  5
35B0
330
8
100
AcDbSymbolTableRecord
100
AcDbViewportTableRecord
  2
*ACTIVE
 70
     0
 10
0.0
 20
0.0
 11
1.0
 21
1.0
 12
-6.038636921954719
 22
4.211614024045672
 13
0.0
 23
0.0
 14
2.5
 24
2.5
 15
10.0
 25
10.0
 16
0.0
 26
0.0
 36
1.0
 17
0.0
 27
0.0
 37
0.0
 40
234.0628316395787
 41
1.56570841889117
 42
50.0
 43
0.0
 44
0.0
 50
0.0
 51
0.0
 71
     0
 72
   100
 73
     1
 74
     3
 75
     0
 76
     0
 77
     0
 78
     0
  0
ENDTAB
  0
TABLE
  2
LTYPE
  5
5
330
0
100
AcDbSymbolTable
 70
    10
  0
LTYPE
  5
14
330
5
100
AcDbSymbolTableRecord
100
AcDbLinetypeTableRecord
  2
BYBLOCK
 70
     0
  3

 72
    65
 73
     0
 40
0.0
  0
LTYPE
  5
15
330
5
100
AcDbSymbolTableRecord
100
AcDbLinetypeTableRecord
  2
BYLAYER
 70
     0
  3

 72
    65
 73
     0
 40
0.0
  0
LTYPE
  5
16
330
5
100
AcDbSymbolTableRecord
100
AcDbLinetypeTableRecord
  2
CONTINUOUS
 70
     0
  3
Solid line
 72
    65
 73
     0
 40
0.0
  0
LTYPE
  5
4B
330
5
100
AcDbSymbolTableRecord
100
AcDbLinetypeTableRecord
  2
AM_ISO02W050
 70
     0
  3
__ __ __ __ __ __ __ __ __ __ __ __ __ __ __
 72
    65
 73
     2
 40
7.5
 49
6.0
 74
     0
 49
-1.5
 74
     0
  0
LTYPE
  5
4C
330
5
100
AcDbSymbolTableRecord
100
AcDbLinetypeTableRecord
  2
AM_ISO08W050
 70
     0
  3
____ . ____ . ____ . ____ . ____ . ____ . ____
 72
    65
 73
     4
 40
18.0
 49
12.0
 74
     0
 49
-1.5
 74
     0
 49
3.0
 74
     0
 49
-1.5
 74
     0
  0
LTYPE
  5
4D
330
5
100
AcDbSymbolTableRecord
100
AcDbLinetypeTableRecord
  2
AM_ISO09W050
 70
     0
  3
_____ . . _____ . . _____ . . ____ .. ____
 72
    65
 73
     6
 40
22.5
 49
12.0
 74
     0
 49
-1.5
 74
     0
 49
3.0
 74
     0
 49
-1.5
 74
     0
 49
3.0
 74
     0
 49
-1.5
 74
     0
  0
LTYPE
  5
4E
330
5
100
AcDbSymbolTableRecord
100
AcDbLinetypeTableRecord
  2
AMCONSTR
 70
     0
  3
_______________________
 72
    65
 73
     2
 40
9999.0
 49
9999.0
 74
     0
 49
0.0
 74
     0
  0
LTYPE
  5
4F
330
5
100
AcDbSymbolTableRecord
100
AcDbLinetypeTableRecord
  2
AM_ISO02W050X2
 70
     0
  3
 _ _ _ _ _ _ _ _ _ _ _ _
 72
    65
 73
     2
 40
3.75
 49
3.0
 74
     0
 49
-0.75
 74
     0
  0
LTYPE
  5
50
330
5
100
AcDbSymbolTableRecord
100
AcDbLinetypeTableRecord
  2
AM_ISO08W050X2
 70
     0
  3
__ . __ . __ . __ . __ . __
 72
    65
 73
     4
 40
9.0
 49
6.0
 74
     0
 49
-0.75
 74
     0
 49
1.5
 74
     0
 49
-0.75
 74
     0
  0
LTYPE
  5
53
330
5
100
AcDbSymbolTableRecord
100
AcDbLinetypeTableRecord
  2
AMZIGZAG
 70
     0
  3
/\/-/\/-/\/-/\/-/\/-/\/
 72
    65
 73
     2
 40
11.00009999999999
 49
0.0001
 74
     4
 75
   135
340
52
 46
0.04
 50
0.0
 44
0.0
 45
0.0
 49
-11.0
 74
     0
  0
LTYPE
  5
166
330
5
100
AcDbSymbolTableRecord
100
AcDbLinetypeTableRecord
  2
ACJISTGL
 70
     0
  3
_ _ _ _ _
 72
    65
 73
     2
 40
3.0
 49
2.0
 74
     0
 49
-1.0
 74
     0
  0
LTYPE
  5
26A
330
5
100
AcDbSymbolTableRecord
100
AcDbLinetypeTableRecord
  2
ACJISTGB
 70
     0
  3
__ . . __ . .
 72
    65
 73
     6
 40
9.0
 49
4.0
 74
     0
 49
-1.0
 74
     0
 49
1.0
 74
     0
 49
-1.0
 74
     0
 49
1.0
 74
     0
 49
-1.0
 74
     0
  0
ENDTAB
  0
TABLE
  2
LAYER
  5
2
330
0
100
AcDbSymbolTable
 70
     8
  0
LAYER
  5
10
330
2
100
AcDbSymbolTableRecord
100
AcDbLayerTableRecord
  2
0
 70
     0
 62
     7
  6
CONTINUOUS
  0
LAYER
  5
3F9
330
2
100
AcDbSymbolTableRecord
100
AcDbLayerTableRecord
  2
AM_0
 70
     0
 62
     7
  6
CONTINUOUS
  0
LAYER
  5
BD6
330
2
100
AcDbSymbolTableRecord
100
AcDbLayerTableRecord
  2
AM_11
 70
     0
 62
     3
  6
AM_ISO09W050
  0
LAYER
  5
BD7
330
2
100
AcDbSymbolTableRecord
100
AcDbLayerTableRecord
  2
AM_7
 70
     0
 62
     4
  6
AM_ISO08W050
  0
LAYER
  5
BD8
330
2
100
AcDbSymbolTableRecord
100
AcDbLayerTableRecord
  2
AM_5
 70
     0
 62
     3
  6
CONTINUOUS
  0
LAYER
  5
BD9
330
2
100
AcDbSymbolTableRecord
100
AcDbLayerTableRecord
  2
DEFPOINTS
 70
     0
 62
     7
  6
CONTINUOUS
  0
LAYER
  5
BDA
330
2
100
AcDbSymbolTableRecord
100
AcDbLayerTableRecord
  2
AM_6
 70
     0
 62
     2
  6
CONTINUOUS
  0
LAYER
  5
26DC
330
2
100
AcDbSymbolTableRecord
100
AcDbLayerTableRecord
  2
AM_CL
 70
     0
 62
     1
  6
AMCONSTR
  0
ENDTAB
  0
TABLE
  2
STYLE
  5
3
330
0
100
AcDbSymbolTable
 70
     5
  0
STYLE
  5
11
330
3
100
AcDbSymbolTableRecord
100
AcDbTextStyleTableRecord
  2
STANDARD
 70
     0
 40
0.0
 41
1.0
 50
0.0
 71
     0
 42
2.5
  3
simplex.shx
  4
EXTFONT.SHX
  0
STYLE
  5
52
330
3
100
AcDbSymbolTableRecord
100
AcDbTextStyleTableRecord
  2

 70
     1
 40
0.0
 41
1.0
 50
0.0
 71
     0
 42
2.5
  3
ltypeshp.shx
  4

  0
STYLE
  5
6B
330
3
100
AcDbSymbolTableRecord
100
AcDbTextStyleTableRecord
  2
ASAMI
 70
     0
 40
0.0
 41
1.0
 50
0.0
 71
     0
 42
2.5
  3
simplex.shx
  4
EXTFONT.SHX
  0
STYLE
  5
262
330
3
100
AcDbSymbolTableRecord
100
AcDbTextStyleTableRecord
  2
ACJISTS
 70
     0
 40
1.0
 41
1.0
 50
0.0
 71
     0
 42
2.5
  3
simplex.shx
  4
bigfont.shx
  0
STYLE
  5
269
330
3
100
AcDbSymbolTableRecord
100
AcDbTextStyleTableRecord
  2
ACJISGDT
 70
     0
 40
0.0
 41
1.0
 50
0.0
 71
     0
 42
2.5
  3
amgdtans.shx
  4

  0
ENDTAB
  0
TABLE
  2
VIEW
  5
6
330
0
100
AcDbSymbolTable
 70
     0
  0
ENDTAB
  0
TABLE
  2
UCS
  5
7
330
0
100
AcDbSymbolTable
 70
     0
  0
ENDTAB
  0
TABLE
  2
APPID
  5
9
330
0
100
AcDbSymbolTable
 70
    13
  0
APPID
  5
12
330
9
100
AcDbSymbolTableRecord
100
AcDbRegAppTableRecord
  2
ACAD
 70
     0
  0
APPID
  5
30
330
9
100
AcDbSymbolTableRecord
100
AcDbRegAppTableRecord
  2
MCAD_NO_VIS
 70
     0
  0
APPID
  5
31
330
9
100
AcDbSymbolTableRecord
100
AcDbRegAppTableRecord
  2
ACAD_TEMP_GRAPHIC
 70
     0
  0
APPID
  5
2C2
330
9
100
AcDbSymbolTableRecord
100
AcDbRegAppTableRecord
  2
GENIUS_GENDTOL_13
 70
     0
  0
APPID
  5
339
330
9
100
AcDbSymbolTableRecord
100
AcDbRegAppTableRecord
  2
GENIUS_GENODEF_13
 70
     0
  0
APPID
  5
33A
330
9
100
AcDbSymbolTableRecord
100
AcDbRegAppTableRecord
  2
GENIUS_GENOBJ-N-RSBK_13
 70
     0
  0
APPID
  5
33B
330
9
100
AcDbSymbolTableRecord
100
AcDbRegAppTableRecord
  2
GENIUS_GENOBJ-N-LIB_13
 70
     0
  0
APPID
  5
33C
330
9
100
AcDbSymbolTableRecord
100
AcDbRegAppTableRecord
  2
GENIUS_GENSCALE_13
 70
     0
  0
APPID
  5
378
330
9
100
AcDbSymbolTableRecord
100
AcDbRegAppTableRecord
  2
GENIUS_GENDIMSH_14
 70
     0
  0
APPID
  5
BDB
330
9
100
AcDbSymbolTableRecord
100
AcDbRegAppTableRecord
  2
GENIUS_GENOBJ-N-CEN_13
 70
     0
  0
APPID
  5
BDC
330
9
100
AcDbSymbolTableRecord
100
AcDbRegAppTableRecord
  2
GENIUS_GENFIL_13
 70
     0
  0
APPID
  5
BDD
330
9
100
AcDbSymbolTableRecord
100
AcDbRegAppTableRecord
  2
GENIUS_GENOBJ-N-FIL_13
 70
     0
  0
APPID
  5
12AD
330
9
100
AcDbSymbolTableRecord
100
AcDbRegAppTableRecord
  2
GENIUS_GENOREF_13
 70
     0
  0
ENDTAB
  0
TABLE
  2
DIMSTYLE
  5
A
330
0
100
AcDbSymbolTable
 70
     8
  0
DIMSTYLE
105
58
102
{ACAD_REACTORS
330
2EA2
330
2F15
330
2F72
330
3080
102
}
330
A
100
AcDbSymbolTableRecord
100
AcDbDimStyleTableRecord
  2
AM_JIS
 70
     0
  3

  4
"
  5
OPEN30
  6

  7

 40
1.0
 41
2.5
 42
1.0
 43
12.0
 44
1.0
 45
0.0
 46
0.0
 47
0.1
 48
0.1
140
3.2
141
0.0
142
0.0
143
0.0393701
144
1.0
145
0.0
146
0.71
147
1.5
 71
     0
 72
     0
 73
     0
 74
     0
 75
     0
 76
     0
 77
     3
 78
     8
170
     0
171
     2
172
     1
173
     0
174
     0
175
     0
176
   256
177
   256
178
     2
270
     2
271
     3
272
     3
273
     2
274
     2
340
6B
275
     0
280
     0
281
     0
282
     0
283
     0
284
     0
285
     0
286
     0
287
     3
288
     0
  0
DIMSTYLE
105
5F
330
A
100
AcDbSymbolTableRecord
100
AcDbDimStyleTableRecord
  2
AM_JIS$3
 70
     0
  3

  4
"
  5
OPEN30
  6

  7

 40
1.0
 41
2.5
 42
1.0
 43
10.0
 44
1.0
 45
0.0
 46
0.0
 47
0.1
 48
0.1
140
3.2
141
0.0
142
0.0
143
0.0393701
144
1.0
145
0.0
146
0.71
147
1.5
 71
     0
 72
     0
 73
     0
 74
     1
 75
     0
 76
     0
 77
     3
 78
     8
170
     0
171
     2
172
     0
173
     0
174
     0
175
     0
176
   256
177
   256
178
     2
270
     2
271
     2
272
     3
273
     2
274
     2
340
6B
275
     0
280
     0
281
     0
282
     0
283
     0
284
     0
285
     0
286
     0
287
     0
288
     1
  0
DIMSTYLE
105
60
330
A
100
AcDbSymbolTableRecord
100
AcDbDimStyleTableRecord
  2
AM_JIS$4
 70
     0
  3

  4
"
  5
OPEN30
  6

  7

 40
1.0
 41
2.5
 42
1.0
 43
10.0
 44
1.0
 45
0.0
 46
0.0
 47
0.1
 48
0.1
140
3.2
141
0.0
142
0.0
143
0.0393701
144
1.0
145
0.0
146
0.71
147
1.5
 71
     0
 72
     0
 73
     0
 74
     1
 75
     0
 76
     0
 77
     3
 78
     8
170
     0
171
     2
172
     0
173
     0
174
     0
175
     0
176
   256
177
   256
178
     2
270
     2
271
     2
272
     3
273
     2
274
     2
340
6B
275
     0
280
     0
281
     0
282
     0
283
     0
284
     0
285
     0
286
     0
287
     0
288
     1
  0
DIMSTYLE
105
61
330
A
100
AcDbSymbolTableRecord
100
AcDbDimStyleTableRecord
  2
AM_JIS$6
 70
     0
  3

  4
"
  5
OPEN30
  6

  7

 40
1.0
 41
2.5
 42
1.0
 43
10.0
 44
1.0
 45
0.0
 46
0.0
 47
0.1
 48
0.1
140
3.2
141
0.0
142
0.0
143
0.0393701
144
1.0
145
0.0
146
0.71
147
1.5
 71
     0
 72
     0
 73
     0
 74
     0
 75
     0
 76
     0
 77
     0
 78
     8
170
     0
171
     2
172
     1
173
     0
174
     0
175
     0
176
   256
177
   256
178
     2
270
     2
271
     2
272
     2
273
     2
274
     2
340
6B
275
     0
280
     0
281
     0
282
     0
283
     0
284
     0
285
     0
286
     0
287
     3
288
     0
  0
DIMSTYLE
105
62
330
A
100
AcDbSymbolTableRecord
100
AcDbDimStyleTableRecord
  2
AM_JIS$7
 70
     0
  3

  4
"
  5
OPEN30
  6

  7

 40
1.0
 41
2.5
 42
1.0
 43
10.0
 44
1.0
 45
0.0
 46
0.0
 47
0.1
 48
0.1
140
3.2
141
0.0
142
0.0
143
0.0393701
144
1.0
145
0.0
146
0.71
147
1.5
 71
     0
 72
     0
 73
     0
 74
     0
 75
     0
 76
     0
 77
     3
 78
     8
170
     0
171
     2
172
     1
173
     0
174
     0
175
     0
176
   256
177
   256
178
     2
270
     2
271
     2
272
     3
273
     2
274
     2
340
6B
275
     0
280
     0
281
     0
282
     0
283
     0
284
     0
285
     0
286
     0
287
     3
288
     0
  0
DIMSTYLE
105
63
330
A
100
AcDbSymbolTableRecord
100
AcDbDimStyleTableRecord
  2
AM_JIS$SF
 70
     0
  3

  4
"
  5
OPEN30
  6

  7

 40
1.0
 41
2.5
 42
1.0
 43
10.0
 44
1.0
 45
0.0
 46
0.0
 47
0.1
 48
0.1
140
3.2
141
0.0
142
0.0
143
0.0393701
144
1.0
145
0.0
146
0.71
147
1.5
 71
     0
 72
     0
 73
     0
 74
     0
 75
     1
 76
     1
 77
     3
 78
     8
170
     0
171
     2
172
     1
173
     0
174
     0
175
     0
176
   256
177
   256
178
     2
270
     2
271
     2
272
     2
273
     2
274
     2
340
6B
275
     0
280
     0
281
     0
282
     0
283
     0
284
     0
285
     0
286
     0
287
     3
288
     0
  0
DIMSTYLE
105
68
330
A
100
AcDbSymbolTableRecord
100
AcDbDimStyleTableRecord
  2
AM_JIS$SH
 70
     0
  3

  4
"
  5

  6
GENAXEH
  7
OPEN30
 40
1.0
 41
2.5
 42
1.0
 43
10.0
 44
1.0
 45
0.0
 46
0.0
 47
0.1
 48
0.1
140
3.2
141
0.0
142
0.0
143
0.0393701
144
2.0
145
0.0
146
0.71
147
1.5
 71
     0
 72
     0
 73
     0
 74
     0
 75
     1
 76
     1
 77
     3
 78
     8
170
     0
171
     2
172
     1
173
     1
174
     0
175
     0
176
   256
177
   256
178
     2
270
     2
271
     2
272
     2
273
     2
274
     2
340
6B
275
     0
280
     0
281
     0
282
     0
283
     0
284
     0
285
     0
286
     0
287
     3
288
     0
  0
DIMSTYLE
105
B34
330
A
100
AcDbSymbolTableRecord
100
AcDbDimStyleTableRecord
  2
AM_JIS$2
 70
     0
  3

  4
"
  5
OPEN30
  6

  7

 40
1.0
 41
2.5
 42
1.0
 43
12.0
 44
1.0
 45
0.0
 46
0.0
 47
0.1
 48
0.1
140
3.2
141
0.0
142
0.0
143
0.0393701
144
1.0
145
0.0
146
0.71
147
1.5
 71
     0
 72
     0
 73
     0
 74
     0
 75
     0
 76
     0
 77
     3
 78
     8
170
     0
171
     2
172
     1
173
     0
174
     0
175
     0
176
   256
177
   256
178
     2
270
     2
271
     3
272
     3
273
     2
274
     2
340
6B
275
     0
280
     0
281
     0
282
     0
283
     0
284
     0
285
     0
286
     0
287
     3
288
     0
  0
ENDTAB
  0
TABLE
  2
BLOCK_RECORD
  5
1
330
0
100
AcDbSymbolTable
 70
     9
  0
BLOCK_RECORD
  5
1F
102
{ACAD_XDICTIONARY
360
74
102
}
330
1
100
AcDbSymbolTableRecord
100
AcDbBlockTableRecord
  2
*MODEL_SPACE
  0
BLOCK_RECORD
  5
101
102
{ACAD_XDICTIONARY
360
35D9
102
}
330
1
100
AcDbSymbolTableRecord
100
AcDbBlockTableRecord
  2
*PAPER_SPACE
  0
BLOCK_RECORD
  5
59
330
1
100
AcDbSymbolTableRecord
100
AcDbBlockTableRecord
  2
_OPEN30
  0
BLOCK_RECORD
  5
64
330
1
100
AcDbSymbolTableRecord
100
AcDbBlockTableRecord
  2
GENAXEH
  0
BLOCK_RECORD
  5
2EA3
330
1
100
AcDbSymbolTableRecord
100
AcDbBlockTableRecord
  2
*D5
  0
BLOCK_RECORD
  5
2F16
330
1
100
AcDbSymbolTableRecord
100
AcDbBlockTableRecord
  2
*D6
  0
BLOCK_RECORD
  5
2F73
330
1
100
AcDbSymbolTableRecord
100
AcDbBlockTableRecord
  2
*D7
  0
BLOCK_RECORD
  5
3081
330
1
100
AcDbSymbolTableRecord
100
AcDbBlockTableRecord
  2
*D8
  0
ENDTAB
  0
ENDSEC
  0
SECTION
  2
BLOCKS
  0
BLOCK
  5
20
330
1F
100
AcDbEntity
  8
0
100
AcDbBlockBegin
  2
*MODEL_SPACE
 70
     0
 10
0.0
 20
0.0
 30
0.0
  3
*MODEL_SPACE
  1

  0
ENDBLK
  5
21
330
1F
100
AcDbEntity
  8
0
100
AcDbBlockEnd
  0
BLOCK
  5
103
330
101
100
AcDbEntity
 67
     1
  8
0
100
AcDbBlockBegin
  2
*PAPER_SPACE
 70
     0
 10
0.0
 20
0.0
 30
0.0
  3
*PAPER_SPACE
  1

  0
ENDBLK
  5
104
330
101
100
AcDbEntity
 67
     1
  8
0
100
AcDbBlockEnd
  0
BLOCK
  5
5D
330
59
100
AcDbEntity
  8
0
100
AcDbBlockBegin
  2
_OPEN30
 70
     0
 10
0.0
 20
0.0
 30
0.0
  3
_OPEN30
  1

  0
LINE
  5
5A
330
59
100
AcDbEntity
  8
0
 62
     0
100
AcDbLine
 10
-1.0
 20
0.26794919
 30
0.0
 11
0.0
 21
0.0
 31
0.0
  0
LINE
  5
5B
330
59
100
AcDbEntity
  8
0
 62
     0
100
AcDbLine
 10
0.0
 20
0.0
 30
0.0
 11
-1.0
 21
-0.26794919
 31
0.0
  0
LINE
  5
5C
330
59
100
AcDbEntity
  8
0
 62
     0
100
AcDbLine
 10
0.0
 20
0.0
 30
0.0
 11
-1.0
 21
0.0
 31
0.0
  0
ENDBLK
  5
5E
330
59
100
AcDbEntity
  8
0
100
AcDbBlockEnd
  0
BLOCK
  5
66
330
64
100
AcDbEntity
  8
0
100
AcDbBlockBegin
  2
GENAXEH
 70
     0
 10
0.0
 20
0.0
 30
0.0
  3
GENAXEH
  1

  0
LINE
  5
65
330
64
100
AcDbEntity
  8
0
100
AcDbLine
 10
-1.0
 20
0.0
 30
0.0
 11
1.0
 21
0.0
 31
0.0
  0
ENDBLK
  5
67
330
64
100
AcDbEntity
  8
0
100
AcDbBlockEnd
  0
BLOCK
  5
2EAD
330
2EA3
100
AcDbEntity
  8
0
100
AcDbBlockBegin
  2
*D5
 70
     1
 10
0.0
 20
0.0
 30
0.0
  3
*D5
  1

  0
LINE
  5
3303
330
2EA3
100
AcDbEntity
  8
AM_5
100
AcDbLine
 10
1.000086137937667
 20
14.99999999999999
 30
0.0
 11
20.66267638806196
 21
14.99999999999999
 31
0.0
  0
LINE
  5
3304
330
2EA3
100
AcDbEntity
  8
AM_5
100
AcDbLine
 10
1.000086137937297
 20
-15.00000000003737
 30
0.0
 11
20.66267638806195
 21
-15.00000000003738
 31
0.0
  0
LINE
  5
3305
330
2EA3
100
AcDbEntity
  8
AM_5
100
AcDbLine
 10
19.66267638806196
 20
12.49999999999999
 30
0.0
 11
19.66267638806195
 21
-12.50000000003738
 31
0.0
  0
INSERT
  5
3306
330
2EA3
100
AcDbEntity
  8
AM_5
100
AcDbBlockReference
  2
_OPEN30
 10
19.66267638806196
 20
14.99999999999999
 30
0.0
 41
2.5
 42
2.5
 43
2.5
 50
90.0
  0
INSERT
  5
3307
330
2EA3
100
AcDbEntity
  8
AM_5
100
AcDbBlockReference
  2
_OPEN30
 10
19.66267638806195
 20
-15.00000000003738
 30
0.0
 41
2.5
 42
2.5
 43
2.5
 50
270.0
  0
MTEXT
  5
3308
330
2EA3
100
AcDbEntity
  8
AM_5
 62
     2
100
AcDbMText
 10
16.56267638806196
 20
-0.0000000000186917
 30
0.0
 40
3.2
 41
0.0
 71
     5
 72
     1
  1
%%c30
  7
ASAMI
 11
0.0000000000000001
 21
1.0
 31
0.0
1001
ACAD
1000
MTEXTBEGIN
1070
    73
1070
     1
1070
    44
1040
1.0
1070
    74
1070
     0
1000
MTEXTEND
  0
POINT
  5
3309
330
2EA3
100
AcDbEntity
  8
DEFPOINTS
 62
     0
100
AcDbPoint
 10
0.0000861379376671
 20
14.99999999999999
 30
0.0
  0
POINT
  5
330A
330
2EA3
100
AcDbEntity
  8
DEFPOINTS
 62
     0
100
AcDbPoint
 10
0.0000861379372976
 20
-15.00000000003737
 30
0.0
  0
POINT
  5
330B
330
2EA3
100
AcDbEntity
  8
DEFPOINTS
 62
     0
100
AcDbPoint
 10
19.66267638806195
 20
-15.00000000003738
 30
0.0
  0
ENDBLK
  5
2EAE
330
2EA3
100
AcDbEntity
  8
0
100
AcDbBlockEnd
  0
BLOCK
  5
2F20
330
2F16
100
AcDbEntity
  8
0
100
AcDbBlockBegin
  2
*D6
 70
     1
 10
0.0
 20
0.0
 30
0.0
  3
*D6
  1

  0
LINE
  5
32F1
330
2F16
100
AcDbEntity
  8
AM_5
100
AcDbLine
 10
-129.9999138620623
 20
-13.24999999999998
 30
0.0
 11
-129.9999138620623
 21
-43.00000099999918
 31
0.0
  0
LINE
  5
32F2
330
2F16
100
AcDbEntity
  8
AM_5
100
AcDbLine
 10
0.0000861379376669
 20
-16.00000000003954
 30
0.0
 11
0.0000861379376653
 21
-43.00000099999918
 31
0.0
  0
LINE
  5
32F3
330
2F16
100
AcDbEntity
  8
AM_5
100
AcDbLine
 10
-127.4999138620623
 20
-42.00000099999917
 30
0.0
 11
-2.499913862062334
 21
-42.00000099999917
 31
0.0
  0
INSERT
  5
32F4
330
2F16
100
AcDbEntity
  8
AM_5
100
AcDbBlockReference
  2
_OPEN30
 10
-129.9999138620623
 20
-42.00000099999917
 30
0.0
 41
2.5
 42
2.5
 43
2.5
 50
180.0
  0
INSERT
  5
32F5
330
2F16
100
AcDbEntity
  8
AM_5
100
AcDbBlockReference
  2
_OPEN30
 10
0.0000861379376653
 20
-42.00000099999917
 30
0.0
 41
2.5
 42
2.5
 43
2.5
  0
MTEXT
  5
32F6
330
2F16
100
AcDbEntity
  8
AM_5
 62
     2
100
AcDbMText
 10
-64.99991386206232
 20
-38.90000099999918
 30
0.0
 40
3.2
 41
0.0
 71
     5
 72
     1
  1
130
  7
ASAMI
1001
ACAD
1000
MTEXTBEGIN
1070
    73
1070
     1
1070
    44
1040
1.0
1070
    74
1070
     0
1000
MTEXTEND
  0
POINT
  5
32F7
330
2F16
100
AcDbEntity
  8
DEFPOINTS
 62
     0
100
AcDbPoint
 10
-129.9999138620623
 20
-12.24999999999998
 30
0.0
  0
POINT
  5
32F8
330
2F16
100
AcDbEntity
  8
DEFPOINTS
 62
     0
100
AcDbPoint
 10
0.000086137937667
 20
-15.00000000003954
 30
0.0
  0
POINT
  5
32F9
330
2F16
100
AcDbEntity
  8
DEFPOINTS
 62
     0
100
AcDbPoint
 10
0.0000861379376653
 20
-42.00000099999917
 30
0.0
  0
ENDBLK
  5
2F21
330
2F16
100
AcDbEntity
  8
0
100
AcDbBlockEnd
  0
BLOCK
  5
2F7D
330
2F73
100
AcDbEntity
  8
0
100
AcDbBlockBegin
  2
*D7
 70
     1
 10
0.0
 20
0.0
 30
0.0
  3
*D7
  1

  0
LINE
  5
32FA
330
2F73
100
AcDbEntity
  8
AM_5
100
AcDbLine
 10
-129.6999138620623
 20
-16.0
 30
0.0
 11
-151.6370197483415
 21
-15.99999999999999
 31
0.0
  0
LINE
  5
32FB
330
2F73
100
AcDbEntity
  8
AM_5
100
AcDbLine
 10
-129.6999138620623
 20
15.99999999999999
 30
0.0
 11
-151.6370197483415
 21
16.0
 31
0.0
  0
LINE
  5
32FC
330
2F73
100
AcDbEntity
  8
AM_5
100
AcDbLine
 10
-150.6370197483415
 20
-13.49999999999999
 30
0.0
 11
-150.6370197483415
 21
13.5
 31
0.0
  0
INSERT
  5
32FD
330
2F73
100
AcDbEntity
  8
AM_5
100
AcDbBlockReference
  2
_OPEN30
 10
-150.6370197483415
 20
-15.99999999999999
 30
0.0
 41
2.5
 42
2.5
 43
2.5
 50
270.0
  0
INSERT
  5
32FE
330
2F73
100
AcDbEntity
  8
AM_5
100
AcDbBlockReference
  2
_OPEN30
 10
-150.6370197483415
 20
16.0
 30
0.0
 41
2.5
 42
2.5
 43
2.5
 50
90.0
  0
MTEXT
  5
32FF
330
2F73
100
AcDbEntity
  8
AM_5
 62
     2
100
AcDbMText
 10
-153.7370197483415
 20
-0.0000000000000277
 30
0.0
 40
3.2
 41
0.0
 71
     5
 72
     1
  1
%%c32
  7
ASAMI
 11
0.0000000000000001
 21
1.0
 31
0.0
1001
ACAD
1000
MTEXTBEGIN
1070
    73
1070
     1
1070
    44
1040
1.0
1070
    74
1070
     0
1000
MTEXTEND
  0
POINT
  5
3300
330
2F73
100
AcDbEntity
  8
DEFPOINTS
 62
     0
100
AcDbPoint
 10
-128.6999138620623
 20
-16.0
 30
0.0
  0
POINT
  5
3301
330
2F73
100
AcDbEntity
  8
DEFPOINTS
 62
     0
100
AcDbPoint
 10
-128.6999138620623
 20
15.99999999999999
 30
0.0
  0
POINT
  5
3302
330
2F73
100
AcDbEntity
  8
DEFPOINTS
 62
     0
100
AcDbPoint
 10
-150.6370197483415
 20
16.0
 30
0.0
  0
ENDBLK
  5
2F7E
330
2F73
100
AcDbEntity
  8
0
100
AcDbBlockEnd
  0
BLOCK
  5
308B
330
3081
100
AcDbEntity
  8
0
100
AcDbBlockBegin
  2
*D8
 70
     1
 10
0.0
 20
0.0
 30
0.0
  3
*D8
  1

  0
LINE
  5
32E8
330
3081
100
AcDbEntity
  8
AM_5
100
AcDbLine
 10
-60.00056576613659
 20
-16.0
 30
0.0
 11
-60.00056576613659
 21
-31.00000100000194
 31
0.0
  0
LINE
  5
32E9
330
3081
100
AcDbEntity
  8
AM_5
100
AcDbLine
 10
-0.0003804425583081
 20
-16.00000000003954
 30
0.0
 11
-0.0003804425583091
 21
-31.00000100000194
 31
0.0
  0
LINE
  5
32EA
330
3081
100
AcDbEntity
  8
AM_5
100
AcDbLine
 10
-57.50056576613659
 20
-30.00000100000194
 30
0.0
 11
-2.500380442558308
 21
-30.00000100000194
 31
0.0
  0
INSERT
  5
32EB
330
3081
100
AcDbEntity
  8
AM_5
100
AcDbBlockReference
  2
_OPEN30
 10
-60.00056576613659
 20
-30.00000100000194
 30
0.0
 41
2.5
 42
2.5
 43
2.5
 50
180.0
  0
INSERT
  5
32EC
330
3081
100
AcDbEntity
  8
AM_5
100
AcDbBlockReference
  2
_OPEN30
 10
-0.000380442558309
 20
-30.00000100000194
 30
0.0
 41
2.5
 42
2.5
 43
2.5
  0
MTEXT
  5
32ED
330
3081
100
AcDbEntity
  8
AM_5
 62
     2
100
AcDbMText
 10
-30.00047310434745
 20
-26.90000100000194
 30
0.0
 40
3.2
 41
0.0
 71
     5
 72
     1
  1
60
  7
ASAMI
1001
ACAD
1000
MTEXTBEGIN
1070
    73
1070
     1
1070
    44
1040
1.0
1070
    74
1070
     0
1000
MTEXTEND
  0
POINT
  5
32EE
330
3081
100
AcDbEntity
  8
DEFPOINTS
 62
     0
100
AcDbPoint
 10
-60.00056576613659
 20
-15.0
 30
0.0
  0
POINT
  5
32EF
330
3081
100
AcDbEntity
  8
DEFPOINTS
 62
     0
100
AcDbPoint
 10
-0.0003804425583081
 20
-15.00000000003954
 30
0.0
  0
POINT
  5
32F0
330
3081
100
AcDbEntity
  8
DEFPOINTS
 62
     0
100
AcDbPoint
 10
-0.000380442558309
 20
-30.00000100000194
 30
0.0
  0
ENDBLK
  5
308C
330
3081
100
AcDbEntity
  8
0
100
AcDbBlockEnd
  0
ENDSEC
  0
SECTION
  2
ENTITIES
  0
TEXT
  5
C58
330
1F
100
AcDbEntity
  8
AM_6
100
AcDbText
 10
-86.66658052872897
 20
-64.50000099999925
 30
0.0
 40
5.0
  1
HHM8300ZX
 50
0.0000000000002036
 72
     4
 11
-64.99991386206232
 21
-62.00000099999917
 31
0.0
100
AcDbText
  0
DIMENSION
  5
2EA2
330
1F
100
AcDbEntity
  8
AM_5
100
AcDbDimension
  2
*D5
 10
19.66267638806195
 20
-15.00000000003738
 30
0.0
 11
16.56267638806196
 21
-0.0000000000186917
 31
0.0
 70
    32
  1
%%c<>
  3
AM_JIS
100
AcDbAlignedDimension
 13
0.0000861379376671
 23
14.99999999999999
 33
0.0
 14
0.0000861379372976
 24
-15.00000000003737
 34
0.0
 50
90.0
100
AcDbRotatedDimension
1001
GENIUS_GENDTOL_13
1000

1000
h7
1000

1040
0.0
  0
LINE
  5
2F09
330
1F
100
AcDbEntity
  8
AM_7
100
AcDbLine
 10
-136.6370187483412
 20
-0.0000000000000036
 30
0.0
 11
5.662675388061727
 21
-0.0000000000000036
 31
0.0
1001
GENIUS_GENODEF_13
1002
{
1000
HIER
1070
     0
1002
}
1002
{
1000
MANEDIT
1070
     0
1002
}
1002
{
1000
NOSEL
1070
     0
1002
}
1002
{
1000
BEHIND
1070
     0
1002
}
1002
{
1000
REACTOR
1002
}
1001
GENIUS_GENOBJ-N-CEN_13
1002
{
1000
OWNER
1000
GEN
1002
}
  0
DIMENSION
  5
2F15
330
1F
100
AcDbEntity
  8
AM_5
100
AcDbDimension
  2
*D6
 10
0.0000861379376653
 20
-42.00000099999917
 30
0.0
 11
-64.99991386206232
 21
-38.90000099999918
 31
0.0
 70
    32
  1
<>
  3
AM_JIS
100
AcDbAlignedDimension
 13
-129.9999138620623
 23
-12.24999999999998
 33
0.0
 14
0.000086137937667
 24
-15.00000000003954
 34
0.0
 50
0.0000000000003915
100
AcDbRotatedDimension
1001
GENIUS_GENDTOL_13
1000

1000
H7
1000

1040
0.0
  0
LINE
  5
2F6A
330
1F
100
AcDbEntity
  8
AM_0
100
AcDbLine
 10
-128.6999138620623
 20
15.99999999999999
 30
0.0
 11
-74.69991386206231
 21
15.99999999999999
 31
0.0
1001
GENIUS_GENODEF_13
1002
{
1000
HIER
1070
     0
1002
}
1002
{
1000
MANEDIT
1070
     0
1002
}
1002
{
1000
NOSEL
1070
     0
1002
}
1002
{
1000
BEHIND
1070
     0
1002
}
1002
{
1000
REACTOR
1002
}
1001
GENIUS_GENOBJ-N-CEN_13
1002
{
1000
OWNER
1000
GEN
1002
}
  0
LINE
  5
2F6B
330
1F
100
AcDbEntity
  8
AM_0
100
AcDbLine
 10
-128.6999138620623
 20
-15.99999999999998
 30
0.0
 11
-74.69991386206233
 21
-15.99999999999998
 31
0.0
1001
GENIUS_GENODEF_13
1002
{
1000
HIER
1070
     0
1002
}
1002
{
1000
MANEDIT
1070
     0
1002
}
1002
{
1000
NOSEL
1070
     0
1002
}
1002
{
1000
BEHIND
1070
     0
1002
}
1002
{
1000
REACTOR
1002
}
1001
GENIUS_GENOBJ-N-CEN_13
1002
{
1000
OWNER
1000
GEN
1002
}
  0
LINE
  5
2F6C
330
1F
100
AcDbEntity
  8
AM_0
100
AcDbLine
 10
-106.7261923135901
 20
15.99999999999982
 30
0.0
 11
-109.4399205381892
 21
15.99999999999982
 31
0.0
  0
LINE
  5
2F6D
330
1F
100
AcDbEntity
  8
AM_0
100
AcDbLine
 10
-129.9999138620623
 20
12.00000000000001
 30
0.0
 11
-128.6999138620623
 21
15.99999999999999
 31
0.0
1001
GENIUS_GENFIL_13
1070
     0
1040
0.5
1040
0.5
1040
0.4999999999999716
1040
45.0
1002
{
1002
}
  0
LINE
  5
2F6E
330
1F
100
AcDbEntity
  8
AM_0
100
AcDbLine
 10
-105.7505523409582
 20
-16.00000000000036
 30
0.0
 11
-109.4399205381892
 21
-16.00000000000036
 31
0.0
  0
LINE
  5
2F6F
330
1F
100
AcDbEntity
  8
AM_0
100
AcDbLine
 10
-129.9999138620623
 20
-11.99999999999998
 30
0.0
 11
-128.6999138620623
 21
-15.99999999999998
 31
0.0
1001
GENIUS_GENFIL_13
1070
     0
1040
0.5
1040
0.5
1040
0.4999999999999716
1040
45.00000000000036
1002
{
1002
}
  0
LINE
  5
2F70
330
1F
100
AcDbEntity
  8
AM_0
100
AcDbLine
 10
-129.9999138620623
 20
-11.99999999999998
 30
0.0
 11
-129.9999138620623
 21
12.00000000000001
 31
0.0
  0
LINE
  5
2F71
330
1F
100
AcDbEntity
  8
0
100
AcDbLine
 10
-128.6999138620623
 20
-15.99999999999998
 30
0.0
 11
-128.6999138620623
 21
15.99999999999999
 31
0.0
  0
DIMENSION
  5
2F72
330
1F
100
AcDbEntity
  8
AM_5
100
AcDbDimension
  2
*D7
 10
-150.6370197483415
 20
16.0
 30
0.0
 11
-150.6370197483415
 21
-0.0000000000000281
 31
0.0
 70
   160
  1
%%c<>
  3
AM_JIS
100
AcDbAlignedDimension
 13
-128.6999138620623
 23
-15.99999999999999
 33
0.0
 14
-128.6999138620623
 24
15.99999999999999
 34
0.0
 50
270.0
100
AcDbRotatedDimension
1001
ACAD
1000
DSTYLE
1002
{
1070
    48
1040
0.1
1070
    47
1040
0.1
1070
   274
1070
     2
1070
   272
1070
     3
1002
}
1001
GENIUS_GENDTOL_13
1000

1000
h6
1000

1040
0.0
  0
LINE
  5
2F98
330
1F
100
AcDbEntity
  8
AM_0
100
AcDbLine
 10
-74.69991386206231
 20
-15.99999999999998
 30
0.0
 11
-74.69991386206231
 21
15.99999999999999
 31
0.0
  0
LINE
  5
3016
330
1F
100
AcDbEntity
  8
AM_0
100
AcDbLine
 10
-0.9583805249888596
 20
15.00992030816886
 30
0.0
 11
-0.0003804425583078
 21
14.85122602553107
 31
0.0
  0
SPLINE
  5
3017
330
1F
100
AcDbEntity
  8
AM_0
100
AcDbSpline
210
0.0
220
0.0
230
1.0
 70
     8
 71
     3
 72
     8
 73
     4
 74
     0
 42
0.0000000001
 43
0.0000000001
 40
0.0
 40
0.0
 40
0.0
 40
0.0
 40
1.707928658540872
 40
1.707928658540872
 40
1.707928658540872
 40
1.707928658540872
 10
-0.9583805249743381
 20
15.0099203081663
 30
0.0
 10
-2.776375853495074
 20
15.0099203081663
 30
0.0
 10
-4.5160248568769
 20
14.7573571488256
 30
0.0
 10
-6.191704691600249
 20
14.29857812284487
 30
0.0
  0
SPLINE
  5
3018
330
1F
100
AcDbEntity
  8
AM_0
100
AcDbSpline
210
0.0
220
0.0
230
1.0
 70
     8
 71
     3
 72
     8
 73
     4
 74
     0
 42
0.0000000001
 43
0.0000000001
 40
0.0
 40
0.0
 40
0.0
 40
0.0
 40
0.5596836519003795
 40
0.5596836519003795
 40
0.5596836519003795
 40
0.5596836519003795
 10
-0.9583805249743381
 20
15.0099203081663
 30
0.0
 10
-1.014871335768463
 20
14.45275849003016
 30
0.0
 10
-1.661168110337903
 20
13.71574829340667
 30
0.0
 10
-2.370683090388806
 20
13.16969637462077
 30
0.0
  0
LINE
  5
3019
330
1F
100
AcDbEntity
  8
AM_0
100
AcDbLine
 10
-0.9583805249888596
 20
10.90612292644542
 30
0.0
 11
-0.0003804425583078
 21
10.90612292644542
 31
0.0
  0
LINE
  5
301A
330
1F
100
AcDbEntity
  8
AM_0
100
AcDbLine
 10
-0.0003804425583078
 20
10.90612292644542
 30
0.0
 11
-0.4720312021875647
 21
12.32858249257705
 31
0.0
  0
LINE
  5
301B
330
1F
100
AcDbEntity
  8
AM_0
100
AcDbLine
 10
-4.161939167475654
 20
7.707806944305248
 30
0.0
 11
-4.161939167475654
 21
9.330935484863831
 31
0.0
  0
SPLINE
  5
301C
330
1F
100
AcDbEntity
  8
AM_0
100
AcDbSpline
210
0.0
220
0.0
230
1.0
 70
     8
 71
     3
 72
     8
 73
     4
 74
     0
 42
0.0000000001
 43
0.0000000001
 40
0.0
 40
0.0
 40
0.0
 40
0.0
 40
1.132300688333841
 40
1.132300688333841
 40
1.132300688333841
 40
1.132300688333841
 10
-0.9583805249888596
 20
10.90612292644542
 30
0.0
 10
-1.271087614342921
 20
9.812595992299213
 30
0.0
 10
-2.956667886630124
 20
9.330935484863831
 30
0.0
 10
-4.161939167475654
 20
9.330935484863831
 30
0.0
  0
LINE
  5
301D
330
1F
100
AcDbEntity
  8
AM_0
100
AcDbLine
 10
-0.0003804425583078
 20
3.526492699604519
 30
0.0
 11
-0.2765861604297882
 21
2.558087359972803
 31
0.0
  0
LINE
  5
301E
330
1F
100
AcDbEntity
  8
AM_0
100
AcDbLine
 10
-0.4317729391775701
 20
3.945199155372364
 30
0.0
 11
-4.161939167475654
 21
7.707806944305248
 31
0.0
  0
LINE
  5
301F
330
1F
100
AcDbEntity
  8
AM_0
100
AcDbLine
 10
-4.161939167475654
 20
9.330935484863831
 30
0.0
 11
-1.548733987748226
 21
5.071874505495742
 31
0.0
  0
LINE
  5
3020
330
1F
100
AcDbEntity
  8
AM_0
100
AcDbLine
 10
-4.301706633121058
 20
-1.790079691832742
 30
0.0
 11
-4.301706633121058
 21
0.0099203081663016
 31
0.0
  0
LINE
  5
3021
330
1F
100
AcDbEntity
  8
AM_0
100
AcDbLine
 10
-0.0003804425583078
 20
0.0099203081663016
 30
0.0
 11
-4.301706633121058
 21
0.0099203081663016
 31
0.0
  0
LINE
  5
3022
330
1F
100
AcDbEntity
  8
AM_0
100
AcDbLine
 10
-0.0003804425583078
 20
0.0000000000001996
 30
0.0
 11
-0.2765861604297882
 21
-2.468819910487325
 31
0.0
  0
LINE
  5
3023
330
1F
100
AcDbEntity
  8
AM_0
100
AcDbLine
 10
-0.0003804425583078
 20
-3.437225250119211
 30
0.0
 11
-0.9934660011782572
 21
0.044633724742739
 31
0.0
  0
LINE
  5
3024
330
1F
100
AcDbEntity
  8
AM_0
100
AcDbLine
 10
-0.9583805249903114
 20
-10.88628231011213
 30
0.0
 11
-0.0003804425583078
 21
-10.88628231011213
 31
0.0
  0
LINE
  5
3025
330
1F
100
AcDbEntity
  8
AM_0
100
AcDbLine
 10
-4.335414701176079
 20
-9.814195460161641
 30
0.0
 11
-2.397210267792704
 21
-9.814195460161641
 31
0.0
  0
LINE
  5
3026
330
1F
100
AcDbEntity
  8
AM_0
100
AcDbLine
 10
-4.335414701176079
 20
-10.47573668269504
 30
0.0
 11
-4.335414701176079
 21
-9.814195460161641
 31
0.0
  0
ELLIPSE
  5
3027
330
1F
100
AcDbEntity
  8
AM_0
100
AcDbEllipse
 10
19.04397649443822
 20
-7.034499297232317
 30
0.0
 11
-19.48069834673817
 21
0.0000000000002607
 31
0.0
210
0.0
220
0.0
230
1.0
 40
0.9394571216693352
 41
-0.0225411903576232
 42
0.2120508101854592
  0
LINE
  5
3028
330
1F
100
AcDbEntity
  8
AM_0
100
AcDbLine
 10
-0.0003804425583078
 20
-3.437225250119211
 30
0.0
 11
-0.4317729391775701
 21
-6.622001577114954
 31
0.0
  0
LINE
  5
3029
330
1F
100
AcDbEntity
  8
AM_0
100
AcDbLine
 10
-0.4317729391775701
 20
-6.622001577114954
 30
0.0
 11
-4.301706633121058
 21
-1.790079691832742
 31
0.0
  0
LINE
  5
302A
330
1F
100
AcDbEntity
  8
AM_0
100
AcDbLine
 10
-0.0003804425583078
 20
0.0892674494851068
 30
0.0
 11
-0.4317729391775701
 21
3.945199155372364
 31
0.0
  0
LINE
  5
302B
330
1F
100
AcDbEntity
  8
AM_0
100
AcDbLine
 10
-0.0003804425583078
 20
3.526492699604176
 30
0.0
 11
-0.0003804425583078
 21
14.85122602553107
 31
0.0
  0
LINE
  5
302C
330
1F
100
AcDbEntity
  8
AM_0
100
AcDbLine
 10
-0.9583805249743381
 20
-14.99007969183369
 30
0.0
 11
-0.0003804425583078
 21
-14.83138540919608
 31
0.0
  0
ELLIPSE
  5
302D
330
1F
100
AcDbEntity
  8
AM_0
100
AcDbEllipse
 10
2.03033429082294
 20
-13.3412653508532
 30
0.0
 11
2.495391698183327
 21
0.0000000000000007
 31
0.0
210
0.0
220
0.0
230
1.0
 40
0.9394571216693215
 41
2.978080377989209
 42
3.761751825488834
  0
LINE
  5
302E
330
1F
100
AcDbEntity
  8
AM_0
100
AcDbLine
 10
-0.4317729391775701
 20
-13.3043124138031
 30
0.0
 11
-0.3081692802071459
 21
-10.88628231011213
 31
0.0
  0
LINE
  5
302F
330
1F
100
AcDbEntity
  8
AM_0
100
AcDbLine
 10
-0.4590021558978197
 20
-13.28727893903308
 30
0.0
 11
-4.335414701176079
 21
-10.47573668269504
 31
0.0
  0
LINE
  5
3030
330
1F
100
AcDbEntity
  8
AM_0
100
AcDbLine
 10
-0.0003804425583078
 20
-14.70369760350004
 30
0.0
 11
-0.0003804425583078
 21
-3.437225250119211
 31
0.0
  0
LINE
  5
3031
330
1F
100
AcDbEntity
  8
AM_11
100
AcDbLine
 10
-0.0003804425583504
 20
15.0099203081663
 30
0.0
 11
-0.0003804425583078
 21
-14.9900796918337
 31
0.0
  0
SPLINE
  5
3032
330
1F
100
AcDbEntity
  8
AM_0
100
AcDbSpline
210
0.0
220
0.0
230
1.0
 70
     8
 71
     3
 72
     8
 73
     4
 74
     0
 42
0.0000000001
 43
0.0000000001
 40
0.0
 40
0.0
 40
0.0
 40
0.0
 40
1.707928658540872
 40
1.707928658540872
 40
1.707928658540872
 40
1.707928658540872
 10
-13.49221493677732
 20
15.0099203081663
 30
0.0
 10
-15.31021026529806
 20
15.0099203081663
 30
0.0
 10
-17.04985926867989
 20
14.75735714882561
 30
0.0
 10
-18.72553910340323
 20
14.29857812284487
 30
0.0
  0
SPLINE
  5
3033
330
1F
100
AcDbEntity
  8
AM_0
100
AcDbSpline
210
0.0
220
0.0
230
1.0
 70
     8
 71
     3
 72
     8
 73
     4
 74
     0
 42
0.0000000001
 43
0.0000000001
 40
0.0
 40
0.0
 40
0.0
 40
0.0
 40
1.707928658540872
 40
1.707928658540872
 40
1.707928658540872
 40
1.707928658540872
 10
-26.02604934858032
 20
15.0099203081663
 30
0.0
 10
-27.84404467710105
 20
15.0099203081663
 30
0.0
 10
-29.58369368048287
 20
14.75735714882561
 30
0.0
 10
-31.25937351520622
 20
14.29857812284487
 30
0.0
  0
SPLINE
  5
3034
330
1F
100
AcDbEntity
  8
AM_0
100
AcDbSpline
210
0.0
220
0.0
230
1.0
 70
     8
 71
     3
 72
     8
 73
     4
 74
     0
 42
0.0000000001
 43
0.0000000001
 40
0.0
 40
0.0
 40
0.0
 40
0.0
 40
0.0146523396972722
 40
0.0146523396972722
 40
0.0146523396972722
 40
0.0146523396972722
 10
-63.62755258398929
 20
15.00992030816631
 30
0.0
 10
-63.64314918692018
 20
15.00992030816631
 30
0.0
 10
-63.65874002360548
 20
15.0099017196594
 30
0.0
 10
-63.67432510312305
 20
15.00986457190975
 30
0.0
  0
SPLINE
  5
3035
330
1F
100
AcDbEntity
  8
AM_0
100
AcDbSpline
210
0.0
220
0.0
230
1.0
 70
     8
 71
     3
 72
     8
 73
     4
 74
     0
 42
0.0000000001
 43
0.0000000001
 40
0.0
 40
0.0
 40
0.0
 40
0.0
 40
1.707928658540872
 40
1.707928658540872
 40
1.707928658540872
 40
1.707928658540872
 10
-51.09371817218629
 20
15.0099203081663
 30
0.0
 10
-52.91171350070703
 20
15.0099203081663
 30
0.0
 10
-54.65136250408885
 20
14.75735714882561
 30
0.0
 10
-56.3270423388122
 20
14.29857812284487
 30
0.0
  0
SPLINE
  5
3036
330
1F
100
AcDbEntity
  8
AM_0
100
AcDbSpline
210
0.0
220
0.0
230
1.0
 70
     8
 71
     3
 72
     8
 73
     4
 74
     0
 42
0.0000000001
 43
0.0000000001
 40
0.0
 40
0.0
 40
0.0
 40
0.0
 40
1.707928658540872
 40
1.707928658540872
 40
1.707928658540872
 40
1.707928658540872
 10
-38.55988376038331
 20
15.0099203081663
 30
0.0
 10
-40.37787908890402
 20
15.0099203081663
 30
0.0
 10
-42.11752809228586
 20
14.75735714882561
 30
0.0
 10
-43.7932079270092
 20
14.29857812284487
 30
0.0
  0
SPLINE
  5
3037
330
1F
100
AcDbEntity
  8
AM_0
100
AcDbSpline
210
0.0
220
0.0
230
1.0
 70
     8
 71
     3
 72
     8
 73
     4
 74
     0
 42
0.0000000001
 43
0.0000000001
 40
0.0
 40
0.0
 40
0.0
 40
0.0
 40
9.246817942408423
 40
9.246817942408423
 40
9.246817942408423
 40
9.246817942408423
 10
-35.07399370401328
 20
14.67042093196486
 30
0.0
 10
-25.23126886950702
 20
14.67042093196485
 30
0.0
 10
-17.6187968749488
 20
7.340170620065579
 30
0.0
 10
-10.0063248803906
 20
0.0099203081663033
 30
0.0
  0
SPLINE
  5
3038
330
1F
100
AcDbEntity
  8
AM_0
100
AcDbSpline
210
0.0
220
0.0
230
1.0
 70
     8
 71
     3
 72
     8
 73
     4
 74
     0
 42
0.0000000001
 43
0.0000000001
 40
0.0
 40
0.0
 40
0.0
 40
0.0
 40
9.246817942408229
 40
9.246817942408229
 40
9.246817942408229
 40
9.246817942408229
 10
-47.60782811581626
 20
14.67042093196486
 30
0.0
 10
-37.76510328131021
 20
14.67042093196485
 30
0.0
 10
-30.15263128675226
 20
7.340170620065579
 30
0.0
 10
-22.54015929219431
 20
0.009920308166305
 30
0.0
  0
SPLINE
  5
3039
330
1F
100
AcDbEntity
  8
AM_0
100
AcDbSpline
210
0.0
220
0.0
230
1.0
 70
     8
 71
     3
 72
     8
 73
     4
 74
     0
 42
0.0000000001
 43
0.0000000001
 40
0.0
 40
0.0
 40
0.0
 40
0.0
 40
9.246817942408423
 40
9.246817942408423
 40
9.246817942408423
 40
9.246817942408423
 10
-60.14166252761998
 20
14.67042093196486
 30
0.0
 10
-50.29893769311371
 20
14.67042093196486
 30
0.0
 10
-42.6864656985555
 20
7.340170620065583
 30
0.0
 10
-35.0739937039973
 20
0.009920308166305
 30
0.0
  0
SPLINE
  5
303A
330
1F
100
AcDbEntity
  8
AM_0
100
AcDbSpline
210
0.0
220
0.0
230
1.0
 70
     8
 71
     3
 72
     8
 73
     4
 74
     0
 42
0.0000000001
 43
0.0000000001
 40
0.0
 40
0.0
 40
0.0
 40
0.0
 40
9.307120929696711
 40
9.307120929696711
 40
9.307120929696711
 40
9.307120929696711
 10
-51.09371817221823
 20
15.0099203081663
 30
0.0
 10
-41.18680415238638
 20
15.0099203081663
 30
0.0
 10
-33.60642675049135
 20
7.509920308166302
 30
0.0
 10
-26.02604934859629
 20
0.009920308166305
 30
0.0
  0
SPLINE
  5
303B
330
1F
100
AcDbEntity
  8
AM_0
100
AcDbSpline
210
0.0
220
0.0
230
1.0
 70
     8
 71
     3
 72
     8
 73
     4
 74
     0
 42
0.0000000001
 43
0.0000000001
 40
0.0
 40
0.0
 40
0.0
 40
0.0
 40
9.307120929696711
 40
9.307120929696711
 40
9.307120929696711
 40
9.307120929696711
 10
-38.55988376041526
 20
15.0099203081663
 30
0.0
 10
-28.65296974058338
 20
15.0099203081663
 30
0.0
 10
-21.07259233868834
 20
7.509920308166302
 30
0.0
 10
-13.4922149367933
 20
0.0099203081663033
 30
0.0
  0
SPLINE
  5
303C
330
1F
100
AcDbEntity
  8
AM_0
100
AcDbSpline
210
0.0
220
0.0
230
1.0
 70
     8
 71
     3
 72
     8
 73
     4
 74
     0
 42
0.0000000001
 43
0.0000000001
 40
0.0
 40
0.0
 40
0.0
 40
0.0
 40
9.307120929696711
 40
9.307120929696711
 40
9.307120929696711
 40
9.307120929696711
 10
-63.62755258402124
 20
15.00992030816631
 30
0.0
 10
-53.72063856418935
 20
15.0099203081663
 30
0.0
 10
-46.14026116229431
 20
7.509920308166305
 30
0.0
 10
-38.55988376039928
 20
0.0099203081663066
 30
0.0
  0
SPLINE
  5
305E
330
1F
100
AcDbEntity
  8
AM_0
100
AcDbSpline
210
0.0
220
0.0
230
1.0
 70
     8
 71
     3
 72
     8
 73
     4
 74
     0
 42
0.0000000001
 43
0.0000000001
 40
0.0
 40
0.0
 40
0.0
 40
0.0
 40
9.246817942408423
 40
9.246817942408423
 40
9.246817942408423
 40
9.246817942408423
 10
-71.95243644260776
 20
14.99999999999999
 30
0.0
 10
-62.83277210491599
 20
14.67042093196486
 30
0.0
 10
-55.22030011035777
 20
7.340170620065583
 30
0.0
 10
-47.60782811579956
 20
0.0099203081663066
 30
0.0
  0
SPLINE
  5
305F
330
1F
100
AcDbEntity
  8
AM_0
100
AcDbSpline
210
0.0
220
0.0
230
1.0
 70
     8
 71
     3
 72
     8
 73
     4
 74
     0
 42
0.0000000001
 43
0.0000000001
 40
2.741696516779206
 40
2.741696516779206
 40
2.741696516779206
 40
2.741696516779206
 40
9.307120929696711
 40
9.307120929696711
 40
9.307120929696711
 40
9.307120929696711
 10
-67.95243644260776
 20
13.24914506559993
 30
0.0
 10
-61.78840995271439
 20
10.59121251847088
 30
0.0
 10
-56.44106406245832
 20
5.300566413318598
 30
0.0
 10
-51.09371817220225
 20
0.0099203081663083
 30
0.0
  0
SPLINE
  5
3060
330
1F
100
AcDbEntity
  8
AM_0
100
AcDbSpline
210
0.0
220
0.0
230
1.0
 70
     8
 71
     3
 72
     8
 73
     4
 74
     0
 42
0.0000000001
 43
0.0000000001
 40
7.672052241358654
 40
7.672052241358654
 40
7.672052241358654
 40
7.672052241358654
 40
9.307120929696807
 40
9.307120929696807
 40
9.307120929696807
 40
9.307120929696807
 10
-67.63531380775052
 20
3.922039811020516
 30
0.0
 10
-66.29098369857842
 20
2.645110127911229
 30
0.0
 10
-64.95926814129184
 20
1.327515218038764
 30
0.0
 10
-63.62755258400525
 20
0.0099203081663083
 30
0.0
  0
SPLINE
  5
3061
330
1F
100
AcDbEntity
  8
AM_0
100
AcDbSpline
210
0.0
220
0.0
230
1.0
 70
     8
 71
     3
 72
     8
 73
     4
 74
     0
 42
0.0000000001
 43
0.0000000001
 40
6.072564590837323
 40
6.072564590837323
 40
6.072564590837323
 40
6.072564590837323
 40
9.307120929696704
 40
9.307120929696704
 40
9.307120929696704
 40
9.307120929696704
 10
-68.14267476688572
 20
7.514654621041479
 30
0.0
 10
-65.41056533040483
 20
5.222955085449664
 30
0.0
 10
-62.77611392900406
 20
2.616437696807986
 30
0.0
 10
-60.14166252760329
 20
0.0099203081663083
 30
0.0
  0
SPLINE
  5
3062
330
1F
100
AcDbEntity
  8
AM_0
100
AcDbSpline
210
0.0
220
0.0
230
1.0
 70
     8
 71
     3
 72
     8
 73
     4
 74
     0
 42
0.0000000001
 43
0.0000000001
 40
0.0
 40
0.0
 40
0.0
 40
0.0
 40
1.168827779827945
 40
1.168827779827945
 40
1.168827779827945
 40
1.168827779827945
 10
-13.4922149368071
 20
-14.99007969183369
 30
0.0
 10
-12.24806259300311
 20
-14.99007969183369
 30
0.0
 10
-11.04060299640033
 20
-14.87179416738311
 30
0.0
 10
-9.865228115946953
 20
-14.65007791707873
 30
0.0
  0
SPLINE
  5
3063
330
1F
100
AcDbEntity
  8
AM_0
100
AcDbSpline
210
0.0
220
0.0
230
1.0
 70
     8
 71
     3
 72
     8
 73
     4
 74
     0
 42
0.0000000001
 43
0.0000000001
 40
0.0
 40
0.0
 40
0.0
 40
0.0
 40
1.229985673975173
 40
1.229985673975173
 40
1.229985673975173
 40
1.229985673975173
 10
-22.5401592922081
 20
-14.65058031563242
 30
0.0
 10
-21.23090776214411
 20
-14.65058031563242
 30
0.0
 10
-19.96111736896437
 20
-14.52088201157939
 30
0.0
 10
-18.72553910340323
 20
-14.27873750651244
 30
0.0
  0
SPLINE
  5
3064
330
1F
100
AcDbEntity
  8
AM_0
100
AcDbSpline
210
0.0
220
0.0
230
1.0
 70
     8
 71
     3
 72
     8
 73
     4
 74
     0
 42
0.0000000001
 43
0.0000000001
 40
0.0
 40
0.0
 40
0.0
 40
0.0
 40
1.229985673975173
 40
1.229985673975173
 40
1.229985673975173
 40
1.229985673975173
 10
-35.07399370401111
 20
-14.65058031563241
 30
0.0
 10
-33.7647421739471
 20
-14.65058031563241
 30
0.0
 10
-32.49495178076664
 20
-14.52088201157939
 30
0.0
 10
-31.25937351520622
 20
-14.27873750651244
 30
0.0
  0
SPLINE
  5
3065
330
1F
100
AcDbEntity
  8
AM_0
100
AcDbSpline
210
0.0
220
0.0
230
1.0
 70
     8
 71
     3
 72
     8
 73
     4
 74
     0
 42
0.0000000001
 43
0.0000000001
 40
0.0
 40
0.0
 40
0.0
 40
0.0
 40
1.168827779827945
 40
1.168827779827945
 40
1.168827779827945
 40
1.168827779827945
 10
-38.55988376041307
 20
-14.99007969183369
 30
0.0
 10
-37.31573141660909
 20
-14.99007969183369
 30
0.0
 10
-36.10827182000631
 20
-14.8717941673831
 30
0.0
 10
-34.93289693955293
 20
-14.65007791707872
 30
0.0
  0
SPLINE
  5
3066
330
1F
100
AcDbEntity
  8
AM_0
100
AcDbSpline
210
0.0
220
0.0
230
1.0
 70
     8
 71
     3
 72
     8
 73
     4
 74
     0
 42
0.0000000001
 43
0.0000000001
 40
0.0
 40
0.0
 40
0.0
 40
0.0
 40
1.168827779827945
 40
1.168827779827945
 40
1.168827779827945
 40
1.168827779827945
 10
-26.0260493486108
 20
-14.99007969183369
 30
0.0
 10
-24.78189700480682
 20
-14.99007969183369
 30
0.0
 10
-23.57443740820404
 20
-14.87179416738311
 30
0.0
 10
-22.39906252774993
 20
-14.65007791707873
 30
0.0
  0
SPLINE
  5
3067
330
1F
100
AcDbEntity
  8
AM_0
100
AcDbSpline
210
0.0
220
0.0
230
1.0
 70
     8
 71
     3
 72
     8
 73
     4
 74
     0
 42
0.0000000001
 43
0.0000000001
 40
0.0
 40
0.0
 40
0.0
 40
0.0
 40
1.168827779827945
 40
1.168827779827945
 40
1.168827779827945
 40
1.168827779827945
 10
-51.09371817221607
 20
-14.99007969183369
 30
0.0
 10
-49.84956582841209
 20
-14.99007969183369
 30
0.0
 10
-48.6421062318093
 20
-14.8717941673831
 30
0.0
 10
-47.46673135135591
 20
-14.65007791707872
 30
0.0
  0
SPLINE
  5
3068
330
1F
100
AcDbEntity
  8
AM_0
100
AcDbSpline
210
0.0
220
0.0
230
1.0
 70
     8
 71
     3
 72
     8
 73
     4
 74
     0
 42
0.0000000001
 43
0.0000000001
 40
0.0
 40
0.0
 40
0.0
 40
0.0
 40
1.229985673975173
 40
1.229985673975173
 40
1.229985673975173
 40
1.229985673975173
 10
-47.60782811581408
 20
-14.65058031563241
 30
0.0
 10
-46.29857658575009
 20
-14.65058031563241
 30
0.0
 10
-45.02878619256963
 20
-14.52088201157939
 30
0.0
 10
-43.7932079270092
 20
-14.27873750651243
 30
0.0
  0
SPLINE
  5
3069
330
1F
100
AcDbEntity
  8
AM_0
100
AcDbSpline
210
0.0
220
0.0
230
1.0
 70
     8
 71
     3
 72
     8
 73
     4
 74
     0
 42
0.0000000001
 43
0.0000000001
 40
0.0
 40
0.0
 40
0.0
 40
0.0
 40
1.168827779827945
 40
1.168827779827945
 40
1.168827779827945
 40
1.168827779827945
 10
-63.62755258401978
 20
-14.99007969183368
 30
0.0
 10
-62.38340024021581
 20
-14.99007969183368
 30
0.0
 10
-61.17594064361301
 20
-14.8717941673831
 30
0.0
 10
-60.00056576315891
 20
-14.65007791707872
 30
0.0
  0
SPLINE
  5
306A
330
1F
100
AcDbEntity
  8
AM_0
100
AcDbSpline
210
0.0
220
0.0
230
1.0
 70
     8
 71
     3
 72
     8
 73
     4
 74
     0
 42
0.0000000001
 43
0.0000000001
 40
0.0
 40
0.0
 40
0.0
 40
0.0
 40
1.229985673975173
 40
1.229985673975173
 40
1.229985673975173
 40
1.229985673975173
 10
-60.14166252761707
 20
-14.65058031563241
 30
0.0
 10
-58.83241099755309
 20
-14.65058031563241
 30
0.0
 10
-57.56262060437333
 20
-14.52088201157939
 30
0.0
 10
-56.3270423388122
 20
-14.27873750651243
 30
0.0
  0
SPLINE
  5
306B
330
1F
100
AcDbEntity
  8
AM_0
100
AcDbSpline
210
0.0
220
0.0
230
1.0
 70
     8
 71
     3
 72
     8
 73
     4
 74
     0
 42
0.0000000001
 43
0.0000000001
 40
0.0
 40
0.0
 40
0.0
 40
0.0
 40
9.307120929696711
 40
9.307120929696711
 40
9.307120929696711
 40
9.307120929696711
 10
-13.49221493677732
 20
-14.99007969183369
 30
0.0
 10
-23.39912895660918
 20
-14.99007969183369
 30
0.0
 10
-30.97950635850422
 20
-7.490079691833694
 30
0.0
 10
-38.55988376039928
 20
0.0099203081663066
 30
0.0
  0
SPLINE
  5
306C
330
1F
100
AcDbEntity
  8
AM_0
100
AcDbSpline
210
0.0
220
0.0
230
1.0
 70
     8
 71
     3
 72
     8
 73
     4
 74
     0
 42
0.0000000001
 43
0.0000000001
 40
0.0
 40
0.0
 40
0.0
 40
0.0
 40
9.246817942408453
 40
9.246817942408453
 40
9.246817942408453
 40
9.246817942408453
 10
-22.54015929217761
 20
-14.65058031563242
 30
0.0
 10
-32.3828841266839
 20
-14.65058031563242
 30
0.0
 10
-39.9953561212421
 20
-7.320330003733056
 30
0.0
 10
-47.60782811580029
 20
0.0099203081663066
 30
0.0
  0
SPLINE
  5
306D
330
1F
100
AcDbEntity
  8
AM_0
100
AcDbSpline
210
0.0
220
0.0
230
1.0
 70
     8
 71
     3
 72
     8
 73
     4
 74
     0
 42
0.0000000001
 43
0.0000000001
 40
0.0
 40
0.0
 40
0.0
 40
0.0
 40
9.307120929696711
 40
9.307120929696711
 40
9.307120929696711
 40
9.307120929696711
 10
-26.02604934858032
 20
-14.99007969183369
 30
0.0
 10
-35.93296336841218
 20
-14.99007969183369
 30
0.0
 10
-43.5133407703072
 20
-7.490079691833694
 30
0.0
 10
-51.09371817220225
 20
0.0099203081663083
 30
0.0
  0
SPLINE
  5
306E
330
1F
100
AcDbEntity
  8
AM_0
100
AcDbSpline
210
0.0
220
0.0
230
1.0
 70
     8
 71
     3
 72
     8
 73
     4
 74
     0
 42
0.0000000001
 43
0.0000000001
 40
0.0
 40
0.0
 40
0.0
 40
0.0
 40
9.246817942408453
 40
9.246817942408453
 40
9.246817942408453
 40
9.246817942408453
 10
-10.00632488037535
 20
-14.65058031563242
 30
0.0
 10
-19.84904971488164
 20
-14.65058031563242
 30
0.0
 10
-27.46152170943984
 20
-7.320330003733059
 30
0.0
 10
-35.07399370399803
 20
0.009920308166305
 30
0.0
  0
SPLINE
  5
306F
330
1F
100
AcDbEntity
  8
AM_0
100
AcDbSpline
210
0.0
220
0.0
230
1.0
 70
     8
 71
     3
 72
     8
 73
     4
 74
     0
 42
0.0000000001
 43
0.0000000001
 40
0.0
 40
0.0
 40
0.0
 40
0.0
 40
1.5629958484237
 40
1.5629958484237
 40
1.5629958484237
 40
1.5629958484237
 10
-60.14166252758659
 20
-14.65058031563241
 30
0.0
 10
-61.80538491828656
 20
-14.65058031563241
 30
0.0
 10
-63.40538593437498
 20
-14.44114503647744
 30
0.0
 10
-64.95243644260776
 20
-14.05767546409276
 30
0.0
  0
SPLINE
  5
3070
330
1F
100
AcDbEntity
  8
AM_0
100
AcDbSpline
210
0.0
220
0.0
230
1.0
 70
     8
 71
     3
 72
     8
 73
     4
 74
     0
 42
0.0000000001
 43
0.0000000001
 40
0.0
 40
0.0
 40
0.0
 40
0.0
 40
9.307120929696711
 40
9.307120929696711
 40
9.307120929696711
 40
9.307120929696711
 10
-38.55988376038331
 20
-14.99007969183369
 30
0.0
 10
-48.46679778021515
 20
-14.99007969183369
 30
0.0
 10
-56.0471751821102
 20
-7.490079691833694
 30
0.0
 10
-63.62755258400525
 20
0.0099203081663083
 30
0.0
  0
SPLINE
  5
3071
330
1F
100
AcDbEntity
  8
AM_0
100
AcDbSpline
210
0.0
220
0.0
230
1.0
 70
     8
 71
     3
 72
     8
 73
     4
 74
     0
 42
0.0000000001
 43
0.0000000001
 40
0.0
 40
0.0
 40
0.0
 40
0.0
 40
9.246817942408453
 40
9.246817942408453
 40
9.246817942408453
 40
9.246817942408453
 10
-35.07399370398061
 20
-14.65058031563241
 30
0.0
 10
-44.9167185384869
 20
-14.65058031563241
 30
0.0
 10
-52.52919053304508
 20
-7.320330003733054
 30
0.0
 10
-60.14166252760329
 20
0.0099203081663083
 30
0.0
  0
SPLINE
  5
3072
330
1F
100
AcDbEntity
  8
AM_0
100
AcDbSpline
210
0.0
220
0.0
230
1.0
 70
     8
 71
     3
 72
     8
 73
     4
 74
     0
 42
0.0000000001
 43
0.0000000001
 40
0.0
 40
0.0
 40
0.0
 40
0.0
 40
7.142653086333472
 40
7.142653086333472
 40
7.142653086333472
 40
7.142653086333472
 10
-47.60782811578432
 20
-14.65058031563241
 30
0.0
 10
-55.2107861663249
 20
-14.65058031563241
 30
0.0
 10
-61.48301834182594
 20
-10.27683686115127
 30
0.0
 10
-67.45243644260776
 20
-4.907823755669494
 30
0.0
  0
SPLINE
  5
3073
330
1F
100
AcDbEntity
  8
AM_0
100
AcDbSpline
210
0.0
220
0.0
230
1.0
 70
     8
 71
     3
 72
     8
 73
     4
 74
     0
 42
0.0000000001
 43
0.0000000001
 40
0.0
 40
0.0
 40
0.0
 40
0.0
 40
5.467649910604157
 40
5.467649910604157
 40
5.467649910604157
 40
5.467649910604157
 10
-51.09371817218629
 20
-14.99007969183369
 30
0.0
 10
-56.91372824448067
 20
-14.99007969183369
 30
0.0
 10
-61.9308029693115
 20
-12.4016763718305
 30
0.0
 10
-66.61664239376555
 20
-8.745477800433821
 30
0.0
  0
LINE
  5
3074
330
1F
100
AcDbEntity
  8
AM_11
100
AcDbLine
 10
-60.00056576613664
 20
15.0099203081663
 30
0.0
 11
-60.00056576613659
 21
-14.9900796918337
 31
0.0
  0
SPLINE
  5
3075
330
1F
100
AcDbEntity
  8
AM_0
100
AcDbSpline
210
0.0
220
0.0
230
1.0
 70
     8
 71
     3
 72
     8
 73
     4
 74
     0
 42
0.0000000001
 43
0.0000000001
 40
0.0
 40
0.0
 40
0.0
 40
0.0
 40
3.208811545131809
 40
3.208811545131809
 40
3.208811545131809
 40
3.208811545131809
 10
-10.00632488040512
 20
14.67042093196502
 30
0.0
 10
-6.590722964023861
 20
14.67042093196502
 30
0.0
 10
-3.44369130176022
 20
13.78770164841498
 30
0.0
 10
-0.4720312021875647
 20
12.32858249257705
 30
0.0
  0
SPLINE
  5
3076
330
1F
100
AcDbEntity
  8
AM_0
100
AcDbSpline
210
0.0
220
0.0
230
1.0
 70
     8
 71
     3
 72
     8
 73
     4
 74
     0
 42
0.0000000001
 43
0.0000000001
 40
5.407991289528681
 40
5.407991289528681
 40
5.407991289528681
 40
5.407991289528681
 40
9.246817942408341
 40
9.246817942408341
 40
9.246817942408341
 40
9.246817942408341
 10
-0.3657686050422288
 20
-8.595073949966405
 30
0.0
 10
-3.685672615143881
 20
-6.076402672314117
 30
0.0
 10
-6.845998747767239
 20
-3.033241182073906
 30
0.0
 10
-10.00632488039132
 20
0.0099203081663033
 30
0.0
  0
SPLINE
  5
3077
330
1F
100
AcDbEntity
  8
AM_0
100
AcDbSpline
210
0.0
220
0.0
230
1.0
 70
     8
 71
     3
 72
     8
 73
     4
 74
     0
 42
0.0000000001
 43
0.0000000001
 40
0.0
 40
0.0
 40
0.0
 40
0.0
 40
1.229985673975173
 40
1.229985673975173
 40
1.229985673975173
 40
1.229985673975173
 10
-10.00632488040512
 20
-14.65058031563242
 30
0.0
 10
-8.697073350341128
 20
-14.65058031563242
 30
0.0
 10
-7.427282957160661
 20
-14.5208820115794
 30
0.0
 10
-6.191704691600249
 20
-14.27873750651244
 30
0.0
  0
LINE
  5
3078
330
1F
100
AcDbEntity
  8
AM_11
100
AcDbLine
 10
-0.0003804425583504
 20
15.0099203081663
 30
0.0
 11
-60.00056576613664
 21
15.00992030816631
 31
0.0
  0
LINE
  5
3079
330
1F
100
AcDbEntity
  8
AM_11
100
AcDbLine
 10
-60.00056576613659
 20
-14.99007969183368
 30
0.0
 11
-0.0003804425583078
 21
-14.9900796918337
 31
0.0
  0
SPLINE
  5
307A
330
1F
100
AcDbEntity
  8
AM_0
100
AcDbSpline
210
0.0
220
0.0
230
1.0
 70
     8
 71
     3
 72
     8
 73
     4
 74
     0
 42
0.0000000001
 43
0.0000000001
 40
4.323648603745047
 40
4.323648603745047
 40
4.323648603745047
 40
4.323648603745047
 40
9.307120929696758
 40
9.307120929696758
 40
9.307120929696758
 40
9.307120929696758
 10
-0.9583805249888596
 20
-10.88628231011213
 30
0.0
 10
-5.374430438672087
 20
-8.021788472017105
 30
0.0
 10
-9.433322687733058
 20
-4.005934081925402
 30
0.0
 10
-13.4922149367933
 20
0.0099203081663033
 30
0.0
  0
SPLINE
  5
307B
330
1F
100
AcDbEntity
  8
AM_0
100
AcDbSpline
210
0.0
220
0.0
230
1.0
 70
     8
 71
     3
 72
     8
 73
     4
 74
     0
 42
0.0000000001
 43
0.0000000001
 40
0.0
 40
0.0
 40
0.0
 40
0.0
 40
9.307120929696711
 40
9.307120929696711
 40
9.307120929696711
 40
9.307120929696711
 10
-0.9583805249743381
 20
-14.99007969183369
 30
0.0
 10
-10.86529454480619
 20
-14.99007969183369
 30
0.0
 10
-18.44567194670124
 20
-7.490079691833696
 30
0.0
 10
-26.02604934859629
 20
0.009920308166305
 30
0.0
  0
SPLINE
  5
307C
330
1F
100
AcDbEntity
  8
AM_0
100
AcDbSpline
210
0.0
220
0.0
230
1.0
 70
     8
 71
     3
 72
     8
 73
     4
 74
     0
 42
0.0000000001
 43
0.0000000001
 40
0.8586800831860527
 40
0.8586800831860527
 40
0.8586800831860527
 40
0.8586800831860527
 40
9.246817942408316
 40
9.246817942408316
 40
9.246817942408316
 40
9.246817942408316
 10
-0.1586313568895949
 20
-14.4668154062206
 30
0.0
 10
-8.729037468984516
 20
-13.28917361620361
 30
0.0
 10
-15.63459838058941
 20
-6.639626654018655
 30
0.0
 10
-22.54015929219431
 20
0.009920308166305
 30
0.0
  0
SPLINE
  5
307D
330
1F
100
AcDbEntity
  8
AM_0
100
AcDbSpline
210
0.0
220
0.0
230
1.0
 70
     8
 71
     3
 72
     8
 73
     4
 74
     0
 42
0.0000000001
 43
0.0000000001
 40
0.0
 40
0.0
 40
0.0
 40
0.0
 40
4.323648603744882
 40
4.323648603744882
 40
4.323648603744882
 40
4.323648603744882
 10
-13.4922149368071
 20
15.0099203081663
 30
0.0
 10
-8.889930804815591
 20
15.0099203081663
 30
0.0
 10
-4.789734808614213
 20
13.39135089069415
 30
0.0
 10
-0.9583805249888596
 20
10.90612292644542
 30
0.0
  0
SPLINE
  5
307E
330
1F
100
AcDbEntity
  8
AM_0
100
AcDbSpline
210
0.0
220
0.0
230
1.0
 70
     8
 71
     3
 72
     8
 73
     4
 74
     0
 42
0.0000000001
 43
0.0000000001
 40
0.0
 40
0.0
 40
0.0
 40
0.0
 40
8.106327806688073
 40
8.106327806688073
 40
8.106327806688073
 40
8.106327806688073
 10
-22.54015929220956
 20
14.67042093196485
 30
0.0
 10
-13.9114229510725
 20
14.67042093196485
 30
0.0
 10
-6.996714209965182
 20
9.036866240462899
 30
0.0
 10
-0.293411336515909
 20
2.708476461397793
 30
0.0
  0
SPLINE
  5
307F
330
1F
100
AcDbEntity
  8
AM_0
100
AcDbSpline
210
0.0
220
0.0
230
1.0
 70
     8
 71
     3
 72
     8
 73
     4
 74
     0
 42
0.0000000001
 43
0.0000000001
 40
0.0
 40
0.0
 40
0.0
 40
0.0
 40
9.307120929696711
 40
9.307120929696711
 40
9.307120929696711
 40
9.307120929696711
 10
-26.0260493486108
 20
15.0099203081663
 30
0.0
 10
-16.11913532877895
 20
15.0099203081663
 30
0.0
 10
-8.538757926883903
 20
7.509920308166302
 30
0.0
 10
-0.9583805249888596
 20
0.0099203081663016
 30
0.0
  0
DIMENSION
  5
3080
330
1F
100
AcDbEntity
  8
AM_5
100
AcDbDimension
  2
*D8
 10
-0.000380442558309
 20
-30.00000100000194
 30
0.0
 11
-30.00047310434745
 21
-26.90000100000194
 31
0.0
 70
    32
  1
<>
  3
AM_JIS
100
AcDbAlignedDimension
 13
-60.00056576613659
 23
-15.0
 33
0.0
 14
-0.0003804425583081
 24
-15.00000000003954
 34
0.0
 50
359.9999999999992
100
AcDbRotatedDimension
1001
GENIUS_GENDTOL_13
1000

1000
H7
1000

1040
0.0
  0
LINE
  5
30ED
330
1F
100
AcDbEntity
  8
AM_0
100
AcDbLine
 10
-74.69991386206231
 20
-15.99999999999998
 30
0.0
 11
-71.95243644260776
 21
-15.0
 31
0.0
  0
LINE
  5
30EE
330
1F
100
AcDbEntity
  8
AM_0
100
AcDbLine
 10
-60.00056576613659
 20
-15.0
 30
0.0
 11
-71.95243644260776
 21
-15.0
 31
0.0
  0
LINE
  5
30EF
330
1F
100
AcDbEntity
  8
AM_0
100
AcDbLine
 10
-71.95243644260776
 20
-15.0
 30
0.0
 11
-71.95243644260776
 21
15.0
 31
0.0
  0
POLYLINE
  5
30F1
330
1F
100
AcDbEntity
  8
AM_0
100
AcDb2dPolyline
 66
     1
 10
0.0
 20
0.0
 30
0.0
  0
VERTEX
  5
30F2
330
30F1
100
AcDbEntity
  8
AM_0
100
AcDbVertex
100
AcDb2dVertex
 10
-60.14166252761707
 20
-14.65058031563241
 30
0.0
 42
-0.0013755537836374
  0
VERTEX
  5
30F3
330
30F1
100
AcDbEntity
  8
AM_0
100
AcDbVertex
100
AcDb2dVertex
 10
-60.13935433094303
 20
-14.66803883944336
 30
0.0
 42
-0.0231314362402824
  0
SEQEND
  5
30F4
330
30F1
100
AcDbEntity
  8
AM_0
  0
POLYLINE
  5
3293
330
1F
100
AcDbEntity
  8
AM_0
100
AcDb2dPolyline
 66
     1
 10
0.0
 20
0.0
 30
0.0
 70
     2
  0
VERTEX
  5
32A2
330
3293
100
AcDbEntity
  8
AM_0
100
AcDbVertex
100
AcDb2dVertex
 10
-67.45243644260776
 20
3.748011216030471
 30
0.0
 42
0.0663980535498209
  0
VERTEX
  5
32AA
330
3293
100
AcDbEntity
  8
AM_0
100
AcDbVertex
100
AcDb2dVertex
 10
-68.26064133872063
 20
4.376070973309921
 30
0.0
 42
0.0716886046181312
 70
     1
  0
VERTEX
  5
32A3
330
3293
100
AcDbEntity
  8
AM_0
100
AcDbVertex
100
AcDb2dVertex
 10
-69.13993644260776
 20
4.732267896740242
 30
0.0
 42
0.0715989899367065
  0
VERTEX
  5
32AB
330
3293
100
AcDbEntity
  8
AM_0
100
AcDbVertex
100
AcDb2dVertex
 10
-70.71531529253601
 20
4.888429181296979
 30
0.0
 42
0.1603387606333821
 70
     1
  0
VERTEX
  5
32A4
330
3293
100
AcDbEntity
  8
AM_0
100
AcDbVertex
100
AcDb2dVertex
 10
-71.38993644260776
 20
4.632864394600083
 30
0.0
 42
0.1033438795325977
  0
VERTEX
  5
32AC
330
3293
100
AcDbEntity
  8
AM_0
100
AcDbVertex
100
AcDb2dVertex
 10
-71.8270189573612
 20
4.097580058306306
 30
0.0
 42
0.12766185973785
 70
     1
  0
VERTEX
  5
32A5
330
3293
100
AcDbEntity
  8
AM_0
100
AcDbVertex
100
AcDb2dVertex
 10
-71.95243644260776
 20
3.549204211750154
 30
0.0
 42
0.0577440856908698
  0
VERTEX
  5
32AD
330
3293
100
AcDbEntity
  8
AM_0
100
AcDbVertex
100
AcDb2dVertex
 10
-71.83093423140568
 20
2.714043046504116
 30
0.0
 42
0.0359035377569473
 70
     1
  0
VERTEX
  5
32A6
330
3293
100
AcDbEntity
  8
AM_0
100
AcDbVertex
100
AcDb2dVertex
 10
-71.38993644260776
 20
1.433266408507809
 30
0.0
 42
0.0214071464911255
  0
VERTEX
  5
32AF
330
3293
100
AcDbEntity
  8
AM_0
100
AcDbVertex
100
AcDb2dVertex
 10
-70.59912703494586
 20
-0.21988422883976
 30
0.0
 42
0.0132495122730504
 70
     1
  0
VERTEX
  5
32A7
330
3293
100
AcDbEntity
  8
AM_0
100
AcDbVertex
100
AcDb2dVertex
 10
-69.13993644260776
 20
-2.795247575202013
 30
0.0
 42
0.0330140714246575
  0
VERTEX
  5
32AE
330
3293
100
AcDbEntity
  8
AM_0
100
AcDbVertex
100
AcDb2dVertex
 10
-68.62082870666324
 20
-3.541154362515214
 30
0.0
 42
0.0166724476972306
 70
     1
  0
VERTEX
  5
32A8
330
3293
100
AcDbEntity
  8
AM_0
100
AcDbVertex
100
AcDb2dVertex
 10
-67.45243644260776
 20
-4.907823755669491
 30
0.0
  0
SEQEND
  5
32A9
330
3293
100
AcDbEntity
  8
AM_0
  0
SPLINE
  5
32B1
330
1F
100
AcDbEntity
  8
AM_0
100
AcDbSpline
210
0.0
220
0.0
230
1.0
 70
     8
 71
     3
 72
     8
 73
     4
 74
     0
 42
0.0000000001
 43
0.0000000001
 40
0.0
 40
0.0
 40
0.0
 40
0.0
 40
2.595606492121704
 40
2.595606492121704
 40
2.595606492121704
 40
2.595606492121704
 10
-60.14166252758658
 20
-14.65058031563241
 30
0.0
 10
-62.90454167582229
 20
-14.65058031563242
 30
0.0
 10
-65.49169030553724
 20
-14.07300065061703
 30
0.0
 10
-67.95243644260776
 20
-13.07996947511126
 30
0.0
  0
SPLINE
  5
32B2
330
1F
100
AcDbEntity
  8
AM_0
100
AcDbSpline
210
0.0
220
0.0
230
1.0
 70
     8
 71
     3
 72
     8
 73
     4
 74
     0
 42
0.0000000001
 43
0.0000000001
 40
0.0
 40
0.0
 40
0.0
 40
0.0
 40
6.188241640854712
 40
6.188241640854712
 40
6.188241640854712
 40
6.188241640854712
 10
-51.09371817218633
 20
-14.99007969183369
 30
0.0
 10
-57.68075817445785
 20
-14.99007969183369
 30
0.0
 10
-63.23927589072432
 20
-11.67445719719238
 30
0.0
 10
-68.45312881965594
 20
-7.247747137849978
 30
0.0
  0
POLYLINE
  5
32BC
330
1F
100
AcDbEntity
  8
AM_0
100
AcDb2dPolyline
 66
     1
 10
0.0
 20
0.0
 30
0.0
 70
     2
  0
VERTEX
  5
32BD
330
32BC
100
AcDbEntity
  8
AM_0
100
AcDbVertex
100
AcDb2dVertex
 10
-67.95243644260776
 20
-7.668462028767836
 30
0.0
 42
0.0607162818073679
  0
VERTEX
  5
32C5
330
32BC
100
AcDbEntity
  8
AM_0
100
AcDbVertex
100
AcDb2dVertex
 10
-68.67192705964974
 20
-7.105167906792416
 30
0.0
 42
0.0651465890010776
 70
     1
  0
VERTEX
  5
32BE
330
32BC
100
AcDbEntity
  8
AM_0
100
AcDbVertex
100
AcDb2dVertex
 10
-69.45243644260776
 20
-6.763297355089216
 30
0.0
 42
0.0651376508963002
  0
VERTEX
  5
32C6
330
32BC
100
AcDbEntity
  8
AM_0
100
AcDbVertex
100
AcDb2dVertex
 10
-70.86850676543047
 20
-6.545457970709475
 30
0.0
 42
0.1563388039091716
 70
     1
  0
VERTEX
  5
32BF
330
32BC
100
AcDbEntity
  8
AM_0
100
AcDbVertex
100
AcDb2dVertex
 10
-71.45243644260776
 20
-6.718198364383931
 30
0.0
 42
0.1120692244354583
  0
VERTEX
  5
32C7
330
32BC
100
AcDbEntity
  8
AM_0
100
AcDbVertex
100
AcDb2dVertex
 10
-71.83212751806202
 20
-7.125931194976089
 30
0.0
 42
0.1341146189027849
 70
     1
  0
VERTEX
  5
32C0
330
32BC
100
AcDbEntity
  8
AM_0
100
AcDbVertex
100
AcDb2dVertex
 10
-71.95243644260776
 20
-7.578264047357266
 30
0.0
 42
0.0760617261227444
  0
VERTEX
  5
32C8
330
32BC
100
AcDbEntity
  8
AM_0
100
AcDbVertex
100
AcDb2dVertex
 10
-71.85467038026766
 20
-8.189858130552124
 30
0.0
 42
0.0455995654187794
 70
     1
  0
VERTEX
  5
32C1
330
32BC
100
AcDbEntity
  8
AM_0
100
AcDbVertex
100
AcDb2dVertex
 10
-71.45243644260776
 20
-9.137317656476172
 30
0.0
 42
0.0340212006811189
  0
VERTEX
  5
32CA
330
32BC
100
AcDbEntity
  8
AM_0
100
AcDbVertex
100
AcDb2dVertex
 10
-70.70064078124869
 20
-10.3347663473786
 30
0.0
 42
0.0241246389349615
 70
     1
  0
VERTEX
  5
32C2
330
32BC
100
AcDbEntity
  8
AM_0
100
AcDbVertex
100
AcDb2dVertex
 10
-69.45243644260776
 20
-11.88817037035317
 30
0.0
 42
0.0435949167980695
  0
VERTEX
  5
32C9
330
32BC
100
AcDbEntity
  8
AM_0
100
AcDbVertex
100
AcDb2dVertex
 10
-68.9527201010082
 20
-12.36173312173835
 30
0.0
 42
0.0243408824268972
 70
     1
  0
VERTEX
  5
32C3
330
32BC
100
AcDbEntity
  8
AM_0
100
AcDbVertex
100
AcDb2dVertex
 10
-67.95243644260776
 20
-13.07996947511126
 30
0.0
  0
SEQEND
  5
32C4
330
32BC
100
AcDbEntity
  8
AM_0
  0
LINE
  5
32CB
330
1F
100
AcDbEntity
  8
AM_0
100
AcDbLine
 10
-74.69991386206231
 20
15.99999999999997
 30
0.0
 11
-71.95243644260776
 21
14.99999999999999
 31
0.0
  0
POLYLINE
  5
32D5
330
1F
100
AcDbEntity
  8
AM_0
100
AcDb2dPolyline
 66
     1
 10
0.0
 20
0.0
 30
0.0
 70
     2
  0
VERTEX
  5
32D6
330
32D5
100
AcDbEntity
  8
AM_0
100
AcDbVertex
100
AcDb2dVertex
 10
-67.95243644260776
 20
13.24914506559993
 30
0.0
 42
0.0363026811791914
  0
VERTEX
  5
32DE
330
32D5
100
AcDbEntity
  8
AM_0
100
AcDbVertex
100
AcDb2dVertex
 10
-68.78007900896005
 20
13.43853954829604
 30
0.0
 42
0.0457928307541391
 70
     1
  0
VERTEX
  5
32D7
330
32D5
100
AcDbEntity
  8
AM_0
100
AcDbVertex
100
AcDb2dVertex
 10
-69.45243644260776
 20
13.47951484650319
 30
0.0
 42
0.0393647835407372
  0
VERTEX
  5
32DF
330
32D5
100
AcDbEntity
  8
AM_0
100
AcDbVertex
100
AcDb2dVertex
 10
-70.84709990797891
 20
13.32640719534055
 30
0.0
 42
0.0859062356591302
 70
     1
  0
VERTEX
  5
32D8
330
32D5
100
AcDbEntity
  8
AM_0
100
AcDbVertex
100
AcDb2dVertex
 10
-71.45243644260776
 20
13.09895490133078
 30
0.0
 42
0.0887584384344175
  0
VERTEX
  5
32E0
330
32D5
100
AcDbEntity
  8
AM_0
100
AcDbVertex
100
AcDb2dVertex
 10
-71.85838267330092
 20
12.75153431833375
 30
0.0
 42
0.1732228972323849
 70
     1
  0
VERTEX
  5
32D9
330
32D5
100
AcDbEntity
  8
AM_0
100
AcDbVertex
100
AcDb2dVertex
 10
-71.95243644260776
 20
12.4880251752551
 30
0.0
 42
0.1022418455346806
  0
VERTEX
  5
32E1
330
32D5
100
AcDbEntity
  8
AM_0
100
AcDbVertex
100
AcDb2dVertex
 10
-71.87445895925019
 20
12.11106947088671
 30
0.0
 42
0.043980646609771
 70
     1
  0
VERTEX
  5
32DA
330
32D5
100
AcDbEntity
  8
AM_0
100
AcDbVertex
100
AcDb2dVertex
 10
-71.45243644260776
 20
11.33053791677162
 30
0.0
 42
0.0195898599098852
  0
VERTEX
  5
32E3
330
32D5
100
AcDbEntity
  8
AM_0
100
AcDbVertex
100
AcDb2dVertex
 10
-70.77018176680201
 20
10.38040069585349
 30
0.0
 42
0.0109837692836785
 70
     1
  0
VERTEX
  5
32DB
330
32D5
100
AcDbEntity
  8
AM_0
100
AcDbVertex
100
AcDb2dVertex
 10
-69.45243644260776
 20
8.763747841967983
 30
0.0
 42
0.0276848985721518
  0
VERTEX
  5
32E2
330
32D5
100
AcDbEntity
  8
AM_0
100
AcDbVertex
100
AcDb2dVertex
 10
-68.95354099260811
 20
8.240111640596751
 30
0.0
 42
0.0149720344577403
 70
     1
  0
VERTEX
  5
32DC
330
32D5
100
AcDbEntity
  8
AM_0
100
AcDbVertex
100
AcDb2dVertex
 10
-67.95243644260776
 20
7.354445025647828
 30
0.0
  0
SEQEND
  5
32DD
330
32D5
100
AcDbEntity
  8
AM_0
  0
SPLINE
  5
32E5
330
1F
100
AcDbEntity
  8
AM_0
100
AcDbSpline
210
0.0
220
0.0
230
1.0
 70
     8
 71
     3
 72
     8
 73
     4
 74
     0
 42
0.0000000001
 43
0.0000000001
 40
0.0
 40
0.0
 40
0.0
 40
0.0
 40
1.4848133547768
 40
1.4848133547768
 40
1.4848133547768
 40
1.4848133547768
 10
-63.62755258395957
 20
15.00992030816631
 30
0.0
 10
-65.20805404648291
 20
15.00992030816631
 30
0.0
 10
-66.72934171223808
 20
14.81903421922952
 30
0.0
 10
-68.20086226585369
 20
14.46771509082582
 30
0.0
  0
VIEWPORT
  5
110
330
101
100
AcDbEntity
 67
     1
  8
0
100
AcDbViewport
 10
420.5
 20
297.0
 30
0.0
 40
948.9782706766916
 41
628.452
 68
     1
 69
     1
1001
ACAD
1000
MVIEW
1002
{
1070
    16
1010
0.0
1020
0.0
1030
0.0
1010
0.0
1020
0.0
1030
1.0
1040
0.0
1040
628.452
1040
420.5
1040
297.0
1040
50.0
1040
0.0
1040
0.0
1070
     0
1070
   100
1070
     1
1070
     1
1070
     0
1070
     0
1070
     0
1070
     0
1040
0.0
1040
0.0
1040
0.0
1040
10.0
1040
10.0
1040
10.0
1040
10.0
1070
     0
1002
{
1002
}
1002
}
  0
ENDSEC
  0
SECTION
  2
OBJECTS
  0
DICTIONARY
  5
C
330
0
100
AcDbDictionary
  3
ACAD_GROUP
350
D
  3
ACAD_LAYOUT
350
1A
  3
ACAD_MLINESTYLE
350
17
  3
ACAD_PLOTSETTINGS
350
19
  3
ACAD_PLOTSTYLENAME
350
E
  3
ACDBVARIABLEDICTIONARY
350
34
  3
ACMDICTIONARY
350
43
  3
AMG
350
2B
  3
AMGSNAPSETTINGS
350
6E
  3
DWGPROPS
350
35A4
  3
ACDBHEADERROUNDTRIPXREC
350
35B1
  0
DICTIONARY
  5
74
330
1F
100
AcDbDictionary
280
     1
  3
ACAD_INDEX
360
35A6
  3
ACAD_LAYOUTSELFREF
360
35D4
  0
DICTIONARY
  5
35D9
330
101
100
AcDbDictionary
280
     1
  3
ACAD_LAYOUTSELFREF
360
35DA
  0
DICTIONARY
  5
D
102
{ACAD_REACTORS
330
C
102
}
330
C
100
AcDbDictionary
  0
DICTIONARY
  5
1A
102
{ACAD_REACTORS
330
C
102
}
330
C
100
AcDbDictionary
  0
DICTIONARY
  5
17
102
{ACAD_REACTORS
330
C
102
}
330
C
100
AcDbDictionary
  3
STANDARD
350
18
  0
DICTIONARY
  5
19
102
{ACAD_REACTORS
330
C
102
}
330
C
100
AcDbDictionary
  0
ACDBDICTIONARYWDFLT
  5
E
102
{ACAD_REACTORS
330
C
102
}
330
C
100
AcDbDictionary
281
     1
  3
Normal
350
F
100
AcDbDictionaryWithDefault
340
F
  0
DICTIONARY
  5
34
102
{ACAD_REACTORS
330
C
102
}
330
C
100
AcDbDictionary
  3
INDEXCTL
350
35
  3
SORTENTS
350
B5E
  0
DICTIONARY
  5
43
102
{ACAD_REACTORS
330
C
102
}
330
C
100
AcDbDictionary
  3
ACMSTDDICTIONARY
350
260
  0
DICTIONARY
  5
2B
102
{ACAD_REACTORS
330
C
102
}
330
C
100
AcDbDictionary
  3
ACMGSETTINGS
350
2C
  0
DICTIONARY
  5
6E
102
{ACAD_REACTORS
330
C
102
}
330
C
100
AcDbDictionary
  0
XRECORD
  5
35A4
102
{ACAD_REACTORS
330
C
102
}
330
C
100
AcDbXrecord
  1
DWGPROPS COOKIE
  2

  3

  4

  6

  7

  8

  9

300
AmdtFileType=82
301
=
302
=
303
=
304
=
305
=
306
=
307
=
308
=
309
=
 40
0.2478185300925926
 41
2452838.620506898
 42
2452846.405355833
  1

 90
        1
  0
DICTIONARY
  5
35B1
102
{ACAD_REACTORS
330
C
102
}
330
C
100
AcDbDictionary
  3
TSTACKALIGN
350
35B2
  3
TSTACKSIZE
350
35B3
  3
HYPERLINKBASE
350
35B4
  3
STYLESHEET
350
35B5
  3
LAYOUTDICT
350
35B6
  3
PLOTSETDICT
350
35B7
  3
PLOTSTYLNAMDICT
350
35B8
  3
LWETCUNION
350
35B9
  3
INSUNITS
350
35BA
  3
CEPSNTYPE
350
35BB
  3
FINGERPRINTGUID
350
35BC
  3
VERSIONGUID
350
35BD
  3
PSVPSCALE
350
35BE
  3
DIMSTYLEDATA
350
35BF
  3
PUCSORTHOREF
350
35C0
  3
PUCSORTHOVIEW
350
35C1
  3
PUCSBASE
350
35C2
  3
PUCSORGTOP
350
35C3
  3
PUCSORGBOTTOM
350
35C4
  3
PUCSORGLEFT
350
35C5
  3
PUCSORGRIGHT
350
35C6
  3
PUCSORGFRONT
350
35C7
  3
PUCSORGBACK
350
35C8
  3
UCSORTHOREF
350
35C9
  3
UCSORTHOVIEW
350
35CA
  3
UCSBASE
350
35CB
  3
UCSORGTOP
350
35CC
  3
UCSORGBOTTOM
350
35CD
  3
UCSORGLEFT
350
35CE
  3
UCSORGRIGHT
350
35CF
  3
UCSORGFRONT
350
35D0
  3
UCSORGBACK
350
35D1
  0
DICTIONARY
  5
35A6
102
{ACAD_REACTORS
330
74
102
}
330
74
100
AcDbDictionary
  3
*A1
350
35A7
  0
XRECORD
  5
35D4
102
{ACAD_REACTORS
330
74
102
}
330
74
100
AcDbXrecord
340
1F
  0
XRECORD
  5
35DA
102
{ACAD_REACTORS
330
35D9
102
}
330
35D9
100
AcDbXrecord
340
101
  0
MLINESTYLE
  5
18
102
{ACAD_REACTORS
330
17
102
}
330
17
100
AcDbMlineStyle
  2
STANDARD
 70
     0
  3

 62
   256
 51
90.0
 52
90.0
 71
     2
 49
0.5
 62
   256
  6
BYLAYER
 49
-0.5
 62
   256
  6
BYLAYER
  0
ACDBPLACEHOLDER
  5
F
102
{ACAD_REACTORS
330
E
102
}
330
E
100
AcDbPlaceHolder
280
     0
  0
DICTIONARYVAR
  5
35
102
{ACAD_REACTORS
330
34
102
}
330
34
100
DictionaryVariables
280
     0
  1
1
  0
DICTIONARYVAR
  5
B5E
102
{ACAD_REACTORS
330
34
102
}
330
34
100
DictionaryVariables
280
     0
  1
96
  0
DICTIONARY
  5
260
102
{ACAD_REACTORS
330
43
102
}
330
43
100
AcDbDictionary
  0
DICTIONARY
  5
2C
102
{ACAD_REACTORS
330
2B
102
}
330
2B
100
AcDbDictionary
  3
DWGSETTINGS
350
2D
  0
XRECORD
  5
35B2
102
{ACAD_REACTORS
330
35B1
102
}
330
35B1
100
AcDbXrecord
 90
        1
  0
XRECORD
  5
35B3
102
{ACAD_REACTORS
330
35B1
102
}
330
35B1
100
AcDbXrecord
 90
       70
  0
XRECORD
  5
35B4
102
{ACAD_REACTORS
330
35B1
102
}
330
35B1
100
AcDbXrecord
  1

  0
XRECORD
  5
35B5
102
{ACAD_REACTORS
330
35B1
102
}
330
35B1
100
AcDbXrecord
  1
ACAD_M_9400.ctb
  0
XRECORD
  5
35B6
102
{ACAD_REACTORS
330
35B1
102
}
330
35B1
100
AcDbXrecord
340
1A
  0
XRECORD
  5
35B7
102
{ACAD_REACTORS
330
35B1
102
}
330
35B1
100
AcDbXrecord
340
19
  0
XRECORD
  5
35B8
102
{ACAD_REACTORS
330
35B1
102
}
330
35B1
100
AcDbXrecord
340
E
  0
XRECORD
  5
35B9
102
{ACAD_REACTORS
330
35B1
102
}
330
35B1
100
AcDbXrecord
 90
    10781
  0
XRECORD
  5
35BA
102
{ACAD_REACTORS
330
35B1
102
}
330
35B1
100
AcDbXrecord
 90
        4
  0
XRECORD
  5
35BB
102
{ACAD_REACTORS
330
35B1
102
}
330
35B1
100
AcDbXrecord
 90
        0
  0
XRECORD
  5
35BC
102
{ACAD_REACTORS
330
35B1
102
}
330
35B1
100
AcDbXrecord
  1
{AFB28963-8C59-40AE-9337-C84526B81ACE}
  0
XRECORD
  5
35BD
102
{ACAD_REACTORS
330
35B1
102
}
330
35B1
100
AcDbXrecord
  1
{0AA6728C-4D5B-4B2D-AF12-62ACC69BC59C}
  0
XRECORD
  5
35BE
102
{ACAD_REACTORS
330
35B1
102
}
330
35B1
100
AcDbXrecord
 40
0.0
  0
XRECORD
  5
35BF
102
{ACAD_REACTORS
330
35B1
102
}
330
35B1
100
AcDbXrecord
1000
DSTYLE
1002
{
1070
    79
 70
     2
1070
   341
340
59
1070
   342
340
59
1070
   371
 70
    -1
1070
   372
 70
    -1
1002
}
  0
XRECORD
  5
35C0
102
{ACAD_REACTORS
330
35B1
102
}
330
35B1
100
AcDbXrecord
340
0
  0
XRECORD
  5
35C1
102
{ACAD_REACTORS
330
35B1
102
}
330
35B1
100
AcDbXrecord
 70
     0
  0
XRECORD
  5
35C2
102
{ACAD_REACTORS
330
35B1
102
}
330
35B1
100
AcDbXrecord
340
0
  0
XRECORD
  5
35C3
102
{ACAD_REACTORS
330
35B1
102
}
330
35B1
100
AcDbXrecord
 10
0.0
 20
0.0
 30
0.0
  0
XRECORD
  5
35C4
102
{ACAD_REACTORS
330
35B1
102
}
330
35B1
100
AcDbXrecord
 10
0.0
 20
0.0
 30
0.0
  0
XRECORD
  5
35C5
102
{ACAD_REACTORS
330
35B1
102
}
330
35B1
100
AcDbXrecord
 10
0.0
 20
0.0
 30
0.0
  0
XRECORD
  5
35C6
102
{ACAD_REACTORS
330
35B1
102
}
330
35B1
100
AcDbXrecord
 10
0.0
 20
0.0
 30
0.0
  0
XRECORD
  5
35C7
102
{ACAD_REACTORS
330
35B1
102
}
330
35B1
100
AcDbXrecord
 10
0.0
 20
0.0
 30
0.0
  0
XRECORD
  5
35C8
102
{ACAD_REACTORS
330
35B1
102
}
330
35B1
100
AcDbXrecord
 10
0.0
 20
0.0
 30
0.0
  0
XRECORD
  5
35C9
102
{ACAD_REACTORS
330
35B1
102
}
330
35B1
100
AcDbXrecord
340
0
  0
XRECORD
  5
35CA
102
{ACAD_REACTORS
330
35B1
102
}
330
35B1
100
AcDbXrecord
 70
     0
  0
XRECORD
  5
35CB
102
{ACAD_REACTORS
330
35B1
102
}
330
35B1
100
AcDbXrecord
340
0
  0
XRECORD
  5
35CC
102
{ACAD_REACTORS
330
35B1
102
}
330
35B1
100
AcDbXrecord
 10
0.0
 20
0.0
 30
0.0
  0
XRECORD
  5
35CD
102
{ACAD_REACTORS
330
35B1
102
}
330
35B1
100
AcDbXrecord
 10
0.0
 20
0.0
 30
0.0
  0
XRECORD
  5
35CE
102
{ACAD_REACTORS
330
35B1
102
}
330
35B1
100
AcDbXrecord
 10
0.0
 20
0.0
 30
0.0
  0
XRECORD
  5
35CF
102
{ACAD_REACTORS
330
35B1
102
}
330
35B1
100
AcDbXrecord
 10
0.0
 20
0.0
 30
0.0
  0
XRECORD
  5
35D0
102
{ACAD_REACTORS
330
35B1
102
}
330
35B1
100
AcDbXrecord
 10
0.0
 20
0.0
 30
0.0
  0
XRECORD
  5
35D1
102
{ACAD_REACTORS
330
35B1
102
}
330
35B1
100
AcDbXrecord
 10
0.0
 20
0.0
 30
0.0
  0
LAYER_INDEX
  5
35A7
102
{ACAD_REACTORS
330
35A6
102
}
330
35A6
100
AcDbIndex
 40
2453152.47804677
100
AcDbLayerIndex
  8
0
360
35A8
 90
        1
  8
AM_0
360
35A9
 90
       88
  8
AM_11
360
35AA
 90
        4
  8
AM_7
360
35AB
 90
        1
  8
AM_5
360
35AC
 90
        4
  8
Defpoints
360
35AD
 90
        0
  8
AM_6
360
35AE
 90
        1
  8
AM_CL
360
35AF
 90
        0
  0
XRECORD
  5
2D
102
{ACAD_REACTORS
330
2C
102
}
330
2C
100
AcDbXrecord
  1
VERSION
140
15.0
  1
PRODUCT
  2
AutoCAD Mechanical 2000
  0
IDBUFFER
  5
35A8
330
0
100
AcDbIdBuffer
330
2F71
  0
IDBUFFER
  5
35A9
330
0
100
AcDbIdBuffer
330
3060
330
3061
330
3062
330
3063
330
3064
330
3065
330
3066
330
3067
330
3068
330
3069
330
306A
330
306B
330
306C
330
306D
330
306E
330
306F
330
3070
330
3071
330
3072
330
3073
330
3075
330
3076
330
3077
330
307A
330
307B
330
307C
330
307D
330
307E
330
307F
330
30ED
330
30EE
330
30EF
330
30F1
330
3293
330
32B1
330
32B2
330
32BC
330
32CB
330
32D5
330
32E5
330
2F6A
330
2F6B
330
2F6C
330
2F6D
330
2F6E
330
2F6F
330
2F70
330
2F98
330
3016
330
3017
330
3018
330
3019
330
301A
330
301B
330
301C
330
301D
330
301E
330
301F
330
3020
330
3021
330
3022
330
3023
330
3024
330
3025
330
3026
330
3027
330
3028
330
3029
330
302A
330
302B
330
302C
330
302D
330
302E
330
302F
330
3030
330
3032
330
3033
330
3034
330
3035
330
3036
330
3037
330
3038
330
3039
330
303A
330
303B
330
303C
330
305E
330
305F
  0
IDBUFFER
  5
35AA
330
0
100
AcDbIdBuffer
330
3031
330
3074
330
3078
330
3079
  0
IDBUFFER
  5
35AB
330
0
100
AcDbIdBuffer
330
2F09
  0
IDBUFFER
  5
35AC
330
0
100
AcDbIdBuffer
330
2EA2
330
2F15
330
2F72
330
3080
  0
IDBUFFER
  5
35AD
330
0
100
AcDbIdBuffer
  0
IDBUFFER
  5
35AE
330
0
100
AcDbIdBuffer
330
C58
  0
IDBUFFER
  5
35AF
330
0
100
AcDbIdBuffer
  0
ENDSEC
  0
EOF
