  0
SECTION
  2
HEADER
  9
$ACADVER
  1
AC1014
  9
$ACADMAINTVER
 70
     9
  9
$DWGCODEPAGE
  3
ANSI_932
  9
$INSBASE
 10
0.0
 20
0.0
 30
0.0
  9
$EXTMIN
 10
-71.73487421524639
 20
-26.75000100000012
 30
-0.00000001
  9
$EXTMAX
 10
8.829530889074508
 20
5.000000000013557
 30
0.00000001
  9
$LIMMIN
 10
-75.39320468207454
 20
-40.73039478042001
  9
$LIMMAX
 10
32.76373417768513
 20
35.72733941427884
  9
$ORTHOMODE
 70
     0
  9
$REGENMODE
 70
     1
  9
$FILLMODE
 70
     1
  9
$QTEXTMODE
 70
     0
  9
$MIRRTEXT
 70
     0
  9
$DRAGMODE
 70
     2
  9
$LTSCALE
 40
0.3
  9
$OSMODE
 70
    55
  9
$ATTMODE
 70
     1
  9
$TEXTSIZE
 40
2.5
  9
$TRACEWID
 40
1.0
  9
$TEXTSTYLE
  7
STANDARD
  9
$CLAYER
  8
AM_0
  9
$CELTYPE
  6
BYLAYER
  9
$CECOLOR
 62
   256
  9
$CELTSCALE
 40
1.0
  9
$DELOBJ
 70
     1
  9
$DISPSILH
 70
     0
  9
$DIMSCALE
 40
0.5
  9
$DIMASZ
 40
2.5
  9
$DIMEXO
 40
1.0
  9
$DIMDLI
 40
12.0
  9
$DIMRND
 40
0.0
  9
$DIMDLE
 40
0.0
  9
$DIMEXE
 40
1.0
  9
$DIMTP
 40
0.1
  9
$DIMTM
 40
0.1
  9
$DIMTXT
 40
3.2
  9
$DIMCEN
 40
0.0
  9
$DIMTSZ
 40
0.0
  9
$DIMTOL
 70
     0
  9
$DIMLIM
 70
     0
  9
$DIMTIH
 70
     0
  9
$DIMTOH
 70
     0
  9
$DIMSE1
 70
     0
  9
$DIMSE2
 70
     0
  9
$DIMTAD
 70
     3
  9
$DIMZIN
 70
     8
  9
$DIMBLK
  1
OPEN30
  9
$DIMASO
 70
     1
  9
$DIMSHO
 70
     1
  9
$DIMPOST
  1

  9
$DIMAPOST
  1
"
  9
$DIMALT
 70
     0
  9
$DIMALTD
 70
     2
  9
$DIMALTF
 40
0.0393701
  9
$DIMLFAC
 40
1.0
  9
$DIMTOFL
 70
     1
  9
$DIMTVP
 40
0.0
  9
$DIMTIX
 70
     0
  9
$DIMSOXD
 70
     0
  9
$DIMSAH
 70
     0
  9
$DIMBLK1
  1

  9
$DIMBLK2
  1

  9
$DIMSTYLE
  2
AM_JIS
  9
$DIMCLRD
 70
   256
  9
$DIMCLRE
 70
   256
  9
$DIMCLRT
 70
     2
  9
$DIMTFAC
 40
0.71
  9
$DIMGAP
 40
1.5
  9
$DIMJUST
 70
     0
  9
$DIMSD1
 70
     0
  9
$DIMSD2
 70
     0
  9
$DIMTOLJ
 70
     0
  9
$DIMTZIN
 70
     0
  9
$DIMALTZ
 70
     0
  9
$DIMALTTZ
 70
     0
  9
$DIMFIT
 70
     3
  9
$DIMUPT
 70
     0
  9
$DIMUNIT
 70
     2
  9
$DIMDEC
 70
     3
  9
$DIMTDEC
 70
     3
  9
$DIMALTU
 70
     2
  9
$DIMALTTD
 70
     2
  9
$DIMTXSTY
  7
ASAMI
  9
$DIMAUNIT
 70
     0
  9
$LUNITS
 70
     2
  9
$LUPREC
 70
     2
  9
$SKETCHINC
 40
1.0
  9
$FILLETRAD
 40
2.5
  9
$AUNITS
 70
     0
  9
$AUPREC
 70
     0
  9
$MENU
  1
.
  9
$ELEVATION
 40
0.0
  9
$PELEVATION
 40
0.0
  9
$THICKNESS
 40
0.0
  9
$LIMCHECK
 70
     0
  9
$BLIPMODE
 70
     0
  9
$CHAMFERA
 40
2.5
  9
$CHAMFERB
 40
2.5
  9
$CHAMFERC
 40
20.0
  9
$CHAMFERD
 40
0.0
  9
$SKPOLY
 70
     0
  9
$TDCREATE
 40
2452838.620506898
  9
$TDUPDATE
 40
2453152.475758483
  9
$TDINDWG
 40
0.0835069792
  9
$TDUSRTIMER
 40
0.0835069792
  9
$USRTIMER
 70
     1
  9
$ANGBASE
 50
0.0
  9
$ANGDIR
 70
     0
  9
$PDMODE
 70
     0
  9
$PDSIZE
 40
0.0
  9
$PLINEWID
 40
0.0
  9
$COORDS
 70
     1
  9
$SPLFRAME
 70
     0
  9
$SPLINETYPE
 70
     6
  9
$SPLINESEGS
 70
     8
  9
$ATTDIA
 70
     1
  9
$ATTREQ
 70
     1
  9
$HANDLING
 70
 12289
  9
$HANDSEED
  5
1BBF
  9
$SURFTAB1
 70
     6
  9
$SURFTAB2
 70
     6
  9
$SURFTYPE
 70
     6
  9
$SURFU
 70
     6
  9
$SURFV
 70
     6
  9
$UCSNAME
  2

  9
$UCSORG
 10
-0.000000000000061
 20
0.0000000000003144
 30
0.0
  9
$UCSXDIR
 10
1.0
 20
0.0
 30
0.0
  9
$UCSYDIR
 10
0.0
 20
1.0
 30
0.0
  9
$PUCSNAME
  2

  9
$PUCSORG
 10
0.0
 20
0.0
 30
0.0
  9
$PUCSXDIR
 10
1.0
 20
0.0
 30
0.0
  9
$PUCSYDIR
 10
0.0
 20
1.0
 30
0.0
  9
$USERI1
 70
     0
  9
$USERI2
 70
     0
  9
$USERI3
 70
     0
  9
$USERI4
 70
     0
  9
$USERI5
 70
     0
  9
$USERR1
 40
0.0
  9
$USERR2
 40
0.0
  9
$USERR3
 40
0.0
  9
$USERR4
 40
0.0
  9
$USERR5
 40
0.0
  9
$WORLDVIEW
 70
     1
  9
$SHADEDGE
 70
     3
  9
$SHADEDIF
 70
    70
  9
$TILEMODE
 70
     1
  9
$MAXACTVP
 70
    64
  9
$PINSBASE
 10
0.0
 20
0.0
 30
0.0
  9
$PLIMCHECK
 70
     0
  9
$PEXTMIN
 10
1.000000000000000E+20
 20
1.000000000000000E+20
 30
1.000000000000000E+20
  9
$PEXTMAX
 10
-1.000000000000000E+20
 20
-1.000000000000000E+20
 30
-1.000000000000000E+20
  9
$PLIMMIN
 10
0.0
 20
0.0
  9
$PLIMMAX
 10
841.0
 20
594.0
  9
$UNITMODE
 70
     0
  9
$VISRETAIN
 70
     1
  9
$PLINEGEN
 70
     0
  9
$PSLTSCALE
 70
     0
  9
$TREEDEPTH
 70
  3020
  9
$PICKSTYLE
 70
     0
  9
$CMLSTYLE
  2
STANDARD
  9
$CMLJUST
 70
     0
  9
$CMLSCALE
 40
20.0
  9
$PROXYGRAPHICS
 70
     1
  9
$MEASUREMENT
 70
     1
  0
ENDSEC
  0
SECTION
  2
CLASSES
  0
CLASS
  1
ACDBDICTIONARYWDFLT
  2
AcDbDictionaryWithDefault
  3
AutoCAD 2000
 90
        0
280
     0
281
     0
  0
CLASS
  1
ACDBPLACEHOLDER
  2
AcDbPlaceHolder
  3
AutoCAD 2000
 90
        0
280
     0
281
     0
  0
CLASS
  1
LAYOUT
  2
AcDbLayout
  3
AutoCAD 2000
 90
        0
280
     0
281
     0
  0
CLASS
  1
AMGSETTINGSOBJ
  2
AmgSettingsObj
  3
"AcadM|Product Description: AutoCAD Mechanical 2000|Company: Autodesk"
 90
        0
280
     0
281
     0
  0
CLASS
  1
ACME_DOCUMENT
  2
AcMeDbDoc
  3
AcMeServices
 90
        0
280
     0
281
     0
  0
CLASS
  1
ACMESCOPE
  2
AcMeScope
  3
AcMeServices
 90
        0
280
     0
281
     0
  0
CLASS
  1
ACMECOMMANDHISTORY
  2
AcMeCommandHistory
  3
AcMeServices
 90
        0
280
     0
281
     0
  0
CLASS
  1
DICTIONARYVAR
  2
AcDbDictionaryVar
  3
AutoCAD 2000
 90
        0
280
     0
281
     0
  0
CLASS
  1
ACIMSYSVARMAN
  2
AcImSysVarManager
  3
AcMeServices
 90
        0
280
     0
281
     0
  0
CLASS
  1
ACIMREALSYSVAR
  2
AcImRealSysVar
  3
AcMeServices
 90
        0
280
     0
281
     0
  0
CLASS
  1
ACIMINTSYSVAR
  2
AcImIntSysVar
  3
AcMeServices
 90
        0
280
     0
281
     0
  0
CLASS
  1
ACMEDRAWINGMAN
  2
AcMeDrawingMan
  3
AcMeServices
 90
        0
280
     0
281
     0
  0
CLASS
  1
ACMEVIEW
  2
AcMeView
  3
AcMeServices
 90
        0
280
     0
281
     0
  0
CLASS
  1
ACDBENTITYCACHE
  2
AcMeEntityCache
  3
AcMeServices
 90
        0
280
     0
281
     0
  0
CLASS
  1
GSMANAGER
  2
AcMeGSManager
  3
AcMeServices
 90
        0
280
     0
281
     0
  0
CLASS
  1
AmdtInternalReactor
  2
AmdtInternalReactor
  3
AcMeServices
 90
        0
280
     0
281
     0
  0
CLASS
  1
ACMESTATEMGR
  2
AcMeStateMgr
  3
AcMeServices
 90
        0
280
     0
281
     0
  0
CLASS
  1
ACME_DATABASE
  2
AcMeDbDatabase
  3
AcMeServices
 90
        0
280
     0
281
     0
  0
CLASS
  1
ACRFINSADJUSTERMGR
  2
AcRfInsAdjusterMgr
  3
AcMeServices
 90
        0
280
     0
281
     0
  0
CLASS
  1
ACMDATADICTIONARY
  2
AcmDataDictionary
  3
"AcmSymBB|Product Description: AutoCAD Mechanical 2000|Company: Autodesk"
 90
        0
280
     0
281
     0
  0
CLASS
  1
ACMDATAENTRYBLOCK
  2
AcmDataEntryBlock
  3
"AcmSymBB|Product Description: AutoCAD Mechanical 2000|Company: Autodesk"
 90
        0
280
     0
281
     0
  0
CLASS
  1
AMGOBJPROPCFG
  2
AmgObjPropCfg
  3
"AmgLay|Product Description: AutoCAD Mechanical 2000|Company: Autodesk"
 90
        1
280
     0
281
     0
  0
CLASS
  1
ACAMGFILTERDAT
  2
AcAmgFilterDat
  3
"AcadM|Product Description: AutoCAD Mechanical 2000|Company: Autodesk"
 90
        0
280
     0
281
     0
  0
CLASS
  1
LAYER_INDEX
  2
AcDbLayerIndex
  3
AutoCAD 2000
 90
        0
280
     0
281
     0
  0
CLASS
  1
IDBUFFER
  2
AcDbIdBuffer
  3
AutoCAD 2000
 90
        0
280
     0
281
     0
  0
CLASS
  1
ACIMSTRSYSVAR
  2
AcImStrSysVar
  3
AcMeServices
 90
        0
280
     0
281
     0
  0
CLASS
  1
ACMSTANDARDJIS
  2
AcmStandardJIS
  3
"AcmSymBB|Product Description: AutoCAD Mechanical 2000|Company: Autodesk"
 90
        0
280
     0
281
     0
  0
CLASS
  1
ACMSURFSTANDARDJIS
  2
AcmSurfTextStdJIS
  3
"AcmSymBB|Product Description: AutoCAD Mechanical 2000|Company: Autodesk"
 90
        0
280
     0
281
     0
  0
CLASS
  1
ACMFCFSTANDARDJIS
  2
AcmFCFStdJIS
  3
"AcmSymBB|Product Description: AutoCAD Mechanical 2000|Company: Autodesk"
 90
        0
280
     0
281
     0
  0
CLASS
  1
ACMWELDSTANDARDJIS
  2
AcmWeldingStdJIS
  3
"AcmSymBB|Product Description: AutoCAD Mechanical 2000|Company: Autodesk"
 90
        0
280
     0
281
     0
  0
CLASS
  1
ACMIDSTANDARDJIS
  2
AcmIdStdJIS
  3
"AcmSymBB|Product Description: AutoCAD Mechanical 2000|Company: Autodesk"
 90
        0
280
     0
281
     0
  0
CLASS
  1
ACMDATUMSTANDARDJIS
  2
AcmDatumStdJIS
  3
"AcmSymBB|Product Description: AutoCAD Mechanical 2000|Company: Autodesk"
 90
        0
280
     0
281
     0
  0
CLASS
  1
ACMBOMSTANDARDJIS
  2
AcmBOMStdJIS
  3
"AcmSymBB|Product Description: AutoCAD Mechanical 2000|Company: Autodesk"
 90
        0
280
     0
281
     0
  0
CLASS
  1
ACMSTANDARDANSI
  2
AcmStandardANSI
  3
"AcmSymBB|Product Description: AutoCAD Mechanical 2000|Company: Autodesk"
 90
        0
280
     0
281
     0
  0
CLASS
  1
ACMSURFSTANDARDANSI
  2
AcmSurfTextStdANSI
  3
"AcmSymBB|Product Description: AutoCAD Mechanical 2000|Company: Autodesk"
 90
        0
280
     0
281
     0
  0
CLASS
  1
ACMFCFSTANDARDANSI
  2
AcmFCFStdANSI
  3
"AcmSymBB|Product Description: AutoCAD Mechanical 2000|Company: Autodesk"
 90
        0
280
     0
281
     0
  0
CLASS
  1
ACMWELDSTANDARDANSI
  2
AcmWeldingStdANSI
  3
"AcmSymBB|Product Description: AutoCAD Mechanical 2000|Company: Autodesk"
 90
        0
280
     0
281
     0
  0
CLASS
  1
ACMIDSTANDARDANSI
  2
AcmIdStdANSI
  3
"AcmSymBB|Product Description: AutoCAD Mechanical 2000|Company: Autodesk"
 90
        0
280
     0
281
     0
  0
CLASS
  1
ACMDATUMSTANDARDANSI
  2
AcmDatumStdANSI
  3
"AcmSymBB|Product Description: AutoCAD Mechanical 2000|Company: Autodesk"
 90
        0
280
     0
281
     0
  0
CLASS
  1
ACMBOMSTANDARDANSI
  2
AcmBOMStdANSI
  3
"AcmSymBB|Product Description: AutoCAD Mechanical 2000|Company: Autodesk"
 90
        0
280
     0
281
     0
  0
CLASS
  1
ACMSTANDARDBSI
  2
AcmStandardBSI
  3
"AcmSymBB|Product Description: AutoCAD Mechanical 2000|Company: Autodesk"
 90
        0
280
     0
281
     0
  0
CLASS
  1
ACMSURFSTANDARDBSI
  2
AcmSurfTextStdBSI
  3
"AcmSymBB|Product Description: AutoCAD Mechanical 2000|Company: Autodesk"
 90
        0
280
     0
281
     0
  0
CLASS
  1
ACMFCFSTANDARDBSI
  2
AcmFCFStdBSI
  3
"AcmSymBB|Product Description: AutoCAD Mechanical 2000|Company: Autodesk"
 90
        0
280
     0
281
     0
  0
CLASS
  1
ACMWELDSTANDARDBSI
  2
AcmWeldingStdBSI
  3
"AcmSymBB|Product Description: AutoCAD Mechanical 2000|Company: Autodesk"
 90
        0
280
     0
281
     0
  0
CLASS
  1
ACMIDSTANDARDBSI
  2
AcmIdStdBSI
  3
"AcmSymBB|Product Description: AutoCAD Mechanical 2000|Company: Autodesk"
 90
        0
280
     0
281
     0
  0
CLASS
  1
ACMDATUMSTANDARDBSI
  2
AcmDatumStdBSI
  3
"AcmSymBB|Product Description: AutoCAD Mechanical 2000|Company: Autodesk"
 90
        0
280
     0
281
     0
  0
CLASS
  1
ACMBOMSTANDARDBSI
  2
AcmBOMStdBSI
  3
"AcmSymBB|Product Description: AutoCAD Mechanical 2000|Company: Autodesk"
 90
        0
280
     0
281
     0
  0
CLASS
  1
LONG_TRANSACTION
  2
AcDbLongTransaction
  3
AutoCAD 2000
 90
        0
280
     0
281
     0
  0
CLASS
  1
LWPOLYLINE
  2
AcDbPolyline
  3
AutoCAD 2000
 90
        0
280
     0
281
     1
  0
CLASS
  1
HATCH
  2
AcDbHatch
  3
AutoCAD 2000
 90
        0
280
     0
281
     1
  0
CLASS
  1
XRECORD
  2
AcDbXrecord
  3
AutoCAD 2000
 90
        0
280
     0
281
     0
  0
ENDSEC
  0
SECTION
  2
TABLES
  0
TABLE
  2
VPORT
  5
8
330
0
100
AcDbSymbolTable
 70
     3
  0
VPORT
  5
1B94
330
8
100
AcDbSymbolTableRecord
100
AcDbViewportTableRecord
  2
*ACTIVE
 70
     0
 10
0.0
 20
0.0
 11
1.0
 21
1.0
 12
-27.4314259891451
 22
-0.7989477487381152
 13
0.0
 23
0.0
 14
2.5
 24
2.5
 15
10.0
 25
10.0
 16
0.0
 26
0.0
 36
1.0
 17
0.0
 27
0.0
 37
0.0
 40
70.54927656629408
 41
1.56570841889117
 42
50.0
 43
0.0
 44
0.0
 50
0.0
 51
0.0
 71
     0
 72
   100
 73
     1
 74
     3
 75
     0
 76
     0
 77
     0
 78
     0
  0
ENDTAB
  0
TABLE
  2
LTYPE
  5
5
330
0
100
AcDbSymbolTable
 70
    10
  0
LTYPE
  5
14
330
5
100
AcDbSymbolTableRecord
100
AcDbLinetypeTableRecord
  2
BYBLOCK
 70
     0
  3

 72
    65
 73
     0
 40
0.0
  0
LTYPE
  5
15
330
5
100
AcDbSymbolTableRecord
100
AcDbLinetypeTableRecord
  2
BYLAYER
 70
     0
  3

 72
    65
 73
     0
 40
0.0
  0
LTYPE
  5
16
330
5
100
AcDbSymbolTableRecord
100
AcDbLinetypeTableRecord
  2
CONTINUOUS
 70
     0
  3
Solid line
 72
    65
 73
     0
 40
0.0
  0
LTYPE
  5
4B
330
5
100
AcDbSymbolTableRecord
100
AcDbLinetypeTableRecord
  2
AM_ISO02W050
 70
     0
  3
__ __ __ __ __ __ __ __ __ __ __ __ __ __ __
 72
    65
 73
     2
 40
7.5
 49
6.0
 74
     0
 49
-1.5
 74
     0
  0
LTYPE
  5
4C
330
5
100
AcDbSymbolTableRecord
100
AcDbLinetypeTableRecord
  2
AM_ISO08W050
 70
     0
  3
____ . ____ . ____ . ____ . ____ . ____ . ____
 72
    65
 73
     4
 40
18.0
 49
12.0
 74
     0
 49
-1.5
 74
     0
 49
3.0
 74
     0
 49
-1.5
 74
     0
  0
LTYPE
  5
4D
330
5
100
AcDbSymbolTableRecord
100
AcDbLinetypeTableRecord
  2
AM_ISO09W050
 70
     0
  3
_____ . . _____ . . _____ . . ____ .. ____
 72
    65
 73
     6
 40
22.5
 49
12.0
 74
     0
 49
-1.5
 74
     0
 49
3.0
 74
     0
 49
-1.5
 74
     0
 49
3.0
 74
     0
 49
-1.5
 74
     0
  0
LTYPE
  5
4E
330
5
100
AcDbSymbolTableRecord
100
AcDbLinetypeTableRecord
  2
AMCONSTR
 70
     0
  3
_______________________
 72
    65
 73
     2
 40
9999.0
 49
9999.0
 74
     0
 49
0.0
 74
     0
  0
LTYPE
  5
4F
330
5
100
AcDbSymbolTableRecord
100
AcDbLinetypeTableRecord
  2
AM_ISO02W050X2
 70
     0
  3
 _ _ _ _ _ _ _ _ _ _ _ _
 72
    65
 73
     2
 40
3.75
 49
3.0
 74
     0
 49
-0.75
 74
     0
  0
LTYPE
  5
50
330
5
100
AcDbSymbolTableRecord
100
AcDbLinetypeTableRecord
  2
AM_ISO08W050X2
 70
     0
  3
__ . __ . __ . __ . __ . __
 72
    65
 73
     4
 40
9.0
 49
6.0
 74
     0
 49
-0.75
 74
     0
 49
1.5
 74
     0
 49
-0.75
 74
     0
  0
LTYPE
  5
53
330
5
100
AcDbSymbolTableRecord
100
AcDbLinetypeTableRecord
  2
AMZIGZAG
 70
     0
  3
/\/-/\/-/\/-/\/-/\/-/\/
 72
    65
 73
     2
 40
11.00009999999999
 49
0.0001
 74
     4
 75
   135
340
52
 46
0.04
 50
0.0
 44
0.0
 45
0.0
 49
-11.0
 74
     0
  0
LTYPE
  5
166
330
5
100
AcDbSymbolTableRecord
100
AcDbLinetypeTableRecord
  2
ACJISTGL
 70
     0
  3
_ _ _ _ _
 72
    65
 73
     2
 40
3.0
 49
2.0
 74
     0
 49
-1.0
 74
     0
  0
LTYPE
  5
26A
330
5
100
AcDbSymbolTableRecord
100
AcDbLinetypeTableRecord
  2
ACJISTGB
 70
     0
  3
__ . . __ . .
 72
    65
 73
     6
 40
9.0
 49
4.0
 74
     0
 49
-1.0
 74
     0
 49
1.0
 74
     0
 49
-1.0
 74
     0
 49
1.0
 74
     0
 49
-1.0
 74
     0
  0
ENDTAB
  0
TABLE
  2
LAYER
  5
2
330
0
100
AcDbSymbolTable
 70
     7
  0
LAYER
  5
10
330
2
100
AcDbSymbolTableRecord
100
AcDbLayerTableRecord
  2
0
 70
     0
 62
     7
  6
CONTINUOUS
  0
LAYER
  5
3F9
330
2
100
AcDbSymbolTableRecord
100
AcDbLayerTableRecord
  2
AM_0
 70
     0
 62
     7
  6
CONTINUOUS
  0
LAYER
  5
BD6
330
2
100
AcDbSymbolTableRecord
100
AcDbLayerTableRecord
  2
AM_11
 70
     0
 62
     3
  6
AM_ISO09W050
  0
LAYER
  5
BD7
330
2
100
AcDbSymbolTableRecord
100
AcDbLayerTableRecord
  2
AM_7
 70
     0
 62
     4
  6
AM_ISO08W050
  0
LAYER
  5
BD8
330
2
100
AcDbSymbolTableRecord
100
AcDbLayerTableRecord
  2
AM_5
 70
     0
 62
     3
  6
CONTINUOUS
  0
LAYER
  5
BD9
330
2
100
AcDbSymbolTableRecord
100
AcDbLayerTableRecord
  2
DEFPOINTS
 70
     0
 62
     7
  6
CONTINUOUS
  0
LAYER
  5
BDA
330
2
100
AcDbSymbolTableRecord
100
AcDbLayerTableRecord
  2
AM_6
 70
     0
 62
     2
  6
CONTINUOUS
  0
ENDTAB
  0
TABLE
  2
STYLE
  5
3
330
0
100
AcDbSymbolTable
 70
     5
  0
STYLE
  5
11
330
3
100
AcDbSymbolTableRecord
100
AcDbTextStyleTableRecord
  2
STANDARD
 70
     0
 40
0.0
 41
1.0
 50
0.0
 71
     0
 42
2.5
  3
simplex.shx
  4
EXTFONT.SHX
  0
STYLE
  5
52
330
3
100
AcDbSymbolTableRecord
100
AcDbTextStyleTableRecord
  2

 70
     1
 40
0.0
 41
1.0
 50
0.0
 71
     0
 42
2.5
  3
ltypeshp.shx
  4

  0
STYLE
  5
6B
330
3
100
AcDbSymbolTableRecord
100
AcDbTextStyleTableRecord
  2
ASAMI
 70
     0
 40
0.0
 41
1.0
 50
0.0
 71
     0
 42
2.5
  3
simplex.shx
  4
EXTFONT.SHX
  0
STYLE
  5
262
330
3
100
AcDbSymbolTableRecord
100
AcDbTextStyleTableRecord
  2
ACJISTS
 70
     0
 40
1.0
 41
1.0
 50
0.0
 71
     0
 42
2.5
  3
simplex.shx
  4
bigfont.shx
  0
STYLE
  5
269
330
3
100
AcDbSymbolTableRecord
100
AcDbTextStyleTableRecord
  2
ACJISGDT
 70
     0
 40
0.0
 41
1.0
 50
0.0
 71
     0
 42
2.5
  3
amgdtans.shx
  4

  0
ENDTAB
  0
TABLE
  2
VIEW
  5
6
330
0
100
AcDbSymbolTable
 70
     0
  0
ENDTAB
  0
TABLE
  2
UCS
  5
7
330
0
100
AcDbSymbolTable
 70
     0
  0
ENDTAB
  0
TABLE
  2
APPID
  5
9
330
0
100
AcDbSymbolTable
 70
    13
  0
APPID
  5
12
330
9
100
AcDbSymbolTableRecord
100
AcDbRegAppTableRecord
  2
ACAD
 70
     0
  0
APPID
  5
30
330
9
100
AcDbSymbolTableRecord
100
AcDbRegAppTableRecord
  2
MCAD_NO_VIS
 70
     0
  0
APPID
  5
31
330
9
100
AcDbSymbolTableRecord
100
AcDbRegAppTableRecord
  2
ACAD_TEMP_GRAPHIC
 70
     0
  0
APPID
  5
2C2
330
9
100
AcDbSymbolTableRecord
100
AcDbRegAppTableRecord
  2
GENIUS_GENDTOL_13
 70
     0
  0
APPID
  5
339
330
9
100
AcDbSymbolTableRecord
100
AcDbRegAppTableRecord
  2
GENIUS_GENODEF_13
 70
     0
  0
APPID
  5
33A
330
9
100
AcDbSymbolTableRecord
100
AcDbRegAppTableRecord
  2
GENIUS_GENOBJ-N-RSBK_13
 70
     0
  0
APPID
  5
33B
330
9
100
AcDbSymbolTableRecord
100
AcDbRegAppTableRecord
  2
GENIUS_GENOBJ-N-LIB_13
 70
     0
  0
APPID
  5
33C
330
9
100
AcDbSymbolTableRecord
100
AcDbRegAppTableRecord
  2
GENIUS_GENSCALE_13
 70
     0
  0
APPID
  5
378
330
9
100
AcDbSymbolTableRecord
100
AcDbRegAppTableRecord
  2
GENIUS_GENDIMSH_14
 70
     0
  0
APPID
  5
BDB
330
9
100
AcDbSymbolTableRecord
100
AcDbRegAppTableRecord
  2
GENIUS_GENOBJ-N-CEN_13
 70
     0
  0
APPID
  5
BDC
330
9
100
AcDbSymbolTableRecord
100
AcDbRegAppTableRecord
  2
GENIUS_GENFIL_13
 70
     0
  0
APPID
  5
BDD
330
9
100
AcDbSymbolTableRecord
100
AcDbRegAppTableRecord
  2
GENIUS_GENOBJ-N-FIL_13
 70
     0
  0
APPID
  5
12AD
330
9
100
AcDbSymbolTableRecord
100
AcDbRegAppTableRecord
  2
GENIUS_GENOREF_13
 70
     0
  0
ENDTAB
  0
TABLE
  2
DIMSTYLE
  5
A
330
0
100
AcDbSymbolTable
 70
     8
  0
DIMSTYLE
105
58
102
{ACAD_REACTORS
330
C4F
330
18B7
330
18EB
330
1A45
102
}
330
A
100
AcDbSymbolTableRecord
100
AcDbDimStyleTableRecord
  2
AM_JIS
 70
     0
  3

  4
"
  5
OPEN30
  6

  7

 40
0.5
 41
2.5
 42
1.0
 43
12.0
 44
1.0
 45
0.0
 46
0.0
 47
0.1
 48
0.1
140
3.2
141
0.0
142
0.0
143
0.0393701
144
1.0
145
0.0
146
0.71
147
1.5
 71
     0
 72
     0
 73
     0
 74
     0
 75
     0
 76
     0
 77
     3
 78
     8
170
     0
171
     2
172
     1
173
     0
174
     0
175
     0
176
   256
177
   256
178
     2
270
     2
271
     3
272
     3
273
     2
274
     2
340
6B
275
     0
280
     0
281
     0
282
     0
283
     0
284
     0
285
     0
286
     0
287
     3
288
     0
  0
DIMSTYLE
105
5F
330
A
100
AcDbSymbolTableRecord
100
AcDbDimStyleTableRecord
  2
AM_JIS$3
 70
     0
  3

  4
"
  5
OPEN30
  6

  7

 40
0.5
 41
2.5
 42
1.0
 43
10.0
 44
1.0
 45
0.0
 46
0.0
 47
0.1
 48
0.1
140
3.2
141
0.0
142
0.0
143
0.0393701
144
1.0
145
0.0
146
0.71
147
1.5
 71
     0
 72
     0
 73
     0
 74
     1
 75
     0
 76
     0
 77
     3
 78
     8
170
     0
171
     2
172
     0
173
     0
174
     0
175
     0
176
   256
177
   256
178
     2
270
     2
271
     2
272
     3
273
     2
274
     2
340
6B
275
     0
280
     0
281
     0
282
     0
283
     0
284
     0
285
     0
286
     0
287
     0
288
     1
  0
DIMSTYLE
105
60
330
A
100
AcDbSymbolTableRecord
100
AcDbDimStyleTableRecord
  2
AM_JIS$4
 70
     0
  3

  4
"
  5
OPEN30
  6

  7

 40
0.5
 41
2.5
 42
1.0
 43
10.0
 44
1.0
 45
0.0
 46
0.0
 47
0.1
 48
0.1
140
3.2
141
0.0
142
0.0
143
0.0393701
144
1.0
145
0.0
146
0.71
147
1.5
 71
     0
 72
     0
 73
     0
 74
     1
 75
     0
 76
     0
 77
     3
 78
     8
170
     0
171
     2
172
     0
173
     0
174
     0
175
     0
176
   256
177
   256
178
     2
270
     2
271
     2
272
     3
273
     2
274
     2
340
6B
275
     0
280
     0
281
     0
282
     0
283
     0
284
     0
285
     0
286
     0
287
     0
288
     1
  0
DIMSTYLE
105
61
330
A
100
AcDbSymbolTableRecord
100
AcDbDimStyleTableRecord
  2
AM_JIS$6
 70
     0
  3

  4
"
  5
OPEN30
  6

  7

 40
0.5
 41
2.5
 42
1.0
 43
10.0
 44
1.0
 45
0.0
 46
0.0
 47
0.1
 48
0.1
140
3.2
141
0.0
142
0.0
143
0.0393701
144
1.0
145
0.0
146
0.71
147
1.5
 71
     0
 72
     0
 73
     0
 74
     0
 75
     0
 76
     0
 77
     0
 78
     8
170
     0
171
     2
172
     1
173
     0
174
     0
175
     0
176
   256
177
   256
178
     2
270
     2
271
     2
272
     2
273
     2
274
     2
340
6B
275
     0
280
     0
281
     0
282
     0
283
     0
284
     0
285
     0
286
     0
287
     3
288
     0
  0
DIMSTYLE
105
62
330
A
100
AcDbSymbolTableRecord
100
AcDbDimStyleTableRecord
  2
AM_JIS$7
 70
     0
  3

  4
"
  5
OPEN30
  6

  7

 40
0.5
 41
2.5
 42
1.0
 43
10.0
 44
1.0
 45
0.0
 46
0.0
 47
0.1
 48
0.1
140
3.2
141
0.0
142
0.0
143
0.0393701
144
1.0
145
0.0
146
0.71
147
1.5
 71
     0
 72
     0
 73
     0
 74
     0
 75
     0
 76
     0
 77
     3
 78
     8
170
     0
171
     2
172
     1
173
     0
174
     0
175
     0
176
   256
177
   256
178
     2
270
     2
271
     2
272
     3
273
     2
274
     2
340
6B
275
     0
280
     0
281
     0
282
     0
283
     0
284
     0
285
     0
286
     0
287
     3
288
     0
  0
DIMSTYLE
105
63
330
A
100
AcDbSymbolTableRecord
100
AcDbDimStyleTableRecord
  2
AM_JIS$SF
 70
     0
  3

  4
"
  5
OPEN30
  6

  7

 40
0.5
 41
2.5
 42
1.0
 43
10.0
 44
1.0
 45
0.0
 46
0.0
 47
0.1
 48
0.1
140
3.2
141
0.0
142
0.0
143
0.0393701
144
1.0
145
0.0
146
0.71
147
1.5
 71
     0
 72
     0
 73
     0
 74
     0
 75
     1
 76
     1
 77
     3
 78
     8
170
     0
171
     2
172
     1
173
     0
174
     0
175
     0
176
   256
177
   256
178
     2
270
     2
271
     2
272
     2
273
     2
274
     2
340
6B
275
     0
280
     0
281
     0
282
     0
283
     0
284
     0
285
     0
286
     0
287
     3
288
     0
  0
DIMSTYLE
105
68
330
A
100
AcDbSymbolTableRecord
100
AcDbDimStyleTableRecord
  2
AM_JIS$SH
 70
     0
  3

  4
"
  5

  6
GENAXEH
  7
OPEN30
 40
0.5
 41
2.5
 42
1.0
 43
10.0
 44
1.0
 45
0.0
 46
0.0
 47
0.1
 48
0.1
140
3.2
141
0.0
142
0.0
143
0.0393701
144
2.0
145
0.0
146
0.71
147
1.5
 71
     0
 72
     0
 73
     0
 74
     0
 75
     1
 76
     1
 77
     3
 78
     8
170
     0
171
     2
172
     1
173
     1
174
     0
175
     0
176
   256
177
   256
178
     2
270
     2
271
     2
272
     2
273
     2
274
     2
340
6B
275
     0
280
     0
281
     0
282
     0
283
     0
284
     0
285
     0
286
     0
287
     3
288
     0
  0
DIMSTYLE
105
B34
330
A
100
AcDbSymbolTableRecord
100
AcDbDimStyleTableRecord
  2
AM_JIS$2
 70
     0
  3

  4
"
  5
OPEN30
  6

  7

 40
0.5
 41
2.5
 42
1.0
 43
12.0
 44
1.0
 45
0.0
 46
0.0
 47
0.1
 48
0.1
140
3.2
141
0.0
142
0.0
143
0.0393701
144
1.0
145
0.0
146
0.71
147
1.5
 71
     0
 72
     0
 73
     0
 74
     0
 75
     0
 76
     0
 77
     3
 78
     8
170
     0
171
     2
172
     1
173
     0
174
     0
175
     0
176
   256
177
   256
178
     2
270
     2
271
     3
272
     3
273
     2
274
     2
340
6B
275
     0
280
     0
281
     0
282
     0
283
     0
284
     0
285
     0
286
     0
287
     3
288
     0
  0
ENDTAB
  0
TABLE
  2
BLOCK_RECORD
  5
1
330
0
100
AcDbSymbolTable
 70
     9
  0
BLOCK_RECORD
  5
1F
102
{ACAD_XDICTIONARY
360
74
102
}
330
1
100
AcDbSymbolTableRecord
100
AcDbBlockTableRecord
  2
*MODEL_SPACE
  0
BLOCK_RECORD
  5
101
102
{ACAD_XDICTIONARY
360
1BBD
102
}
330
1
100
AcDbSymbolTableRecord
100
AcDbBlockTableRecord
  2
*PAPER_SPACE
  0
BLOCK_RECORD
  5
59
330
1
100
AcDbSymbolTableRecord
100
AcDbBlockTableRecord
  2
_OPEN30
  0
BLOCK_RECORD
  5
64
330
1
100
AcDbSymbolTableRecord
100
AcDbBlockTableRecord
  2
GENAXEH
  0
BLOCK_RECORD
  5
C75
330
1
100
AcDbSymbolTableRecord
100
AcDbBlockTableRecord
  2
*D5
  0
BLOCK_RECORD
  5
18B8
330
1
100
AcDbSymbolTableRecord
100
AcDbBlockTableRecord
  2
*D6
  0
BLOCK_RECORD
  5
18EC
330
1
100
AcDbSymbolTableRecord
100
AcDbBlockTableRecord
  2
*D7
  0
BLOCK_RECORD
  5
1A46
330
1
100
AcDbSymbolTableRecord
100
AcDbBlockTableRecord
  2
*D8
  0
ENDTAB
  0
ENDSEC
  0
SECTION
  2
BLOCKS
  0
BLOCK
  5
20
330
1F
100
AcDbEntity
  8
0
100
AcDbBlockBegin
  2
*MODEL_SPACE
 70
     0
 10
0.0
 20
0.0
 30
0.0
  3
*MODEL_SPACE
  1

  0
ENDBLK
  5
21
330
1F
100
AcDbEntity
  8
0
100
AcDbBlockEnd
  0
BLOCK
  5
103
330
101
100
AcDbEntity
 67
     1
  8
0
100
AcDbBlockBegin
  2
*PAPER_SPACE
 70
     0
 10
0.0
 20
0.0
 30
0.0
  3
*PAPER_SPACE
  1

  0
ENDBLK
  5
104
330
101
100
AcDbEntity
 67
     1
  8
0
100
AcDbBlockEnd
  0
BLOCK
  5
5D
330
59
100
AcDbEntity
  8
0
100
AcDbBlockBegin
  2
_OPEN30
 70
     0
 10
0.0
 20
0.0
 30
0.0
  3
_OPEN30
  1

  0
LINE
  5
5A
330
59
100
AcDbEntity
  8
0
 62
     0
100
AcDbLine
 10
-1.0
 20
0.26794919
 30
0.0
 11
0.0
 21
0.0
 31
0.0
  0
LINE
  5
5B
330
59
100
AcDbEntity
  8
0
 62
     0
100
AcDbLine
 10
0.0
 20
0.0
 30
0.0
 11
-1.0
 21
-0.26794919
 31
0.0
  0
LINE
  5
5C
330
59
100
AcDbEntity
  8
0
 62
     0
100
AcDbLine
 10
0.0
 20
0.0
 30
0.0
 11
-1.0
 21
0.0
 31
0.0
  0
ENDBLK
  5
5E
330
59
100
AcDbEntity
  8
0
100
AcDbBlockEnd
  0
BLOCK
  5
66
330
64
100
AcDbEntity
  8
0
100
AcDbBlockBegin
  2
GENAXEH
 70
     0
 10
0.0
 20
0.0
 30
0.0
  3
GENAXEH
  1

  0
LINE
  5
65
330
64
100
AcDbEntity
  8
0
100
AcDbLine
 10
-1.0
 20
0.0
 30
0.0
 11
1.0
 21
0.0
 31
0.0
  0
ENDBLK
  5
67
330
64
100
AcDbEntity
  8
0
100
AcDbBlockEnd
  0
BLOCK
  5
C7F
330
C75
100
AcDbEntity
  8
0
100
AcDbBlockBegin
  2
*D5
 70
     1
 10
0.0
 20
0.0
 30
0.0
  3
*D5
  1

  0
LINE
  5
1B4E
330
C75
100
AcDbEntity
  8
AM_5
100
AcDbLine
 10
-60.00000000000007
 20
-2.750000000000006
 30
0.0
 11
-60.00000000000007
 21
-16.00000100000008
 31
0.0
  0
LINE
  5
1B4F
330
C75
100
AcDbEntity
  8
AM_5
100
AcDbLine
 10
-0.0000000000000561
 20
-3.000000000000082
 30
0.0
 11
-0.0000000000000569
 21
-16.00000100000008
 31
0.0
  0
LINE
  5
1B50
330
C75
100
AcDbEntity
  8
AM_5
100
AcDbLine
 10
-58.75000000000007
 20
-15.50000100000008
 30
0.0
 11
-1.250000000000056
 21
-15.50000100000008
 31
0.0
  0
INSERT
  5
1B51
330
C75
100
AcDbEntity
  8
AM_5
100
AcDbBlockReference
  2
_OPEN30
 10
-60.00000000000007
 20
-15.50000100000008
 30
0.0
 41
1.25
 42
1.25
 43
1.25
 50
180.0
  0
INSERT
  5
1B52
330
C75
100
AcDbEntity
  8
AM_5
100
AcDbBlockReference
  2
_OPEN30
 10
-0.0000000000000568
 20
-15.50000100000008
 30
0.0
 41
1.25
 42
1.25
 43
1.25
  0
MTEXT
  5
1B53
330
C75
100
AcDbEntity
  8
AM_5
 62
     2
100
AcDbMText
 10
-30.00000000000006
 20
-13.95000100000008
 30
0.0
 40
1.6
 41
0.0
 71
     5
 72
     1
  1
60
  7
ASAMI
1001
ACAD
1000
MTEXTBEGIN
1070
    73
1070
     1
1070
    44
1040
1.0
1070
    74
1070
     0
1000
MTEXTEND
  0
POINT
  5
1B54
330
C75
100
AcDbEntity
  8
DEFPOINTS
 62
     0
100
AcDbPoint
 10
-60.00000000000007
 20
-2.250000000000006
 30
0.0
  0
POINT
  5
1B55
330
C75
100
AcDbEntity
  8
DEFPOINTS
 62
     0
100
AcDbPoint
 10
-0.000000000000056
 20
-2.500000000000082
 30
0.0
  0
POINT
  5
1B56
330
C75
100
AcDbEntity
  8
DEFPOINTS
 62
     0
100
AcDbPoint
 10
-0.0000000000000568
 20
-15.50000100000008
 30
0.0
  0
ENDBLK
  5
C80
330
C75
100
AcDbEntity
  8
0
100
AcDbBlockEnd
  0
BLOCK
  5
18C4
330
18B8
100
AcDbEntity
  8
0
100
AcDbBlockBegin
  2
*D6
 70
     1
 10
0.0
 20
0.0
 30
0.0
  3
*D6
  1

  0
LINE
  5
1A0F
330
18B8
100
AcDbEntity
  8
AM_5
100
AcDbLine
 10
0.499999999999944
 20
-2.500000000000082
 30
0.0
 11
8.829530889074508
 21
-2.500000000000084
 31
0.0
  0
LINE
  5
1A10
330
18B8
100
AcDbEntity
  8
AM_5
100
AcDbLine
 10
0.2576584203350449
 20
2.500000000013559
 30
0.0
 11
8.829530889074508
 21
2.500000000013557
 31
0.0
  0
LINE
  5
1A11
330
18B8
100
AcDbEntity
  8
AM_5
100
AcDbLine
 10
8.329530889074508
 20
-3.750000000000084
 30
0.0
 11
8.329530889074506
 21
-5.000000000000085
 31
0.0
  0
LINE
  5
1A12
330
18B8
100
AcDbEntity
  8
AM_5
100
AcDbLine
 10
8.329530889074508
 20
3.750000000013557
 30
0.0
 11
8.32953088907451
 21
5.000000000013557
 31
0.0
  0
LINE
  5
1A13
330
18B8
100
AcDbEntity
  8
AM_5
100
AcDbLine
 10
8.329530889074508
 20
-2.500000000000084
 30
0.0
 11
8.329530889074508
 21
2.500000000013557
 31
0.0
  0
INSERT
  5
1A14
330
18B8
100
AcDbEntity
  8
AM_5
100
AcDbBlockReference
  2
_OPEN30
 10
8.329530889074508
 20
-2.500000000000084
 30
0.0
 41
1.25
 42
1.25
 43
1.25
 50
90.0
  0
INSERT
  5
1A15
330
18B8
100
AcDbEntity
  8
AM_5
100
AcDbBlockReference
  2
_OPEN30
 10
8.329530889074508
 20
2.500000000013557
 30
0.0
 41
1.25
 42
1.25
 43
1.25
 50
270.0
  0
MTEXT
  5
1A16
330
18B8
100
AcDbEntity
  8
AM_5
 62
     2
100
AcDbMText
 10
6.779530889074507
 20
0.0000000000067359
 30
0.0
 40
1.6
 41
0.0
 71
     5
 72
     1
  1
%%c5
  7
ASAMI
 11
0.0000000000000001
 21
1.0
 31
0.0
1001
ACAD
1000
MTEXTBEGIN
1070
    73
1070
     1
1070
    44
1040
1.0
1070
    74
1070
     0
1000
MTEXTEND
  0
POINT
  5
1A17
330
18B8
100
AcDbEntity
  8
DEFPOINTS
 62
     0
100
AcDbPoint
 10
-0.000000000000056
 20
-2.500000000000082
 30
0.0
  0
POINT
  5
1A18
330
18B8
100
AcDbEntity
  8
DEFPOINTS
 62
     0
100
AcDbPoint
 10
-0.2423415796649551
 20
2.500000000013559
 30
0.0
  0
POINT
  5
1A19
330
18B8
100
AcDbEntity
  8
DEFPOINTS
 62
     0
100
AcDbPoint
 10
8.329530889074508
 20
2.500000000013557
 30
0.0
  0
ENDBLK
  5
18C5
330
18B8
100
AcDbEntity
  8
0
100
AcDbBlockEnd
  0
BLOCK
  5
18F6
330
18EC
100
AcDbEntity
  8
0
100
AcDbBlockBegin
  2
*D7
 70
     1
 10
0.0
 20
0.0
 30
0.0
  3
*D7
  1

  0
LINE
  5
1B34
330
18EC
100
AcDbEntity
  8
AM_5
100
AcDbLine
 10
-10.00000000000005
 20
-2.987117119903495
 30
0.0
 11
-10.00000000000005
 21
-10.00000100000024
 31
0.0
  0
LINE
  5
1B35
330
18EC
100
AcDbEntity
  8
AM_5
100
AcDbLine
 10
-0.0000000000000561
 20
-3.000000000000082
 30
0.0
 11
-0.0000000000000565
 21
-10.00000100000024
 31
0.0
  0
LINE
  5
1B36
330
18EC
100
AcDbEntity
  8
AM_5
100
AcDbLine
 10
-8.75000000000006
 20
-9.500001000000244
 30
0.0
 11
-1.250000000000056
 21
-9.500001000000244
 31
0.0
  0
INSERT
  5
1B37
330
18EC
100
AcDbEntity
  8
AM_5
100
AcDbBlockReference
  2
_OPEN30
 10
-10.00000000000005
 20
-9.500001000000244
 30
0.0
 41
1.25
 42
1.25
 43
1.25
 50
180.0
  0
INSERT
  5
1B38
330
18EC
100
AcDbEntity
  8
AM_5
100
AcDbBlockReference
  2
_OPEN30
 10
-0.0000000000000565
 20
-9.500001000000244
 30
0.0
 41
1.25
 42
1.25
 43
1.25
  0
MTEXT
  5
1B39
330
18EC
100
AcDbEntity
  8
AM_5
 62
     2
100
AcDbMText
 10
-5.000000000000058
 20
-7.950001000000244
 30
0.0
 40
1.6
 41
0.0
 71
     5
 72
     1
  1
10
  7
ASAMI
1001
ACAD
1000
MTEXTBEGIN
1070
    73
1070
     1
1070
    44
1040
1.0
1070
    74
1070
     0
1000
MTEXTEND
  0
POINT
  5
1B3A
330
18EC
100
AcDbEntity
  8
DEFPOINTS
 62
     0
100
AcDbPoint
 10
-10.00000000000005
 20
-2.487117119903495
 30
0.0
  0
POINT
  5
1B3B
330
18EC
100
AcDbEntity
  8
DEFPOINTS
 62
     0
100
AcDbPoint
 10
-0.000000000000056
 20
-2.500000000000082
 30
0.0
  0
POINT
  5
1B3C
330
18EC
100
AcDbEntity
  8
DEFPOINTS
 62
     0
100
AcDbPoint
 10
-0.0000000000000565
 20
-9.500001000000244
 30
0.0
  0
ENDBLK
  5
18F7
330
18EC
100
AcDbEntity
  8
0
100
AcDbBlockEnd
  0
BLOCK
  5
1A50
330
1A46
100
AcDbEntity
  8
0
100
AcDbBlockBegin
  2
*D8
 70
     1
 10
0.0
 20
0.0
 30
0.0
  3
*D8
  1

  0
LINE
  5
1A5E
330
1A46
100
AcDbEntity
  8
AM_5
100
AcDbLine
 10
-60.00000000000007
 20
-2.000000000000006
 30
0.0
 11
-69.8848742152464
 21
-2.000000000000003
 31
0.0
  0
LINE
  5
1A5F
330
1A46
100
AcDbEntity
  8
AM_5
100
AcDbLine
 10
-60.00000000000007
 20
1.999999999999996
 30
0.0
 11
-69.8848742152464
 21
1.999999999999999
 31
0.0
  0
LINE
  5
1A60
330
1A46
100
AcDbEntity
  8
AM_5
100
AcDbLine
 10
-69.3848742152464
 20
-0.7500000000000037
 30
0.0
 11
-69.3848742152464
 21
0.7499999999999997
 31
0.0
  0
INSERT
  5
1A61
330
1A46
100
AcDbEntity
  8
AM_5
100
AcDbBlockReference
  2
_OPEN30
 10
-69.3848742152464
 20
-2.000000000000003
 30
0.0
 41
1.25
 42
1.25
 43
1.25
 50
270.0
  0
INSERT
  5
1A62
330
1A46
100
AcDbEntity
  8
AM_5
100
AcDbBlockReference
  2
_OPEN30
 10
-69.3848742152464
 20
1.999999999999999
 30
0.0
 41
1.25
 42
1.25
 43
1.25
 50
90.0
  0
MTEXT
  5
1A63
330
1A46
100
AcDbEntity
  8
AM_5
 62
     2
100
AcDbMText
 10
-70.93487421524639
 20
-0.000000000000013
 30
0.0
 40
1.6
 41
0.0
 71
     5
 72
     1
  1
%%c4
  7
ASAMI
 11
0.0000000000000001
 21
1.0
 31
0.0
1001
ACAD
1000
MTEXTBEGIN
1070
    73
1070
     1
1070
    44
1040
1.0
1070
    74
1070
     0
1000
MTEXTEND
  0
POINT
  5
1A64
330
1A46
100
AcDbEntity
  8
DEFPOINTS
 62
     0
100
AcDbPoint
 10
-59.50000000000007
 20
-2.000000000000006
 30
0.0
  0
POINT
  5
1A65
330
1A46
100
AcDbEntity
  8
DEFPOINTS
 62
     0
100
AcDbPoint
 10
-59.50000000000007
 20
1.999999999999996
 30
0.0
  0
POINT
  5
1A66
330
1A46
100
AcDbEntity
  8
DEFPOINTS
 62
     0
100
AcDbPoint
 10
-69.3848742152464
 20
1.999999999999999
 30
0.0
  0
ENDBLK
  5
1A51
330
1A46
100
AcDbEntity
  8
0
100
AcDbBlockEnd
  0
ENDSEC
  0
SECTION
  2
ENTITIES
  0
DIMENSION
  5
C4F
330
1F
100
AcDbEntity
  8
AM_5
100
AcDbDimension
  2
*D5
 10
-0.0000000000000568
 20
-15.50000100000008
 30
0.0
 11
-30.00000000000006
 21
-13.95000100000008
 31
0.0
 70
    32
  1
<>
  3
AM_JIS
100
AcDbAlignedDimension
 13
-60.00000000000007
 23
-2.250000000000006
 33
0.0
 14
-0.000000000000056
 24
-2.500000000000082
 34
0.0
 50
0.0000000000002036
100
AcDbRotatedDimension
1001
GENIUS_GENDTOL_13
1000

1000
H7
1000

1040
0.0
  0
LINE
  5
C50
330
1F
100
AcDbEntity
  8
AM_7
100
AcDbLine
 10
-62.38487321524641
 20
-0.0000000000000036
 30
0.0
 11
1.32952988907452
 21
-0.0000000000000036
 31
0.0
1001
GENIUS_GENODEF_13
1002
{
1000
HIER
1070
     0
1002
}
1002
{
1000
MANEDIT
1070
     0
1002
}
1002
{
1000
NOSEL
1070
     0
1002
}
1002
{
1000
BEHIND
1070
     0
1002
}
1002
{
1000
REACTOR
1002
}
1001
GENIUS_GENOBJ-N-CEN_13
1002
{
1000
OWNER
1000
GEN
1002
}
  0
TEXT
  5
C58
330
1F
100
AcDbEntity
  8
AM_6
100
AcDbText
 10
-42.08333333333339
 20
-26.75000100000012
 30
0.0
 40
2.5
  1
HHMR4050ZX
 50
0.0000000000002036
 72
     4
 11
-30.00000000000007
 21
-25.50000100000008
 31
0.0
100
AcDbText
  0
DIMENSION
  5
18B7
330
1F
100
AcDbEntity
  8
AM_5
100
AcDbDimension
  2
*D6
 10
8.329530889074508
 20
2.500000000013557
 30
0.0
 11
8.329530889074508
 21
0.0000000000067358
 31
0.0
 70
   160
  1
%%c<>
  3
AM_JIS
100
AcDbAlignedDimension
 13
-0.000000000000056
 23
-2.500000000000082
 33
0.0
 14
-0.2423415796649551
 24
2.500000000013559
 34
0.0
 50
90.00000000000005
100
AcDbRotatedDimension
1001
ACAD
1000
DSTYLE
1002
{
1070
    48
1040
0.05
1070
    47
1040
0.0
1070
   274
1070
     1
1070
   272
1070
     2
1002
}
1001
GENIUS_GENDTOL_13
1000

1000
H7
1000

1040
0.0
  0
DIMENSION
  5
18EB
330
1F
100
AcDbEntity
  8
AM_5
100
AcDbDimension
  2
*D7
 10
-0.0000000000000565
 20
-9.500001000000244
 30
0.0
 11
-5.000000000000058
 21
-7.950001000000244
 31
0.0
 70
    32
  1
<>
  3
AM_JIS
100
AcDbAlignedDimension
 13
-10.00000000000005
 23
-2.487117119903495
 33
0.0
 14
-0.000000000000056
 24
-2.500000000000082
 34
0.0
 50
359.9999999999992
100
AcDbRotatedDimension
1001
GENIUS_GENDTOL_13
1000

1000
H7
1000

1040
0.0
  0
LINE
  5
1A41
330
1F
100
AcDbEntity
  8
AM_0
100
AcDbLine
 10
-60.00000000000007
 20
1.499999999999993
 30
0.0
 11
-59.50000000000007
 21
1.999999999999993
 31
0.0
1001
GENIUS_GENFIL_13
1070
     0
1040
0.5
1040
0.5
1040
0.4999999999999716
1040
45.0
1002
{
1002
}
  0
LINE
  5
1A42
330
1F
100
AcDbEntity
  8
AM_0
100
AcDbLine
 10
-60.00000000000007
 20
-1.500000000000006
 30
0.0
 11
-60.00000000000007
 21
1.499999999999993
 31
0.0
  0
LINE
  5
1A43
330
1F
100
AcDbEntity
  8
AM_0
100
AcDbLine
 10
-59.50000000000007
 20
1.999999999999993
 30
0.0
 11
-10.00000000000005
 21
1.999999999999993
 31
0.0
1001
GENIUS_GENODEF_13
1002
{
1000
HIER
1070
     0
1002
}
1002
{
1000
MANEDIT
1070
     0
1002
}
1002
{
1000
NOSEL
1070
     0
1002
}
1002
{
1000
BEHIND
1070
     0
1002
}
1002
{
1000
REACTOR
1002
}
1001
GENIUS_GENOBJ-N-CEN_13
1002
{
1000
OWNER
1000
GEN
1002
}
  0
LINE
  5
1A44
330
1F
100
AcDbEntity
  8
AM_0
100
AcDbLine
 10
-59.50000000000007
 20
-2.000000000000006
 30
0.0
 11
-10.00000000000005
 21
-2.000000000000006
 31
0.0
1001
GENIUS_GENODEF_13
1002
{
1000
HIER
1070
     0
1002
}
1002
{
1000
MANEDIT
1070
     0
1002
}
1002
{
1000
NOSEL
1070
     0
1002
}
1002
{
1000
BEHIND
1070
     0
1002
}
1002
{
1000
REACTOR
1002
}
1001
GENIUS_GENOBJ-N-CEN_13
1002
{
1000
OWNER
1000
GEN
1002
}
  0
DIMENSION
  5
1A45
330
1F
100
AcDbEntity
  8
AM_5
100
AcDbDimension
  2
*D8
 10
-69.3848742152464
 20
1.999999999999999
 30
0.0
 11
-69.3848742152464
 21
-0.0000000000000132
 31
0.0
 70
   160
  1
%%c<>
  3
AM_JIS
100
AcDbAlignedDimension
 13
-59.50000000000007
 23
-2.000000000000006
 33
0.0
 14
-59.50000000000007
 24
1.999999999999996
 34
0.0
 50
270.0
100
AcDbRotatedDimension
1001
ACAD
1000
DSTYLE
1002
{
1070
    48
1040
0.1
1070
    47
1040
0.1
1070
   274
1070
     2
1070
   272
1070
     3
1002
}
1001
GENIUS_GENDTOL_13
1000

1000
h6
1000

1040
0.0
  0
LINE
  5
1A53
330
1F
100
AcDbEntity
  8
AM_0
100
AcDbLine
 10
-60.00000000000007
 20
-1.500000000000006
 30
0.0
 11
-59.50000000000007
 21
-2.000000000000006
 31
0.0
1001
GENIUS_GENFIL_13
1070
     0
1040
0.5
1040
0.5
1040
0.4999999999999716
1040
45.00000000000036
1002
{
1002
}
  0
LINE
  5
1A54
330
1F
100
AcDbEntity
  8
0
100
AcDbLine
 10
-59.50000000000007
 20
-2.000000000000006
 30
0.0
 11
-59.50000000000007
 21
1.999999999999993
 31
0.0
  0
LINE
  5
1AE6
330
1F
100
AcDbEntity
  8
AM_0
100
AcDbLine
 10
-0.1403291433064575
 20
2.500000000000143
 30
0.0
 11
-0.0000000000000777
 21
2.473550952893818
 31
0.0
  0
SPLINE
  5
1AE7
330
1F
100
AcDbEntity
  8
AM_0
100
AcDbSpline
210
0.0
220
0.0
230
1.0
 70
     8
 71
     3
 72
     8
 73
     4
 74
     0
 42
0.0000000001
 43
0.0000000001
 40
0.0
 40
0.0
 40
0.0
 40
0.0
 40
0.4192277204543643
 40
0.4192277204543643
 40
0.4192277204543643
 40
0.4192277204543643
 10
-0.1403291433060255
 20
2.500000000000143
 30
0.0
 10
-0.1788478766370648
 20
2.270763943574185
 30
0.0
 10
-0.4739853960069365
 20
2.125000000000153
 30
0.0
 10
-0.6918737917900165
 20
2.125000000000143
 30
0.0
  0
LINE
  5
1AE8
330
1F
100
AcDbEntity
  8
AM_0
100
AcDbLine
 10
-0.0000000000000777
 20
0.7298360724443591
 30
0.0
 11
-0.0564017998438254
 21
0.528873540660046
 31
0.0
  0
LINE
  5
1AE9
330
1F
100
AcDbEntity
  8
AM_0
100
AcDbLine
 10
-0.0491639576423053
 20
0.5000000000001441
 30
0.0
 11
-0.3474171096489252
 21
1.689805507164211
 31
0.0
  0
LINE
  5
1AEA
330
1F
100
AcDbEntity
  8
AM_0
100
AcDbLine
 10
-0.0000000000000777
 20
0.7298360724443591
 30
0.0
 11
-0.0000000000000777
 21
2.47355095289379
 31
0.0
  0
LINE
  5
1AEB
330
1F
100
AcDbEntity
  8
AM_0
100
AcDbLine
 10
-0.3474171096489252
 20
1.689805507164211
 30
0.0
 11
-0.6918737917900165
 21
2.125000000000144
 31
0.0
  0
LINE
  5
1AEC
330
1F
100
AcDbEntity
  8
AM_0
100
AcDbLine
 10
-0.0000000000000777
 20
0.0000000000001443
 30
0.0
 11
-0.0491639576423053
 21
-0.4999999999998557
 31
0.0
  0
LINE
  5
1AED
330
1F
100
AcDbEntity
  8
AM_0
100
AcDbLine
 10
-0.0000000000000777
 20
-0.7298360724440421
 30
0.0
 11
-0.2048345415997399
 21
0.0000000000001444
 31
0.0
  0
LINE
  5
1AEE
330
1F
100
AcDbEntity
  8
AM_0
100
AcDbLine
 10
-0.0491639576423053
 20
-0.4999999999998557
 30
0.0
 11
-0.0564017998438254
 21
-0.5288735406597574
 31
0.0
  0
LINE
  5
1AEF
330
1F
100
AcDbEntity
  8
AM_0
100
AcDbLine
 10
-0.6918737917900165
 20
-0.4999999999998557
 30
0.0
 11
-0.6918737917900165
 21
0.0000000000001444
 31
0.0
  0
LINE
  5
1AF0
330
1F
100
AcDbEntity
  8
AM_0
100
AcDbLine
 10
-0.0645053982939029
 20
-0.4999999999998557
 30
0.0
 11
-0.6918737917900165
 21
-0.4999999999998557
 31
0.0
  0
LINE
  5
1AF1
330
1F
100
AcDbEntity
  8
AM_0
100
AcDbLine
 10
-0.6918737917900165
 20
0.0000000000001444
 30
0.0
 11
-0.0000000000000777
 21
-0.000000000000083
 31
0.0
  0
LINE
  5
1AF2
330
1F
100
AcDbEntity
  8
AM_0
100
AcDbLine
 10
-0.0491639576423053
 20
-2.408591287765003
 30
0.0
 11
-0.0491639576423053
 21
-1.018511207038867
 31
0.0
  0
LINE
  5
1AF3
330
1F
100
AcDbEntity
  8
AM_0
100
AcDbLine
 10
-0.0491639576423053
 20
-1.018511207038867
 30
0.0
 11
-0.3474171096489252
 21
-1.445364098667906
 31
0.0
  0
LINE
  5
1AF4
330
1F
100
AcDbEntity
  8
AM_0
100
AcDbLine
 10
-0.0000000000000777
 20
-2.473550952893927
 30
0.0
 11
-0.1403291433041199
 21
-2.499999999999855
 31
0.0
  0
LINE
  5
1AF5
330
1F
100
AcDbEntity
  8
AM_0
100
AcDbLine
 10
-0.0491639576423053
 20
-2.408591287765003
 30
0.0
 11
-0.0000000000000777
 21
-2.473550952893927
 31
0.0
  0
ELLIPSE
  5
1AF6
330
1F
100
AcDbEntity
  8
AM_0
100
AcDbEllipse
 10
2.414824891638189
 20
-1.002488852953346
 30
0.0
 11
-0.0000000000000269
 21
2.985633114027533
 31
0.0
210
0.0
220
0.0
230
1.0
 40
0.9355276220390972
 41
1.719681220318966
 42
2.061170729468627
  0
LINE
  5
1AF7
330
1F
100
AcDbEntity
  8
AM_0
100
AcDbLine
 10
-0.0491639576423053
 20
-1.018511207038867
 30
0.0
 11
-0.0000000000000777
 21
-0.7298360724440421
 31
0.0
  0
LINE
  5
1AF8
330
1F
100
AcDbEntity
  8
AM_0
100
AcDbLine
 10
-0.0000000000000777
 20
-2.473550952893927
 30
0.0
 11
-0.0000000000000777
 21
-0.7298360724440988
 31
0.0
  0
LINE
  5
1AF9
330
1F
100
AcDbEntity
  8
AM_0
100
AcDbLine
 10
-0.3474171096489252
 20
-1.445364098667906
 30
0.0
 11
-0.6918737917900165
 21
-0.4999999999998557
 31
0.0
  0
LINE
  5
1AFA
330
1F
100
AcDbEntity
  8
AM_11
100
AcDbLine
 10
-0.0000000000000611
 20
-2.500000000000083
 30
0.0
 11
-0.0000000000000608
 21
2.499999999999916
 31
0.0
  0
LINE
  5
1AFB
330
1F
100
AcDbEntity
  8
AM_0
100
AcDbLine
 10
-0.0000000000000777
 20
0.0000000000001443
 30
0.0
 11
-0.0491639576423053
 21
0.5000000000001441
 31
0.0
  0
SPLINE
  5
1AFC
330
1F
100
AcDbEntity
  8
AM_0
100
AcDbSpline
210
0.0
220
0.0
230
1.0
 70
     8
 71
     3
 72
     8
 73
     4
 74
     0
 42
0.0000000001
 43
0.0000000001
 40
0.0
 40
0.0
 40
0.0
 40
0.0
 40
2.795805529891336
 40
2.795805529891336
 40
2.795805529891336
 40
2.795805529891336
 10
-3.81227505980573
 20
2.500000000000144
 30
0.0
 10
-4.248200609649605
 20
2.500000000000144
 30
0.0
 10
-4.653374013678128
 20
2.387204124780483
 30
0.0
 10
-5.037033039400361
 20
2.19549560569388
 30
0.0
  0
LINE
  5
1AFD
330
1F
100
AcDbEntity
  8
AM_0
100
AcDbLine
 10
-4.363819708291626
 20
2.125000000000144
 30
0.0
 11
-6.167304815004936
 21
2.313852135101231
 31
0.0
  0
SPLINE
  5
1AFE
330
1F
100
AcDbEntity
  8
AM_0
100
AcDbSpline
210
0.0
220
0.0
230
1.0
 70
     8
 71
     3
 72
     8
 73
     4
 74
     0
 42
0.0000000001
 43
0.0000000001
 40
0.0
 40
0.0
 40
0.0
 40
0.0
 40
1.797797194454997
 40
1.797797194454997
 40
1.797797194454997
 40
1.797797194454997
 10
-3.301657185923791
 20
-2.443416770632919
 30
0.0
 10
-3.021342363551028
 20
-2.443416770632919
 30
0.0
 10
-2.753376581570686
 20
-2.397235663818915
 30
0.0
 10
-2.495358898349639
 20
-2.313852135051289
 30
0.0
  0
LINE
  5
1AFF
330
1F
100
AcDbEntity
  8
AM_0
100
AcDbLine
 10
-1.36508712289906
 20
-2.195495605694216
 30
0.0
 11
-2.495358898503214
 21
-2.313852135100913
 31
0.0
  0
LINE
  5
1B00
330
1F
100
AcDbEntity
  8
AM_0
100
AcDbLine
 10
-5.037033039400571
 20
-2.195495605694216
 30
0.0
 11
-6.167304815004936
 21
-2.313852135100912
 31
0.0
  0
SPLINE
  5
1B01
330
1F
100
AcDbEntity
  8
AM_0
100
AcDbSpline
210
0.0
220
0.0
230
1.0
 70
     8
 71
     3
 72
     8
 73
     4
 74
     0
 42
0.0000000001
 43
0.0000000001
 40
0.0
 40
0.0
 40
0.0
 40
0.0
 40
1.168827779870509
 40
1.168827779870509
 40
1.168827779870509
 40
1.168827779870509
 10
-3.812275059809452
 20
-2.499999999999855
 30
0.0
 10
-3.630029947563535
 20
-2.499999999999855
 30
0.0
 10
-3.453159638383939
 20
-2.480285745923279
 30
0.0
 10
-3.280989141671299
 20
-2.443333037536629
 30
0.0
  0
SPLINE
  5
1B02
330
1F
100
AcDbEntity
  8
AM_0
100
AcDbSpline
210
0.0
220
0.0
230
1.0
 70
     8
 71
     3
 72
     8
 73
     4
 74
     0
 42
0.0000000001
 43
0.0000000001
 40
0.0
 40
0.0
 40
0.0
 40
0.0
 40
2.795805529891336
 40
2.795805529891336
 40
2.795805529891336
 40
2.795805529891336
 10
-7.48422097630734
 20
2.500000000000144
 30
0.0
 10
-7.920146526151115
 20
2.500000000000144
 30
0.0
 10
-8.325319930179748
 20
2.387204124780484
 30
0.0
 10
-8.708978955902081
 20
2.195495605693881
 30
0.0
  0
LINE
  5
1B04
330
1F
100
AcDbEntity
  8
AM_0
100
AcDbLine
 10
-8.035765624793347
 20
2.125000000000145
 30
0.0
 11
-9.839250731506558
 21
2.313852135101232
 31
0.0
  0
SPLINE
  5
1B05
330
1F
100
AcDbEntity
  8
AM_0
100
AcDbSpline
210
0.0
220
0.0
230
1.0
 70
     8
 71
     3
 72
     8
 73
     4
 74
     0
 42
0.0000000001
 43
0.0000000001
 40
0.0
 40
0.0
 40
0.0
 40
0.0
 40
1.168827779870509
 40
1.168827779870509
 40
1.168827779870509
 40
1.168827779870509
 10
-7.484220976310962
 20
-2.499999999999854
 30
0.0
 10
-7.301975864065147
 20
-2.499999999999854
 30
0.0
 10
-7.125105554885549
 20
-2.480285745923279
 30
0.0
 10
-6.95293505817292
 20
-2.443333037536629
 30
0.0
  0
SPLINE
  5
1B0C
330
1F
100
AcDbEntity
  8
AM_0
100
AcDbSpline
210
0.0
220
0.0
230
1.0
 70
     8
 71
     3
 72
     8
 73
     4
 74
     0
 42
0.0000000001
 43
0.0000000001
 40
0.0
 40
0.0
 40
0.0
 40
0.0
 40
2.774045382722535
 40
2.774045382722535
 40
2.774045382722535
 40
2.774045382722535
 10
-6.973603102421789
 20
-2.443416770632975
 30
0.0
 10
-8.415378702603431
 20
-2.443416770632975
 30
0.0
 10
-9.530463860764374
 20
-1.221708385316414
 30
0.0
 10
-10.64554901892531
 20
0.0000000000001457
 30
0.0
  0
SPLINE
  5
1B0D
330
1F
100
AcDbEntity
  8
AM_0
100
AcDbSpline
210
0.0
220
0.0
230
1.0
 70
     8
 71
     3
 72
     8
 73
     4
 74
     0
 42
0.0000000001
 43
0.0000000001
 40
0.0
 40
0.0
 40
0.0
 40
0.0
 40
1.834571398213516
 40
1.834571398213516
 40
1.834571398213516
 40
1.834571398213516
 10
-7.48422097630734
 20
-2.499999999999854
 30
0.0
 10
-8.43771665276936
 20
-2.499999999999854
 30
0.0
 10
-9.244086733804209
 20
-1.960357647784599
 30
0.0
 10
-9.999999999999229
 20
-1.235644613840605
 30
0.0
  0
SPLINE
  5
1B0F
330
1F
100
AcDbEntity
  8
AM_0
100
AcDbSpline
210
0.0
220
0.0
230
1.0
 70
     8
 71
     3
 72
     8
 73
     4
 74
     0
 42
0.0000000001
 43
0.0000000001
 40
0.4282305752165211
 40
0.4282305752165211
 40
0.4282305752165211
 40
0.4282305752165211
 40
2.774045382722471
 40
2.774045382722471
 40
2.774045382722471
 40
2.774045382722471
 10
-10.00000000000005
 20
2.360570275325629
 30
0.0
 10
-8.859501070737884
 20
2.066225476035522
 30
0.0
 10
-7.91655208658074
 20
1.033112738017833
 30
0.0
 10
-6.973603102423594
 20
0.0000000000001452
 30
0.0
  0
SPLINE
  5
1B10
330
1F
100
AcDbEntity
  8
AM_0
100
AcDbSpline
210
0.0
220
0.0
230
1.0
 70
     8
 71
     3
 72
     8
 73
     4
 74
     0
 42
0.0000000001
 43
0.0000000001
 40
0.7889251955888064
 40
0.7889251955888064
 40
0.7889251955888064
 40
0.7889251955888064
 40
2.792136278909015
 40
2.792136278909015
 40
2.792136278909015
 40
2.792136278909015
 10
-10.00000000000005
 20
2.228812543137211
 30
0.0
 10
-9.077505193815031
 20
1.793618651829465
 30
0.0
 10
-8.280863085062142
 20
0.8968093259148053
 30
0.0
 10
-7.484220976309257
 20
0.0000000000001453
 30
0.0
  0
LINE
  5
1B12
330
1F
100
AcDbEntity
  8
AM_11
 48
0.5
100
AcDbLine
 10
-10.00000000000005
 20
2.499999999999916
 30
0.0
 11
-10.00000000000005
 21
-2.487117119903496
 31
0.0
  0
SPLINE
  5
1B13
330
1F
100
AcDbEntity
  8
AM_0
100
AcDbSpline
210
0.0
220
0.0
230
1.0
 70
     8
 71
     3
 72
     8
 73
     4
 74
     0
 42
0.0000000001
 43
0.0000000001
 40
0.0
 40
0.0
 40
0.0
 40
0.0
 40
2.792136278909015
 40
2.792136278909015
 40
2.792136278909015
 40
2.792136278909015
 10
-7.484220976310962
 20
2.500000000000144
 30
0.0
 10
-6.033042857746046
 20
2.500000000000144
 30
0.0
 10
-4.922658958776792
 20
1.250000000000144
 30
0.0
 10
-3.812275059807535
 20
0.0000000000001448
 30
0.0
  0
SPLINE
  5
1B14
330
1F
100
AcDbEntity
  8
AM_0
100
AcDbSpline
210
0.0
220
0.0
230
1.0
 70
     8
 71
     3
 72
     8
 73
     4
 74
     0
 42
0.0000000001
 43
0.0000000001
 40
0.0
 40
0.0
 40
0.0
 40
0.0
 40
2.774045382722525
 40
2.774045382722525
 40
2.774045382722525
 40
2.774045382722525
 10
-6.973603102425513
 20
2.443416770633237
 30
0.0
 10
-5.531827502243874
 20
2.443416770633237
 30
0.0
 10
-4.41674234408293
 20
1.221708385316691
 30
0.0
 10
-3.301657185921984
 20
0.0000000000001448
 30
0.0
  0
SPLINE
  5
1B15
330
1F
100
AcDbEntity
  8
AM_0
100
AcDbSpline
210
0.0
220
0.0
230
1.0
 70
     8
 71
     3
 72
     8
 73
     4
 74
     0
 42
0.0000000001
 43
0.0000000001
 40
0.0
 40
0.0
 40
0.0
 40
0.0
 40
2.77404538272248
 40
2.77404538272248
 40
2.77404538272248
 40
2.77404538272248
 10
-3.301657185920168
 20
-2.443416770632976
 30
0.0
 10
-4.743432786101782
 20
-2.443416770632975
 30
0.0
 10
-5.85851794426269
 20
-1.221708385316415
 30
0.0
 10
-6.973603102423594
 20
0.0000000000001452
 30
0.0
  0
SPLINE
  5
1B16
330
1F
100
AcDbEntity
  8
AM_0
100
AcDbSpline
210
0.0
220
0.0
230
1.0
 70
     8
 71
     3
 72
     8
 73
     4
 74
     0
 42
0.0000000001
 43
0.0000000001
 40
0.0
 40
0.0
 40
0.0
 40
0.0
 40
2.792136278909016
 40
2.792136278909016
 40
2.792136278909016
 40
2.792136278909016
 10
-3.81227505980573
 20
-2.499999999999855
 30
0.0
 10
-5.263453178370647
 20
-2.499999999999854
 30
0.0
 10
-6.373837077339903
 20
-1.249999999999854
 30
0.0
 10
-7.484220976309157
 20
0.0000000000001453
 30
0.0
  0
SPLINE
  5
1B17
330
1F
100
AcDbEntity
  8
AM_0
100
AcDbSpline
210
0.0
220
0.0
230
1.0
 70
     8
 71
     3
 72
     8
 73
     4
 74
     0
 42
0.0000000001
 43
0.0000000001
 40
0.0
 40
0.0
 40
0.0
 40
0.0
 40
1.797797194454997
 40
1.797797194454997
 40
1.797797194454997
 40
1.797797194454997
 10
-6.973603102425513
 20
-2.443416770632918
 30
0.0
 10
-6.693288280052651
 20
-2.443416770632918
 30
0.0
 10
-6.425322498072197
 20
-2.397235663818915
 30
0.0
 10
-6.16730481485115
 20
-2.313852135051288
 30
0.0
  0
SPLINE
  5
1B18
330
1F
100
AcDbEntity
  8
AM_0
100
AcDbSpline
210
0.0
220
0.0
230
1.0
 70
     8
 71
     3
 72
     8
 73
     4
 74
     0
 42
0.0000000001
 43
0.0000000001
 40
0.0
 40
0.0
 40
0.0
 40
0.0
 40
2.792136278909016
 40
2.792136278909016
 40
2.792136278909016
 40
2.792136278909016
 10
-3.812275059809452
 20
2.500000000000144
 30
0.0
 10
-2.361096941244535
 20
2.500000000000143
 30
0.0
 10
-1.250713042275281
 20
1.250000000000143
 30
0.0
 10
-0.1403291433060255
 20
0.0000000000001443
 30
0.0
  0
SPLINE
  5
1B19
330
1F
100
AcDbEntity
  8
AM_0
100
AcDbSpline
210
0.0
220
0.0
230
1.0
 70
     8
 71
     3
 72
     8
 73
     4
 74
     0
 42
0.0000000001
 43
0.0000000001
 40
0.0
 40
0.0
 40
0.0
 40
0.0
 40
8.102326919110769
 40
8.102326919110769
 40
8.102326919110769
 40
8.102326919110769
 10
-3.301657185923791
 20
2.443416770633236
 30
0.0
 10
-2.03833207998739
 20
2.443416770633236
 30
0.0
 10
-1.025832273480487
 20
1.505417575838068
 30
0.0
 10
-0.0443774497341796
 20
0.4513209662360418
 30
0.0
  0
LINE
  5
1B1A
330
1F
100
AcDbEntity
  8
AM_0
100
AcDbLine
 10
-0.6918737917900165
 20
2.125000000000144
 30
0.0
 11
-2.495358898503214
 21
2.313852135101231
 31
0.0
  0
SPLINE
  5
1B1B
330
1F
100
AcDbEntity
  8
AM_0
100
AcDbSpline
210
0.0
220
0.0
230
1.0
 70
     8
 71
     3
 72
     8
 73
     4
 74
     0
 42
0.0000000001
 43
0.0000000001
 40
0.0
 40
0.0
 40
0.0
 40
0.0
 40
2.795805529891336
 40
2.795805529891336
 40
2.795805529891336
 40
2.795805529891336
 10
-0.1403291433041199
 20
2.500000000000143
 30
0.0
 10
-0.576254693147884
 20
2.500000000000143
 30
0.0
 10
-0.9814280971765075
 20
2.387204124780483
 30
0.0
 10
-1.365087122898739
 20
2.19549560569388
 30
0.0
  0
SPLINE
  5
1B1C
330
1F
100
AcDbEntity
  8
AM_0
100
AcDbSpline
210
0.0
220
0.0
230
1.0
 70
     8
 71
     3
 72
     8
 73
     4
 74
     0
 42
0.0000000001
 43
0.0000000001
 40
0.0
 40
0.0
 40
0.0
 40
0.0
 40
2.792136278909009
 40
2.792136278909009
 40
2.792136278909009
 40
2.792136278909009
 10
-0.1403291433041199
 20
-2.499999999999855
 30
0.0
 10
-1.591507261869034
 20
-2.499999999999855
 30
0.0
 10
-2.701891160838285
 20
-1.249999999999854
 30
0.0
 10
-3.812275059807535
 20
0.0000000000001448
 30
0.0
  0
SPLINE
  5
1B1D
330
1F
100
AcDbEntity
  8
AM_0
100
AcDbSpline
210
0.0
220
0.0
230
1.0
 70
     8
 71
     3
 72
     8
 73
     4
 74
     0
 42
0.0000000001
 43
0.0000000001
 40
0.9166275210629445
 40
0.9166275210629445
 40
0.9166275210629445
 40
0.9166275210629445
 40
9.246817942408316
 40
9.246817942408316
 40
9.246817942408316
 40
9.246817942408316
 10
-0.0491639576423053
 20
-2.408591287765003
 30
0.0
 10
-1.292561351798302
 20
-2.201203387462809
 30
0.0
 10
-2.297109268860137
 20
-1.10060169373136
 30
0.0
 10
-3.301657185922084
 20
0.0000000000001448
 30
0.0
  0
LINE
  5
1B1E
330
1F
100
AcDbEntity
  8
AM_11
 48
0.5
100
AcDbLine
 10
-10.00000000000005
 20
2.499999999999916
 30
0.0
 11
-0.0000000000000553
 21
2.499999999999916
 31
0.0
1001
GENIUS_GENODEF_13
1002
{
1000
HIER
1070
     0
1002
}
1002
{
1000
MANEDIT
1070
     0
1002
}
1002
{
1000
NOSEL
1070
     0
1002
}
1002
{
1000
BEHIND
1070
     0
1002
}
1002
{
1000
REACTOR
1002
}
1001
GENIUS_GENOBJ-N-CEN_13
1002
{
1000
OWNER
1000
GEN
1002
}
  0
LINE
  5
1B1F
330
1F
100
AcDbEntity
  8
AM_11
 48
0.5
100
AcDbLine
 10
-10.00000000000005
 20
-2.500000000000083
 30
0.0
 11
-0.0000000000000553
 21
-2.500000000000082
 31
0.0
1001
GENIUS_GENODEF_13
1002
{
1000
HIER
1070
     0
1002
}
1002
{
1000
MANEDIT
1070
     0
1002
}
1002
{
1000
NOSEL
1070
     0
1002
}
1002
{
1000
BEHIND
1070
     0
1002
}
1002
{
1000
REACTOR
1002
}
1001
GENIUS_GENOBJ-N-CEN_13
1002
{
1000
OWNER
1000
GEN
1002
}
  0
SPLINE
  5
1B21
330
1F
100
AcDbEntity
  8
AM_0
100
AcDbSpline
210
0.0
220
0.0
230
1.0
 70
     8
 71
     3
 72
     8
 73
     4
 74
     0
 42
0.0000000001
 43
0.0000000001
 40
2.101602267096767
 40
2.101602267096767
 40
2.101602267096767
 40
2.101602267096767
 40
2.774045382722471
 40
2.774045382722471
 40
2.774045382722471
 40
2.774045382722471
 10
-11.46110976400053
 20
0.8710437411034652
 30
0.0
 10
-11.18615397269562
 20
0.5922970100815388
 30
0.0
 10
-10.91585149581047
 20
0.2961485050408423
 30
0.0
 10
-10.64554901892531
 20
0.0000000000001457
 30
0.0
  0
ELLIPSE
  5
1B25
330
1F
100
AcDbEntity
  8
AM_0
100
AcDbEllipse
 10
-6.18653802785478
 20
-4.963464851214883
 30
0.0
 11
7.177297506489074
 21
5.673214337780545
 31
0.0
210
0.0
220
0.0
230
1.0
 40
0.8592224574875228
 41
1.396485839570106
 42
1.627655924129076
  0
LINE
  5
1B26
330
1F
100
AcDbEntity
  8
AM_0
100
AcDbLine
 10
-10.00000000000005
 20
2.360570275325629
 30
0.0
 11
-10.00000000000005
 21
1.941983476714174
 31
0.0
  0
LINE
  5
1B27
330
1F
100
AcDbEntity
  8
AM_0
100
AcDbLine
 10
-10.00000000000005
 20
-0.6960461893818351
 30
0.0
 11
-10.00000000000005
 21
-2.360570275325319
 31
0.0
  0
LINE
  5
1B28
330
1F
100
AcDbEntity
  8
AM_0
100
AcDbLine
 10
-8.708978955902423
 20
-2.195495605694067
 30
0.0
 11
-9.839250731506787
 21
-2.313852135100762
 31
0.0
  0
SPLINE
  5
1B29
330
1F
100
AcDbEntity
  8
AM_0
100
AcDbSpline
210
0.0
220
0.0
230
1.0
 70
     8
 71
     3
 72
     8
 73
     4
 74
     0
 42
0.0000000001
 43
0.0000000001
 40
1.427435250721976
 40
1.427435250721976
 40
1.427435250721976
 40
1.427435250721976
 40
1.797797194454997
 40
1.797797194454997
 40
1.797797194454997
 40
1.797797194454997
 10
-10.00000000000006
 20
-2.360570275325318
 30
0.0
 10
-9.945980722913642
 20
-2.346628751257351
 30
0.0
 10
-9.892404630452267
 20
-2.33102987116354
 30
0.0
 10
-9.839250731352871
 20
-2.313852135051287
 30
0.0
  0
VIEWPORT
  5
110
330
101
100
AcDbEntity
 67
     1
  8
0
100
AcDbViewport
 10
420.5
 20
297.0
 30
0.0
 40
948.9782706766916
 41
628.452
 68
     1
 69
     1
1001
ACAD
1000
MVIEW
1002
{
1070
    16
1010
0.0
1020
0.0
1030
0.0
1010
0.0
1020
0.0
1030
1.0
1040
0.0
1040
628.452
1040
420.5
1040
297.0
1040
50.0
1040
0.0
1040
0.0
1070
     0
1070
   100
1070
     1
1070
     1
1070
     0
1070
     0
1070
     0
1070
     0
1040
0.0
1040
0.0
1040
0.0
1040
10.0
1040
10.0
1040
10.0
1040
10.0
1070
     0
1002
{
1002
}
1002
}
  0
ENDSEC
  0
SECTION
  2
OBJECTS
  0
DICTIONARY
  5
C
330
0
100
AcDbDictionary
  3
ACAD_GROUP
350
D
  3
ACAD_LAYOUT
350
1A
  3
ACAD_MLINESTYLE
350
17
  3
ACAD_PLOTSETTINGS
350
19
  3
ACAD_PLOTSTYLENAME
350
E
  3
ACDBVARIABLEDICTIONARY
350
34
  3
ACMDICTIONARY
350
43
  3
AMG
350
2B
  3
AMGSNAPSETTINGS
350
6E
  3
DWGPROPS
350
1B89
  3
ACDBHEADERROUNDTRIPXREC
350
1B95
  0
DICTIONARY
  5
74
330
1F
100
AcDbDictionary
280
     1
  3
ACAD_INDEX
360
1B8B
  3
ACAD_LAYOUTSELFREF
360
1BB8
  0
DICTIONARY
  5
1BBD
330
101
100
AcDbDictionary
280
     1
  3
ACAD_LAYOUTSELFREF
360
1BBE
  0
DICTIONARY
  5
D
102
{ACAD_REACTORS
330
C
102
}
330
C
100
AcDbDictionary
  0
DICTIONARY
  5
1A
102
{ACAD_REACTORS
330
C
102
}
330
C
100
AcDbDictionary
  0
DICTIONARY
  5
17
102
{ACAD_REACTORS
330
C
102
}
330
C
100
AcDbDictionary
  3
STANDARD
350
18
  0
DICTIONARY
  5
19
102
{ACAD_REACTORS
330
C
102
}
330
C
100
AcDbDictionary
  0
ACDBDICTIONARYWDFLT
  5
E
102
{ACAD_REACTORS
330
C
102
}
330
C
100
AcDbDictionary
281
     1
  3
Normal
350
F
100
AcDbDictionaryWithDefault
340
F
  0
DICTIONARY
  5
34
102
{ACAD_REACTORS
330
C
102
}
330
C
100
AcDbDictionary
  3
INDEXCTL
350
35
  3
SORTENTS
350
B5E
  0
DICTIONARY
  5
43
102
{ACAD_REACTORS
330
C
102
}
330
C
100
AcDbDictionary
  3
ACMSTDDICTIONARY
350
260
  0
DICTIONARY
  5
2B
102
{ACAD_REACTORS
330
C
102
}
330
C
100
AcDbDictionary
  3
ACMGSETTINGS
350
2C
  0
DICTIONARY
  5
6E
102
{ACAD_REACTORS
330
C
102
}
330
C
100
AcDbDictionary
  0
XRECORD
  5
1B89
102
{ACAD_REACTORS
330
C
102
}
330
C
100
AcDbXrecord
  1
DWGPROPS COOKIE
  2

  3

  4

  6

  7

  8

  9

300
AmdtFileType=82
301
=
302
=
303
=
304
=
305
=
306
=
307
=
308
=
309
=
 40
0.0833641087962963
 41
2452838.620506898
 42
2452841.708444224
  1

 90
        1
  0
DICTIONARY
  5
1B95
102
{ACAD_REACTORS
330
C
102
}
330
C
100
AcDbDictionary
  3
TSTACKALIGN
350
1B96
  3
TSTACKSIZE
350
1B97
  3
HYPERLINKBASE
350
1B98
  3
STYLESHEET
350
1B99
  3
LAYOUTDICT
350
1B9A
  3
PLOTSETDICT
350
1B9B
  3
PLOTSTYLNAMDICT
350
1B9C
  3
LWETCUNION
350
1B9D
  3
INSUNITS
350
1B9E
  3
CEPSNTYPE
350
1B9F
  3
FINGERPRINTGUID
350
1BA0
  3
VERSIONGUID
350
1BA1
  3
PSVPSCALE
350
1BA2
  3
DIMSTYLEDATA
350
1BA3
  3
PUCSORTHOREF
350
1BA4
  3
PUCSORTHOVIEW
350
1BA5
  3
PUCSBASE
350
1BA6
  3
PUCSORGTOP
350
1BA7
  3
PUCSORGBOTTOM
350
1BA8
  3
PUCSORGLEFT
350
1BA9
  3
PUCSORGRIGHT
350
1BAA
  3
PUCSORGFRONT
350
1BAB
  3
PUCSORGBACK
350
1BAC
  3
UCSORTHOREF
350
1BAD
  3
UCSORTHOVIEW
350
1BAE
  3
UCSBASE
350
1BAF
  3
UCSORGTOP
350
1BB0
  3
UCSORGBOTTOM
350
1BB1
  3
UCSORGLEFT
350
1BB2
  3
UCSORGRIGHT
350
1BB3
  3
UCSORGFRONT
350
1BB4
  3
UCSORGBACK
350
1BB5
  0
DICTIONARY
  5
1B8B
102
{ACAD_REACTORS
330
74
102
}
330
74
100
AcDbDictionary
  3
*A1
350
1B8C
  0
XRECORD
  5
1BB8
102
{ACAD_REACTORS
330
74
102
}
330
74
100
AcDbXrecord
340
1F
  0
XRECORD
  5
1BBE
102
{ACAD_REACTORS
330
1BBD
102
}
330
1BBD
100
AcDbXrecord
340
101
  0
MLINESTYLE
  5
18
102
{ACAD_REACTORS
330
17
102
}
330
17
100
AcDbMlineStyle
  2
STANDARD
 70
     0
  3

 62
   256
 51
90.0
 52
90.0
 71
     2
 49
0.5
 62
   256
  6
BYLAYER
 49
-0.5
 62
   256
  6
BYLAYER
  0
ACDBPLACEHOLDER
  5
F
102
{ACAD_REACTORS
330
E
102
}
330
E
100
AcDbPlaceHolder
280
     0
  0
DICTIONARYVAR
  5
35
102
{ACAD_REACTORS
330
34
102
}
330
34
100
DictionaryVariables
280
     0
  1
1
  0
DICTIONARYVAR
  5
B5E
102
{ACAD_REACTORS
330
34
102
}
330
34
100
DictionaryVariables
280
     0
  1
96
  0
DICTIONARY
  5
260
102
{ACAD_REACTORS
330
43
102
}
330
43
100
AcDbDictionary
  0
DICTIONARY
  5
2C
102
{ACAD_REACTORS
330
2B
102
}
330
2B
100
AcDbDictionary
  3
DWGSETTINGS
350
2D
  0
XRECORD
  5
1B96
102
{ACAD_REACTORS
330
1B95
102
}
330
1B95
100
AcDbXrecord
 90
        1
  0
XRECORD
  5
1B97
102
{ACAD_REACTORS
330
1B95
102
}
330
1B95
100
AcDbXrecord
 90
       70
  0
XRECORD
  5
1B98
102
{ACAD_REACTORS
330
1B95
102
}
330
1B95
100
AcDbXrecord
  1

  0
XRECORD
  5
1B99
102
{ACAD_REACTORS
330
1B95
102
}
330
1B95
100
AcDbXrecord
  1
ACAD_M_9400.ctb
  0
XRECORD
  5
1B9A
102
{ACAD_REACTORS
330
1B95
102
}
330
1B95
100
AcDbXrecord
340
1A
  0
XRECORD
  5
1B9B
102
{ACAD_REACTORS
330
1B95
102
}
330
1B95
100
AcDbXrecord
340
19
  0
XRECORD
  5
1B9C
102
{ACAD_REACTORS
330
1B95
102
}
330
1B95
100
AcDbXrecord
340
E
  0
XRECORD
  5
1B9D
102
{ACAD_REACTORS
330
1B95
102
}
330
1B95
100
AcDbXrecord
 90
    10781
  0
XRECORD
  5
1B9E
102
{ACAD_REACTORS
330
1B95
102
}
330
1B95
100
AcDbXrecord
 90
        4
  0
XRECORD
  5
1B9F
102
{ACAD_REACTORS
330
1B95
102
}
330
1B95
100
AcDbXrecord
 90
        0
  0
XRECORD
  5
1BA0
102
{ACAD_REACTORS
330
1B95
102
}
330
1B95
100
AcDbXrecord
  1
{AFB28963-8C59-40AE-9337-C84526B81ACE}
  0
XRECORD
  5
1BA1
102
{ACAD_REACTORS
330
1B95
102
}
330
1B95
100
AcDbXrecord
  1
{17AD2C48-1363-4383-A0FA-D72B7E29AE99}
  0
XRECORD
  5
1BA2
102
{ACAD_REACTORS
330
1B95
102
}
330
1B95
100
AcDbXrecord
 40
0.0
  0
XRECORD
  5
1BA3
102
{ACAD_REACTORS
330
1B95
102
}
330
1B95
100
AcDbXrecord
1000
DSTYLE
1002
{
1070
    79
 70
     2
1070
   341
340
59
1070
   342
340
59
1070
   371
 70
    -1
1070
   372
 70
    -1
1002
}
  0
XRECORD
  5
1BA4
102
{ACAD_REACTORS
330
1B95
102
}
330
1B95
100
AcDbXrecord
340
0
  0
XRECORD
  5
1BA5
102
{ACAD_REACTORS
330
1B95
102
}
330
1B95
100
AcDbXrecord
 70
     0
  0
XRECORD
  5
1BA6
102
{ACAD_REACTORS
330
1B95
102
}
330
1B95
100
AcDbXrecord
340
0
  0
XRECORD
  5
1BA7
102
{ACAD_REACTORS
330
1B95
102
}
330
1B95
100
AcDbXrecord
 10
0.0
 20
0.0
 30
0.0
  0
XRECORD
  5
1BA8
102
{ACAD_REACTORS
330
1B95
102
}
330
1B95
100
AcDbXrecord
 10
0.0
 20
0.0
 30
0.0
  0
XRECORD
  5
1BA9
102
{ACAD_REACTORS
330
1B95
102
}
330
1B95
100
AcDbXrecord
 10
0.0
 20
0.0
 30
0.0
  0
XRECORD
  5
1BAA
102
{ACAD_REACTORS
330
1B95
102
}
330
1B95
100
AcDbXrecord
 10
0.0
 20
0.0
 30
0.0
  0
XRECORD
  5
1BAB
102
{ACAD_REACTORS
330
1B95
102
}
330
1B95
100
AcDbXrecord
 10
0.0
 20
0.0
 30
0.0
  0
XRECORD
  5
1BAC
102
{ACAD_REACTORS
330
1B95
102
}
330
1B95
100
AcDbXrecord
 10
0.0
 20
0.0
 30
0.0
  0
XRECORD
  5
1BAD
102
{ACAD_REACTORS
330
1B95
102
}
330
1B95
100
AcDbXrecord
340
0
  0
XRECORD
  5
1BAE
102
{ACAD_REACTORS
330
1B95
102
}
330
1B95
100
AcDbXrecord
 70
     0
  0
XRECORD
  5
1BAF
102
{ACAD_REACTORS
330
1B95
102
}
330
1B95
100
AcDbXrecord
340
0
  0
XRECORD
  5
1BB0
102
{ACAD_REACTORS
330
1B95
102
}
330
1B95
100
AcDbXrecord
 10
0.0
 20
0.0
 30
0.0
  0
XRECORD
  5
1BB1
102
{ACAD_REACTORS
330
1B95
102
}
330
1B95
100
AcDbXrecord
 10
0.0
 20
0.0
 30
0.0
  0
XRECORD
  5
1BB2
102
{ACAD_REACTORS
330
1B95
102
}
330
1B95
100
AcDbXrecord
 10
0.0
 20
0.0
 30
0.0
  0
XRECORD
  5
1BB3
102
{ACAD_REACTORS
330
1B95
102
}
330
1B95
100
AcDbXrecord
 10
0.0
 20
0.0
 30
0.0
  0
XRECORD
  5
1BB4
102
{ACAD_REACTORS
330
1B95
102
}
330
1B95
100
AcDbXrecord
 10
0.0
 20
0.0
 30
0.0
  0
XRECORD
  5
1BB5
102
{ACAD_REACTORS
330
1B95
102
}
330
1B95
100
AcDbXrecord
 10
0.0
 20
0.0
 30
0.0
  0
LAYER_INDEX
  5
1B8C
102
{ACAD_REACTORS
330
1B8B
102
}
330
1B8B
100
AcDbIndex
 40
2453152.475758483
100
AcDbLayerIndex
  8
0
360
1B8D
 90
        1
  8
AM_0
360
1B8E
 90
       56
  8
AM_11
360
1B8F
 90
        4
  8
AM_7
360
1B90
 90
        1
  8
AM_5
360
1B91
 90
        4
  8
Defpoints
360
1B92
 90
        0
  8
AM_6
360
1B93
 90
        1
  0
XRECORD
  5
2D
102
{ACAD_REACTORS
330
2C
102
}
330
2C
100
AcDbXrecord
  1
VERSION
140
15.0
  1
PRODUCT
  2
AutoCAD Mechanical 2000
  0
IDBUFFER
  5
1B8D
330
0
100
AcDbIdBuffer
330
1A54
  0
IDBUFFER
  5
1B8E
330
0
100
AcDbIdBuffer
330
1B1C
330
1B1D
330
1B21
330
1B25
330
1B26
330
1B27
330
1B28
330
1B29
330
1A41
330
1A42
330
1A43
330
1A44
330
1A53
330
1AE6
330
1AE7
330
1AE8
330
1AE9
330
1AEA
330
1AEB
330
1AEC
330
1AED
330
1AEE
330
1AEF
330
1AF0
330
1AF1
330
1AF2
330
1AF3
330
1AF4
330
1AF5
330
1AF6
330
1AF7
330
1AF8
330
1AF9
330
1AFB
330
1AFC
330
1AFD
330
1AFE
330
1AFF
330
1B00
330
1B01
330
1B02
330
1B04
330
1B05
330
1B0C
330
1B0D
330
1B0F
330
1B10
330
1B13
330
1B14
330
1B15
330
1B16
330
1B17
330
1B18
330
1B19
330
1B1A
330
1B1B
  0
IDBUFFER
  5
1B8F
330
0
100
AcDbIdBuffer
330
1AFA
330
1B12
330
1B1E
330
1B1F
  0
IDBUFFER
  5
1B90
330
0
100
AcDbIdBuffer
330
C50
  0
IDBUFFER
  5
1B91
330
0
100
AcDbIdBuffer
330
C4F
330
18B7
330
18EB
330
1A45
  0
IDBUFFER
  5
1B92
330
0
100
AcDbIdBuffer
  0
IDBUFFER
  5
1B93
330
0
100
AcDbIdBuffer
330
C58
  0
ENDSEC
  0
EOF
