  0
SECTION
  2
HEADER
  9
$ACADVER
  1
AC1014
  9
$ACADMAINTVER
 70
     9
  9
$DWGCODEPAGE
  3
ANSI_932
  9
$INSBASE
 10
0.0
 20
0.0
 30
0.0
  9
$EXTMIN
 10
-188.7638971578376
 20
-63.14157934006461
 30
-0.00000001
  9
$EXTMAX
 10
20.11217668240108
 20
19.53602972355787
 30
0.00000001
  9
$LIMMIN
 10
-215.4581856612786
 20
-93.93980419788027
  9
$LIMMAX
 10
55.50374247552781
 20
59.33577634810354
  9
$ORTHOMODE
 70
     0
  9
$REGENMODE
 70
     1
  9
$FILLMODE
 70
     1
  9
$QTEXTMODE
 70
     0
  9
$MIRRTEXT
 70
     0
  9
$DRAGMODE
 70
     2
  9
$LTSCALE
 40
1.0
  9
$OSMODE
 70
    55
  9
$ATTMODE
 70
     1
  9
$TEXTSIZE
 40
2.5
  9
$TRACEWID
 40
1.0
  9
$TEXTSTYLE
  7
STANDARD
  9
$CLAYER
  8
AM_0
  9
$CELTYPE
  6
BYLAYER
  9
$CECOLOR
 62
   256
  9
$CELTSCALE
 40
1.0
  9
$DELOBJ
 70
     1
  9
$DISPSILH
 70
     0
  9
$DIMSCALE
 40
1.0
  9
$DIMASZ
 40
2.5
  9
$DIMEXO
 40
1.0
  9
$DIMDLI
 40
12.0
  9
$DIMRND
 40
0.0
  9
$DIMDLE
 40
0.0
  9
$DIMEXE
 40
1.0
  9
$DIMTP
 40
0.1
  9
$DIMTM
 40
0.1
  9
$DIMTXT
 40
3.2
  9
$DIMCEN
 40
0.0
  9
$DIMTSZ
 40
0.0
  9
$DIMTOL
 70
     0
  9
$DIMLIM
 70
     0
  9
$DIMTIH
 70
     0
  9
$DIMTOH
 70
     0
  9
$DIMSE1
 70
     0
  9
$DIMSE2
 70
     0
  9
$DIMTAD
 70
     3
  9
$DIMZIN
 70
     8
  9
$DIMBLK
  1
OPEN30
  9
$DIMASO
 70
     1
  9
$DIMSHO
 70
     1
  9
$DIMPOST
  1

  9
$DIMAPOST
  1
"
  9
$DIMALT
 70
     0
  9
$DIMALTD
 70
     2
  9
$DIMALTF
 40
0.0393701
  9
$DIMLFAC
 40
1.0
  9
$DIMTOFL
 70
     1
  9
$DIMTVP
 40
0.0
  9
$DIMTIX
 70
     0
  9
$DIMSOXD
 70
     0
  9
$DIMSAH
 70
     0
  9
$DIMBLK1
  1

  9
$DIMBLK2
  1

  9
$DIMSTYLE
  2
AM_JIS
  9
$DIMCLRD
 70
   256
  9
$DIMCLRE
 70
   256
  9
$DIMCLRT
 70
     2
  9
$DIMTFAC
 40
0.71
  9
$DIMGAP
 40
1.5
  9
$DIMJUST
 70
     0
  9
$DIMSD1
 70
     0
  9
$DIMSD2
 70
     0
  9
$DIMTOLJ
 70
     0
  9
$DIMTZIN
 70
     0
  9
$DIMALTZ
 70
     0
  9
$DIMALTTZ
 70
     0
  9
$DIMFIT
 70
     3
  9
$DIMUPT
 70
     0
  9
$DIMUNIT
 70
     2
  9
$DIMDEC
 70
     3
  9
$DIMTDEC
 70
     3
  9
$DIMALTU
 70
     2
  9
$DIMALTTD
 70
     2
  9
$DIMTXSTY
  7
ASAMI
  9
$DIMAUNIT
 70
     0
  9
$LUNITS
 70
     2
  9
$LUPREC
 70
     2
  9
$SKETCHINC
 40
1.0
  9
$FILLETRAD
 40
2.5
  9
$AUNITS
 70
     0
  9
$AUPREC
 70
     0
  9
$MENU
  1
.
  9
$ELEVATION
 40
0.0
  9
$PELEVATION
 40
0.0
  9
$THICKNESS
 40
0.0
  9
$LIMCHECK
 70
     0
  9
$BLIPMODE
 70
     0
  9
$CHAMFERA
 40
2.5
  9
$CHAMFERB
 40
2.5
  9
$CHAMFERC
 40
20.0
  9
$CHAMFERD
 40
0.0
  9
$SKPOLY
 70
     0
  9
$TDCREATE
 40
2452838.620506898
  9
$TDUPDATE
 40
2453152.474697986
  9
$TDINDWG
 40
0.1804962384
  9
$TDUSRTIMER
 40
0.1804962384
  9
$USRTIMER
 70
     1
  9
$ANGBASE
 50
0.0
  9
$ANGDIR
 70
     0
  9
$PDMODE
 70
     0
  9
$PDSIZE
 40
0.0
  9
$PLINEWID
 40
0.0
  9
$COORDS
 70
     1
  9
$SPLFRAME
 70
     0
  9
$SPLINETYPE
 70
     6
  9
$SPLINESEGS
 70
     8
  9
$ATTDIA
 70
     1
  9
$ATTREQ
 70
     1
  9
$HANDLING
 70
 12289
  9
$HANDSEED
  5
2C71
  9
$SURFTAB1
 70
     6
  9
$SURFTAB2
 70
     6
  9
$SURFTYPE
 70
     6
  9
$SURFU
 70
     6
  9
$SURFV
 70
     6
  9
$UCSNAME
  2

  9
$UCSORG
 10
-0.0000000000000568
 20
-0.0000000000000036
 30
0.0
  9
$UCSXDIR
 10
1.0
 20
0.0
 30
0.0
  9
$UCSYDIR
 10
0.0
 20
1.0
 30
0.0
  9
$PUCSNAME
  2

  9
$PUCSORG
 10
0.0
 20
0.0
 30
0.0
  9
$PUCSXDIR
 10
1.0
 20
0.0
 30
0.0
  9
$PUCSYDIR
 10
0.0
 20
1.0
 30
0.0
  9
$USERI1
 70
     0
  9
$USERI2
 70
     0
  9
$USERI3
 70
     0
  9
$USERI4
 70
     0
  9
$USERI5
 70
     0
  9
$USERR1
 40
0.0
  9
$USERR2
 40
0.0
  9
$USERR3
 40
0.0
  9
$USERR4
 40
0.0
  9
$USERR5
 40
0.0
  9
$WORLDVIEW
 70
     1
  9
$SHADEDGE
 70
     3
  9
$SHADEDIF
 70
    70
  9
$TILEMODE
 70
     1
  9
$MAXACTVP
 70
    64
  9
$PINSBASE
 10
0.0
 20
0.0
 30
0.0
  9
$PLIMCHECK
 70
     0
  9
$PEXTMIN
 10
1.000000000000000E+20
 20
1.000000000000000E+20
 30
1.000000000000000E+20
  9
$PEXTMAX
 10
-1.000000000000000E+20
 20
-1.000000000000000E+20
 30
-1.000000000000000E+20
  9
$PLIMMIN
 10
0.0
 20
0.0
  9
$PLIMMAX
 10
841.0
 20
594.0
  9
$UNITMODE
 70
     0
  9
$VISRETAIN
 70
     1
  9
$PLINEGEN
 70
     0
  9
$PSLTSCALE
 70
     0
  9
$TREEDEPTH
 70
  3020
  9
$PICKSTYLE
 70
     0
  9
$CMLSTYLE
  2
STANDARD
  9
$CMLJUST
 70
     0
  9
$CMLSCALE
 40
20.0
  9
$PROXYGRAPHICS
 70
     1
  9
$MEASUREMENT
 70
     1
  0
ENDSEC
  0
SECTION
  2
CLASSES
  0
CLASS
  1
ACDBDICTIONARYWDFLT
  2
AcDbDictionaryWithDefault
  3
AutoCAD 2000
 90
        0
280
     0
281
     0
  0
CLASS
  1
ACDBPLACEHOLDER
  2
AcDbPlaceHolder
  3
AutoCAD 2000
 90
        0
280
     0
281
     0
  0
CLASS
  1
LAYOUT
  2
AcDbLayout
  3
AutoCAD 2000
 90
        0
280
     0
281
     0
  0
CLASS
  1
AMGSETTINGSOBJ
  2
AmgSettingsObj
  3
"AcadM|Product Description: AutoCAD Mechanical 2000|Company: Autodesk"
 90
        0
280
     0
281
     0
  0
CLASS
  1
ACME_DOCUMENT
  2
AcMeDbDoc
  3
AcMeServices
 90
        0
280
     0
281
     0
  0
CLASS
  1
ACMESCOPE
  2
AcMeScope
  3
AcMeServices
 90
        0
280
     0
281
     0
  0
CLASS
  1
ACMECOMMANDHISTORY
  2
AcMeCommandHistory
  3
AcMeServices
 90
        0
280
     0
281
     0
  0
CLASS
  1
DICTIONARYVAR
  2
AcDbDictionaryVar
  3
AutoCAD 2000
 90
        0
280
     0
281
     0
  0
CLASS
  1
ACIMSYSVARMAN
  2
AcImSysVarManager
  3
AcMeServices
 90
        0
280
     0
281
     0
  0
CLASS
  1
ACIMREALSYSVAR
  2
AcImRealSysVar
  3
AcMeServices
 90
        0
280
     0
281
     0
  0
CLASS
  1
ACIMINTSYSVAR
  2
AcImIntSysVar
  3
AcMeServices
 90
        0
280
     0
281
     0
  0
CLASS
  1
ACMEDRAWINGMAN
  2
AcMeDrawingMan
  3
AcMeServices
 90
        0
280
     0
281
     0
  0
CLASS
  1
ACMEVIEW
  2
AcMeView
  3
AcMeServices
 90
        0
280
     0
281
     0
  0
CLASS
  1
ACDBENTITYCACHE
  2
AcMeEntityCache
  3
AcMeServices
 90
        0
280
     0
281
     0
  0
CLASS
  1
GSMANAGER
  2
AcMeGSManager
  3
AcMeServices
 90
        0
280
     0
281
     0
  0
CLASS
  1
AmdtInternalReactor
  2
AmdtInternalReactor
  3
AcMeServices
 90
        0
280
     0
281
     0
  0
CLASS
  1
ACMESTATEMGR
  2
AcMeStateMgr
  3
AcMeServices
 90
        0
280
     0
281
     0
  0
CLASS
  1
ACME_DATABASE
  2
AcMeDbDatabase
  3
AcMeServices
 90
        0
280
     0
281
     0
  0
CLASS
  1
ACRFINSADJUSTERMGR
  2
AcRfInsAdjusterMgr
  3
AcMeServices
 90
        0
280
     0
281
     0
  0
CLASS
  1
ACMDATADICTIONARY
  2
AcmDataDictionary
  3
"AcmSymBB|Product Description: AutoCAD Mechanical 2000|Company: Autodesk"
 90
        0
280
     0
281
     0
  0
CLASS
  1
ACMDATAENTRYBLOCK
  2
AcmDataEntryBlock
  3
"AcmSymBB|Product Description: AutoCAD Mechanical 2000|Company: Autodesk"
 90
        0
280
     0
281
     0
  0
CLASS
  1
AMGOBJPROPCFG
  2
AmgObjPropCfg
  3
"AmgLay|Product Description: AutoCAD Mechanical 2000|Company: Autodesk"
 90
        1
280
     0
281
     0
  0
CLASS
  1
ACAMGFILTERDAT
  2
AcAmgFilterDat
  3
"AcadM|Product Description: AutoCAD Mechanical 2000|Company: Autodesk"
 90
        0
280
     0
281
     0
  0
CLASS
  1
LAYER_INDEX
  2
AcDbLayerIndex
  3
AutoCAD 2000
 90
        0
280
     0
281
     0
  0
CLASS
  1
IDBUFFER
  2
AcDbIdBuffer
  3
AutoCAD 2000
 90
        0
280
     0
281
     0
  0
CLASS
  1
ACIMSTRSYSVAR
  2
AcImStrSysVar
  3
AcMeServices
 90
        0
280
     0
281
     0
  0
CLASS
  1
ACMSTANDARDJIS
  2
AcmStandardJIS
  3
"AcmSymBB|Product Description: AutoCAD Mechanical 2000|Company: Autodesk"
 90
        0
280
     0
281
     0
  0
CLASS
  1
ACMSURFSTANDARDJIS
  2
AcmSurfTextStdJIS
  3
"AcmSymBB|Product Description: AutoCAD Mechanical 2000|Company: Autodesk"
 90
        0
280
     0
281
     0
  0
CLASS
  1
ACMFCFSTANDARDJIS
  2
AcmFCFStdJIS
  3
"AcmSymBB|Product Description: AutoCAD Mechanical 2000|Company: Autodesk"
 90
        0
280
     0
281
     0
  0
CLASS
  1
ACMWELDSTANDARDJIS
  2
AcmWeldingStdJIS
  3
"AcmSymBB|Product Description: AutoCAD Mechanical 2000|Company: Autodesk"
 90
        0
280
     0
281
     0
  0
CLASS
  1
ACMIDSTANDARDJIS
  2
AcmIdStdJIS
  3
"AcmSymBB|Product Description: AutoCAD Mechanical 2000|Company: Autodesk"
 90
        0
280
     0
281
     0
  0
CLASS
  1
ACMDATUMSTANDARDJIS
  2
AcmDatumStdJIS
  3
"AcmSymBB|Product Description: AutoCAD Mechanical 2000|Company: Autodesk"
 90
        0
280
     0
281
     0
  0
CLASS
  1
ACMBOMSTANDARDJIS
  2
AcmBOMStdJIS
  3
"AcmSymBB|Product Description: AutoCAD Mechanical 2000|Company: Autodesk"
 90
        0
280
     0
281
     0
  0
CLASS
  1
ACMSTANDARDANSI
  2
AcmStandardANSI
  3
"AcmSymBB|Product Description: AutoCAD Mechanical 2000|Company: Autodesk"
 90
        0
280
     0
281
     0
  0
CLASS
  1
ACMSURFSTANDARDANSI
  2
AcmSurfTextStdANSI
  3
"AcmSymBB|Product Description: AutoCAD Mechanical 2000|Company: Autodesk"
 90
        0
280
     0
281
     0
  0
CLASS
  1
ACMFCFSTANDARDANSI
  2
AcmFCFStdANSI
  3
"AcmSymBB|Product Description: AutoCAD Mechanical 2000|Company: Autodesk"
 90
        0
280
     0
281
     0
  0
CLASS
  1
ACMWELDSTANDARDANSI
  2
AcmWeldingStdANSI
  3
"AcmSymBB|Product Description: AutoCAD Mechanical 2000|Company: Autodesk"
 90
        0
280
     0
281
     0
  0
CLASS
  1
ACMIDSTANDARDANSI
  2
AcmIdStdANSI
  3
"AcmSymBB|Product Description: AutoCAD Mechanical 2000|Company: Autodesk"
 90
        0
280
     0
281
     0
  0
CLASS
  1
ACMDATUMSTANDARDANSI
  2
AcmDatumStdANSI
  3
"AcmSymBB|Product Description: AutoCAD Mechanical 2000|Company: Autodesk"
 90
        0
280
     0
281
     0
  0
CLASS
  1
ACMBOMSTANDARDANSI
  2
AcmBOMStdANSI
  3
"AcmSymBB|Product Description: AutoCAD Mechanical 2000|Company: Autodesk"
 90
        0
280
     0
281
     0
  0
CLASS
  1
ACMSTANDARDBSI
  2
AcmStandardBSI
  3
"AcmSymBB|Product Description: AutoCAD Mechanical 2000|Company: Autodesk"
 90
        0
280
     0
281
     0
  0
CLASS
  1
ACMSURFSTANDARDBSI
  2
AcmSurfTextStdBSI
  3
"AcmSymBB|Product Description: AutoCAD Mechanical 2000|Company: Autodesk"
 90
        0
280
     0
281
     0
  0
CLASS
  1
ACMFCFSTANDARDBSI
  2
AcmFCFStdBSI
  3
"AcmSymBB|Product Description: AutoCAD Mechanical 2000|Company: Autodesk"
 90
        0
280
     0
281
     0
  0
CLASS
  1
ACMWELDSTANDARDBSI
  2
AcmWeldingStdBSI
  3
"AcmSymBB|Product Description: AutoCAD Mechanical 2000|Company: Autodesk"
 90
        0
280
     0
281
     0
  0
CLASS
  1
ACMIDSTANDARDBSI
  2
AcmIdStdBSI
  3
"AcmSymBB|Product Description: AutoCAD Mechanical 2000|Company: Autodesk"
 90
        0
280
     0
281
     0
  0
CLASS
  1
ACMDATUMSTANDARDBSI
  2
AcmDatumStdBSI
  3
"AcmSymBB|Product Description: AutoCAD Mechanical 2000|Company: Autodesk"
 90
        0
280
     0
281
     0
  0
CLASS
  1
ACMBOMSTANDARDBSI
  2
AcmBOMStdBSI
  3
"AcmSymBB|Product Description: AutoCAD Mechanical 2000|Company: Autodesk"
 90
        0
280
     0
281
     0
  0
CLASS
  1
LONG_TRANSACTION
  2
AcDbLongTransaction
  3
AutoCAD 2000
 90
        0
280
     0
281
     0
  0
CLASS
  1
LWPOLYLINE
  2
AcDbPolyline
  3
AutoCAD 2000
 90
        0
280
     0
281
     1
  0
CLASS
  1
HATCH
  2
AcDbHatch
  3
AutoCAD 2000
 90
        0
280
     0
281
     1
  0
CLASS
  1
XRECORD
  2
AcDbXrecord
  3
AutoCAD 2000
 90
        0
280
     0
281
     0
  0
ENDSEC
  0
SECTION
  2
TABLES
  0
TABLE
  2
VPORT
  5
8
330
0
100
AcDbSymbolTable
 70
     3
  0
VPORT
  5
2C46
330
8
100
AcDbSymbolTableRecord
100
AcDbViewportTableRecord
  2
*ACTIVE
 70
     0
 10
0.0
 20
0.0
 11
1.0
 21
1.0
 12
-76.10689877279475
 22
23.35109600072638
 13
0.0
 23
0.0
 14
2.5
 24
2.5
 15
10.0
 25
10.0
 16
0.0
 26
0.0
 36
1.0
 17
0.0
 27
0.0
 37
0.0
 40
217.7138479027831
 41
1.56570841889117
 42
50.0
 43
0.0
 44
0.0
 50
0.0
 51
0.0
 71
     0
 72
   100
 73
     1
 74
     3
 75
     0
 76
     0
 77
     0
 78
     0
  0
ENDTAB
  0
TABLE
  2
LTYPE
  5
5
330
0
100
AcDbSymbolTable
 70
    10
  0
LTYPE
  5
14
330
5
100
AcDbSymbolTableRecord
100
AcDbLinetypeTableRecord
  2
BYBLOCK
 70
     0
  3

 72
    65
 73
     0
 40
0.0
  0
LTYPE
  5
15
330
5
100
AcDbSymbolTableRecord
100
AcDbLinetypeTableRecord
  2
BYLAYER
 70
     0
  3

 72
    65
 73
     0
 40
0.0
  0
LTYPE
  5
16
330
5
100
AcDbSymbolTableRecord
100
AcDbLinetypeTableRecord
  2
CONTINUOUS
 70
     0
  3
Solid line
 72
    65
 73
     0
 40
0.0
  0
LTYPE
  5
4B
330
5
100
AcDbSymbolTableRecord
100
AcDbLinetypeTableRecord
  2
AM_ISO02W050
 70
     0
  3
__ __ __ __ __ __ __ __ __ __ __ __ __ __ __
 72
    65
 73
     2
 40
7.5
 49
6.0
 74
     0
 49
-1.5
 74
     0
  0
LTYPE
  5
4C
330
5
100
AcDbSymbolTableRecord
100
AcDbLinetypeTableRecord
  2
AM_ISO08W050
 70
     0
  3
____ . ____ . ____ . ____ . ____ . ____ . ____
 72
    65
 73
     4
 40
18.0
 49
12.0
 74
     0
 49
-1.5
 74
     0
 49
3.0
 74
     0
 49
-1.5
 74
     0
  0
LTYPE
  5
4D
330
5
100
AcDbSymbolTableRecord
100
AcDbLinetypeTableRecord
  2
AM_ISO09W050
 70
     0
  3
_____ . . _____ . . _____ . . ____ .. ____
 72
    65
 73
     6
 40
22.5
 49
12.0
 74
     0
 49
-1.5
 74
     0
 49
3.0
 74
     0
 49
-1.5
 74
     0
 49
3.0
 74
     0
 49
-1.5
 74
     0
  0
LTYPE
  5
4E
330
5
100
AcDbSymbolTableRecord
100
AcDbLinetypeTableRecord
  2
AMCONSTR
 70
     0
  3
_______________________
 72
    65
 73
     2
 40
9999.0
 49
9999.0
 74
     0
 49
0.0
 74
     0
  0
LTYPE
  5
4F
330
5
100
AcDbSymbolTableRecord
100
AcDbLinetypeTableRecord
  2
AM_ISO02W050X2
 70
     0
  3
 _ _ _ _ _ _ _ _ _ _ _ _
 72
    65
 73
     2
 40
3.75
 49
3.0
 74
     0
 49
-0.75
 74
     0
  0
LTYPE
  5
50
330
5
100
AcDbSymbolTableRecord
100
AcDbLinetypeTableRecord
  2
AM_ISO08W050X2
 70
     0
  3
__ . __ . __ . __ . __ . __
 72
    65
 73
     4
 40
9.0
 49
6.0
 74
     0
 49
-0.75
 74
     0
 49
1.5
 74
     0
 49
-0.75
 74
     0
  0
LTYPE
  5
53
330
5
100
AcDbSymbolTableRecord
100
AcDbLinetypeTableRecord
  2
AMZIGZAG
 70
     0
  3
/\/-/\/-/\/-/\/-/\/-/\/
 72
    65
 73
     2
 40
11.00009999999999
 49
0.0001
 74
     4
 75
   135
340
52
 46
0.04
 50
0.0
 44
0.0
 45
0.0
 49
-11.0
 74
     0
  0
LTYPE
  5
166
330
5
100
AcDbSymbolTableRecord
100
AcDbLinetypeTableRecord
  2
ACJISTGL
 70
     0
  3
_ _ _ _ _
 72
    65
 73
     2
 40
3.0
 49
2.0
 74
     0
 49
-1.0
 74
     0
  0
LTYPE
  5
26A
330
5
100
AcDbSymbolTableRecord
100
AcDbLinetypeTableRecord
  2
ACJISTGB
 70
     0
  3
__ . . __ . .
 72
    65
 73
     6
 40
9.0
 49
4.0
 74
     0
 49
-1.0
 74
     0
 49
1.0
 74
     0
 49
-1.0
 74
     0
 49
1.0
 74
     0
 49
-1.0
 74
     0
  0
ENDTAB
  0
TABLE
  2
LAYER
  5
2
330
0
100
AcDbSymbolTable
 70
     7
  0
LAYER
  5
10
330
2
100
AcDbSymbolTableRecord
100
AcDbLayerTableRecord
  2
0
 70
     0
 62
     7
  6
CONTINUOUS
  0
LAYER
  5
3F9
330
2
100
AcDbSymbolTableRecord
100
AcDbLayerTableRecord
  2
AM_0
 70
     0
 62
     7
  6
CONTINUOUS
  0
LAYER
  5
BD6
330
2
100
AcDbSymbolTableRecord
100
AcDbLayerTableRecord
  2
AM_11
 70
     0
 62
     3
  6
AM_ISO09W050
  0
LAYER
  5
BD7
330
2
100
AcDbSymbolTableRecord
100
AcDbLayerTableRecord
  2
AM_7
 70
     0
 62
     4
  6
AM_ISO08W050
  0
LAYER
  5
BD8
330
2
100
AcDbSymbolTableRecord
100
AcDbLayerTableRecord
  2
AM_5
 70
     0
 62
     3
  6
CONTINUOUS
  0
LAYER
  5
BD9
330
2
100
AcDbSymbolTableRecord
100
AcDbLayerTableRecord
  2
DEFPOINTS
 70
     0
 62
     7
  6
CONTINUOUS
  0
LAYER
  5
BDA
330
2
100
AcDbSymbolTableRecord
100
AcDbLayerTableRecord
  2
AM_6
 70
     0
 62
     2
  6
CONTINUOUS
  0
ENDTAB
  0
TABLE
  2
STYLE
  5
3
330
0
100
AcDbSymbolTable
 70
     5
  0
STYLE
  5
11
330
3
100
AcDbSymbolTableRecord
100
AcDbTextStyleTableRecord
  2
STANDARD
 70
     0
 40
0.0
 41
1.0
 50
0.0
 71
     0
 42
2.5
  3
simplex.shx
  4
EXTFONT.SHX
  0
STYLE
  5
52
330
3
100
AcDbSymbolTableRecord
100
AcDbTextStyleTableRecord
  2

 70
     1
 40
0.0
 41
1.0
 50
0.0
 71
     0
 42
2.5
  3
ltypeshp.shx
  4

  0
STYLE
  5
6B
330
3
100
AcDbSymbolTableRecord
100
AcDbTextStyleTableRecord
  2
ASAMI
 70
     0
 40
0.0
 41
1.0
 50
0.0
 71
     0
 42
2.5
  3
simplex.shx
  4
EXTFONT.SHX
  0
STYLE
  5
262
330
3
100
AcDbSymbolTableRecord
100
AcDbTextStyleTableRecord
  2
ACJISTS
 70
     0
 40
1.0
 41
1.0
 50
0.0
 71
     0
 42
2.5
  3
simplex.shx
  4
bigfont.shx
  0
STYLE
  5
269
330
3
100
AcDbSymbolTableRecord
100
AcDbTextStyleTableRecord
  2
ACJISGDT
 70
     0
 40
0.0
 41
1.0
 50
0.0
 71
     0
 42
2.5
  3
amgdtans.shx
  4

  0
ENDTAB
  0
TABLE
  2
VIEW
  5
6
330
0
100
AcDbSymbolTable
 70
     0
  0
ENDTAB
  0
TABLE
  2
UCS
  5
7
330
0
100
AcDbSymbolTable
 70
     0
  0
ENDTAB
  0
TABLE
  2
APPID
  5
9
330
0
100
AcDbSymbolTable
 70
    13
  0
APPID
  5
12
330
9
100
AcDbSymbolTableRecord
100
AcDbRegAppTableRecord
  2
ACAD
 70
     0
  0
APPID
  5
30
330
9
100
AcDbSymbolTableRecord
100
AcDbRegAppTableRecord
  2
MCAD_NO_VIS
 70
     0
  0
APPID
  5
31
330
9
100
AcDbSymbolTableRecord
100
AcDbRegAppTableRecord
  2
ACAD_TEMP_GRAPHIC
 70
     0
  0
APPID
  5
2C2
330
9
100
AcDbSymbolTableRecord
100
AcDbRegAppTableRecord
  2
GENIUS_GENDTOL_13
 70
     0
  0
APPID
  5
339
330
9
100
AcDbSymbolTableRecord
100
AcDbRegAppTableRecord
  2
GENIUS_GENODEF_13
 70
     0
  0
APPID
  5
33A
330
9
100
AcDbSymbolTableRecord
100
AcDbRegAppTableRecord
  2
GENIUS_GENOBJ-N-RSBK_13
 70
     0
  0
APPID
  5
33B
330
9
100
AcDbSymbolTableRecord
100
AcDbRegAppTableRecord
  2
GENIUS_GENOBJ-N-LIB_13
 70
     0
  0
APPID
  5
33C
330
9
100
AcDbSymbolTableRecord
100
AcDbRegAppTableRecord
  2
GENIUS_GENSCALE_13
 70
     0
  0
APPID
  5
378
330
9
100
AcDbSymbolTableRecord
100
AcDbRegAppTableRecord
  2
GENIUS_GENDIMSH_14
 70
     0
  0
APPID
  5
BDB
330
9
100
AcDbSymbolTableRecord
100
AcDbRegAppTableRecord
  2
GENIUS_GENOBJ-N-CEN_13
 70
     0
  0
APPID
  5
BDC
330
9
100
AcDbSymbolTableRecord
100
AcDbRegAppTableRecord
  2
GENIUS_GENFIL_13
 70
     0
  0
APPID
  5
BDD
330
9
100
AcDbSymbolTableRecord
100
AcDbRegAppTableRecord
  2
GENIUS_GENOBJ-N-FIL_13
 70
     0
  0
APPID
  5
12AD
330
9
100
AcDbSymbolTableRecord
100
AcDbRegAppTableRecord
  2
GENIUS_GENOREF_13
 70
     0
  0
ENDTAB
  0
TABLE
  2
DIMSTYLE
  5
A
330
0
100
AcDbSymbolTable
 70
     8
  0
DIMSTYLE
105
58
102
{ACAD_REACTORS
330
2495
330
29B7
330
29C1
330
2B4B
330
2B4C
330
2B9D
330
2BAA
102
}
330
A
100
AcDbSymbolTableRecord
100
AcDbDimStyleTableRecord
  2
AM_JIS
 70
     0
  3

  4
"
  5
OPEN30
  6

  7

 40
1.0
 41
2.5
 42
1.0
 43
12.0
 44
1.0
 45
0.0
 46
0.0
 47
0.1
 48
0.1
140
3.2
141
0.0
142
0.0
143
0.0393701
144
1.0
145
0.0
146
0.71
147
1.5
 71
     0
 72
     0
 73
     0
 74
     0
 75
     0
 76
     0
 77
     3
 78
     8
170
     0
171
     2
172
     1
173
     0
174
     0
175
     0
176
   256
177
   256
178
     2
270
     2
271
     3
272
     3
273
     2
274
     2
340
6B
275
     0
280
     0
281
     0
282
     0
283
     0
284
     0
285
     0
286
     0
287
     3
288
     0
  0
DIMSTYLE
105
5F
330
A
100
AcDbSymbolTableRecord
100
AcDbDimStyleTableRecord
  2
AM_JIS$3
 70
     0
  3

  4
"
  5
OPEN30
  6

  7

 40
1.0
 41
2.5
 42
1.0
 43
10.0
 44
1.0
 45
0.0
 46
0.0
 47
0.1
 48
0.1
140
3.2
141
0.0
142
0.0
143
0.0393701
144
1.0
145
0.0
146
0.71
147
1.5
 71
     0
 72
     0
 73
     0
 74
     1
 75
     0
 76
     0
 77
     3
 78
     8
170
     0
171
     2
172
     0
173
     0
174
     0
175
     0
176
   256
177
   256
178
     2
270
     2
271
     2
272
     3
273
     2
274
     2
340
6B
275
     0
280
     0
281
     0
282
     0
283
     0
284
     0
285
     0
286
     0
287
     0
288
     1
  0
DIMSTYLE
105
60
330
A
100
AcDbSymbolTableRecord
100
AcDbDimStyleTableRecord
  2
AM_JIS$4
 70
     0
  3

  4
"
  5
OPEN30
  6

  7

 40
1.0
 41
2.5
 42
1.0
 43
10.0
 44
1.0
 45
0.0
 46
0.0
 47
0.1
 48
0.1
140
3.2
141
0.0
142
0.0
143
0.0393701
144
1.0
145
0.0
146
0.71
147
1.5
 71
     0
 72
     0
 73
     0
 74
     1
 75
     0
 76
     0
 77
     3
 78
     8
170
     0
171
     2
172
     0
173
     0
174
     0
175
     0
176
   256
177
   256
178
     2
270
     2
271
     2
272
     3
273
     2
274
     2
340
6B
275
     0
280
     0
281
     0
282
     0
283
     0
284
     0
285
     0
286
     0
287
     0
288
     1
  0
DIMSTYLE
105
61
330
A
100
AcDbSymbolTableRecord
100
AcDbDimStyleTableRecord
  2
AM_JIS$6
 70
     0
  3

  4
"
  5
OPEN30
  6

  7

 40
1.0
 41
2.5
 42
1.0
 43
10.0
 44
1.0
 45
0.0
 46
0.0
 47
0.1
 48
0.1
140
3.2
141
0.0
142
0.0
143
0.0393701
144
1.0
145
0.0
146
0.71
147
1.5
 71
     0
 72
     0
 73
     0
 74
     0
 75
     0
 76
     0
 77
     0
 78
     8
170
     0
171
     2
172
     1
173
     0
174
     0
175
     0
176
   256
177
   256
178
     2
270
     2
271
     2
272
     2
273
     2
274
     2
340
6B
275
     0
280
     0
281
     0
282
     0
283
     0
284
     0
285
     0
286
     0
287
     3
288
     0
  0
DIMSTYLE
105
62
330
A
100
AcDbSymbolTableRecord
100
AcDbDimStyleTableRecord
  2
AM_JIS$7
 70
     0
  3

  4
"
  5
OPEN30
  6

  7

 40
1.0
 41
2.5
 42
1.0
 43
10.0
 44
1.0
 45
0.0
 46
0.0
 47
0.1
 48
0.1
140
3.2
141
0.0
142
0.0
143
0.0393701
144
1.0
145
0.0
146
0.71
147
1.5
 71
     0
 72
     0
 73
     0
 74
     0
 75
     0
 76
     0
 77
     3
 78
     8
170
     0
171
     2
172
     1
173
     0
174
     0
175
     0
176
   256
177
   256
178
     2
270
     2
271
     2
272
     3
273
     2
274
     2
340
6B
275
     0
280
     0
281
     0
282
     0
283
     0
284
     0
285
     0
286
     0
287
     3
288
     0
  0
DIMSTYLE
105
63
330
A
100
AcDbSymbolTableRecord
100
AcDbDimStyleTableRecord
  2
AM_JIS$SF
 70
     0
  3

  4
"
  5
OPEN30
  6

  7

 40
1.0
 41
2.5
 42
1.0
 43
10.0
 44
1.0
 45
0.0
 46
0.0
 47
0.1
 48
0.1
140
3.2
141
0.0
142
0.0
143
0.0393701
144
1.0
145
0.0
146
0.71
147
1.5
 71
     0
 72
     0
 73
     0
 74
     0
 75
     1
 76
     1
 77
     3
 78
     8
170
     0
171
     2
172
     1
173
     0
174
     0
175
     0
176
   256
177
   256
178
     2
270
     2
271
     2
272
     2
273
     2
274
     2
340
6B
275
     0
280
     0
281
     0
282
     0
283
     0
284
     0
285
     0
286
     0
287
     3
288
     0
  0
DIMSTYLE
105
68
330
A
100
AcDbSymbolTableRecord
100
AcDbDimStyleTableRecord
  2
AM_JIS$SH
 70
     0
  3

  4
"
  5

  6
GENAXEH
  7
OPEN30
 40
1.0
 41
2.5
 42
1.0
 43
10.0
 44
1.0
 45
0.0
 46
0.0
 47
0.1
 48
0.1
140
3.2
141
0.0
142
0.0
143
0.0393701
144
2.0
145
0.0
146
0.71
147
1.5
 71
     0
 72
     0
 73
     0
 74
     0
 75
     1
 76
     1
 77
     3
 78
     8
170
     0
171
     2
172
     1
173
     1
174
     0
175
     0
176
   256
177
   256
178
     2
270
     2
271
     2
272
     2
273
     2
274
     2
340
6B
275
     0
280
     0
281
     0
282
     0
283
     0
284
     0
285
     0
286
     0
287
     3
288
     0
  0
DIMSTYLE
105
B34
330
A
100
AcDbSymbolTableRecord
100
AcDbDimStyleTableRecord
  2
AM_JIS$2
 70
     0
  3

  4
"
  5
OPEN30
  6

  7

 40
1.0
 41
2.5
 42
1.0
 43
12.0
 44
1.0
 45
0.0
 46
0.0
 47
0.1
 48
0.1
140
3.2
141
0.0
142
0.0
143
0.0393701
144
1.0
145
0.0
146
0.71
147
1.5
 71
     0
 72
     0
 73
     0
 74
     0
 75
     0
 76
     0
 77
     3
 78
     8
170
     0
171
     2
172
     1
173
     0
174
     0
175
     0
176
   256
177
   256
178
     2
270
     2
271
     3
272
     3
273
     2
274
     2
340
6B
275
     0
280
     0
281
     0
282
     0
283
     0
284
     0
285
     0
286
     0
287
     3
288
     0
  0
ENDTAB
  0
TABLE
  2
BLOCK_RECORD
  5
1
330
0
100
AcDbSymbolTable
 70
    15
  0
BLOCK_RECORD
  5
1F
102
{ACAD_XDICTIONARY
360
74
102
}
330
1
100
AcDbSymbolTableRecord
100
AcDbBlockTableRecord
  2
*MODEL_SPACE
  0
BLOCK_RECORD
  5
101
102
{ACAD_XDICTIONARY
360
2C6F
102
}
330
1
100
AcDbSymbolTableRecord
100
AcDbBlockTableRecord
  2
*PAPER_SPACE
  0
BLOCK_RECORD
  5
59
330
1
100
AcDbSymbolTableRecord
100
AcDbBlockTableRecord
  2
_OPEN30
  0
BLOCK_RECORD
  5
64
330
1
100
AcDbSymbolTableRecord
100
AcDbBlockTableRecord
  2
GENAXEH
  0
BLOCK_RECORD
  5
2435
330
1
100
AcDbSymbolTableRecord
100
AcDbBlockTableRecord
  2
*D5
  0
BLOCK_RECORD
  5
2496
330
1
100
AcDbSymbolTableRecord
100
AcDbBlockTableRecord
  2
*D7
  0
BLOCK_RECORD
  5
26BA
330
1
100
AcDbSymbolTableRecord
100
AcDbBlockTableRecord
  2
*D8
  0
BLOCK_RECORD
  5
292A
330
1
100
AcDbSymbolTableRecord
100
AcDbBlockTableRecord
  2
*D9
  0
BLOCK_RECORD
  5
29C2
330
1
100
AcDbSymbolTableRecord
100
AcDbBlockTableRecord
  2
*D11
  0
BLOCK_RECORD
  5
2B9E
330
1
100
AcDbSymbolTableRecord
100
AcDbBlockTableRecord
  2
*D13
  0
BLOCK_RECORD
  5
2BAB
330
1
100
AcDbSymbolTableRecord
100
AcDbBlockTableRecord
  2
*D14
  0
ENDTAB
  0
ENDSEC
  0
SECTION
  2
BLOCKS
  0
BLOCK
  5
20
330
1F
100
AcDbEntity
  8
0
100
AcDbBlockBegin
  2
*MODEL_SPACE
 70
     0
 10
0.0
 20
0.0
 30
0.0
  3
*MODEL_SPACE
  1

  0
ENDBLK
  5
21
330
1F
100
AcDbEntity
  8
0
100
AcDbBlockEnd
  0
BLOCK
  5
103
330
101
100
AcDbEntity
 67
     1
  8
0
100
AcDbBlockBegin
  2
*PAPER_SPACE
 70
     0
 10
0.0
 20
0.0
 30
0.0
  3
*PAPER_SPACE
  1

  0
ENDBLK
  5
104
330
101
100
AcDbEntity
 67
     1
  8
0
100
AcDbBlockEnd
  0
BLOCK
  5
5D
330
59
100
AcDbEntity
  8
0
100
AcDbBlockBegin
  2
_OPEN30
 70
     0
 10
0.0
 20
0.0
 30
0.0
  3
_OPEN30
  1

  0
LINE
  5
5A
330
59
100
AcDbEntity
  8
0
 62
     0
100
AcDbLine
 10
-1.0
 20
0.26794919
 30
0.0
 11
0.0
 21
0.0
 31
0.0
  0
LINE
  5
5B
330
59
100
AcDbEntity
  8
0
 62
     0
100
AcDbLine
 10
0.0
 20
0.0
 30
0.0
 11
-1.0
 21
-0.26794919
 31
0.0
  0
LINE
  5
5C
330
59
100
AcDbEntity
  8
0
 62
     0
100
AcDbLine
 10
0.0
 20
0.0
 30
0.0
 11
-1.0
 21
0.0
 31
0.0
  0
ENDBLK
  5
5E
330
59
100
AcDbEntity
  8
0
100
AcDbBlockEnd
  0
BLOCK
  5
66
330
64
100
AcDbEntity
  8
0
100
AcDbBlockBegin
  2
GENAXEH
 70
     0
 10
0.0
 20
0.0
 30
0.0
  3
GENAXEH
  1

  0
LINE
  5
65
330
64
100
AcDbEntity
  8
0
100
AcDbLine
 10
-1.0
 20
0.0
 30
0.0
 11
1.0
 21
0.0
 31
0.0
  0
ENDBLK
  5
67
330
64
100
AcDbEntity
  8
0
100
AcDbBlockEnd
  0
BLOCK
  5
243F
330
2435
100
AcDbEntity
  8
0
100
AcDbBlockBegin
  2
*D5
 70
     1
 10
0.0
 20
0.0
 30
0.0
  3
*D5
  1

  0
LINE
  5
2AD0
330
2435
100
AcDbEntity
  8
AM_5
100
AcDbLine
 10
1.041431303817505
 20
15.35842065997503
 30
0.0
 11
21.04143130381751
 21
15.35842065997502
 31
0.0
  0
LINE
  5
2AD1
330
2435
100
AcDbEntity
  8
AM_5
100
AcDbLine
 10
1.041431303817025
 20
-14.64157934006236
 30
0.0
 11
21.04143130381751
 21
-14.64157934006236
 31
0.0
  0
LINE
  5
2AD2
330
2435
100
AcDbEntity
  8
AM_5
100
AcDbLine
 10
20.04143130381752
 20
12.85842065997502
 30
0.0
 11
20.04143130381751
 21
-12.14157934006236
 31
0.0
  0
INSERT
  5
2AD3
330
2435
100
AcDbEntity
  8
AM_5
100
AcDbBlockReference
  2
_OPEN30
 10
20.04143130381752
 20
15.35842065997502
 30
0.0
 41
2.5
 42
2.5
 43
2.5
 50
90.0
  0
INSERT
  5
2AD4
330
2435
100
AcDbEntity
  8
AM_5
100
AcDbBlockReference
  2
_OPEN30
 10
20.04143130381751
 20
-14.64157934006236
 30
0.0
 41
2.5
 42
2.5
 43
2.5
 50
270.0
  0
MTEXT
  5
2AD5
330
2435
100
AcDbEntity
  8
AM_5
 62
     2
100
AcDbMText
 10
16.94143130381751
 20
0.3584206599563338
 30
0.0
 40
3.2
 41
0.0
 71
     5
 72
     1
  1
%%c30
  7
ASAMI
 11
0.0000000000000001
 21
1.0
 31
0.0
1001
ACAD
1000
MTEXTBEGIN
1070
    73
1070
     1
1070
    44
1040
1.0
1070
    74
1070
     0
1000
MTEXTEND
  0
POINT
  5
2AD6
330
2435
100
AcDbEntity
  8
DEFPOINTS
 62
     0
100
AcDbPoint
 10
0.0414313038175052
 20
15.35842065997503
 30
0.0
  0
POINT
  5
2AD7
330
2435
100
AcDbEntity
  8
DEFPOINTS
 62
     0
100
AcDbPoint
 10
0.0414313038170256
 20
-14.64157934006236
 30
0.0
  0
POINT
  5
2AD8
330
2435
100
AcDbEntity
  8
DEFPOINTS
 62
     0
100
AcDbPoint
 10
20.04143130381751
 20
-14.64157934006236
 30
0.0
  0
ENDBLK
  5
2440
330
2435
100
AcDbEntity
  8
0
100
AcDbBlockEnd
  0
BLOCK
  5
24A0
330
2496
100
AcDbEntity
  8
0
100
AcDbBlockBegin
  2
*D7
 70
     1
 10
0.0
 20
0.0
 30
0.0
  3
*D7
  1

  0
LINE
  5
2C21
330
2496
100
AcDbEntity
  8
AM_5
100
AcDbLine
 10
-165.0
 20
-8.499999999999991
 30
0.0
 11
-165.0
 21
-41.64157934006452
 31
0.0
  0
LINE
  5
2C22
330
2496
100
AcDbEntity
  8
AM_5
100
AcDbLine
 10
-0.0000000000000521
 20
-16.60710296731593
 30
0.0
 11
-0.0000000000000536
 21
-41.64157934006452
 31
0.0
  0
LINE
  5
2C23
330
2496
100
AcDbEntity
  8
AM_5
100
AcDbLine
 10
-162.5
 20
-40.64157934006452
 30
0.0
 11
-2.500000000000053
 21
-40.64157934006452
 31
0.0
  0
INSERT
  5
2C24
330
2496
100
AcDbEntity
  8
AM_5
100
AcDbBlockReference
  2
_OPEN30
 10
-165.0
 20
-40.64157934006452
 30
0.0
 41
2.5
 42
2.5
 43
2.5
 50
180.0
  0
INSERT
  5
2C25
330
2496
100
AcDbEntity
  8
AM_5
100
AcDbBlockReference
  2
_OPEN30
 10
-0.0000000000000535
 20
-40.64157934006452
 30
0.0
 41
2.5
 42
2.5
 43
2.5
  0
MTEXT
  5
2C26
330
2496
100
AcDbEntity
  8
AM_5
 62
     2
100
AcDbMText
 10
-82.50000000000005
 20
-37.54157934006452
 30
0.0
 40
3.2
 41
0.0
 71
     5
 72
     1
  1
165
  7
ASAMI
1001
ACAD
1000
MTEXTBEGIN
1070
    73
1070
     1
1070
    44
1040
1.0
1070
    74
1070
     0
1000
MTEXTEND
  0
POINT
  5
2C27
330
2496
100
AcDbEntity
  8
DEFPOINTS
 62
     0
100
AcDbPoint
 10
-165.0
 20
-7.499999999999991
 30
0.0
  0
POINT
  5
2C28
330
2496
100
AcDbEntity
  8
DEFPOINTS
 62
     0
100
AcDbPoint
 10
-0.000000000000052
 20
-15.60710296731593
 30
0.0
  0
POINT
  5
2C29
330
2496
100
AcDbEntity
  8
DEFPOINTS
 62
     0
100
AcDbPoint
 10
-0.0000000000000535
 20
-40.64157934006452
 30
0.0
  0
ENDBLK
  5
24A1
330
2496
100
AcDbEntity
  8
0
100
AcDbBlockEnd
  0
BLOCK
  5
26C4
330
26BA
100
AcDbEntity
  8
0
100
AcDbBlockBegin
  2
*D8
 70
     1
 10
0.0
 20
0.0
 30
0.0
  3
*D8
  1

  0
LINE
  5
2AC7
330
26BA
100
AcDbEntity
  8
AM_5
100
AcDbLine
 10
-59.95797154388803
 20
-15.63165903185867
 30
0.0
 11
-59.95797154388803
 21
-35.64157934006561
 31
0.0
  0
LINE
  5
2AC8
330
26BA
100
AcDbEntity
  8
AM_5
100
AcDbLine
 10
0.0414313038175093
 20
-15.64157934006452
 30
0.0
 11
0.0414313038175081
 21
-35.64157934006561
 31
0.0
  0
LINE
  5
2AC9
330
26BA
100
AcDbEntity
  8
AM_5
100
AcDbLine
 10
-57.45797154388803
 20
-34.64157934006561
 30
0.0
 11
-2.458568696182491
 21
-34.64157934006561
 31
0.0
  0
INSERT
  5
2ACA
330
26BA
100
AcDbEntity
  8
AM_5
100
AcDbBlockReference
  2
_OPEN30
 10
-59.95797154388803
 20
-34.64157934006561
 30
0.0
 41
2.5
 42
2.5
 43
2.5
 50
180.0
  0
INSERT
  5
2ACB
330
26BA
100
AcDbEntity
  8
AM_5
100
AcDbBlockReference
  2
_OPEN30
 10
0.0414313038175081
 20
-34.64157934006561
 30
0.0
 41
2.5
 42
2.5
 43
2.5
  0
MTEXT
  5
2ACC
330
26BA
100
AcDbEntity
  8
AM_5
 62
     2
100
AcDbMText
 10
-29.95827012003526
 20
-31.54157934006561
 30
0.0
 40
3.2
 41
0.0
 71
     5
 72
     1
  1
59.999
  7
ASAMI
1001
ACAD
1000
MTEXTBEGIN
1070
    73
1070
     1
1070
    44
1040
1.0
1070
    74
1070
     0
1000
MTEXTEND
  0
POINT
  5
2ACD
330
26BA
100
AcDbEntity
  8
DEFPOINTS
 62
     0
100
AcDbPoint
 10
-59.95797154388803
 20
-14.63165903185867
 30
0.0
  0
POINT
  5
2ACE
330
26BA
100
AcDbEntity
  8
DEFPOINTS
 62
     0
100
AcDbPoint
 10
0.0414313038175094
 20
-14.64157934006452
 30
0.0
  0
POINT
  5
2ACF
330
26BA
100
AcDbEntity
  8
DEFPOINTS
 62
     0
100
AcDbPoint
 10
0.0414313038175081
 20
-34.64157934006561
 30
0.0
  0
ENDBLK
  5
26C5
330
26BA
100
AcDbEntity
  8
0
100
AcDbBlockEnd
  0
BLOCK
  5
2934
330
292A
100
AcDbEntity
  8
0
100
AcDbBlockBegin
  2
*D9
 70
     1
 10
0.0
 20
0.0
 30
0.0
  3
*D9
  1

  0
LINE
  5
2992
330
292A
100
AcDbEntity
  8
AM_5
100
AcDbLine
 10
-160.1
 20
-10.0
 30
0.0
 11
-175.0
 21
-9.999999999999994
 31
0.0
  0
LINE
  5
2993
330
292A
100
AcDbEntity
  8
AM_5
100
AcDbLine
 10
-160.1
 20
9.999999999999998
 30
0.0
 11
-175.0
 21
10.0
 31
0.0
  0
LINE
  5
2994
330
292A
100
AcDbEntity
  8
AM_5
100
AcDbLine
 10
-174.0
 20
-7.499999999999994
 30
0.0
 11
-174.0
 21
7.500000000000003
 31
0.0
  0
INSERT
  5
2995
330
292A
100
AcDbEntity
  8
AM_5
100
AcDbBlockReference
  2
_OPEN30
 10
-174.0
 20
-9.999999999999994
 30
0.0
 41
2.5
 42
2.5
 43
2.5
 50
270.0
  0
INSERT
  5
2996
330
292A
100
AcDbEntity
  8
AM_5
100
AcDbBlockReference
  2
_OPEN30
 10
-174.0
 20
10.0
 30
0.0
 41
2.5
 42
2.5
 43
2.5
 50
90.0
  0
MTEXT
  5
2997
330
292A
100
AcDbEntity
  8
AM_5
 62
     2
100
AcDbMText
 10
-177.1
 20
-0.0000000000000185
 30
0.0
 40
3.2
 41
0.0
 71
     5
 72
     1
  1
%%c20
  7
ASAMI
 11
0.0000000000000001
 21
1.0
 31
0.0
1001
ACAD
1000
MTEXTBEGIN
1070
    73
1070
     1
1070
    44
1040
1.0
1070
    74
1070
     0
1000
MTEXTEND
  0
POINT
  5
2998
330
292A
100
AcDbEntity
  8
DEFPOINTS
 62
     0
100
AcDbPoint
 10
-159.1
 20
-10.0
 30
0.0
  0
POINT
  5
2999
330
292A
100
AcDbEntity
  8
DEFPOINTS
 62
     0
100
AcDbPoint
 10
-159.1
 20
9.999999999999998
 30
0.0
  0
POINT
  5
299A
330
292A
100
AcDbEntity
  8
DEFPOINTS
 62
     0
100
AcDbPoint
 10
-174.0
 20
10.0
 30
0.0
  0
ENDBLK
  5
2935
330
292A
100
AcDbEntity
  8
0
100
AcDbBlockEnd
  0
BLOCK
  5
29CC
330
29C2
100
AcDbEntity
  8
0
100
AcDbBlockBegin
  2
*D11
 70
     1
 10
0.0
 20
0.0
 30
0.0
  3
*D11
  1

  0
LINE
  5
2BF3
330
29C2
100
AcDbEntity
  8
AM_5
100
AcDbLine
 10
-165.1
 20
-12.5
 30
0.0
 11
-185.0638971578377
 21
-12.49999999999999
 31
0.0
  0
LINE
  5
2BF4
330
29C2
100
AcDbEntity
  8
AM_5
100
AcDbLine
 10
-165.1
 20
12.5
 30
0.0
 11
-185.0638971578377
 21
12.5
 31
0.0
  0
LINE
  5
2BF5
330
29C2
100
AcDbEntity
  8
AM_5
100
AcDbLine
 10
-184.0638971578377
 20
-9.999999999999994
 30
0.0
 11
-184.0638971578377
 21
10.0
 31
0.0
  0
INSERT
  5
2BF6
330
29C2
100
AcDbEntity
  8
AM_5
100
AcDbBlockReference
  2
_OPEN30
 10
-184.0638971578377
 20
-12.49999999999999
 30
0.0
 41
2.5
 42
2.5
 43
2.5
 50
270.0
  0
INSERT
  5
2BF7
330
29C2
100
AcDbEntity
  8
AM_5
100
AcDbBlockReference
  2
_OPEN30
 10
-184.0638971578377
 20
12.5
 30
0.0
 41
2.5
 42
2.5
 43
2.5
 50
90.0
  0
MTEXT
  5
2BF8
330
29C2
100
AcDbEntity
  8
AM_5
 62
     2
100
AcDbMText
 10
-187.1638971578377
 20
-0.0000000000000205
 30
0.0
 40
3.2
 41
0.0
 71
     5
 72
     1
  1
%%c25
  7
ASAMI
 11
0.0000000000000001
 21
1.0
 31
0.0
1001
ACAD
1000
MTEXTBEGIN
1070
    73
1070
     1
1070
    44
1040
1.0
1070
    74
1070
     0
1000
MTEXTEND
  0
POINT
  5
2BF9
330
29C2
100
AcDbEntity
  8
DEFPOINTS
 62
     0
100
AcDbPoint
 10
-164.1
 20
-12.5
 30
0.0
  0
POINT
  5
2BFA
330
29C2
100
AcDbEntity
  8
DEFPOINTS
 62
     0
100
AcDbPoint
 10
-164.1
 20
12.5
 30
0.0
  0
POINT
  5
2BFB
330
29C2
100
AcDbEntity
  8
DEFPOINTS
 62
     0
100
AcDbPoint
 10
-184.0638971578377
 20
12.5
 30
0.0
  0
ENDBLK
  5
29CD
330
29C2
100
AcDbEntity
  8
0
100
AcDbBlockEnd
  0
BLOCK
  5
2BA8
330
2B9E
100
AcDbEntity
  8
0
100
AcDbBlockBegin
  2
*D13
 70
     1
 10
0.0
 20
0.0
 30
0.0
  3
*D13
  1

  0
LINE
  5
2C18
330
2B9E
100
AcDbEntity
  8
AM_5
100
AcDbLine
 10
1.041431303817506
 20
16.38231537064004
 30
0.0
 11
20.11217668240108
 21
16.38231537064003
 31
0.0
  0
LINE
  5
2C19
330
2B9E
100
AcDbEntity
  8
AM_5
100
AcDbLine
 10
1.041431303816994
 20
-15.61768462939985
 30
0.0
 11
20.11217668240107
 21
-15.61768462939986
 31
0.0
  0
LINE
  5
2C1A
330
2B9E
100
AcDbEntity
  8
AM_5
100
AcDbLine
 10
19.11217668240108
 20
13.88231537064003
 30
0.0
 11
19.11217668240107
 21
-13.11768462939986
 31
0.0
  0
INSERT
  5
2C1B
330
2B9E
100
AcDbEntity
  8
AM_5
100
AcDbBlockReference
  2
_OPEN30
 10
19.11217668240108
 20
16.38231537064003
 30
0.0
 41
2.5
 42
2.5
 43
2.5
 50
90.0
  0
INSERT
  5
2C1C
330
2B9E
100
AcDbEntity
  8
AM_5
100
AcDbBlockReference
  2
_OPEN30
 10
19.11217668240107
 20
-15.61768462939986
 30
0.0
 41
2.5
 42
2.5
 43
2.5
 50
270.0
  0
MTEXT
  5
2C1D
330
2B9E
100
AcDbEntity
  8
AM_5
 62
     2
100
AcDbMText
 10
16.01217668240107
 20
0.3823153706200904
 30
0.0
 40
3.2
 41
0.0
 71
     5
 72
     1
  1
%%c32
  7
ASAMI
 11
0.0000000000000001
 21
1.0
 31
0.0
1001
ACAD
1000
MTEXTBEGIN
1070
    73
1070
     1
1070
    44
1040
1.0
1070
    74
1070
     0
1000
MTEXTEND
  0
POINT
  5
2C1E
330
2B9E
100
AcDbEntity
  8
DEFPOINTS
 62
     0
100
AcDbPoint
 10
0.0414313038175062
 20
16.38231537064004
 30
0.0
  0
POINT
  5
2C1F
330
2B9E
100
AcDbEntity
  8
DEFPOINTS
 62
     0
100
AcDbPoint
 10
0.0414313038169946
 20
-15.61768462939985
 30
0.0
  0
POINT
  5
2C20
330
2B9E
100
AcDbEntity
  8
DEFPOINTS
 62
     0
100
AcDbPoint
 10
19.11217668240107
 20
-15.61768462939986
 30
0.0
  0
ENDBLK
  5
2BA9
330
2B9E
100
AcDbEntity
  8
0
100
AcDbBlockEnd
  0
BLOCK
  5
2BB5
330
2BAB
100
AcDbEntity
  8
0
100
AcDbBlockBegin
  2
*D14
 70
     1
 10
0.0
 20
0.0
 30
0.0
  3
*D14
  1

  0
LINE
  5
2C0F
330
2BAB
100
AcDbEntity
  8
AM_5
100
AcDbLine
 10
-63.95899840756361
 20
-16.60710296731592
 30
0.0
 11
-63.95899840756361
 21
-31.55101796273665
 31
0.0
  0
LINE
  5
2C10
330
2BAB
100
AcDbEntity
  8
AM_5
100
AcDbLine
 10
0.0414313038175106
 20
-16.61768462940217
 30
0.0
 11
0.0414313038175097
 21
-31.55101796273665
 31
0.0
  0
LINE
  5
2C11
330
2BAB
100
AcDbEntity
  8
AM_5
100
AcDbLine
 10
-61.45899840756361
 20
-30.55101796273666
 30
0.0
 11
-2.45856869618249
 21
-30.55101796273666
 31
0.0
  0
INSERT
  5
2C12
330
2BAB
100
AcDbEntity
  8
AM_5
100
AcDbBlockReference
  2
_OPEN30
 10
-63.95899840756361
 20
-30.55101796273666
 30
0.0
 41
2.5
 42
2.5
 43
2.5
 50
180.0
  0
INSERT
  5
2C13
330
2BAB
100
AcDbEntity
  8
AM_5
100
AcDbBlockReference
  2
_OPEN30
 10
0.0414313038175098
 20
-30.55101796273666
 30
0.0
 41
2.5
 42
2.5
 43
2.5
  0
MTEXT
  5
2C14
330
2BAB
100
AcDbEntity
  8
AM_5
 62
     2
100
AcDbMText
 10
-31.95878355187305
 20
-27.45101796273665
 30
0.0
 40
3.2
 41
0.0
 71
     5
 72
     1
  1
64
  7
ASAMI
1001
ACAD
1000
MTEXTBEGIN
1070
    73
1070
     1
1070
    44
1040
1.0
1070
    74
1070
     0
1000
MTEXTEND
  0
POINT
  5
2C15
330
2BAB
100
AcDbEntity
  8
DEFPOINTS
 62
     0
100
AcDbPoint
 10
-63.95899840756361
 20
-15.60710296731592
 30
0.0
  0
POINT
  5
2C16
330
2BAB
100
AcDbEntity
  8
DEFPOINTS
 62
     0
100
AcDbPoint
 10
0.0414313038175107
 20
-15.61768462940217
 30
0.0
  0
POINT
  5
2C17
330
2BAB
100
AcDbEntity
  8
DEFPOINTS
 62
     0
100
AcDbPoint
 10
0.0414313038175098
 20
-30.55101796273666
 30
0.0
  0
ENDBLK
  5
2BB6
330
2BAB
100
AcDbEntity
  8
0
100
AcDbBlockEnd
  0
ENDSEC
  0
SECTION
  2
ENTITIES
  0
TEXT
  5
C58
330
1F
100
AcDbEntity
  8
AM_6
100
AcDbText
 10
-106.6666666666667
 20
-63.14157934006461
 30
0.0
 40
5.0
  1
HHMR8320ZX
 50
0.0000000000002036
 72
     4
 11
-82.50000000000005
 21
-60.64157934006452
 31
0.0
100
AcDbText
  0
LINE
  5
2494
330
1F
100
AcDbEntity
  8
AM_7
100
AcDbLine
 10
-170.0638961578378
 20
-0.0000000000000036
 30
0.0
 11
3.920254096239677
 21
-0.0000000000000036
 31
0.0
1001
GENIUS_GENODEF_13
1002
{
1000
HIER
1070
     0
1002
}
1002
{
1000
MANEDIT
1070
     0
1002
}
1002
{
1000
NOSEL
1070
     0
1002
}
1002
{
1000
BEHIND
1070
     0
1002
}
1002
{
1000
REACTOR
1002
}
1001
GENIUS_GENOBJ-N-CEN_13
1002
{
1000
OWNER
1000
GEN
1002
}
  0
DIMENSION
  5
2495
330
1F
100
AcDbEntity
  8
AM_5
100
AcDbDimension
  2
*D7
 10
-0.0000000000000535
 20
-40.64157934006452
 30
0.0
 11
-82.50000000000005
 21
-37.54157934006452
 31
0.0
 70
    32
  1
<>
  3
AM_JIS
100
AcDbAlignedDimension
 13
-165.0
 23
-7.499999999999991
 33
0.0
 14
-0.000000000000052
 24
-15.60710296731593
 34
0.0
 50
0.0000000000003016
100
AcDbRotatedDimension
1001
GENIUS_GENDTOL_13
1000

1000
H7
1000

1040
0.0
  0
LINE
  5
29BB
330
1F
100
AcDbEntity
  8
AM_0
100
AcDbLine
 10
-164.1
 20
12.49999999999999
 30
0.0
 11
-63.95899840756365
 21
12.49999999999999
 31
0.0
1001
GENIUS_GENODEF_13
1002
{
1000
HIER
1070
     0
1002
}
1002
{
1000
MANEDIT
1070
     0
1002
}
1002
{
1000
NOSEL
1070
     0
1002
}
1002
{
1000
BEHIND
1070
     0
1002
}
1002
{
1000
REACTOR
1002
}
1001
GENIUS_GENOBJ-N-CEN_13
1002
{
1000
OWNER
1000
GEN
1002
}
  0
LINE
  5
29BC
330
1F
100
AcDbEntity
  8
AM_0
100
AcDbLine
 10
-164.1
 20
-12.49999999999998
 30
0.0
 11
-63.9580815231279
 21
-12.49999999999998
 31
0.0
1001
GENIUS_GENODEF_13
1002
{
1000
HIER
1070
     0
1002
}
1002
{
1000
MANEDIT
1070
     0
1002
}
1002
{
1000
NOSEL
1070
     0
1002
}
1002
{
1000
BEHIND
1070
     0
1002
}
1002
{
1000
REACTOR
1002
}
1001
GENIUS_GENOBJ-N-CEN_13
1002
{
1000
OWNER
1000
GEN
1002
}
  0
LINE
  5
29BD
330
1F
100
AcDbEntity
  8
AM_0
100
AcDbLine
 10
-165.0
 20
9.37500000000001
 30
0.0
 11
-164.1
 21
12.49999999999999
 31
0.0
1001
GENIUS_GENFIL_13
1070
     0
1040
0.5
1040
0.5
1040
0.4999999999999716
1040
45.0
1002
{
1002
}
  0
LINE
  5
29BE
330
1F
100
AcDbEntity
  8
AM_0
100
AcDbLine
 10
-165.0
 20
-9.374999999999987
 30
0.0
 11
-164.1
 21
-12.49999999999998
 31
0.0
1001
GENIUS_GENFIL_13
1070
     0
1040
0.5
1040
0.5
1040
0.4999999999999716
1040
45.00000000000036
1002
{
1002
}
  0
LINE
  5
29BF
330
1F
100
AcDbEntity
  8
0
100
AcDbLine
 10
-164.1
 20
-12.49999999999998
 30
0.0
 11
-164.1
 21
12.49999999999999
 31
0.0
  0
LINE
  5
29C0
330
1F
100
AcDbEntity
  8
AM_0
100
AcDbLine
 10
-165.0
 20
-9.374999999999987
 30
0.0
 11
-165.0
 21
9.37500000000001
 31
0.0
  0
DIMENSION
  5
29C1
330
1F
100
AcDbEntity
  8
AM_5
100
AcDbDimension
  2
*D11
 10
-184.0638971578377
 20
12.5
 30
0.0
 11
-184.0638971578377
 21
-0.0000000000000209
 31
0.0
 70
   160
  1
%%c<>
  3
AM_JIS
100
AcDbAlignedDimension
 13
-164.1
 23
-12.5
 33
0.0
 14
-164.1
 24
12.5
 34
0.0
 50
270.0
100
AcDbRotatedDimension
1001
ACAD
1000
DSTYLE
1002
{
1070
    48
1040
0.1
1070
    47
1040
0.1
1070
   274
1070
     2
1070
   272
1070
     3
1002
}
1001
GENIUS_GENDTOL_13
1000

1000
h6
1000

1040
0.0
  0
LINE
  5
29CE
330
1F
100
AcDbEntity
  8
AM_0
100
AcDbLine
 10
-148.2119804853895
 20
-12.50000000000028
 30
0.0
 11
-150.7661584680879
 21
-12.50000000000028
 31
0.0
  0
LINE
  5
29CF
330
1F
100
AcDbEntity
  8
AM_0
100
AcDbLine
 10
-148.8874235433654
 20
12.49999999999986
 30
0.0
 11
-150.7661584680879
 21
12.49999999999986
 31
0.0
  0
LINE
  5
2B4E
330
1F
100
AcDbEntity
  8
AM_0
100
AcDbLine
 10
-0.9804634860470681
 20
16.39289703268682
 30
0.0
 11
0.041431303817511
 21
16.22362313120652
 31
0.0
  0
SPLINE
  5
2B4F
330
1F
100
AcDbEntity
  8
AM_0
100
AcDbSpline
210
0.0
220
0.0
230
1.0
 70
     8
 71
     3
 72
     8
 73
     4
 74
     0
 42
0.0000000001
 43
0.0000000001
 40
0.0
 40
0.0
 40
0.0
 40
0.0
 40
1.707928658540872
 40
1.707928658540872
 40
1.707928658540872
 40
1.707928658540872
 10
-0.9804634860315779
 20
16.39289703268409
 30
0.0
 10
-2.919711705614232
 20
16.39289703268409
 30
0.0
 10
-4.775388218959282
 20
16.12349632938735
 30
0.0
 10
-6.562829080384326
 20
15.63413203500791
 30
0.0
  0
SPLINE
  5
2B50
330
1F
100
AcDbEntity
  8
AM_0
100
AcDbSpline
210
0.0
220
0.0
230
1.0
 70
     8
 71
     3
 72
     8
 73
     4
 74
     0
 42
0.0000000001
 43
0.0000000001
 40
0.0
 40
0.0
 40
0.0
 40
0.0
 40
0.5596836519003795
 40
0.5596836519003795
 40
0.5596836519003795
 40
0.5596836519003795
 10
-0.9804634860315779
 20
16.39289703268409
 30
0.0
 10
-1.040722004046817
 20
15.79859109333888
 30
0.0
 10
-1.730124143724264
 20
15.01244688360716
 30
0.0
 10
-2.486960885956434
 20
14.42999150356886
 30
0.0
  0
LINE
  5
2B51
330
1F
100
AcDbEntity
  8
AM_0
100
AcDbLine
 10
-0.9804634860470681
 20
12.01551315884849
 30
0.0
 11
0.041431303817511
 21
12.01551315884849
 31
0.0
  0
LINE
  5
2B52
330
1F
100
AcDbEntity
  8
AM_0
100
AcDbLine
 10
0.041431303817511
 20
12.01551315884849
 30
0.0
 11
-0.4616766423509056
 21
13.53280336272223
 31
0.0
  0
LINE
  5
2B53
330
1F
100
AcDbEntity
  8
AM_0
100
AcDbLine
 10
0.041431303817511
 20
4.143907583551521
 30
0.0
 11
-0.2531962115659577
 21
3.110941887944356
 31
0.0
  0
LINE
  5
2B54
330
1F
100
AcDbEntity
  8
AM_0
100
AcDbLine
 10
-4.397686454835508
 20
8.603976111232302
 30
0.0
 11
-4.397686454835508
 21
10.33531322116145
 31
0.0
  0
SPLINE
  5
2B55
330
1F
100
AcDbEntity
  8
AM_0
100
AcDbSpline
210
0.0
220
0.0
230
1.0
 70
     8
 71
     3
 72
     8
 73
     4
 74
     0
 42
0.0000000001
 43
0.0000000001
 40
0.0
 40
0.0
 40
0.0
 40
0.0
 40
1.132300688333841
 40
1.132300688333841
 40
1.132300688333841
 40
1.132300688333841
 10
-0.9804634860470679
 20
12.01551315884849
 30
0.0
 10
-1.314026865868383
 20
10.84908442909253
 30
0.0
 10
-3.112028483758305
 20
10.33531322116145
 30
0.0
 10
-4.397686454835508
 20
10.33531322116145
 30
0.0
  0
LINE
  5
2B56
330
1F
100
AcDbEntity
  8
AM_0
100
AcDbLine
 10
-0.4187333170074092
 20
4.590527803037224
 30
0.0
 11
-4.397686454835508
 21
8.603976111232302
 31
0.0
  0
LINE
  5
2B57
330
1F
100
AcDbEntity
  8
AM_0
100
AcDbLine
 10
-4.397686454835508
 20
10.33531322116145
 30
0.0
 11
-1.610191122647812
 21
5.792314843168827
 31
0.0
  0
SPLINE
  5
2B58
330
1F
100
AcDbEntity
  8
AM_0
100
AcDbSpline
210
0.0
220
0.0
230
1.0
 70
     8
 71
     3
 72
     8
 73
     4
 74
     0
 42
0.0000000001
 43
0.0000000001
 40
0.0
 40
0.0
 40
0.0
 40
0.0
 40
3.208811545131809
 40
3.208811545131809
 40
3.208811545131809
 40
3.208811545131809
 10
-10.63186891424521
 20
16.03076436473607
 30
0.0
 10
-6.988460247989172
 20
16.03076436473607
 30
0.0
 10
-3.631534378998745
 20
15.08919712894935
 30
0.0
 10
-0.4616766423509055
 20
13.53280336272223
 30
0.0
  0
LINE
  5
2B59
330
1F
100
AcDbEntity
  8
AM_0
100
AcDbLine
 10
0.041431303817511
 20
4.143907583551156
 30
0.0
 11
0.041431303817511
 21
16.22362313120652
 31
0.0
  0
SPLINE
  5
2B5A
330
1F
100
AcDbEntity
  8
AM_0
100
AcDbSpline
210
0.0
220
0.0
230
1.0
 70
     8
 71
     3
 72
     8
 73
     4
 74
     0
 42
0.0000000001
 43
0.0000000001
 40
0.0
 40
0.0
 40
0.0
 40
0.0
 40
1.707928658540872
 40
1.707928658540872
 40
1.707928658540872
 40
1.707928658540872
 10
-14.35025365342997
 20
16.3928970326841
 30
0.0
 10
-16.28950187301263
 20
16.3928970326841
 30
0.0
 10
-18.14517838635767
 20
16.12349632938736
 30
0.0
 10
-19.93261924778272
 20
15.63413203500791
 30
0.0
  0
SPLINE
  5
2B5B
330
1F
100
AcDbEntity
  8
AM_0
100
AcDbSpline
210
0.0
220
0.0
230
1.0
 70
     8
 71
     3
 72
     8
 73
     4
 74
     0
 42
0.0000000001
 43
0.0000000001
 40
0.0
 40
0.0
 40
0.0
 40
0.0
 40
8.106327806688073
 40
8.106327806688073
 40
8.106327806688073
 40
8.106327806688073
 10
-24.00165908164517
 20
16.03076436473588
 30
0.0
 10
-14.79742113653796
 20
16.03076436473588
 30
0.0
 10
-7.421529458072607
 20
10.02163936046713
 30
0.0
 10
-0.2711435584360529
 20
3.271356929464347
 30
0.0
  0
SPLINE
  5
2B5C
330
1F
100
AcDbEntity
  8
AM_0
100
AcDbSpline
210
0.0
220
0.0
230
1.0
 70
     8
 71
     3
 72
     8
 73
     4
 74
     0
 42
0.0000000001
 43
0.0000000001
 40
0.0
 40
0.0
 40
0.0
 40
0.0
 40
4.323648603744882
 40
4.323648603744882
 40
4.323648603744882
 40
4.323648603744882
 10
-14.35025365346172
 20
16.3928970326841
 30
0.0
 10
-9.441015896376795
 20
16.39289703268409
 30
0.0
 10
-5.067353510762608
 20
14.66642298738047
 30
0.0
 10
-0.9804634860470679
 20
12.01551315884849
 30
0.0
  0
LINE
  5
2B5D
330
1F
100
AcDbEntity
  8
AM_0
100
AcDbLine
 10
0.041431303817511
 20
0.3823153706402433
 30
0.0
 11
-0.2531962115659577
 21
-2.251092533879786
 31
0.0
  0
LINE
  5
2B5E
330
1F
100
AcDbEntity
  8
AM_0
100
AcDbLine
 10
0.041431303817511
 20
-3.284058229487131
 30
0.0
 11
-1.017889020736896
 21
0.4299246770322852
 31
0.0
  0
LINE
  5
2B5F
330
1F
100
AcDbEntity
  8
AM_0
100
AcDbLine
 10
0.041431303817511
 20
-3.284058229487131
 30
0.0
 11
-0.4187333170074092
 21
-6.681152978282595
 31
0.0
  0
LINE
  5
2B60
330
1F
100
AcDbEntity
  8
AM_0
100
AcDbLine
 10
-4.546775841731221
 20
-1.527102967314896
 30
0.0
 11
-4.546775841731221
 21
0.3928970326840854
 31
0.0
  0
LINE
  5
2B61
330
1F
100
AcDbEntity
  8
AM_0
100
AcDbLine
 10
-4.582732100768729
 20
-10.08615978686572
 30
0.0
 11
-2.515257318155145
 21
-10.08615978686572
 31
0.0
  0
LINE
  5
2B62
330
1F
100
AcDbEntity
  8
AM_0
100
AcDbLine
 10
-4.582732100768729
 20
-10.79180375756802
 30
0.0
 11
-4.582732100768729
 21
-10.08615978686572
 31
0.0
  0
LINE
  5
2B63
330
1F
100
AcDbEntity
  8
AM_0
100
AcDbLine
 10
0.041431303817511
 20
0.3928970326840854
 30
0.0
 11
-4.546775841731221
 21
0.3928970326840854
 31
0.0
  0
LINE
  5
2B64
330
1F
100
AcDbEntity
  8
AM_0
100
AcDbLine
 10
-0.4187333170074092
 20
-6.681152978282595
 30
0.0
 11
-4.546775841731221
 21
-1.527102967314896
 31
0.0
  0
SPLINE
  5
2B65
330
1F
100
AcDbEntity
  8
AM_0
100
AcDbSpline
210
0.0
220
0.0
230
1.0
 70
     8
 71
     3
 72
     8
 73
     4
 74
     0
 42
0.0000000001
 43
0.0000000001
 40
5.407991289528681
 40
5.407991289528681
 40
5.407991289528681
 40
5.407991289528681
 40
9.246817942408341
 40
9.246817942408341
 40
9.246817942408341
 40
9.246817942408341
 10
-0.3483267623542412
 20
-8.785763509324144
 30
0.0
 10
-3.889654861372792
 20
-6.099180813161699
 30
0.0
 10
-7.260761887801261
 20
-2.853141890238805
 30
0.0
 10
-10.6318689142305
 20
0.3928970326840873
 30
0.0
  0
LINE
  5
2B66
330
1F
100
AcDbEntity
  8
AM_0
100
AcDbLine
 10
-0.9804634860486169
 20
-11.22971909347959
 30
0.0
 11
0.041431303817511
 21
-11.22971909347959
 31
0.0
  0
LINE
  5
2B67
330
1F
100
AcDbEntity
  8
AM_0
100
AcDbLine
 10
-0.4187333170074092
 20
-13.80895120408329
 30
0.0
 11
-0.2868857969220117
 21
-11.22971909347959
 31
0.0
  0
LINE
  5
2B68
330
1F
100
AcDbEntity
  8
AM_0
100
AcDbLine
 10
-0.9804634860315781
 20
-15.60710296731593
 30
0.0
 11
0.041431303817511
 21
-15.43782906583581
 31
0.0
  0
ELLIPSE
  5
2B69
330
1F
100
AcDbEntity
  8
AM_0
100
AcDbEllipse
 10
2.207586447018108
 20
-13.84836767027007
 30
0.0
 11
2.661824170802955
 21
0.0000000000000025
 31
0.0
210
0.0
220
0.0
230
1.0
 40
0.9394313480415592
 41
2.978080377989208
 42
3.761751825488836
  0
SPLINE
  5
2B6A
330
1F
100
AcDbEntity
  8
AM_0
100
AcDbSpline
210
0.0
220
0.0
230
1.0
 70
     8
 71
     3
 72
     8
 73
     4
 74
     0
 42
0.0000000001
 43
0.0000000001
 40
0.0
 40
0.0
 40
0.0
 40
0.0
 40
1.229985673975173
 40
1.229985673975173
 40
1.229985673975173
 40
1.229985673975173
 10
-10.63186891424521
 20
-15.2449702993679
 30
0.0
 10
-9.235295634418164
 20
-15.2449702993679
 30
0.0
 10
-7.880815388738979
 20
-15.10662544171134
 30
0.0
 10
-6.562829080384326
 20
-14.84833796963992
 30
0.0
  0
LINE
  5
2B6B
330
1F
100
AcDbEntity
  8
AM_0
100
AcDbLine
 10
0.041431303817511
 20
-15.30162873976003
 30
0.0
 11
0.041431303817511
 21
-3.284058229487131
 31
0.0
  0
LINE
  5
2B6C
330
1F
100
AcDbEntity
  8
AM_0
100
AcDbLine
 10
-0.4477786116883036
 20
-13.7907821643286
 30
0.0
 11
-4.582732100768729
 21
-10.79180375756802
 31
0.0
  0
ELLIPSE
  5
2B6D
330
1F
100
AcDbEntity
  8
AM_0
100
AcDbEllipse
 10
20.35596935778362
 20
-7.121150546407782
 30
0.0
 11
20.77998166028174
 21
0.0000000000006472
 31
0.0
210
0.0
220
0.0
230
1.0
 40
0.9394313480415638
 41
3.119051463232122
 42
3.353643463775208
  0
SPLINE
  5
2B6E
330
1F
100
AcDbEntity
  8
AM_0
100
AcDbSpline
210
0.0
220
0.0
230
1.0
 70
     8
 71
     3
 72
     8
 73
     4
 74
     0
 42
0.0000000001
 43
0.0000000001
 40
0.0
 40
0.0
 40
0.0
 40
0.0
 40
1.168827779827945
 40
1.168827779827945
 40
1.168827779827945
 40
1.168827779827945
 10
-27.7200438208609
 20
-15.60710296731593
 30
0.0
 10
-26.39291157813141
 20
-15.60710296731593
 30
0.0
 10
-25.10491933954012
 20
-15.48093174123531
 30
0.0
 10
-23.85115173711318
 20
-15.2444344075773
 30
0.0
  0
SPLINE
  5
2B6F
330
1F
100
AcDbEntity
  8
AM_0
100
AcDbSpline
210
0.0
220
0.0
230
1.0
 70
     8
 71
     3
 72
     8
 73
     4
 74
     0
 42
0.0000000001
 43
0.0000000001
 40
0.0
 40
0.0
 40
0.0
 40
0.0
 40
1.229985673975173
 40
1.229985673975173
 40
1.229985673975173
 40
1.229985673975173
 10
-24.00165908164362
 20
-15.2449702993679
 30
0.0
 10
-22.60508580181656
 20
-15.2449702993679
 30
0.0
 10
-21.25060555613815
 20
-15.10662544171134
 30
0.0
 10
-19.93261924778272
 20
-14.84833796963992
 30
0.0
  0
SPLINE
  5
2B70
330
1F
100
AcDbEntity
  8
AM_0
100
AcDbSpline
210
0.0
220
0.0
230
1.0
 70
     8
 71
     3
 72
     8
 73
     4
 74
     0
 42
0.0000000001
 43
0.0000000001
 40
0.0
 40
0.0
 40
0.0
 40
0.0
 40
9.307120929696711
 40
9.307120929696711
 40
9.307120929696711
 40
9.307120929696711
 10
-0.9804634860315779
 20
-15.60710296731593
 30
0.0
 10
-11.54812836014857
 20
-15.60710296731593
 30
0.0
 10
-19.63408609049699
 20
-7.60710296731592
 30
0.0
 10
-27.72004382084541
 20
0.392897032684089
 30
0.0
  0
SPLINE
  5
2B71
330
1F
100
AcDbEntity
  8
AM_0
100
AcDbSpline
210
0.0
220
0.0
230
1.0
 70
     8
 71
     3
 72
     8
 73
     4
 74
     0
 42
0.0000000001
 43
0.0000000001
 40
0.8586800831860527
 40
0.8586800831860527
 40
0.8586800831860527
 40
0.8586800831860527
 40
9.246817942408316
 40
9.246817942408316
 40
9.246817942408316
 40
9.246817942408316
 10
-0.1273743025830202
 20
-15.0489543959953
 30
0.0
 10
-9.269391629714345
 20
-13.7928031533105
 30
0.0
 10
-16.63552535567162
 20
-6.699953060313208
 30
0.0
 10
-24.0016590816289
 20
0.392897032684089
 30
0.0
  0
SPLINE
  5
2B72
330
1F
100
AcDbEntity
  8
AM_0
100
AcDbSpline
210
0.0
220
0.0
230
1.0
 70
     8
 71
     3
 72
     8
 73
     4
 74
     0
 42
0.0000000001
 43
0.0000000001
 40
0.0
 40
0.0
 40
0.0
 40
0.0
 40
1.168827779827945
 40
1.168827779827945
 40
1.168827779827945
 40
1.168827779827945
 10
-14.35025365346172
 20
-15.60710296731593
 30
0.0
 10
-13.02312141073223
 20
-15.60710296731593
 30
0.0
 10
-11.73512917214095
 20
-15.48093174123531
 30
0.0
 10
-10.48136156971479
 20
-15.2444344075773
 30
0.0
  0
SPLINE
  5
2B73
330
1F
100
AcDbEntity
  8
AM_0
100
AcDbSpline
210
0.0
220
0.0
230
1.0
 70
     8
 71
     3
 72
     8
 73
     4
 74
     0
 42
0.0000000001
 43
0.0000000001
 40
4.323648603745047
 40
4.323648603745047
 40
4.323648603745047
 40
4.323648603745047
 40
9.307120929696758
 40
9.307120929696758
 40
9.307120929696758
 40
9.307120929696758
 10
-0.9804634860470679
 20
-11.22971909347959
 30
0.0
 10
-5.691045960242163
 20
-8.174258999511556
 30
0.0
 10
-10.02064980684497
 20
-3.890680983413735
 30
0.0
 10
-14.35025365344701
 20
0.3928970326840873
 30
0.0
  0
LINE
  5
2B74
330
1F
100
AcDbEntity
  8
AM_11
100
AcDbLine
 10
0.0414313038174655
 20
16.39289703268409
 30
0.0
 11
0.041431303817511
 21
-15.60710296731593
 31
0.0
  0
LINE
  5
2B75
330
1F
100
AcDbEntity
  8
AM_0
100
AcDbLine
 10
0.041431303817511
 20
0.4775339834241442
 30
0.0
 11
-0.4187333170074092
 21
4.590527803037224
 31
0.0
  0
SPLINE
  5
2B76
330
1F
100
AcDbEntity
  8
AM_0
100
AcDbSpline
210
0.0
220
0.0
230
1.0
 70
     8
 71
     3
 72
     8
 73
     4
 74
     0
 42
0.0000000001
 43
0.0000000001
 40
0.0
 40
0.0
 40
0.0
 40
0.0
 40
9.307120929696711
 40
9.307120929696711
 40
9.307120929696711
 40
9.307120929696711
 10
-27.7200438208609
 20
16.3928970326841
 30
0.0
 10
-17.1523789467439
 20
16.39289703268409
 30
0.0
 10
-9.066421216395482
 20
8.392897032684093
 30
0.0
 10
-0.9804634860470679
 20
0.3928970326840855
 30
0.0
  0
SPLINE
  5
2B77
330
1F
100
AcDbEntity
  8
AM_0
100
AcDbSpline
210
0.0
220
0.0
230
1.0
 70
     8
 71
     3
 72
     8
 73
     4
 74
     0
 42
0.0000000001
 43
0.0000000001
 40
0.0
 40
0.0
 40
0.0
 40
0.0
 40
1.707928658540872
 40
1.707928658540872
 40
1.707928658540872
 40
1.707928658540872
 10
-41.08983398822677
 20
16.3928970326841
 30
0.0
 10
-43.02908220780941
 20
16.3928970326841
 30
0.0
 10
-44.88475872115446
 20
16.12349632938736
 30
0.0
 10
-46.67219958257951
 20
15.63413203500791
 30
0.0
  0
SPLINE
  5
2B78
330
1F
100
AcDbEntity
  8
AM_0
100
AcDbSpline
210
0.0
220
0.0
230
1.0
 70
     8
 71
     3
 72
     8
 73
     4
 74
     0
 42
0.0000000001
 43
0.0000000001
 40
0.0
 40
0.0
 40
0.0
 40
0.0
 40
1.707928658540872
 40
1.707928658540872
 40
1.707928658540872
 40
1.707928658540872
 10
-54.45962415562517
 20
16.3928970326841
 30
0.0
 10
-56.39887237520781
 20
16.3928970326841
 30
0.0
 10
-58.25454888855287
 20
16.12349632938736
 30
0.0
 10
-60.04198974997791
 20
15.63413203500791
 30
0.0
  0
LINE
  5
2B79
330
1F
100
AcDbEntity
  8
AM_0
100
AcDbLine
 10
-63.96052223914523
 20
16.03022847291421
 30
0.0
 11
-63.96052223914523
 21
15.4411389000518
 31
0.0
  0
LINE
  5
2B7B
330
1F
100
AcDbEntity
  8
AM_0
100
AcDbLine
 10
-63.96052224248471
 20
11.63146592843856
 30
0.0
 11
-63.96052224248471
 21
9.192473238840058
 31
0.0
  0
SPLINE
  5
2B7D
330
1F
100
AcDbEntity
  8
AM_0
100
AcDbSpline
210
0.0
220
0.0
230
1.0
 70
     8
 71
     3
 72
     8
 73
     4
 74
     0
 42
0.0000000001
 43
0.0000000001
 40
0.0
 40
0.0
 40
0.0
 40
0.0
 40
1.229985673975173
 40
1.229985673975173
 40
1.229985673975173
 40
1.229985673975173
 10
-37.37144924904202
 20
-15.2449702993679
 30
0.0
 10
-35.97487596921495
 20
-15.2449702993679
 30
0.0
 10
-34.62039572353578
 20
-15.10662544171134
 30
0.0
 10
-33.30240941518112
 20
-14.84833796963992
 30
0.0
  0
SPLINE
  5
2B7E
330
1F
100
AcDbEntity
  8
AM_0
100
AcDbSpline
210
0.0
220
0.0
230
1.0
 70
     8
 71
     3
 72
     8
 73
     4
 74
     0
 42
0.0000000001
 43
0.0000000001
 40
0.0
 40
0.0
 40
0.0
 40
0.0
 40
1.168827779827945
 40
1.168827779827945
 40
1.168827779827945
 40
1.168827779827945
 10
-41.08983398825852
 20
-15.60710296731593
 30
0.0
 10
-39.76270174552903
 20
-15.60710296731593
 30
0.0
 10
-38.47470950693775
 20
-15.4809317412353
 30
0.0
 10
-37.2209419045116
 20
-15.24443440757729
 30
0.0
  0
SPLINE
  5
2B7F
330
1F
100
AcDbEntity
  8
AM_0
100
AcDbSpline
210
0.0
220
0.0
230
1.0
 70
     8
 71
     3
 72
     8
 73
     4
 74
     0
 42
0.0000000001
 43
0.0000000001
 40
0.0
 40
0.0
 40
0.0
 40
0.0
 40
1.229985673975173
 40
1.229985673975173
 40
1.229985673975173
 40
1.229985673975173
 10
-50.74123941644041
 20
-15.2449702993679
 30
0.0
 10
-49.34466613661336
 20
-15.2449702993679
 30
0.0
 10
-47.99018589093416
 20
-15.10662544171134
 30
0.0
 10
-46.67219958257951
 20
-14.84833796963992
 30
0.0
  0
LINE
  5
2B80
330
1F
100
AcDbEntity
  8
AM_0
100
AcDbLine
 10
-63.96052224248791
 20
-3.392777625592261
 30
0.0
 11
-63.9605222424847
 21
0.2479758993714757
 31
0.0
  0
LINE
  5
2B82
330
1F
100
AcDbEntity
  8
AM_0
100
AcDbLine
 10
-63.96052224248467
 20
-13.39437986305905
 30
0.0
 11
-63.96052224248468
 21
-11.03690341031997
 31
0.0
  0
LINE
  5
2B83
330
1F
100
AcDbEntity
  8
AM_0
100
AcDbLine
 10
-63.96052224248467
 20
-14.67650815877173
 30
0.0
 11
-63.95636505974192
 21
-15.2444043859974
 31
0.0
  0
SPLINE
  5
2B85
330
1F
100
AcDbEntity
  8
AM_0
100
AcDbSpline
210
0.0
220
0.0
230
1.0
 70
     8
 71
     3
 72
     8
 73
     4
 74
     0
 42
0.0000000001
 43
0.0000000001
 40
0.0442326531559687
 40
0.0442326531559687
 40
0.0442326531559687
 40
0.0442326531559687
 40
1.229985673975173
 40
1.229985673975173
 40
1.229985673975173
 40
1.229985673975173
 10
-63.96052224248467
 20
-15.24443440757472
 30
0.0
 10
-62.61708406483038
 20
-15.23486488744747
 30
0.0
 10
-61.3125787329211
 20
-15.09733692688682
 30
0.0
 10
-60.04198974997791
 20
-14.84833796963992
 30
0.0
  0
SPLINE
  5
2B86
330
1F
100
AcDbEntity
  8
AM_0
100
AcDbSpline
210
0.0
220
0.0
230
1.0
 70
     8
 71
     3
 72
     8
 73
     4
 74
     0
 42
0.0000000001
 43
0.0000000001
 40
0.0
 40
0.0
 40
0.0
 40
0.0
 40
2.990713289597238
 40
2.990713289597238
 40
2.990713289597238
 40
2.990713289597238
 10
-54.45962415562517
 20
-15.60710296731593
 30
0.0
 10
-57.85539563187068
 20
-15.60710296731593
 30
0.0
 10
-60.99491386039797
 20
-14.78104821428305
 30
0.0
 10
-63.96052224248467
 20
-13.39437986305906
 30
0.0
  0
SPLINE
  5
2B87
330
1F
100
AcDbEntity
  8
AM_0
100
AcDbSpline
210
0.0
220
0.0
230
1.0
 70
     8
 71
     3
 72
     8
 73
     4
 74
     0
 42
0.0000000001
 43
0.0000000001
 40
0.0
 40
0.0
 40
0.0
 40
0.0
 40
7.826559786514664
 40
7.826559786514664
 40
7.826559786514664
 40
7.826559786514664
 10
-41.08983398822677
 20
-15.60710296731593
 30
0.0
 10
-49.97641250868259
 20
-15.60710296731593
 30
0.0
 10
-57.10805362113865
 20
-9.949908765634882
 30
0.0
 10
-63.96052224248521
 20
-3.39277762559102
 30
0.0
  0
SPLINE
  5
2B88
330
1F
100
AcDbEntity
  8
AM_0
100
AcDbSpline
210
0.0
220
0.0
230
1.0
 70
     8
 71
     3
 72
     8
 73
     4
 74
     0
 42
0.0000000001
 43
0.0000000001
 40
0.0
 40
0.0
 40
0.0
 40
0.0
 40
9.246817942408453
 40
9.246817942408453
 40
9.246817942408453
 40
9.246817942408453
 10
-37.37144924900949
 20
-15.2449702993679
 30
0.0
 10
-47.87064378032293
 20
-15.2449702993679
 30
0.0
 10
-55.9908366820735
 20
-7.426036633341904
 30
0.0
 10
-64.11102958382409
 20
0.3928970326840926
 30
0.0
  0
SPLINE
  5
2B89
330
1F
100
AcDbEntity
  8
AM_0
100
AcDbSpline
210
0.0
220
0.0
230
1.0
 70
     8
 71
     3
 72
     8
 73
     4
 74
     0
 42
0.0000000001
 43
0.0000000001
 40
0.0
 40
0.0
 40
0.0
 40
0.0
 40
4.256158547993051
 40
4.256158547993051
 40
4.256158547993051
 40
4.256158547993051
 10
-50.74123941640865
 20
-15.2449702993679
 30
0.0
 10
-55.57384635533715
 20
-15.2449702993679
 30
0.0
 10
-59.90243567245075
 20
-13.58844333338892
 30
0.0
 10
-63.95899840756309
 20
-11.03786157836193
 30
0.0
  0
SPLINE
  5
2B8A
330
1F
100
AcDbEntity
  8
AM_0
100
AcDbSpline
210
0.0
220
0.0
230
1.0
 70
     8
 71
     3
 72
     8
 73
     4
 74
     0
 42
0.0000000001
 43
0.0000000001
 40
0.0
 40
0.0
 40
0.0
 40
0.0
 40
1.168827779827945
 40
1.168827779827945
 40
1.168827779827945
 40
1.168827779827945
 10
-54.45962415565692
 20
-15.60710296731593
 30
0.0
 10
-53.13249191292744
 20
-15.60710296731593
 30
0.0
 10
-51.84449967433614
 20
-15.4809317412353
 30
0.0
 10
-50.59073207190999
 20
-15.24443440757729
 30
0.0
  0
SPLINE
  5
2B8B
330
1F
100
AcDbEntity
  8
AM_0
100
AcDbSpline
210
0.0
220
0.0
230
1.0
 70
     8
 71
     3
 72
     8
 73
     4
 74
     0
 42
0.0000000001
 43
0.0000000001
 40
1.168827778841594
 40
1.168827778841594
 40
1.168827778841594
 40
1.168827778841594
 40
9.307120929696711
 40
9.307120929696711
 40
9.307120929696711
 40
9.307120929696711
 10
-63.96052224248473
 20
16.03022847354413
 30
0.0
 10
-55.23081161431681
 20
14.38354907183463
 30
0.0
 10
-48.1603228012803
 20
7.38822305225936
 30
0.0
 10
-41.08983398824381
 20
0.3928970326840908
 30
0.0
  0
SPLINE
  5
2B8C
330
1F
100
AcDbEntity
  8
AM_0
100
AcDbSpline
210
0.0
220
0.0
230
1.0
 70
     8
 71
     3
 72
     8
 73
     4
 74
     0
 42
0.0000000001
 43
0.0000000001
 40
0.0442326531568636
 40
0.0442326531568636
 40
0.0442326531568636
 40
0.0442326531568636
 40
9.246817942408423
 40
9.246817942408423
 40
9.246817942408423
 40
9.246817942408423
 10
-63.96052224248473
 20
16.0302284729427
 30
0.0
 10
-53.53414828970326
 20
15.95595978156795
 30
0.0
 10
-45.45279876936528
 20
8.174428407126024
 30
0.0
 10
-37.3714492490273
 20
0.392897032684089
 30
0.0
  0
LINE
  5
2B8D
330
1F
100
AcDbEntity
  8
AM_11
 48
0.4
100
AcDbLine
 10
-63.95899840756367
 20
16.39289703268409
 30
0.0
 11
-63.95899840756361
 21
-15.60710296731593
 31
0.0
  0
SPLINE
  5
2B8E
330
1F
100
AcDbEntity
  8
AM_0
100
AcDbSpline
210
0.0
220
0.0
230
1.0
 70
     8
 71
     3
 72
     8
 73
     4
 74
     0
 42
0.0000000001
 43
0.0000000001
 40
5.716542545378382
 40
5.716542545378382
 40
5.716542545378382
 40
5.716542545378382
 40
9.307120929696711
 40
9.307120929696711
 40
9.307120929696711
 40
9.307120929696711
 10
-63.96052224248535
 20
9.192473238839276
 30
0.0
 10
-60.69855996885654
 20
6.565509872148441
 30
0.0
 10
-57.57909206224936
 20
3.479203452416267
 30
0.0
 10
-54.45962415564219
 20
0.3928970326840926
 30
0.0
  0
SPLINE
  5
2B8F
330
1F
100
AcDbEntity
  8
AM_0
100
AcDbSpline
210
0.0
220
0.0
230
1.0
 70
     8
 71
     3
 72
     8
 73
     4
 74
     0
 42
0.0000000001
 43
0.0000000001
 40
4.362142396924809
 40
4.362142396924809
 40
4.362142396924809
 40
4.362142396924809
 40
9.246817942408423
 40
9.246817942408423
 40
9.246817942408423
 40
9.246817942408423
 10
-63.96052224248471
 20
11.63146592843856
 30
0.0
 10
-59.32030043802861
 20
8.653674806848323
 30
0.0
 10
-55.03076992722675
 20
4.523285919766206
 30
0.0
 10
-50.74123941642491
 20
0.3928970326840908
 30
0.0
  0
LINE
  5
2B92
330
1F
100
AcDbEntity
  8
AM_11
100
AcDbLine
 10
0.0414313038174655
 20
16.39289703268409
 30
0.0
 11
-63.96052224248473
 21
16.39289703268411
 31
0.0
  0
LINE
  5
2B93
330
1F
100
AcDbEntity
  8
AM_11
100
AcDbLine
 10
-63.96052224248467
 20
-15.60710296731592
 30
0.0
 11
0.041431303817511
 21
-15.60710296731593
 31
0.0
  0
SPLINE
  5
2B94
330
1F
100
AcDbEntity
  8
AM_0
100
AcDbSpline
210
0.0
220
0.0
230
1.0
 70
     8
 71
     3
 72
     8
 73
     4
 74
     0
 42
0.0000000001
 43
0.0000000001
 40
0.0
 40
0.0
 40
0.0
 40
0.0
 40
9.246817942408453
 40
9.246817942408453
 40
9.246817942408453
 40
9.246817942408453
 10
-24.00165908161108
 20
-15.2449702993679
 30
0.0
 10
-34.50085361292453
 20
-15.2449702993679
 30
0.0
 10
-42.62104651467512
 20
-7.426036633341904
 30
0.0
 10
-50.74123941642569
 20
0.3928970326840908
 30
0.0
  0
SPLINE
  5
2B95
330
1F
100
AcDbEntity
  8
AM_0
100
AcDbSpline
210
0.0
220
0.0
230
1.0
 70
     8
 71
     3
 72
     8
 73
     4
 74
     0
 42
0.0000000001
 43
0.0000000001
 40
0.0
 40
0.0
 40
0.0
 40
0.0
 40
9.307120929696711
 40
9.307120929696711
 40
9.307120929696711
 40
9.307120929696711
 10
-27.72004382082837
 20
-15.60710296731593
 30
0.0
 10
-38.28770869494537
 20
-15.60710296731593
 30
0.0
 10
-46.37366642529378
 20
-7.607102967315919
 30
0.0
 10
-54.45962415564219
 20
0.3928970326840926
 30
0.0
  0
SPLINE
  5
2B96
330
1F
100
AcDbEntity
  8
AM_0
100
AcDbSpline
210
0.0
220
0.0
230
1.0
 70
     8
 71
     3
 72
     8
 73
     4
 74
     0
 42
0.0000000001
 43
0.0000000001
 40
0.0
 40
0.0
 40
0.0
 40
0.0
 40
9.246817942408229
 40
9.246817942408229
 40
9.246817942408229
 40
9.246817942408229
 10
-50.74123941644274
 20
16.03076436473589
 30
0.0
 10
-40.24204488512955
 20
16.03076436473588
 30
0.0
 10
-32.12185198337921
 20
8.21183069870999
 30
0.0
 10
-24.0016590816289
 20
0.392897032684089
 30
0.0
  0
SPLINE
  5
2B97
330
1F
100
AcDbEntity
  8
AM_0
100
AcDbSpline
210
0.0
220
0.0
230
1.0
 70
     8
 71
     3
 72
     8
 73
     4
 74
     0
 42
0.0000000001
 43
0.0000000001
 40
0.0
 40
0.0
 40
0.0
 40
0.0
 40
9.307120929696711
 40
9.307120929696711
 40
9.307120929696711
 40
9.307120929696711
 10
-54.45962415565924
 20
16.3928970326841
 30
0.0
 10
-43.89195928154225
 20
16.3928970326841
 30
0.0
 10
-35.80600155119384
 20
8.392897032684093
 30
0.0
 10
-27.72004382084541
 20
0.392897032684089
 30
0.0
  0
SPLINE
  5
2B98
330
1F
100
AcDbEntity
  8
AM_0
100
AcDbSpline
210
0.0
220
0.0
230
1.0
 70
     8
 71
     3
 72
     8
 73
     4
 74
     0
 42
0.0000000001
 43
0.0000000001
 40
0.0
 40
0.0
 40
0.0
 40
0.0
 40
9.307120929696711
 40
9.307120929696711
 40
9.307120929696711
 40
9.307120929696711
 10
-41.08983398826086
 20
16.3928970326841
 30
0.0
 10
-30.52216911414385
 20
16.3928970326841
 30
0.0
 10
-22.43621138379543
 20
8.392897032684093
 30
0.0
 10
-14.35025365344701
 20
0.3928970326840873
 30
0.0
  0
SPLINE
  5
2B99
330
1F
100
AcDbEntity
  8
AM_0
100
AcDbSpline
210
0.0
220
0.0
230
1.0
 70
     8
 71
     3
 72
     8
 73
     4
 74
     0
 42
0.0000000001
 43
0.0000000001
 40
0.0
 40
0.0
 40
0.0
 40
0.0
 40
9.246817942408423
 40
9.246817942408423
 40
9.246817942408423
 40
9.246817942408423
 10
-37.37144924904434
 20
16.03076436473589
 30
0.0
 10
-26.87225471773093
 20
16.03076436473588
 30
0.0
 10
-18.75206181598032
 20
8.21183069870999
 30
0.0
 10
-10.63186891422972
 20
0.3928970326840873
 30
0.0
  0
SPLINE
  5
2B9A
330
1F
100
AcDbEntity
  8
AM_0
100
AcDbSpline
210
0.0
220
0.0
230
1.0
 70
     8
 71
     3
 72
     8
 73
     4
 74
     0
 42
0.0000000001
 43
0.0000000001
 40
0.0
 40
0.0
 40
0.0
 40
0.0
 40
9.307120929696711
 40
9.307120929696711
 40
9.307120929696711
 40
9.307120929696711
 10
-14.35025365342997
 20
-15.60710296731593
 30
0.0
 10
-24.91791852754697
 20
-15.60710296731593
 30
0.0
 10
-33.00387625789539
 20
-7.607102967315919
 30
0.0
 10
-41.08983398824381
 20
0.3928970326840908
 30
0.0
  0
SPLINE
  5
2B9B
330
1F
100
AcDbEntity
  8
AM_0
100
AcDbSpline
210
0.0
220
0.0
230
1.0
 70
     8
 71
     3
 72
     8
 73
     4
 74
     0
 42
0.0000000001
 43
0.0000000001
 40
0.0
 40
0.0
 40
0.0
 40
0.0
 40
9.246817942408453
 40
9.246817942408453
 40
9.246817942408453
 40
9.246817942408453
 10
-10.63186891421346
 20
-15.2449702993679
 30
0.0
 10
-21.13106344552691
 20
-15.2449702993679
 30
0.0
 10
-29.25125634727749
 20
-7.426036633341907
 30
0.0
 10
-37.37144924902807
 20
0.392897032684089
 30
0.0
  0
SPLINE
  5
2B9C
330
1F
100
AcDbEntity
  8
AM_0
100
AcDbSpline
210
0.0
220
0.0
230
1.0
 70
     8
 71
     3
 72
     8
 73
     4
 74
     0
 42
0.0000000001
 43
0.0000000001
 40
0.0
 40
0.0
 40
0.0
 40
0.0
 40
1.707928658540872
 40
1.707928658540872
 40
1.707928658540872
 40
1.707928658540872
 10
-27.72004382082837
 20
16.3928970326841
 30
0.0
 10
-29.65929204041103
 20
16.3928970326841
 30
0.0
 10
-31.51496855375607
 20
16.12349632938736
 30
0.0
 10
-33.30240941518112
 20
15.63413203500791
 30
0.0
  0
DIMENSION
  5
2B9D
330
1F
100
AcDbEntity
  8
AM_5
100
AcDbDimension
  2
*D13
 10
19.11217668240107
 20
-15.61768462939986
 30
0.0
 11
16.01217668240107
 21
0.3823153706200904
 31
0.0
 70
    32
  1
%%c<>
  3
AM_JIS
100
AcDbAlignedDimension
 13
0.0414313038175062
 23
16.38231537064004
 33
0.0
 14
0.0414313038169946
 24
-15.61768462939985
 34
0.0
 50
90.0
100
AcDbRotatedDimension
1001
GENIUS_GENDTOL_13
1000

1000
h7
1000

1040
0.0
  0
DIMENSION
  5
2BAA
330
1F
100
AcDbEntity
  8
AM_5
100
AcDbDimension
  2
*D14
 10
0.0414313038175098
 20
-30.55101796273666
 30
0.0
 11
-31.95878355187305
 21
-27.45101796273665
 31
0.0
 70
    32
  1
<>
  3
AM_JIS
100
AcDbAlignedDimension
 13
-63.95899840756361
 23
-15.60710296731592
 33
0.0
 14
0.0414313038175107
 24
-15.61768462940217
 34
0.0
 50
359.9999999999992
100
AcDbRotatedDimension
1001
GENIUS_GENDTOL_13
1000

1000
H7
1000

1040
0.0
  0
LINE
  5
2BC9
330
1F
100
AcDbEntity
  8
AM_0
100
AcDbLine
 10
-63.95636505974192
 20
-15.2444043859974
 30
0.0
 11
-63.95899840756363
 21
-11.0378615783628
 31
0.0
  0
LINE
  5
2C2B
330
1F
100
AcDbEntity
  8
AM_0
100
AcDbLine
 10
-63.96052223914523
 20
15.4411389000518
 30
0.0
 11
-63.95636505974192
 21
-15.2444043859974
 31
0.0
  0
VIEWPORT
  5
110
330
101
100
AcDbEntity
 67
     1
  8
0
100
AcDbViewport
 10
420.5
 20
297.0
 30
0.0
 40
948.9782706766916
 41
628.452
 68
     1
 69
     1
1001
ACAD
1000
MVIEW
1002
{
1070
    16
1010
0.0
1020
0.0
1030
0.0
1010
0.0
1020
0.0
1030
1.0
1040
0.0
1040
628.452
1040
420.5
1040
297.0
1040
50.0
1040
0.0
1040
0.0
1070
     0
1070
   100
1070
     1
1070
     1
1070
     0
1070
     0
1070
     0
1070
     0
1040
0.0
1040
0.0
1040
0.0
1040
10.0
1040
10.0
1040
10.0
1040
10.0
1070
     0
1002
{
1002
}
1002
}
  0
ENDSEC
  0
SECTION
  2
OBJECTS
  0
DICTIONARY
  5
C
330
0
100
AcDbDictionary
  3
ACAD_GROUP
350
D
  3
ACAD_LAYOUT
350
1A
  3
ACAD_MLINESTYLE
350
17
  3
ACAD_PLOTSETTINGS
350
19
  3
ACAD_PLOTSTYLENAME
350
E
  3
ACDBVARIABLEDICTIONARY
350
34
  3
ACMDICTIONARY
350
43
  3
AMG
350
2B
  3
AMGSNAPSETTINGS
350
6E
  3
DWGPROPS
350
2C3B
  3
ACDBHEADERROUNDTRIPXREC
350
2C47
  0
DICTIONARY
  5
74
330
1F
100
AcDbDictionary
280
     1
  3
ACAD_INDEX
360
2C3D
  3
ACAD_LAYOUTSELFREF
360
2C6A
  0
DICTIONARY
  5
2C6F
330
101
100
AcDbDictionary
280
     1
  3
ACAD_LAYOUTSELFREF
360
2C70
  0
DICTIONARY
  5
D
102
{ACAD_REACTORS
330
C
102
}
330
C
100
AcDbDictionary
  0
DICTIONARY
  5
1A
102
{ACAD_REACTORS
330
C
102
}
330
C
100
AcDbDictionary
  0
DICTIONARY
  5
17
102
{ACAD_REACTORS
330
C
102
}
330
C
100
AcDbDictionary
  3
STANDARD
350
18
  0
DICTIONARY
  5
19
102
{ACAD_REACTORS
330
C
102
}
330
C
100
AcDbDictionary
  0
ACDBDICTIONARYWDFLT
  5
E
102
{ACAD_REACTORS
330
C
102
}
330
C
100
AcDbDictionary
281
     1
  3
Normal
350
F
100
AcDbDictionaryWithDefault
340
F
  0
DICTIONARY
  5
34
102
{ACAD_REACTORS
330
C
102
}
330
C
100
AcDbDictionary
  3
INDEXCTL
350
35
  3
SORTENTS
350
B5E
  0
DICTIONARY
  5
43
102
{ACAD_REACTORS
330
C
102
}
330
C
100
AcDbDictionary
  3
ACMSTDDICTIONARY
350
260
  0
DICTIONARY
  5
2B
102
{ACAD_REACTORS
330
C
102
}
330
C
100
AcDbDictionary
  3
ACMGSETTINGS
350
2C
  0
DICTIONARY
  5
6E
102
{ACAD_REACTORS
330
C
102
}
330
C
100
AcDbDictionary
  0
XRECORD
  5
2C3B
102
{ACAD_REACTORS
330
C
102
}
330
C
100
AcDbXrecord
  1
DWGPROPS COOKIE
  2

  3

  4

  6

  7

  8

  9

300
AmdtFileType=82
301
=
302
=
303
=
304
=
305
=
306
=
307
=
308
=
309
=
 40
0.1803566203703704
 41
2452838.620506898
 42
2452840.700106921
  1

 90
        1
  0
DICTIONARY
  5
2C47
102
{ACAD_REACTORS
330
C
102
}
330
C
100
AcDbDictionary
  3
TSTACKALIGN
350
2C48
  3
TSTACKSIZE
350
2C49
  3
HYPERLINKBASE
350
2C4A
  3
STYLESHEET
350
2C4B
  3
LAYOUTDICT
350
2C4C
  3
PLOTSETDICT
350
2C4D
  3
PLOTSTYLNAMDICT
350
2C4E
  3
LWETCUNION
350
2C4F
  3
INSUNITS
350
2C50
  3
CEPSNTYPE
350
2C51
  3
FINGERPRINTGUID
350
2C52
  3
VERSIONGUID
350
2C53
  3
PSVPSCALE
350
2C54
  3
DIMSTYLEDATA
350
2C55
  3
PUCSORTHOREF
350
2C56
  3
PUCSORTHOVIEW
350
2C57
  3
PUCSBASE
350
2C58
  3
PUCSORGTOP
350
2C59
  3
PUCSORGBOTTOM
350
2C5A
  3
PUCSORGLEFT
350
2C5B
  3
PUCSORGRIGHT
350
2C5C
  3
PUCSORGFRONT
350
2C5D
  3
PUCSORGBACK
350
2C5E
  3
UCSORTHOREF
350
2C5F
  3
UCSORTHOVIEW
350
2C60
  3
UCSBASE
350
2C61
  3
UCSORGTOP
350
2C62
  3
UCSORGBOTTOM
350
2C63
  3
UCSORGLEFT
350
2C64
  3
UCSORGRIGHT
350
2C65
  3
UCSORGFRONT
350
2C66
  3
UCSORGBACK
350
2C67
  0
DICTIONARY
  5
2C3D
102
{ACAD_REACTORS
330
74
102
}
330
74
100
AcDbDictionary
  3
*A1
350
2C3E
  0
XRECORD
  5
2C6A
102
{ACAD_REACTORS
330
74
102
}
330
74
100
AcDbXrecord
340
1F
  0
XRECORD
  5
2C70
102
{ACAD_REACTORS
330
2C6F
102
}
330
2C6F
100
AcDbXrecord
340
101
  0
MLINESTYLE
  5
18
102
{ACAD_REACTORS
330
17
102
}
330
17
100
AcDbMlineStyle
  2
STANDARD
 70
     0
  3

 62
   256
 51
90.0
 52
90.0
 71
     2
 49
0.5
 62
   256
  6
BYLAYER
 49
-0.5
 62
   256
  6
BYLAYER
  0
ACDBPLACEHOLDER
  5
F
102
{ACAD_REACTORS
330
E
102
}
330
E
100
AcDbPlaceHolder
280
     0
  0
DICTIONARYVAR
  5
35
102
{ACAD_REACTORS
330
34
102
}
330
34
100
DictionaryVariables
280
     0
  1
1
  0
DICTIONARYVAR
  5
B5E
102
{ACAD_REACTORS
330
34
102
}
330
34
100
DictionaryVariables
280
     0
  1
96
  0
DICTIONARY
  5
260
102
{ACAD_REACTORS
330
43
102
}
330
43
100
AcDbDictionary
  0
DICTIONARY
  5
2C
102
{ACAD_REACTORS
330
2B
102
}
330
2B
100
AcDbDictionary
  3
DWGSETTINGS
350
2D
  0
XRECORD
  5
2C48
102
{ACAD_REACTORS
330
2C47
102
}
330
2C47
100
AcDbXrecord
 90
        1
  0
XRECORD
  5
2C49
102
{ACAD_REACTORS
330
2C47
102
}
330
2C47
100
AcDbXrecord
 90
       70
  0
XRECORD
  5
2C4A
102
{ACAD_REACTORS
330
2C47
102
}
330
2C47
100
AcDbXrecord
  1

  0
XRECORD
  5
2C4B
102
{ACAD_REACTORS
330
2C47
102
}
330
2C47
100
AcDbXrecord
  1
ACAD_M_9400.ctb
  0
XRECORD
  5
2C4C
102
{ACAD_REACTORS
330
2C47
102
}
330
2C47
100
AcDbXrecord
340
1A
  0
XRECORD
  5
2C4D
102
{ACAD_REACTORS
330
2C47
102
}
330
2C47
100
AcDbXrecord
340
19
  0
XRECORD
  5
2C4E
102
{ACAD_REACTORS
330
2C47
102
}
330
2C47
100
AcDbXrecord
340
E
  0
XRECORD
  5
2C4F
102
{ACAD_REACTORS
330
2C47
102
}
330
2C47
100
AcDbXrecord
 90
    10781
  0
XRECORD
  5
2C50
102
{ACAD_REACTORS
330
2C47
102
}
330
2C47
100
AcDbXrecord
 90
        4
  0
XRECORD
  5
2C51
102
{ACAD_REACTORS
330
2C47
102
}
330
2C47
100
AcDbXrecord
 90
        0
  0
XRECORD
  5
2C52
102
{ACAD_REACTORS
330
2C47
102
}
330
2C47
100
AcDbXrecord
  1
{AFB28963-8C59-40AE-9337-C84526B81ACE}
  0
XRECORD
  5
2C53
102
{ACAD_REACTORS
330
2C47
102
}
330
2C47
100
AcDbXrecord
  1
{199C7D50-304C-4B11-8DAC-8430292F7873}
  0
XRECORD
  5
2C54
102
{ACAD_REACTORS
330
2C47
102
}
330
2C47
100
AcDbXrecord
 40
0.0
  0
XRECORD
  5
2C55
102
{ACAD_REACTORS
330
2C47
102
}
330
2C47
100
AcDbXrecord
1000
DSTYLE
1002
{
1070
    79
 70
     2
1070
   341
340
59
1070
   342
340
59
1070
   371
 70
    -1
1070
   372
 70
    -1
1002
}
  0
XRECORD
  5
2C56
102
{ACAD_REACTORS
330
2C47
102
}
330
2C47
100
AcDbXrecord
340
0
  0
XRECORD
  5
2C57
102
{ACAD_REACTORS
330
2C47
102
}
330
2C47
100
AcDbXrecord
 70
     0
  0
XRECORD
  5
2C58
102
{ACAD_REACTORS
330
2C47
102
}
330
2C47
100
AcDbXrecord
340
0
  0
XRECORD
  5
2C59
102
{ACAD_REACTORS
330
2C47
102
}
330
2C47
100
AcDbXrecord
 10
0.0
 20
0.0
 30
0.0
  0
XRECORD
  5
2C5A
102
{ACAD_REACTORS
330
2C47
102
}
330
2C47
100
AcDbXrecord
 10
0.0
 20
0.0
 30
0.0
  0
XRECORD
  5
2C5B
102
{ACAD_REACTORS
330
2C47
102
}
330
2C47
100
AcDbXrecord
 10
0.0
 20
0.0
 30
0.0
  0
XRECORD
  5
2C5C
102
{ACAD_REACTORS
330
2C47
102
}
330
2C47
100
AcDbXrecord
 10
0.0
 20
0.0
 30
0.0
  0
XRECORD
  5
2C5D
102
{ACAD_REACTORS
330
2C47
102
}
330
2C47
100
AcDbXrecord
 10
0.0
 20
0.0
 30
0.0
  0
XRECORD
  5
2C5E
102
{ACAD_REACTORS
330
2C47
102
}
330
2C47
100
AcDbXrecord
 10
0.0
 20
0.0
 30
0.0
  0
XRECORD
  5
2C5F
102
{ACAD_REACTORS
330
2C47
102
}
330
2C47
100
AcDbXrecord
340
0
  0
XRECORD
  5
2C60
102
{ACAD_REACTORS
330
2C47
102
}
330
2C47
100
AcDbXrecord
 70
     0
  0
XRECORD
  5
2C61
102
{ACAD_REACTORS
330
2C47
102
}
330
2C47
100
AcDbXrecord
340
0
  0
XRECORD
  5
2C62
102
{ACAD_REACTORS
330
2C47
102
}
330
2C47
100
AcDbXrecord
 10
0.0
 20
0.0
 30
0.0
  0
XRECORD
  5
2C63
102
{ACAD_REACTORS
330
2C47
102
}
330
2C47
100
AcDbXrecord
 10
0.0
 20
0.0
 30
0.0
  0
XRECORD
  5
2C64
102
{ACAD_REACTORS
330
2C47
102
}
330
2C47
100
AcDbXrecord
 10
0.0
 20
0.0
 30
0.0
  0
XRECORD
  5
2C65
102
{ACAD_REACTORS
330
2C47
102
}
330
2C47
100
AcDbXrecord
 10
0.0
 20
0.0
 30
0.0
  0
XRECORD
  5
2C66
102
{ACAD_REACTORS
330
2C47
102
}
330
2C47
100
AcDbXrecord
 10
0.0
 20
0.0
 30
0.0
  0
XRECORD
  5
2C67
102
{ACAD_REACTORS
330
2C47
102
}
330
2C47
100
AcDbXrecord
 10
0.0
 20
0.0
 30
0.0
  0
LAYER_INDEX
  5
2C3E
102
{ACAD_REACTORS
330
2C3D
102
}
330
2C3D
100
AcDbIndex
 40
2453152.474697986
100
AcDbLayerIndex
  8
0
360
2C3F
 90
        1
  8
AM_0
360
2C40
 90
       78
  8
AM_11
360
2C41
 90
        4
  8
AM_7
360
2C42
 90
        1
  8
AM_5
360
2C43
 90
        4
  8
Defpoints
360
2C44
 90
        0
  8
AM_6
360
2C45
 90
        1
  0
XRECORD
  5
2D
102
{ACAD_REACTORS
330
2C
102
}
330
2C
100
AcDbXrecord
  1
VERSION
140
15.0
  1
PRODUCT
  2
AutoCAD Mechanical 2000
  0
IDBUFFER
  5
2C3F
330
0
100
AcDbIdBuffer
330
29BF
  0
IDBUFFER
  5
2C40
330
0
100
AcDbIdBuffer
330
2B78
330
2B79
330
2B7B
330
2B7D
330
2B7E
330
2B7F
330
2B80
330
2B82
330
2B83
330
2B85
330
2B86
330
2B87
330
2B88
330
2B89
330
2B8A
330
2B8B
330
2B8C
330
2B8E
330
2B8F
330
2B94
330
2B95
330
2B96
330
2B97
330
2B98
330
2B99
330
2B9A
330
2B9B
330
2B9C
330
2BC9
330
2C2B
330
29BB
330
29BC
330
29BD
330
29BE
330
29C0
330
29CE
330
29CF
330
2B4E
330
2B4F
330
2B50
330
2B51
330
2B52
330
2B53
330
2B54
330
2B55
330
2B56
330
2B57
330
2B58
330
2B59
330
2B5A
330
2B5B
330
2B5C
330
2B5D
330
2B5E
330
2B5F
330
2B60
330
2B61
330
2B62
330
2B63
330
2B64
330
2B65
330
2B66
330
2B67
330
2B68
330
2B69
330
2B6A
330
2B6B
330
2B6C
330
2B6D
330
2B6E
330
2B6F
330
2B70
330
2B71
330
2B72
330
2B73
330
2B75
330
2B76
330
2B77
  0
IDBUFFER
  5
2C41
330
0
100
AcDbIdBuffer
330
2B74
330
2B8D
330
2B92
330
2B93
  0
IDBUFFER
  5
2C42
330
0
100
AcDbIdBuffer
330
2494
  0
IDBUFFER
  5
2C43
330
0
100
AcDbIdBuffer
330
2495
330
29C1
330
2B9D
330
2BAA
  0
IDBUFFER
  5
2C44
330
0
100
AcDbIdBuffer
  0
IDBUFFER
  5
2C45
330
0
100
AcDbIdBuffer
330
C58
  0
ENDSEC
  0
EOF
