  0
SECTION
  2
HEADER
  9
$ACADVER
  1
AC1014
  9
$ACADMAINTVER
 70
     9
  9
$DWGCODEPAGE
  3
ANSI_932
  9
$INSBASE
 10
0.0
 20
0.0
 30
0.0
  9
$EXTMIN
 10
-50.850001
 20
-26.25000099999998
 30
-0.00000001
  9
$EXTMAX
 10
9.551050680252135
 20
3.499999999999997
 30
0.00000001
  9
$LIMMIN
 10
-55.3627995885628
 20
-34.31011377923141
  9
$LIMMAX
 10
17.85251095369306
 20
18.99179033629555
  9
$ORTHOMODE
 70
     0
  9
$REGENMODE
 70
     1
  9
$FILLMODE
 70
     1
  9
$QTEXTMODE
 70
     0
  9
$MIRRTEXT
 70
     0
  9
$DRAGMODE
 70
     2
  9
$LTSCALE
 40
1.0
  9
$OSMODE
 70
    55
  9
$ATTMODE
 70
     1
  9
$TEXTSIZE
 40
2.5
  9
$TRACEWID
 40
1.0
  9
$TEXTSTYLE
  7
STANDARD
  9
$CLAYER
  8
AM_0
  9
$CELTYPE
  6
BYLAYER
  9
$CECOLOR
 62
   256
  9
$CELTSCALE
 40
1.0
  9
$DELOBJ
 70
     1
  9
$DISPSILH
 70
     0
  9
$DIMSCALE
 40
0.5
  9
$DIMASZ
 40
2.5
  9
$DIMEXO
 40
1.0
  9
$DIMDLI
 40
12.0
  9
$DIMRND
 40
0.0
  9
$DIMDLE
 40
0.0
  9
$DIMEXE
 40
1.0
  9
$DIMTP
 40
0.1
  9
$DIMTM
 40
0.1
  9
$DIMTXT
 40
3.2
  9
$DIMCEN
 40
0.0
  9
$DIMTSZ
 40
0.0
  9
$DIMTOL
 70
     0
  9
$DIMLIM
 70
     0
  9
$DIMTIH
 70
     0
  9
$DIMTOH
 70
     0
  9
$DIMSE1
 70
     0
  9
$DIMSE2
 70
     0
  9
$DIMTAD
 70
     3
  9
$DIMZIN
 70
     8
  9
$DIMBLK
  1
OPEN30
  9
$DIMASO
 70
     1
  9
$DIMSHO
 70
     1
  9
$DIMPOST
  1

  9
$DIMAPOST
  1
"
  9
$DIMALT
 70
     0
  9
$DIMALTD
 70
     2
  9
$DIMALTF
 40
0.0393701
  9
$DIMLFAC
 40
1.0
  9
$DIMTOFL
 70
     1
  9
$DIMTVP
 40
0.0
  9
$DIMTIX
 70
     0
  9
$DIMSOXD
 70
     0
  9
$DIMSAH
 70
     0
  9
$DIMBLK1
  1

  9
$DIMBLK2
  1

  9
$DIMSTYLE
  2
AM_JIS
  9
$DIMCLRD
 70
   256
  9
$DIMCLRE
 70
   256
  9
$DIMCLRT
 70
     2
  9
$DIMTFAC
 40
0.71
  9
$DIMGAP
 40
1.5
  9
$DIMJUST
 70
     0
  9
$DIMSD1
 70
     0
  9
$DIMSD2
 70
     0
  9
$DIMTOLJ
 70
     0
  9
$DIMTZIN
 70
     0
  9
$DIMALTZ
 70
     0
  9
$DIMALTTZ
 70
     0
  9
$DIMFIT
 70
     3
  9
$DIMUPT
 70
     0
  9
$DIMUNIT
 70
     2
  9
$DIMDEC
 70
     3
  9
$DIMTDEC
 70
     3
  9
$DIMALTU
 70
     2
  9
$DIMALTTD
 70
     2
  9
$DIMTXSTY
  7
ASAMI
  9
$DIMAUNIT
 70
     0
  9
$LUNITS
 70
     2
  9
$LUPREC
 70
     2
  9
$SKETCHINC
 40
1.0
  9
$FILLETRAD
 40
2.5
  9
$AUNITS
 70
     0
  9
$AUPREC
 70
     0
  9
$MENU
  1
.
  9
$ELEVATION
 40
0.0
  9
$PELEVATION
 40
0.0
  9
$THICKNESS
 40
0.0
  9
$LIMCHECK
 70
     0
  9
$BLIPMODE
 70
     0
  9
$CHAMFERA
 40
0.25
  9
$CHAMFERB
 40
0.25
  9
$CHAMFERC
 40
20.0
  9
$CHAMFERD
 40
0.0
  9
$SKPOLY
 70
     0
  9
$TDCREATE
 40
2452838.430434386
  9
$TDUPDATE
 40
2453152.473655208
  9
$TDINDWG
 40
0.1346590856
  9
$TDUSRTIMER
 40
0.1346590856
  9
$USRTIMER
 70
     1
  9
$ANGBASE
 50
0.0
  9
$ANGDIR
 70
     0
  9
$PDMODE
 70
     0
  9
$PDSIZE
 40
0.0
  9
$PLINEWID
 40
0.0
  9
$COORDS
 70
     1
  9
$SPLFRAME
 70
     0
  9
$SPLINETYPE
 70
     6
  9
$SPLINESEGS
 70
     8
  9
$ATTDIA
 70
     1
  9
$ATTREQ
 70
     1
  9
$HANDLING
 70
 12289
  9
$HANDSEED
  5
3B2D
  9
$SURFTAB1
 70
     6
  9
$SURFTAB2
 70
     6
  9
$SURFTYPE
 70
     6
  9
$SURFU
 70
     6
  9
$SURFV
 70
     6
  9
$UCSNAME
  2

  9
$UCSORG
 10
0.0
 20
0.0
 30
0.0
  9
$UCSXDIR
 10
1.0
 20
0.0
 30
0.0
  9
$UCSYDIR
 10
0.0
 20
1.0
 30
0.0
  9
$PUCSNAME
  2

  9
$PUCSORG
 10
0.0
 20
0.0
 30
0.0
  9
$PUCSXDIR
 10
1.0
 20
0.0
 30
0.0
  9
$PUCSYDIR
 10
0.0
 20
1.0
 30
0.0
  9
$USERI1
 70
     0
  9
$USERI2
 70
     0
  9
$USERI3
 70
     0
  9
$USERI4
 70
     0
  9
$USERI5
 70
     0
  9
$USERR1
 40
0.0
  9
$USERR2
 40
0.0
  9
$USERR3
 40
0.0
  9
$USERR4
 40
0.0
  9
$USERR5
 40
0.0
  9
$WORLDVIEW
 70
     1
  9
$SHADEDGE
 70
     3
  9
$SHADEDIF
 70
    70
  9
$TILEMODE
 70
     1
  9
$MAXACTVP
 70
    64
  9
$PINSBASE
 10
0.0
 20
0.0
 30
0.0
  9
$PLIMCHECK
 70
     0
  9
$PEXTMIN
 10
1.000000000000000E+20
 20
1.000000000000000E+20
 30
1.000000000000000E+20
  9
$PEXTMAX
 10
-1.000000000000000E+20
 20
-1.000000000000000E+20
 30
-1.000000000000000E+20
  9
$PLIMMIN
 10
0.0
 20
0.0
  9
$PLIMMAX
 10
841.0
 20
594.0
  9
$UNITMODE
 70
     0
  9
$VISRETAIN
 70
     1
  9
$PLINEGEN
 70
     0
  9
$PSLTSCALE
 70
     0
  9
$TREEDEPTH
 70
  3020
  9
$PICKSTYLE
 70
     0
  9
$CMLSTYLE
  2
STANDARD
  9
$CMLJUST
 70
     0
  9
$CMLSCALE
 40
20.0
  9
$PROXYGRAPHICS
 70
     1
  9
$MEASUREMENT
 70
     1
  0
ENDSEC
  0
SECTION
  2
CLASSES
  0
CLASS
  1
ACDBDICTIONARYWDFLT
  2
AcDbDictionaryWithDefault
  3
AutoCAD 2000
 90
        0
280
     0
281
     0
  0
CLASS
  1
ACDBPLACEHOLDER
  2
AcDbPlaceHolder
  3
AutoCAD 2000
 90
        0
280
     0
281
     0
  0
CLASS
  1
LAYOUT
  2
AcDbLayout
  3
AutoCAD 2000
 90
        0
280
     0
281
     0
  0
CLASS
  1
AMGSETTINGSOBJ
  2
AmgSettingsObj
  3
"AcadM|Product Description: AutoCAD Mechanical 2000|Company: Autodesk"
 90
        0
280
     0
281
     0
  0
CLASS
  1
ACME_DOCUMENT
  2
AcMeDbDoc
  3
AcMeServices
 90
        0
280
     0
281
     0
  0
CLASS
  1
ACMESCOPE
  2
AcMeScope
  3
AcMeServices
 90
        0
280
     0
281
     0
  0
CLASS
  1
ACMECOMMANDHISTORY
  2
AcMeCommandHistory
  3
AcMeServices
 90
        0
280
     0
281
     0
  0
CLASS
  1
DICTIONARYVAR
  2
AcDbDictionaryVar
  3
AutoCAD 2000
 90
        0
280
     0
281
     0
  0
CLASS
  1
ACIMSYSVARMAN
  2
AcImSysVarManager
  3
AcMeServices
 90
        0
280
     0
281
     0
  0
CLASS
  1
ACIMREALSYSVAR
  2
AcImRealSysVar
  3
AcMeServices
 90
        0
280
     0
281
     0
  0
CLASS
  1
ACIMINTSYSVAR
  2
AcImIntSysVar
  3
AcMeServices
 90
        0
280
     0
281
     0
  0
CLASS
  1
ACMEDRAWINGMAN
  2
AcMeDrawingMan
  3
AcMeServices
 90
        0
280
     0
281
     0
  0
CLASS
  1
ACMEVIEW
  2
AcMeView
  3
AcMeServices
 90
        0
280
     0
281
     0
  0
CLASS
  1
ACDBENTITYCACHE
  2
AcMeEntityCache
  3
AcMeServices
 90
        0
280
     0
281
     0
  0
CLASS
  1
GSMANAGER
  2
AcMeGSManager
  3
AcMeServices
 90
        0
280
     0
281
     0
  0
CLASS
  1
AmdtInternalReactor
  2
AmdtInternalReactor
  3
AcMeServices
 90
        0
280
     0
281
     0
  0
CLASS
  1
ACMESTATEMGR
  2
AcMeStateMgr
  3
AcMeServices
 90
        0
280
     0
281
     0
  0
CLASS
  1
ACME_DATABASE
  2
AcMeDbDatabase
  3
AcMeServices
 90
        0
280
     0
281
     0
  0
CLASS
  1
ACRFINSADJUSTERMGR
  2
AcRfInsAdjusterMgr
  3
AcMeServices
 90
        0
280
     0
281
     0
  0
CLASS
  1
ACMDATADICTIONARY
  2
AcmDataDictionary
  3
"AcmSymBB|Product Description: AutoCAD Mechanical 2000|Company: Autodesk"
 90
        0
280
     0
281
     0
  0
CLASS
  1
ACMDATAENTRYBLOCK
  2
AcmDataEntryBlock
  3
"AcmSymBB|Product Description: AutoCAD Mechanical 2000|Company: Autodesk"
 90
        0
280
     0
281
     0
  0
CLASS
  1
AMGOBJPROPCFG
  2
AmgObjPropCfg
  3
"AmgLay|Product Description: AutoCAD Mechanical 2000|Company: Autodesk"
 90
        1
280
     0
281
     0
  0
CLASS
  1
ACAMGFILTERDAT
  2
AcAmgFilterDat
  3
"AcadM|Product Description: AutoCAD Mechanical 2000|Company: Autodesk"
 90
        0
280
     0
281
     0
  0
CLASS
  1
LAYER_INDEX
  2
AcDbLayerIndex
  3
AutoCAD 2000
 90
        0
280
     0
281
     0
  0
CLASS
  1
IDBUFFER
  2
AcDbIdBuffer
  3
AutoCAD 2000
 90
        0
280
     0
281
     0
  0
CLASS
  1
ACIMSTRSYSVAR
  2
AcImStrSysVar
  3
AcMeServices
 90
        0
280
     0
281
     0
  0
CLASS
  1
ACMSTANDARDJIS
  2
AcmStandardJIS
  3
"AcmSymBB|Product Description: AutoCAD Mechanical 2000|Company: Autodesk"
 90
        0
280
     0
281
     0
  0
CLASS
  1
ACMSURFSTANDARDJIS
  2
AcmSurfTextStdJIS
  3
"AcmSymBB|Product Description: AutoCAD Mechanical 2000|Company: Autodesk"
 90
        0
280
     0
281
     0
  0
CLASS
  1
ACMFCFSTANDARDJIS
  2
AcmFCFStdJIS
  3
"AcmSymBB|Product Description: AutoCAD Mechanical 2000|Company: Autodesk"
 90
        0
280
     0
281
     0
  0
CLASS
  1
ACMWELDSTANDARDJIS
  2
AcmWeldingStdJIS
  3
"AcmSymBB|Product Description: AutoCAD Mechanical 2000|Company: Autodesk"
 90
        0
280
     0
281
     0
  0
CLASS
  1
ACMIDSTANDARDJIS
  2
AcmIdStdJIS
  3
"AcmSymBB|Product Description: AutoCAD Mechanical 2000|Company: Autodesk"
 90
        0
280
     0
281
     0
  0
CLASS
  1
ACMDATUMSTANDARDJIS
  2
AcmDatumStdJIS
  3
"AcmSymBB|Product Description: AutoCAD Mechanical 2000|Company: Autodesk"
 90
        0
280
     0
281
     0
  0
CLASS
  1
ACMBOMSTANDARDJIS
  2
AcmBOMStdJIS
  3
"AcmSymBB|Product Description: AutoCAD Mechanical 2000|Company: Autodesk"
 90
        0
280
     0
281
     0
  0
CLASS
  1
ACMSTANDARDANSI
  2
AcmStandardANSI
  3
"AcmSymBB|Product Description: AutoCAD Mechanical 2000|Company: Autodesk"
 90
        0
280
     0
281
     0
  0
CLASS
  1
ACMSURFSTANDARDANSI
  2
AcmSurfTextStdANSI
  3
"AcmSymBB|Product Description: AutoCAD Mechanical 2000|Company: Autodesk"
 90
        0
280
     0
281
     0
  0
CLASS
  1
ACMFCFSTANDARDANSI
  2
AcmFCFStdANSI
  3
"AcmSymBB|Product Description: AutoCAD Mechanical 2000|Company: Autodesk"
 90
        0
280
     0
281
     0
  0
CLASS
  1
ACMWELDSTANDARDANSI
  2
AcmWeldingStdANSI
  3
"AcmSymBB|Product Description: AutoCAD Mechanical 2000|Company: Autodesk"
 90
        0
280
     0
281
     0
  0
CLASS
  1
ACMIDSTANDARDANSI
  2
AcmIdStdANSI
  3
"AcmSymBB|Product Description: AutoCAD Mechanical 2000|Company: Autodesk"
 90
        0
280
     0
281
     0
  0
CLASS
  1
ACMDATUMSTANDARDANSI
  2
AcmDatumStdANSI
  3
"AcmSymBB|Product Description: AutoCAD Mechanical 2000|Company: Autodesk"
 90
        0
280
     0
281
     0
  0
CLASS
  1
ACMBOMSTANDARDANSI
  2
AcmBOMStdANSI
  3
"AcmSymBB|Product Description: AutoCAD Mechanical 2000|Company: Autodesk"
 90
        0
280
     0
281
     0
  0
CLASS
  1
ACMSTANDARDBSI
  2
AcmStandardBSI
  3
"AcmSymBB|Product Description: AutoCAD Mechanical 2000|Company: Autodesk"
 90
        0
280
     0
281
     0
  0
CLASS
  1
ACMSURFSTANDARDBSI
  2
AcmSurfTextStdBSI
  3
"AcmSymBB|Product Description: AutoCAD Mechanical 2000|Company: Autodesk"
 90
        0
280
     0
281
     0
  0
CLASS
  1
ACMFCFSTANDARDBSI
  2
AcmFCFStdBSI
  3
"AcmSymBB|Product Description: AutoCAD Mechanical 2000|Company: Autodesk"
 90
        0
280
     0
281
     0
  0
CLASS
  1
ACMWELDSTANDARDBSI
  2
AcmWeldingStdBSI
  3
"AcmSymBB|Product Description: AutoCAD Mechanical 2000|Company: Autodesk"
 90
        0
280
     0
281
     0
  0
CLASS
  1
ACMIDSTANDARDBSI
  2
AcmIdStdBSI
  3
"AcmSymBB|Product Description: AutoCAD Mechanical 2000|Company: Autodesk"
 90
        0
280
     0
281
     0
  0
CLASS
  1
ACMDATUMSTANDARDBSI
  2
AcmDatumStdBSI
  3
"AcmSymBB|Product Description: AutoCAD Mechanical 2000|Company: Autodesk"
 90
        0
280
     0
281
     0
  0
CLASS
  1
ACMBOMSTANDARDBSI
  2
AcmBOMStdBSI
  3
"AcmSymBB|Product Description: AutoCAD Mechanical 2000|Company: Autodesk"
 90
        0
280
     0
281
     0
  0
CLASS
  1
LONG_TRANSACTION
  2
AcDbLongTransaction
  3
AutoCAD 2000
 90
        0
280
     0
281
     0
  0
CLASS
  1
LWPOLYLINE
  2
AcDbPolyline
  3
AutoCAD 2000
 90
        0
280
     0
281
     1
  0
CLASS
  1
HATCH
  2
AcDbHatch
  3
AutoCAD 2000
 90
        0
280
     0
281
     1
  0
CLASS
  1
XRECORD
  2
AcDbXrecord
  3
AutoCAD 2000
 90
        0
280
     0
281
     0
  0
ENDSEC
  0
SECTION
  2
TABLES
  0
TABLE
  2
VPORT
  5
8
330
0
100
AcDbSymbolTable
 70
     3
  0
VPORT
  5
3B02
330
8
100
AcDbSymbolTableRecord
100
AcDbViewportTableRecord
  2
*ACTIVE
 70
     0
 10
0.0
 20
0.0
 11
1.0
 21
1.0
 12
-20.38793313272637
 22
-3.770797980115492
 13
0.0
 23
0.0
 14
2.5
 24
2.5
 15
10.0
 25
10.0
 16
0.0
 26
0.0
 36
1.0
 17
0.0
 27
0.0
 37
0.0
 40
59.94065333045536
 41
1.56570841889117
 42
50.0
 43
0.0
 44
0.0
 50
0.0
 51
0.0
 71
     0
 72
   100
 73
     1
 74
     3
 75
     0
 76
     0
 77
     0
 78
     0
  0
ENDTAB
  0
TABLE
  2
LTYPE
  5
5
330
0
100
AcDbSymbolTable
 70
    10
  0
LTYPE
  5
14
330
5
100
AcDbSymbolTableRecord
100
AcDbLinetypeTableRecord
  2
BYBLOCK
 70
     0
  3

 72
    65
 73
     0
 40
0.0
  0
LTYPE
  5
15
330
5
100
AcDbSymbolTableRecord
100
AcDbLinetypeTableRecord
  2
BYLAYER
 70
     0
  3

 72
    65
 73
     0
 40
0.0
  0
LTYPE
  5
16
330
5
100
AcDbSymbolTableRecord
100
AcDbLinetypeTableRecord
  2
CONTINUOUS
 70
     0
  3
Solid line
 72
    65
 73
     0
 40
0.0
  0
LTYPE
  5
4B
330
5
100
AcDbSymbolTableRecord
100
AcDbLinetypeTableRecord
  2
AM_ISO02W050
 70
     0
  3
__ __ __ __ __ __ __ __ __ __ __ __ __ __ __
 72
    65
 73
     2
 40
7.5
 49
6.0
 74
     0
 49
-1.5
 74
     0
  0
LTYPE
  5
4C
330
5
100
AcDbSymbolTableRecord
100
AcDbLinetypeTableRecord
  2
AM_ISO08W050
 70
     0
  3
____ . ____ . ____ . ____ . ____ . ____ . ____
 72
    65
 73
     4
 40
18.0
 49
12.0
 74
     0
 49
-1.5
 74
     0
 49
3.0
 74
     0
 49
-1.5
 74
     0
  0
LTYPE
  5
4D
330
5
100
AcDbSymbolTableRecord
100
AcDbLinetypeTableRecord
  2
AM_ISO09W050
 70
     0
  3
_____ . . _____ . . _____ . . ____ .. ____
 72
    65
 73
     6
 40
22.5
 49
12.0
 74
     0
 49
-1.5
 74
     0
 49
3.0
 74
     0
 49
-1.5
 74
     0
 49
3.0
 74
     0
 49
-1.5
 74
     0
  0
LTYPE
  5
4E
330
5
100
AcDbSymbolTableRecord
100
AcDbLinetypeTableRecord
  2
AMCONSTR
 70
     0
  3
_______________________
 72
    65
 73
     2
 40
9999.0
 49
9999.0
 74
     0
 49
0.0
 74
     0
  0
LTYPE
  5
4F
330
5
100
AcDbSymbolTableRecord
100
AcDbLinetypeTableRecord
  2
AM_ISO02W050X2
 70
     0
  3
 _ _ _ _ _ _ _ _ _ _ _ _
 72
    65
 73
     2
 40
3.75
 49
3.0
 74
     0
 49
-0.75
 74
     0
  0
LTYPE
  5
50
330
5
100
AcDbSymbolTableRecord
100
AcDbLinetypeTableRecord
  2
AM_ISO08W050X2
 70
     0
  3
__ . __ . __ . __ . __ . __
 72
    65
 73
     4
 40
9.0
 49
6.0
 74
     0
 49
-0.75
 74
     0
 49
1.5
 74
     0
 49
-0.75
 74
     0
  0
LTYPE
  5
53
330
5
100
AcDbSymbolTableRecord
100
AcDbLinetypeTableRecord
  2
AMZIGZAG
 70
     0
  3
/\/-/\/-/\/-/\/-/\/-/\/
 72
    65
 73
     2
 40
11.00009999999999
 49
0.0001
 74
     4
 75
   135
340
52
 46
0.04
 50
0.0
 44
0.0
 45
0.0
 49
-11.0
 74
     0
  0
LTYPE
  5
166
330
5
100
AcDbSymbolTableRecord
100
AcDbLinetypeTableRecord
  2
ACJISTGL
 70
     0
  3
_ _ _ _ _
 72
    65
 73
     2
 40
3.0
 49
2.0
 74
     0
 49
-1.0
 74
     0
  0
LTYPE
  5
26A
330
5
100
AcDbSymbolTableRecord
100
AcDbLinetypeTableRecord
  2
ACJISTGB
 70
     0
  3
__ . . __ . .
 72
    65
 73
     6
 40
9.0
 49
4.0
 74
     0
 49
-1.0
 74
     0
 49
1.0
 74
     0
 49
-1.0
 74
     0
 49
1.0
 74
     0
 49
-1.0
 74
     0
  0
ENDTAB
  0
TABLE
  2
LAYER
  5
2
330
0
100
AcDbSymbolTable
 70
     7
  0
LAYER
  5
10
330
2
100
AcDbSymbolTableRecord
100
AcDbLayerTableRecord
  2
0
 70
     0
 62
     7
  6
CONTINUOUS
  0
LAYER
  5
3F9
330
2
100
AcDbSymbolTableRecord
100
AcDbLayerTableRecord
  2
AM_0
 70
     0
 62
     7
  6
CONTINUOUS
  0
LAYER
  5
BDD
330
2
100
AcDbSymbolTableRecord
100
AcDbLayerTableRecord
  2
AM_11
 70
     0
 62
     3
  6
AM_ISO09W050
  0
LAYER
  5
BDE
330
2
100
AcDbSymbolTableRecord
100
AcDbLayerTableRecord
  2
AM_7
 70
     0
 62
     4
  6
AM_ISO08W050
  0
LAYER
  5
BDF
330
2
100
AcDbSymbolTableRecord
100
AcDbLayerTableRecord
  2
AM_5
 70
     0
 62
     3
  6
CONTINUOUS
  0
LAYER
  5
BE0
330
2
100
AcDbSymbolTableRecord
100
AcDbLayerTableRecord
  2
DEFPOINTS
 70
     1
 62
     7
  6
CONTINUOUS
  0
LAYER
  5
14FF
330
2
100
AcDbSymbolTableRecord
100
AcDbLayerTableRecord
  2
AM_6
 70
     0
 62
     2
  6
CONTINUOUS
  0
ENDTAB
  0
TABLE
  2
STYLE
  5
3
330
0
100
AcDbSymbolTable
 70
     5
  0
STYLE
  5
11
330
3
100
AcDbSymbolTableRecord
100
AcDbTextStyleTableRecord
  2
STANDARD
 70
     0
 40
0.0
 41
1.0
 50
0.0
 71
     0
 42
2.5
  3
simplex.shx
  4
EXTFONT.SHX
  0
STYLE
  5
52
330
3
100
AcDbSymbolTableRecord
100
AcDbTextStyleTableRecord
  2

 70
     1
 40
0.0
 41
1.0
 50
0.0
 71
     0
 42
2.5
  3
ltypeshp.shx
  4

  0
STYLE
  5
6B
330
3
100
AcDbSymbolTableRecord
100
AcDbTextStyleTableRecord
  2
ASAMI
 70
     0
 40
0.0
 41
1.0
 50
0.0
 71
     0
 42
2.5
  3
simplex.shx
  4
EXTFONT.SHX
  0
STYLE
  5
262
330
3
100
AcDbSymbolTableRecord
100
AcDbTextStyleTableRecord
  2
ACJISTS
 70
     0
 40
1.0
 41
1.0
 50
0.0
 71
     0
 42
2.5
  3
simplex.shx
  4
bigfont.shx
  0
STYLE
  5
269
330
3
100
AcDbSymbolTableRecord
100
AcDbTextStyleTableRecord
  2
ACJISGDT
 70
     0
 40
0.0
 41
1.0
 50
0.0
 71
     0
 42
2.5
  3
amgdtans.shx
  4

  0
ENDTAB
  0
TABLE
  2
VIEW
  5
6
330
0
100
AcDbSymbolTable
 70
     0
  0
ENDTAB
  0
TABLE
  2
UCS
  5
7
330
0
100
AcDbSymbolTable
 70
     0
  0
ENDTAB
  0
TABLE
  2
APPID
  5
9
330
0
100
AcDbSymbolTable
 70
    14
  0
APPID
  5
12
330
9
100
AcDbSymbolTableRecord
100
AcDbRegAppTableRecord
  2
ACAD
 70
     0
  0
APPID
  5
30
330
9
100
AcDbSymbolTableRecord
100
AcDbRegAppTableRecord
  2
MCAD_NO_VIS
 70
     0
  0
APPID
  5
31
330
9
100
AcDbSymbolTableRecord
100
AcDbRegAppTableRecord
  2
ACAD_TEMP_GRAPHIC
 70
     0
  0
APPID
  5
2C2
330
9
100
AcDbSymbolTableRecord
100
AcDbRegAppTableRecord
  2
GENIUS_GENDTOL_13
 70
     0
  0
APPID
  5
339
330
9
100
AcDbSymbolTableRecord
100
AcDbRegAppTableRecord
  2
GENIUS_GENODEF_13
 70
     0
  0
APPID
  5
33A
330
9
100
AcDbSymbolTableRecord
100
AcDbRegAppTableRecord
  2
GENIUS_GENOBJ-N-RSBK_13
 70
     0
  0
APPID
  5
33B
330
9
100
AcDbSymbolTableRecord
100
AcDbRegAppTableRecord
  2
GENIUS_GENOBJ-N-LIB_13
 70
     0
  0
APPID
  5
33C
330
9
100
AcDbSymbolTableRecord
100
AcDbRegAppTableRecord
  2
GENIUS_GENSCALE_13
 70
     0
  0
APPID
  5
378
330
9
100
AcDbSymbolTableRecord
100
AcDbRegAppTableRecord
  2
GENIUS_GENDIMSH_14
 70
     0
  0
APPID
  5
BE1
330
9
100
AcDbSymbolTableRecord
100
AcDbRegAppTableRecord
  2
GENIUS_GENFIL_13
 70
     0
  0
APPID
  5
BE2
330
9
100
AcDbSymbolTableRecord
100
AcDbRegAppTableRecord
  2
GENIUS_GENOBJ-N-CHA_13
 70
     0
  0
APPID
  5
151B
330
9
100
AcDbSymbolTableRecord
100
AcDbRegAppTableRecord
  2
DCO15
 70
     0
  0
APPID
  5
1860
330
9
100
AcDbSymbolTableRecord
100
AcDbRegAppTableRecord
  2
GENIUS_GENOBJ-N-CEN_13
 70
     0
  0
APPID
  5
359C
330
9
100
AcDbSymbolTableRecord
100
AcDbRegAppTableRecord
  2
GENIUS_GENOBJ-N-FIL_13
 70
     0
  0
ENDTAB
  0
TABLE
  2
DIMSTYLE
  5
A
330
0
100
AcDbSymbolTable
 70
     8
  0
DIMSTYLE
105
58
102
{ACAD_REACTORS
330
10F0
330
12D8
330
1A73
330
31A2
102
}
330
A
100
AcDbSymbolTableRecord
100
AcDbDimStyleTableRecord
  2
AM_JIS
 70
     0
  3

  4
"
  5
OPEN30
  6

  7

 40
0.5
 41
2.5
 42
1.0
 43
12.0
 44
1.0
 45
0.0
 46
0.0
 47
0.1
 48
0.1
140
3.2
141
0.0
142
0.0
143
0.0393701
144
1.0
145
0.0
146
0.71
147
1.5
 71
     0
 72
     0
 73
     0
 74
     0
 75
     0
 76
     0
 77
     3
 78
     8
170
     0
171
     2
172
     1
173
     0
174
     0
175
     0
176
   256
177
   256
178
     2
270
     2
271
     3
272
     3
273
     2
274
     2
340
6B
275
     0
280
     0
281
     0
282
     0
283
     0
284
     0
285
     0
286
     0
287
     3
288
     0
  0
DIMSTYLE
105
5F
330
A
100
AcDbSymbolTableRecord
100
AcDbDimStyleTableRecord
  2
AM_JIS$3
 70
     0
  3

  4
"
  5
OPEN30
  6

  7

 40
0.5
 41
2.5
 42
1.0
 43
10.0
 44
1.0
 45
0.0
 46
0.0
 47
0.1
 48
0.1
140
3.2
141
0.0
142
0.0
143
0.0393701
144
1.0
145
0.0
146
0.71
147
1.5
 71
     0
 72
     0
 73
     0
 74
     1
 75
     0
 76
     0
 77
     3
 78
     8
170
     0
171
     2
172
     0
173
     0
174
     0
175
     0
176
   256
177
   256
178
     2
270
     2
271
     2
272
     3
273
     2
274
     2
340
6B
275
     0
280
     0
281
     0
282
     0
283
     0
284
     0
285
     0
286
     0
287
     0
288
     1
  0
DIMSTYLE
105
60
330
A
100
AcDbSymbolTableRecord
100
AcDbDimStyleTableRecord
  2
AM_JIS$4
 70
     0
  3

  4
"
  5
OPEN30
  6

  7

 40
0.5
 41
2.5
 42
1.0
 43
10.0
 44
1.0
 45
0.0
 46
0.0
 47
0.1
 48
0.1
140
3.2
141
0.0
142
0.0
143
0.0393701
144
1.0
145
0.0
146
0.71
147
1.5
 71
     0
 72
     0
 73
     0
 74
     1
 75
     0
 76
     0
 77
     3
 78
     8
170
     0
171
     2
172
     0
173
     0
174
     0
175
     0
176
   256
177
   256
178
     2
270
     2
271
     2
272
     3
273
     2
274
     2
340
6B
275
     0
280
     0
281
     0
282
     0
283
     0
284
     0
285
     0
286
     0
287
     0
288
     1
  0
DIMSTYLE
105
61
330
A
100
AcDbSymbolTableRecord
100
AcDbDimStyleTableRecord
  2
AM_JIS$6
 70
     0
  3

  4
"
  5
OPEN30
  6

  7

 40
0.5
 41
2.5
 42
1.0
 43
10.0
 44
1.0
 45
0.0
 46
0.0
 47
0.1
 48
0.1
140
3.2
141
0.0
142
0.0
143
0.0393701
144
1.0
145
0.0
146
0.71
147
1.5
 71
     0
 72
     0
 73
     0
 74
     0
 75
     0
 76
     0
 77
     0
 78
     8
170
     0
171
     2
172
     1
173
     0
174
     0
175
     0
176
   256
177
   256
178
     2
270
     2
271
     2
272
     2
273
     2
274
     2
340
6B
275
     0
280
     0
281
     0
282
     0
283
     0
284
     0
285
     0
286
     0
287
     3
288
     0
  0
DIMSTYLE
105
62
330
A
100
AcDbSymbolTableRecord
100
AcDbDimStyleTableRecord
  2
AM_JIS$7
 70
     0
  3

  4
"
  5
OPEN30
  6

  7

 40
0.5
 41
2.5
 42
1.0
 43
10.0
 44
1.0
 45
0.0
 46
0.0
 47
0.1
 48
0.1
140
3.2
141
0.0
142
0.0
143
0.0393701
144
1.0
145
0.0
146
0.71
147
1.5
 71
     0
 72
     0
 73
     0
 74
     0
 75
     0
 76
     0
 77
     3
 78
     8
170
     0
171
     2
172
     1
173
     0
174
     0
175
     0
176
   256
177
   256
178
     2
270
     2
271
     2
272
     3
273
     2
274
     2
340
6B
275
     0
280
     0
281
     0
282
     0
283
     0
284
     0
285
     0
286
     0
287
     3
288
     0
  0
DIMSTYLE
105
63
330
A
100
AcDbSymbolTableRecord
100
AcDbDimStyleTableRecord
  2
AM_JIS$SF
 70
     0
  3

  4
"
  5
OPEN30
  6

  7

 40
0.5
 41
2.5
 42
1.0
 43
10.0
 44
1.0
 45
0.0
 46
0.0
 47
0.1
 48
0.1
140
3.2
141
0.0
142
0.0
143
0.0393701
144
1.0
145
0.0
146
0.71
147
1.5
 71
     0
 72
     0
 73
     0
 74
     0
 75
     1
 76
     1
 77
     3
 78
     8
170
     0
171
     2
172
     1
173
     0
174
     0
175
     0
176
   256
177
   256
178
     2
270
     2
271
     2
272
     2
273
     2
274
     2
340
6B
275
     0
280
     0
281
     0
282
     0
283
     0
284
     0
285
     0
286
     0
287
     3
288
     0
  0
DIMSTYLE
105
68
330
A
100
AcDbSymbolTableRecord
100
AcDbDimStyleTableRecord
  2
AM_JIS$SH
 70
     0
  3

  4
"
  5

  6
GENAXEH
  7
OPEN30
 40
0.5
 41
2.5
 42
1.0
 43
10.0
 44
1.0
 45
0.0
 46
0.0
 47
0.1
 48
0.1
140
3.2
141
0.0
142
0.0
143
0.0393701
144
2.0
145
0.0
146
0.71
147
1.5
 71
     0
 72
     0
 73
     0
 74
     0
 75
     1
 76
     1
 77
     3
 78
     8
170
     0
171
     2
172
     1
173
     1
174
     0
175
     0
176
   256
177
   256
178
     2
270
     2
271
     2
272
     2
273
     2
274
     2
340
6B
275
     0
280
     0
281
     0
282
     0
283
     0
284
     0
285
     0
286
     0
287
     3
288
     0
  0
DIMSTYLE
105
B34
330
A
100
AcDbSymbolTableRecord
100
AcDbDimStyleTableRecord
  2
AM_JIS$2
 70
     0
  3

  4
"
  5
OPEN30
  6

  7

 40
0.5
 41
2.5
 42
1.0
 43
12.0
 44
1.0
 45
0.0
 46
0.0
 47
0.1
 48
0.1
140
3.2
141
0.0
142
0.0
143
0.0393701
144
1.0
145
0.0
146
0.71
147
1.5
 71
     0
 72
     0
 73
     0
 74
     0
 75
     0
 76
     0
 77
     3
 78
     8
170
     0
171
     2
172
     1
173
     0
174
     0
175
     0
176
   256
177
   256
178
     2
270
     2
271
     3
272
     3
273
     2
274
     2
340
6B
275
     0
280
     0
281
     0
282
     0
283
     0
284
     0
285
     0
286
     0
287
     3
288
     0
  0
ENDTAB
  0
TABLE
  2
BLOCK_RECORD
  5
1
330
0
100
AcDbSymbolTable
 70
     9
  0
BLOCK_RECORD
  5
1F
102
{ACAD_XDICTIONARY
360
74
102
}
330
1
100
AcDbSymbolTableRecord
100
AcDbBlockTableRecord
  2
*MODEL_SPACE
  0
BLOCK_RECORD
  5
101
102
{ACAD_XDICTIONARY
360
3B2B
102
}
330
1
100
AcDbSymbolTableRecord
100
AcDbBlockTableRecord
  2
*PAPER_SPACE
  0
BLOCK_RECORD
  5
59
330
1
100
AcDbSymbolTableRecord
100
AcDbBlockTableRecord
  2
_OPEN30
  0
BLOCK_RECORD
  5
64
330
1
100
AcDbSymbolTableRecord
100
AcDbBlockTableRecord
  2
GENAXEH
  0
BLOCK_RECORD
  5
10F1
330
1
100
AcDbSymbolTableRecord
100
AcDbBlockTableRecord
  2
*D5
  0
BLOCK_RECORD
  5
12D9
330
1
100
AcDbSymbolTableRecord
100
AcDbBlockTableRecord
  2
*D6
  0
BLOCK_RECORD
  5
1A74
330
1
100
AcDbSymbolTableRecord
100
AcDbBlockTableRecord
  2
*D7
  0
BLOCK_RECORD
  5
31A3
330
1
100
AcDbSymbolTableRecord
100
AcDbBlockTableRecord
  2
*D8
  0
ENDTAB
  0
ENDSEC
  0
SECTION
  2
BLOCKS
  0
BLOCK
  5
20
330
1F
100
AcDbEntity
  8
0
100
AcDbBlockBegin
  2
*MODEL_SPACE
 70
     0
 10
0.0
 20
0.0
 30
0.0
  3
*MODEL_SPACE
  1

  0
ENDBLK
  5
21
330
1F
100
AcDbEntity
  8
0
100
AcDbBlockEnd
  0
BLOCK
  5
103
330
101
100
AcDbEntity
 67
     1
  8
0
100
AcDbBlockBegin
  2
*PAPER_SPACE
 70
     0
 10
0.0
 20
0.0
 30
0.0
  3
*PAPER_SPACE
  1

  0
ENDBLK
  5
104
330
101
100
AcDbEntity
 67
     1
  8
0
100
AcDbBlockEnd
  0
BLOCK
  5
5D
330
59
100
AcDbEntity
  8
0
100
AcDbBlockBegin
  2
_OPEN30
 70
     0
 10
0.0
 20
0.0
 30
0.0
  3
_OPEN30
  1

  0
LINE
  5
5A
330
59
100
AcDbEntity
  8
0
 62
     0
100
AcDbLine
 10
-1.0
 20
0.26794919
 30
0.0
 11
0.0
 21
0.0
 31
0.0
  0
LINE
  5
5B
330
59
100
AcDbEntity
  8
0
 62
     0
100
AcDbLine
 10
0.0
 20
0.0
 30
0.0
 11
-1.0
 21
-0.26794919
 31
0.0
  0
LINE
  5
5C
330
59
100
AcDbEntity
  8
0
 62
     0
100
AcDbLine
 10
0.0
 20
0.0
 30
0.0
 11
-1.0
 21
0.0
 31
0.0
  0
ENDBLK
  5
5E
330
59
100
AcDbEntity
  8
0
100
AcDbBlockEnd
  0
BLOCK
  5
66
330
64
100
AcDbEntity
  8
0
100
AcDbBlockBegin
  2
GENAXEH
 70
     0
 10
0.0
 20
0.0
 30
0.0
  3
GENAXEH
  1

  0
LINE
  5
65
330
64
100
AcDbEntity
  8
0
100
AcDbLine
 10
-1.0
 20
0.0
 30
0.0
 11
1.0
 21
0.0
 31
0.0
  0
ENDBLK
  5
67
330
64
100
AcDbEntity
  8
0
100
AcDbBlockEnd
  0
BLOCK
  5
10FB
330
10F1
100
AcDbEntity
  8
0
100
AcDbBlockBegin
  2
*D5
 70
     1
 10
0.0
 20
0.0
 30
0.0
  3
*D5
  1

  0
LINE
  5
31E9
330
10F1
100
AcDbEntity
  8
AM_5
100
AcDbLine
 10
-40.0
 20
-2.166666666666666
 30
0.0
 11
-40.0
 21
-15.50000099999997
 31
0.0
  0
LINE
  5
31EA
330
10F1
100
AcDbEntity
  8
AM_5
100
AcDbLine
 10
-0.0000000000001386
 20
-1.449999999999999
 30
0.0
 11
-0.0000000000001394
 21
-15.50000099999997
 31
0.0
  0
LINE
  5
31EB
330
10F1
100
AcDbEntity
  8
AM_5
100
AcDbLine
 10
-38.75
 20
-15.00000099999997
 30
0.0
 11
-1.250000000000139
 21
-15.00000099999997
 31
0.0
  0
INSERT
  5
31EC
330
10F1
100
AcDbEntity
  8
AM_5
100
AcDbBlockReference
  2
_OPEN30
 10
-40.0
 20
-15.00000099999997
 30
0.0
 41
1.25
 42
1.25
 43
1.25
 50
180.0
  0
INSERT
  5
31ED
330
10F1
100
AcDbEntity
  8
AM_5
100
AcDbBlockReference
  2
_OPEN30
 10
-0.0000000000001394
 20
-15.00000099999997
 30
0.0
 41
1.25
 42
1.25
 43
1.25
  0
MTEXT
  5
31EE
330
10F1
100
AcDbEntity
  8
AM_5
 62
     2
100
AcDbMText
 10
-20.00000000000007
 20
-13.45000099999997
 30
0.0
 40
1.6
 41
0.0
 71
     5
 72
     1
  1
40
  7
ASAMI
1001
ACAD
1000
MTEXTBEGIN
1070
    73
1070
     1
1070
    44
1040
1.0
1070
    74
1070
     0
1000
MTEXTEND
  0
POINT
  5
31EF
330
10F1
100
AcDbEntity
  8
DEFPOINTS
 62
     0
100
AcDbPoint
 10
-40.0
 20
-1.666666666666667
 30
0.0
  0
POINT
  5
31F0
330
10F1
100
AcDbEntity
  8
DEFPOINTS
 62
     0
100
AcDbPoint
 10
-0.0000000000001386
 20
-0.9499999999999992
 30
0.0
  0
POINT
  5
31F1
330
10F1
100
AcDbEntity
  8
DEFPOINTS
 62
     0
100
AcDbPoint
 10
-0.0000000000001394
 20
-15.00000099999997
 30
0.0
  0
ENDBLK
  5
10FC
330
10F1
100
AcDbEntity
  8
0
100
AcDbBlockEnd
  0
BLOCK
  5
12E5
330
12D9
100
AcDbEntity
  8
0
100
AcDbBlockBegin
  2
*D6
 70
     1
 10
0.0
 20
0.0
 30
0.0
  3
*D6
  1

  0
LINE
  5
3419
330
12D9
100
AcDbEntity
  8
AM_5
100
AcDbLine
 10
-0.0000000000001386
 20
-1.449999999999999
 30
0.0
 11
-0.0000000000001391
 21
-9.500000999999981
 31
0.0
  0
LINE
  5
341A
330
12D9
100
AcDbEntity
  8
AM_5
100
AcDbLine
 10
-5.999984267097705
 20
-1.5
 30
0.0
 11
-5.999984267097706
 21
-9.500000999999981
 31
0.0
  0
LINE
  5
341B
330
12D9
100
AcDbEntity
  8
AM_5
100
AcDbLine
 10
-1.250000000000138
 20
-9.000000999999981
 30
0.0
 11
-4.749984267097706
 21
-9.000000999999981
 31
0.0
  0
INSERT
  5
341C
330
12D9
100
AcDbEntity
  8
AM_5
100
AcDbBlockReference
  2
_OPEN30
 10
-0.000000000000139
 20
-9.000000999999981
 30
0.0
 41
1.25
 42
1.25
 43
1.25
  0
INSERT
  5
341D
330
12D9
100
AcDbEntity
  8
AM_5
100
AcDbBlockReference
  2
_OPEN30
 10
-5.999984267097706
 20
-9.000000999999981
 30
0.0
 41
1.25
 42
1.25
 43
1.25
 50
180.0
  0
MTEXT
  5
341E
330
12D9
100
AcDbEntity
  8
AM_5
 62
     2
100
AcDbMText
 10
-2.999992133548922
 20
-7.450000999999981
 30
0.0
 40
1.6
 41
0.0
 71
     5
 72
     1
  1
6
  7
ASAMI
1001
ACAD
1000
MTEXTBEGIN
1070
    73
1070
     1
1070
    44
1040
1.0
1070
    74
1070
     0
1000
MTEXTEND
  0
POINT
  5
341F
330
12D9
100
AcDbEntity
  8
DEFPOINTS
 62
     0
100
AcDbPoint
 10
-0.0000000000001386
 20
-0.9499999999999992
 30
0.0
  0
POINT
  5
3420
330
12D9
100
AcDbEntity
  8
DEFPOINTS
 62
     0
100
AcDbPoint
 10
-5.999984267097705
 20
-1.0
 30
0.0
  0
POINT
  5
3421
330
12D9
100
AcDbEntity
  8
DEFPOINTS
 62
     0
100
AcDbPoint
 10
-5.999984267097706
 20
-9.000000999999981
 30
0.0
  0
ENDBLK
  5
12E6
330
12D9
100
AcDbEntity
  8
0
100
AcDbBlockEnd
  0
BLOCK
  5
1A7F
330
1A74
100
AcDbEntity
  8
0
100
AcDbBlockBegin
  2
*D7
 70
     1
 10
0.0
 20
0.0
 30
0.0
  3
*D7
  1

  0
LINE
  5
1A92
330
1A74
100
AcDbEntity
  8
AM_5
100
AcDbLine
 10
-40.25000000000001
 20
2.0
 30
0.0
 11
-49.00000099999999
 21
2.000000000000003
 31
0.0
  0
LINE
  5
1A93
330
1A74
100
AcDbEntity
  8
AM_5
100
AcDbLine
 10
-40.25
 20
-2.0
 30
0.0
 11
-49.00000099999999
 21
-1.999999999999998
 31
0.0
  0
LINE
  5
1A94
330
1A74
100
AcDbEntity
  8
AM_5
100
AcDbLine
 10
-48.50000099999999
 20
0.7500000000000028
 30
0.0
 11
-48.50000099999999
 21
-0.7499999999999982
 31
0.0
  0
INSERT
  5
1A95
330
1A74
100
AcDbEntity
  8
AM_5
100
AcDbBlockReference
  2
_OPEN30
 10
-48.50000099999999
 20
2.000000000000002
 30
0.0
 41
1.25
 42
1.25
 43
1.25
 50
90.0
  0
INSERT
  5
1A96
330
1A74
100
AcDbEntity
  8
AM_5
100
AcDbBlockReference
  2
_OPEN30
 10
-48.50000099999999
 20
-1.999999999999998
 30
0.0
 41
1.25
 42
1.25
 43
1.25
 50
270.0
  0
MTEXT
  5
1A97
330
1A74
100
AcDbEntity
  8
AM_5
 62
     2
100
AcDbMText
 10
-50.050001
 20
-0.0000000000000053
 30
0.0
 40
1.6
 41
0.0
 71
     5
 72
     1
  1
%%c4
  7
ASAMI
 11
0.0000000000000001
 21
1.0
 31
0.0
1001
ACAD
1000
MTEXTBEGIN
1070
    73
1070
     1
1070
    44
1040
1.0
1070
    74
1070
     0
1000
MTEXTEND
  0
POINT
  5
1A98
330
1A74
100
AcDbEntity
  8
DEFPOINTS
 62
     0
100
AcDbPoint
 10
-39.75000000000001
 20
2.0
 30
0.0
  0
POINT
  5
1A99
330
1A74
100
AcDbEntity
  8
DEFPOINTS
 62
     0
100
AcDbPoint
 10
-39.75
 20
-2.0
 30
0.0
  0
POINT
  5
1A9A
330
1A74
100
AcDbEntity
  8
DEFPOINTS
 62
     0
100
AcDbPoint
 10
-48.50000099999999
 20
-1.999999999999998
 30
0.0
  0
ENDBLK
  5
1A80
330
1A74
100
AcDbEntity
  8
0
100
AcDbBlockEnd
  0
BLOCK
  5
31AF
330
31A3
100
AcDbEntity
  8
0
100
AcDbBlockBegin
  2
*D8
 70
     1
 10
0.0
 20
0.0
 30
0.0
  3
*D8
  1

  0
LINE
  5
3454
330
31A3
100
AcDbEntity
  8
AM_5
100
AcDbLine
 10
0.5
 20
0.9999999999999998
 30
0.0
 11
9.551050680252135
 21
0.9999999999999973
 31
0.0
  0
LINE
  5
3455
330
31A3
100
AcDbEntity
  8
AM_5
100
AcDbLine
 10
0.5
 20
-0.999999999999993
 30
0.0
 11
9.551050680252135
 21
-0.9999999999999955
 31
0.0
  0
LINE
  5
3456
330
31A3
100
AcDbEntity
  8
AM_5
100
AcDbLine
 10
9.051050680252135
 20
2.249999999999997
 30
0.0
 11
9.051050680252135
 21
3.499999999999997
 31
0.0
  0
LINE
  5
3457
330
31A3
100
AcDbEntity
  8
AM_5
100
AcDbLine
 10
9.051050680252135
 20
-2.249999999999995
 30
0.0
 11
9.051050680252133
 21
-7.514285714285709
 31
0.0
  0
LINE
  5
3458
330
31A3
100
AcDbEntity
  8
AM_5
100
AcDbLine
 10
9.051050680252135
 20
0.9999999999999975
 30
0.0
 11
9.051050680252135
 21
-0.9999999999999953
 31
0.0
  0
INSERT
  5
3459
330
31A3
100
AcDbEntity
  8
AM_5
100
AcDbBlockReference
  2
_OPEN30
 10
9.051050680252135
 20
0.9999999999999975
 30
0.0
 41
1.25
 42
1.25
 43
1.25
 50
270.0
  0
INSERT
  5
345A
330
31A3
100
AcDbEntity
  8
AM_5
100
AcDbBlockReference
  2
_OPEN30
 10
9.051050680252135
 20
-0.9999999999999953
 30
0.0
 41
1.25
 42
1.25
 43
1.25
 50
90.0
  0
MTEXT
  5
345B
330
31A3
100
AcDbEntity
  8
AM_5
 62
     2
100
AcDbMText
 10
7.501050680252134
 20
-5.507142857142851
 30
0.0
 40
1.6
 41
0.0
 71
     5
 72
     1
  1
%%c2
  7
ASAMI
 11
0.0000000000000001
 21
1.0
 31
0.0
1001
ACAD
1000
MTEXTBEGIN
1070
    73
1070
     1
1070
    44
1040
1.0
1070
    74
1070
     0
1000
MTEXTEND
  0
POINT
  5
345C
330
31A3
100
AcDbEntity
  8
DEFPOINTS
 62
     0
100
AcDbPoint
 10
0.0
 20
1.0
 30
0.0
  0
POINT
  5
345D
330
31A3
100
AcDbEntity
  8
DEFPOINTS
 62
     0
100
AcDbPoint
 10
0.0
 20
-0.9999999999999928
 30
0.0
  0
POINT
  5
345E
330
31A3
100
AcDbEntity
  8
DEFPOINTS
 62
     0
100
AcDbPoint
 10
9.051050680252135
 20
-0.9999999999999953
 30
0.0
  0
ENDBLK
  5
31B0
330
31A3
100
AcDbEntity
  8
0
100
AcDbBlockEnd
  0
ENDSEC
  0
SECTION
  2
ENTITIES
  0
LINE
  5
C2E
330
1F
100
AcDbEntity
  8
AM_7
  6
AM_ISO08W050X2
100
AcDbLine
 10
2.051049680252134
 20
0.0
 30
0.0
 11
-41.5
 21
0.0
 31
0.0
  0
LINE
  5
C38
330
1F
100
AcDbEntity
  8
AM_0
100
AcDbLine
 10
-12.49999999999973
 20
1.999999999999999
 30
0.0
 11
-7.208058762917955
 21
1.066887979578765
 31
0.0
  0
LINE
  5
C39
330
1F
100
AcDbEntity
  8
AM_0
100
AcDbLine
 10
-12.5
 20
-2.000000000000002
 30
0.0
 11
-7.330604816679296
 21
-1.088496155236223
 31
0.0
  0
DIMENSION
  5
10F0
330
1F
100
AcDbEntity
  8
AM_5
100
AcDbDimension
  2
*D5
 10
-0.0000000000001394
 20
-15.00000099999997
 30
0.0
 11
-20.00000000000007
 21
-13.45000099999997
 31
0.0
 70
    32
  1
<>
  3
AM_JIS
100
AcDbAlignedDimension
 13
-40.0
 23
-1.666666666666667
 33
0.0
 14
-0.0000000000001386
 24
-0.9499999999999992
 34
0.0
 50
0.0000000000001132
100
AcDbRotatedDimension
1001
GENIUS_GENDTOL_13
1000

1000
h7
1000

1040
0.0
  0
DIMENSION
  5
12D8
330
1F
100
AcDbEntity
  8
AM_5
100
AcDbDimension
  2
*D6
 10
-5.999984267097706
 20
-9.000000999999981
 30
0.0
 11
-2.999992133548922
 21
-7.450000999999981
 31
0.0
 70
    32
  1
<>
  3
AM_JIS
100
AcDbAlignedDimension
 13
-0.0000000000001386
 23
-0.9499999999999992
 33
0.0
 14
-5.999984267097705
 24
-1.0
 34
0.0
 50
0.0000000000001132
100
AcDbRotatedDimension
1001
GENIUS_GENDTOL_13
1000

1000
h7
1000

1040
0.0
  0
TEXT
  5
1500
330
1F
100
AcDbEntity
  8
AM_6
100
AcDbText
 10
-28.3333333333334
 20
-26.25000099999997
 30
0.0
 40
2.5
  1
HSM2020
 72
     4
 11
-20.00000000000007
 21
-25.00000099999997
 31
0.0
100
AcDbText
  0
DIMENSION
  5
1A73
330
1F
100
AcDbEntity
  8
AM_5
100
AcDbDimension
  2
*D7
 10
-48.50000099999999
 20
-1.999999999999998
 30
0.0
 11
-48.50000099999999
 21
-0.0000000000000055
 31
0.0
 70
   160
  1
%%c<>
  3
AM_JIS
100
AcDbAlignedDimension
 13
-39.75000000000001
 23
2.0
 33
0.0
 14
-39.75
 24
-2.0
 34
0.0
 50
270.0
100
AcDbRotatedDimension
1001
GENIUS_GENDTOL_13
1000

1000
h7
1000

1040
0.0
  0
LINE
  5
1A81
330
1F
100
AcDbEntity
  8
AM_0
100
AcDbLine
 10
-12.5
 20
-1.999999999999999
 30
0.0
 11
-12.5
 21
1.999999999999999
 31
0.0
  0
LINE
  5
1A82
330
1F
100
AcDbEntity
  8
AM_0
100
AcDbLine
 10
-39.75000000000001
 20
2.0
 30
0.0
 11
-40.0
 21
1.666666666666667
 31
0.0
1001
GENIUS_GENFIL_13
1070
     0
1040
0.25
1040
0.25
1040
20.0
1040
0.0
1002
{
1002
}
1001
GENIUS_GENODEF_13
1002
{
1000
HIER
1070
     0
1002
}
1002
{
1000
MANEDIT
1070
     0
1002
}
1002
{
1000
NOSEL
1070
     0
1002
}
1002
{
1000
BEHIND
1070
     0
1002
}
1002
{
1000
REACTOR
1002
}
1001
GENIUS_GENOBJ-N-CHA_13
1002
{
1000
OWNER
1000
GEN
1002
}
  0
LINE
  5
1A83
330
1F
100
AcDbEntity
  8
AM_0
100
AcDbLine
 10
-39.75
 20
-2.0
 30
0.0
 11
-40.0
 21
-1.666666666666667
 31
0.0
1001
GENIUS_GENFIL_13
1070
     0
1040
0.25
1040
0.25
1040
20.0
1040
0.0
1002
{
1002
}
1001
GENIUS_GENODEF_13
1002
{
1000
HIER
1070
     0
1002
}
1002
{
1000
MANEDIT
1070
     0
1002
}
1002
{
1000
NOSEL
1070
     0
1002
}
1002
{
1000
BEHIND
1070
     0
1002
}
1002
{
1000
REACTOR
1002
}
1001
GENIUS_GENOBJ-N-CHA_13
1002
{
1000
OWNER
1000
GEN
1002
}
  0
LINE
  5
1A84
330
1F
100
AcDbEntity
  8
AM_0
100
AcDbLine
 10
-40.0
 20
-1.666666666666667
 30
0.0
 11
-40.0
 21
1.666666666666667
 31
0.0
  0
LINE
  5
1A85
330
1F
100
AcDbEntity
  8
AM_0
100
AcDbLine
 10
-39.75000000000001
 20
2.0
 30
0.0
 11
-39.75000000000001
 21
-2.0
 31
0.0
  0
LINE
  5
1A86
330
1F
100
AcDbEntity
  8
AM_0
100
AcDbLine
 10
-39.75
 20
-2.0
 30
0.0
 11
-12.5
 21
-2.000000000000002
 31
0.0
  0
LINE
  5
1A87
330
1F
100
AcDbEntity
  8
AM_0
100
AcDbLine
 10
-39.75000000000001
 20
2.0
 30
0.0
 11
-12.5
 21
1.999999999999999
 31
0.0
  0
DIMENSION
  5
31A2
330
1F
100
AcDbEntity
  8
AM_5
100
AcDbDimension
  2
*D8
 10
9.051050680252135
 20
-0.9999999999999953
 30
0.0
 11
7.501050680252134
 21
-5.507142857142851
 31
0.0
 70
    32
  1
%%c<>
  3
AM_JIS
100
AcDbAlignedDimension
 13
0.0
 23
1.0
 33
0.0
 14
0.0
 24
-0.9999999999999928
 34
0.0
 50
90.0
100
AcDbRotatedDimension
1001
GENIUS_GENDTOL_13
1000

1000
h7
1000

1040
0.0
  0
SPLINE
  5
3755
330
1F
100
AcDbEntity
  8
AM_0
100
AcDbSpline
210
0.0
220
0.0
230
1.0
 70
     8
 71
     3
 72
     8
 73
     4
 74
     2
 42
0.0000000001
 43
0.0000000001
 44
0.0000000001
 12
-1.0
 22
-0.0000000000000008
 32
0.0
 40
0.0
 40
0.0
 40
0.0
 40
0.0
 40
1.290413089218101
 40
1.290413089218101
 40
1.290413089218101
 40
1.290413089218101
 10
-3.392067347862212
 20
-0.9247518266135799
 30
0.0
 10
-3.822205044268246
 20
-0.9247518266135802
 30
0.0
 10
-4.057136196065229
 20
-0.4623759133067226
 30
0.0
 10
-4.292067347862213
 20
0.000000000000135
 30
0.0
 11
-3.392067347862212
 21
-0.9247518266135799
 31
0.0
 11
-4.292067347862213
 21
0.000000000000135
 31
0.0
  0
SPLINE
  5
3757
330
1F
100
AcDbEntity
  8
AM_0
100
AcDbSpline
210
0.0
220
0.0
230
1.0
 70
     8
 71
     3
 72
     8
 73
     4
 74
     2
 42
0.0000000001
 43
0.0000000001
 44
0.0000000001
 12
-1.0
 22
-0.0000000000000008
 32
0.0
 40
0.0
 40
0.0
 40
0.0
 40
0.0
 40
1.345362404707432
 40
1.345362404707432
 40
1.345362404707432
 40
1.345362404707432
 10
-3.69999999999909
 20
-0.9999999999998898
 30
0.0
 10
-4.148454134901568
 20
-0.9999999999998902
 30
0.0
 10
-4.374227067450375
 20
-0.4999999999998901
 30
0.0
 10
-4.599999999999182
 20
0.0000000000001101
 30
0.0
 11
-3.69999999999909
 21
-0.9999999999998898
 31
0.0
 11
-4.599999999999182
 21
0.0000000000001101
 31
0.0
  0
SPLINE
  5
3758
330
1F
100
AcDbEntity
  8
AM_0
100
AcDbSpline
210
0.0
220
0.0
230
1.0
 70
     8
 71
     3
 72
     8
 73
     4
 74
     0
 42
0.0000000001
 43
0.0000000001
 40
0.3982504941345976
 40
0.3982504941345976
 40
0.3982504941345976
 40
0.3982504941345976
 40
6.452065446090842
 40
6.452065446090842
 40
6.452065446090842
 40
6.452065446090842
 10
-5.36066966536002
 20
0.9827402689500685
 30
0.0
 10
-4.732927637117611
 20
0.8676719852858667
 30
0.0
 10
-4.512497492489912
 20
0.4338359926430009
 30
0.0
 10
-4.292067347862213
 20
0.000000000000135
 30
0.0
  0
SPLINE
  5
375A
330
1F
100
AcDbEntity
  8
AM_0
100
AcDbSpline
210
0.0
220
0.0
230
1.0
 70
     8
 71
     3
 72
     8
 73
     4
 74
     2
 42
0.0000000001
 43
0.0000000001
 44
0.0000000001
 12
1.0
 22
0.0000000000000006
 32
0.0
 40
0.0
 40
0.0
 40
0.0
 40
0.0
 40
1.345362404707433
 40
1.345362404707433
 40
1.345362404707433
 40
1.345362404707433
 10
-5.499999999999275
 20
1.00000000000011
 30
0.0
 10
-5.051545865096797
 20
1.00000000000011
 30
0.0
 10
-4.825772932547989
 20
0.5000000000001103
 30
0.0
 10
-4.599999999999182
 20
0.0000000000001101
 30
0.0
 11
-5.499999999999275
 21
1.00000000000011
 31
0.0
 11
-4.599999999999182
 21
0.0000000000001101
 31
0.0
  0
SPLINE
  5
375B
330
1F
100
AcDbEntity
  8
AM_0
100
AcDbSpline
210
0.0
220
0.0
230
1.0
 70
     8
 71
     3
 72
     8
 73
     4
 74
     0
 42
0.0000000001
 43
0.0000000001
 40
0.0
 40
0.0
 40
0.0
 40
0.0
 40
2.65269546380069
 40
2.65269546380069
 40
2.65269546380069
 40
2.65269546380069
 10
-5.192067347861939
 20
-0.9247518266135799
 30
0.0
 10
-5.015220983608561
 20
-0.9247518266135799
 30
0.0
 10
-4.871371405000172
 20
-0.8465940018881425
 30
0.0
 10
-4.74695234797273
 20
-0.7224120790465136
 30
0.0
  0
SPLINE
  5
375C
330
1F
100
AcDbEntity
  8
AM_0
100
AcDbSpline
210
0.0
220
0.0
230
1.0
 70
     8
 71
     3
 72
     8
 73
     4
 74
     2
 42
0.0000000001
 43
0.0000000001
 44
0.0000000001
 12
-1.0
 22
-0.0000000000000008
 32
0.0
 40
0.0
 40
0.0
 40
0.0
 40
0.0
 40
1.290413089218162
 40
1.290413089218162
 40
1.290413089218162
 40
1.290413089218162
 10
-5.192067347861939
 20
-0.9247518266135799
 30
0.0
 10
-5.622205044267993
 20
-0.9247518266135802
 30
0.0
 10
-5.857136196065012
 20
-0.4623759133067244
 30
0.0
 10
-6.092067347862031
 20
0.0000000000001315
 30
0.0
 11
-5.192067347861939
 21
-0.9247518266135799
 31
0.0
 11
-6.092067347862031
 21
0.0000000000001315
 31
0.0
  0
SPLINE
  5
375D
330
1F
100
AcDbEntity
  8
AM_0
100
AcDbSpline
210
0.0
220
0.0
230
1.0
 70
     8
 71
     3
 72
     8
 73
     4
 74
     0
 42
0.0000000001
 43
0.0000000001
 40
0.0
 40
0.0
 40
0.0
 40
0.0
 40
1.274172826456642
 40
1.274172826456642
 40
1.274172826456642
 40
1.274172826456642
 10
-5.347401941124918
 20
-0.9700769615890578
 30
0.0
 10
-5.262457086027826
 20
-0.9700769615890543
 30
0.0
 10
-5.185361117286812
 20
-0.9520884807613398
 30
0.0
 10
-5.114602503453717
 20
-0.9195757245029909
 30
0.0
  0
SPLINE
  5
375F
330
1F
100
AcDbEntity
  8
AM_0
100
AcDbSpline
210
0.0
220
0.0
230
1.0
 70
     8
 71
     3
 72
     8
 73
     4
 74
     0
 42
0.0000000001
 43
0.0000000001
 40
0.0
 40
0.0
 40
0.0
 40
0.0
 40
0.9875149967633806
 40
0.9875149967633806
 40
0.9875149967633806
 40
0.9875149967633806
 10
-5.499999999999091
 20
-0.9999999999998436
 30
0.0
 10
-5.434165666881563
 20
-0.9999999999998436
 30
0.0
 10
-5.373130351704094
 20
-0.989224465537589
 30
0.0
 10
-5.316189545084126
 20
-0.9692552754945857
 30
0.0
  0
SPLINE
  5
3760
330
1F
100
AcDbEntity
  8
AM_0
100
AcDbSpline
210
0.0
220
0.0
230
1.0
 70
     8
 71
     3
 72
     8
 73
     4
 74
     2
 42
0.0000000001
 43
0.0000000001
 44
0.0000000001
 12
-1.0
 22
-0.0000000000000008
 32
0.0
 40
0.0
 40
0.0
 40
0.0
 40
0.0
 40
1.345362404707371
 40
1.345362404707371
 40
1.345362404707371
 40
1.345362404707371
 10
-5.499999999998909
 20
-0.9999999999998898
 30
0.0
 10
-5.948454134901366
 20
-0.9999999999998902
 30
0.0
 10
-6.174227067450138
 20
-0.4999999999998901
 30
0.0
 10
-6.399999999998909
 20
0.0000000000001101
 30
0.0
 11
-5.499999999998909
 21
-0.9999999999998898
 31
0.0
 11
-6.399999999998909
 21
0.0000000000001101
 31
0.0
  0
SPLINE
  5
3761
330
1F
100
AcDbEntity
  8
AM_0
100
AcDbSpline
210
0.0
220
0.0
230
1.0
 70
     8
 71
     3
 72
     8
 73
     4
 74
     0
 42
0.0000000001
 43
0.0000000001
 40
0.6631326446017074
 40
0.6631326446017074
 40
0.6631326446017074
 40
0.6631326446017074
 40
6.452065446090842
 40
6.452065446090842
 40
6.452065446090842
 40
6.452065446090842
 10
-7.208058762917955
 20
1.066887979578765
 30
0.0
 10
-6.506896055282112
 20
0.8942675997842712
 30
0.0
 10
-6.302852663369478
 20
0.4148536795737542
 30
0.0
 10
-6.092067347862031
 20
0.0000000000001315
 30
0.0
  0
SPLINE
  5
3763
330
1F
100
AcDbEntity
  8
AM_0
100
AcDbSpline
210
0.0
220
0.0
230
1.0
 70
     8
 71
     3
 72
     8
 73
     4
 74
     0
 42
0.0000000001
 43
0.0000000001
 40
5.522945922693301
 40
5.522945922693301
 40
5.522945922693301
 40
5.522945922693301
 40
6.726812023537159
 40
6.726812023537159
 40
6.726812023537159
 40
6.726812023537159
 10
-6.603922459511728
 20
0.3444459361947292
 30
0.0
 10
-6.4828693899748
 20
0.1988161039162163
 30
0.0
 10
-6.440405526276846
 20
0.0894826625623608
 30
0.0
 10
-6.399999999998909
 20
0.0000000000001101
 30
0.0
  0
SPLINE
  5
3764
330
1F
100
AcDbEntity
  8
AM_0
100
AcDbSpline
210
0.0
220
0.0
230
1.0
 70
     8
 71
     3
 72
     8
 73
     4
 74
     0
 42
0.0000000001
 43
0.0000000001
 40
0.0
 40
0.0
 40
0.0
 40
0.0
 40
3.69259279141909
 40
3.69259279141909
 40
3.69259279141909
 40
3.69259279141909
 10
-5.499999999998638
 20
0.9999999999999076
 30
0.0
 10
-5.746172852759903
 20
0.9999999999999502
 30
0.0
 10
-5.925244888354793
 20
0.8493343478095027
 30
0.0
 10
-6.074050195932979
 20
0.6307089224164848
 30
0.0
  0
SPLINE
  5
3765
330
1F
100
AcDbEntity
  8
AM_0
100
AcDbSpline
210
0.0
220
0.0
230
1.0
 70
     8
 71
     3
 72
     8
 73
     4
 74
     0
 42
0.0000000001
 43
0.0000000001
 40
0.0
 40
0.0
 40
0.0
 40
0.0
 40
2.65269546380069
 40
2.65269546380069
 40
2.65269546380069
 40
2.65269546380069
 10
-6.992067347861667
 20
-0.9247518266135834
 30
0.0
 10
-6.815220983608288
 20
-0.9247518266135834
 30
0.0
 10
-6.671371404999992
 20
-0.8465940018881425
 30
0.0
 10
-6.546952347972547
 20
-0.7224120790465172
 30
0.0
  0
SPLINE
  5
3766
330
1F
100
AcDbEntity
  8
AM_0
100
AcDbSpline
210
0.0
220
0.0
230
1.0
 70
     8
 71
     3
 72
     8
 73
     4
 74
     0
 42
0.0000000001
 43
0.0000000001
 40
0.0
 40
0.0
 40
0.0
 40
0.0
 40
3.513493495898223
 40
3.513493495898223
 40
3.513493495898223
 40
3.513493495898223
 10
-6.992067347861667
 20
-0.9247518266135834
 30
0.0
 10
-7.226300247588189
 20
-0.9247518266135834
 30
0.0
 10
-7.402646932242352
 20
-0.7876396636194656
 30
0.0
 10
-7.552629530956075
 20
-0.5880802177248193
 30
0.0
  0
SPLINE
  5
3767
330
1F
100
AcDbEntity
  8
AM_0
100
AcDbSpline
210
0.0
220
0.0
230
1.0
 70
     8
 71
     3
 72
     8
 73
     4
 74
     0
 42
0.0000000001
 43
0.0000000001
 40
0.0
 40
0.0
 40
0.0
 40
0.0
 40
1.274172826456642
 40
1.274172826456642
 40
1.274172826456642
 40
1.274172826456642
 10
-7.330604816679296
 20
-1.088496155236223
 30
0.0
 10
-7.003284465629174
 20
-1.004240289904665
 30
0.0
 10
-6.94542863129746
 20
-0.9520884807613398
 30
0.0
 10
-6.914602503453443
 20
-0.9195757245029909
 30
0.0
  0
SPLINE
  5
3768
330
1F
100
AcDbEntity
  8
AM_0
100
AcDbSpline
210
0.0
220
0.0
230
1.0
 70
     8
 71
     3
 72
     8
 73
     4
 74
     0
 42
0.0000000001
 43
0.0000000001
 40
0.0
 40
0.0
 40
0.0
 40
0.0
 40
0.0681566725481266
 40
0.0681566725481266
 40
0.0681566725481266
 40
0.0681566725481266
 10
-0.0999999999998194
 20
-0.9999999999998401
 30
0.0
 10
-0.0954562218299549
 20
-0.9999999999998401
 30
0.0
 10
-0.0909353039500287
 20
-0.9999486703643256
 30
0.0
 10
-0.0864370147373857
 20
-0.9998465311698723
 30
0.0
  0
SPLINE
  5
3769
330
1F
100
AcDbEntity
  8
AM_0
100
AcDbSpline
210
0.0
220
0.0
230
1.0
 70
     8
 71
     3
 72
     8
 73
     4
 74
     0
 42
0.0000000001
 43
0.0000000001
 40
1.28030251894658
 40
1.28030251894658
 40
1.28030251894658
 40
1.28030251894658
 40
6.452065446090842
 40
6.452065446090842
 40
6.452065446090842
 40
6.452065446090842
 10
-0.0265939332276508
 20
-0.873745518303167
 30
0.0
 10
-0.3154412173787939
 20
-0.7412505737347388
 30
0.0
 10
-0.503754282620867
 20
-0.3706252868672877
 30
0.0
 10
-0.6920673478627588
 20
0.000000000000135
 30
0.0
  0
SPLINE
  5
376B
330
1F
100
AcDbEntity
  8
AM_0
100
AcDbSpline
210
0.0
220
0.0
230
1.0
 70
     8
 71
     3
 72
     8
 73
     4
 74
     2
 42
0.0000000001
 43
0.0000000001
 44
0.0000000001
 12
-1.0
 22
-0.0000000000000008
 32
0.0
 40
0.0
 40
0.0
 40
0.0
 40
0.0
 40
1.34536240470737
 40
1.34536240470737
 40
1.34536240470737
 40
1.34536240470737
 10
-0.0999999999996373
 20
-0.9999999999998863
 30
0.0
 10
-0.5484541349020942
 20
-0.9999999999998866
 30
0.0
 10
-0.7742270674508656
 20
-0.4999999999998864
 30
0.0
 10
-0.9999999999996367
 20
0.0000000000001137
 30
0.0
 11
-0.0999999999996373
 21
-0.9999999999998863
 31
0.0
 11
-0.9999999999996367
 21
0.0000000000001137
 31
0.0
  0
SPLINE
  5
376C
330
1F
100
AcDbEntity
  8
AM_0
100
AcDbSpline
210
0.0
220
0.0
230
1.0
 70
     8
 71
     3
 72
     8
 73
     4
 74
     2
 42
0.0000000001
 43
0.0000000001
 44
0.0000000001
 12
1.0
 22
0.0000000000000006
 32
0.0
 40
0.0
 40
0.0
 40
0.0
 40
0.0
 40
1.345362404707493
 40
1.345362404707493
 40
1.345362404707493
 40
1.345362404707493
 10
-1.89999999999982
 20
1.000000000000113
 30
0.0
 10
-1.451545865097322
 20
1.000000000000113
 30
0.0
 10
-1.225772932548479
 20
0.5000000000001138
 30
0.0
 10
-0.9999999999996367
 20
0.0000000000001137
 30
0.0
 11
-1.89999999999982
 21
1.000000000000113
 31
0.0
 11
-0.9999999999996367
 21
0.0000000000001137
 31
0.0
  0
SPLINE
  5
376E
330
1F
100
AcDbEntity
  8
AM_0
100
AcDbSpline
210
0.0
220
0.0
230
1.0
 70
     8
 71
     3
 72
     8
 73
     4
 74
     0
 42
0.0000000001
 43
0.0000000001
 40
0.3982504941345976
 40
0.3982504941345976
 40
0.3982504941345976
 40
0.3982504941345976
 40
6.452065446090842
 40
6.452065446090842
 40
6.452065446090842
 40
6.452065446090842
 10
-1.760669665360545
 20
0.982740268950069
 30
0.0
 10
-1.132927637118156
 20
0.8676719852858703
 30
0.0
 10
-0.9124974924904574
 20
0.4338359926430045
 30
0.0
 10
-0.6920673478627588
 20
0.000000000000135
 30
0.0
  0
SPLINE
  5
376F
330
1F
100
AcDbEntity
  8
AM_0
100
AcDbSpline
210
0.0
220
0.0
230
1.0
 70
     8
 71
     3
 72
     8
 73
     4
 74
     0
 42
0.0000000001
 43
0.0000000001
 40
0.0
 40
0.0
 40
0.0
 40
0.0
 40
0.9875149967633806
 40
0.9875149967633806
 40
0.9875149967633806
 40
0.9875149967633806
 10
-1.899999999999636
 20
-0.9999999999998436
 30
0.0
 10
-1.834165666882109
 20
-0.9999999999998436
 30
0.0
 10
-1.773130351704639
 20
-0.989224465537589
 30
0.0
 10
-1.716189545084672
 20
-0.9692552754945857
 30
0.0
  0
SPLINE
  5
3770
330
1F
100
AcDbEntity
  8
AM_0
100
AcDbSpline
210
0.0
220
0.0
230
1.0
 70
     8
 71
     3
 72
     8
 73
     4
 74
     0
 42
0.0000000001
 43
0.0000000001
 40
0.0
 40
0.0
 40
0.0
 40
0.0
 40
1.274172826456642
 40
1.274172826456642
 40
1.274172826456642
 40
1.274172826456642
 10
-1.747401941125372
 20
-0.9700769615890543
 30
0.0
 10
-1.662457086028281
 20
-0.9700769615890543
 30
0.0
 10
-1.585361117287266
 20
-0.9520884807613363
 30
0.0
 10
-1.514602503454171
 20
-0.9195757245029874
 30
0.0
  0
SPLINE
  5
3771
330
1F
100
AcDbEntity
  8
AM_0
100
AcDbSpline
210
0.0
220
0.0
230
1.0
 70
     8
 71
     3
 72
     8
 73
     4
 74
     2
 42
0.0000000001
 43
0.0000000001
 44
0.0000000001
 12
-1.0
 22
-0.0000000000000008
 32
0.0
 40
0.0
 40
0.0
 40
0.0
 40
0.0
 40
1.345362404707432
 40
1.345362404707432
 40
1.345362404707432
 40
1.345362404707432
 10
-1.899999999999363
 20
-0.9999999999998863
 30
0.0
 10
-2.348454134901841
 20
-0.9999999999998866
 30
0.0
 10
-2.574227067450648
 20
-0.4999999999998864
 30
0.0
 10
-2.799999999999455
 20
0.0000000000001137
 30
0.0
 11
-1.899999999999363
 21
-0.9999999999998863
 31
0.0
 11
-2.799999999999455
 21
0.0000000000001137
 31
0.0
  0
SPLINE
  5
3773
330
1F
100
AcDbEntity
  8
AM_0
100
AcDbSpline
210
0.0
220
0.0
230
1.0
 70
     8
 71
     3
 72
     8
 73
     4
 74
     2
 42
0.0000000001
 43
0.0000000001
 44
0.0000000001
 12
-1.0
 22
-0.0000000000000008
 32
0.0
 40
0.0
 40
0.0
 40
0.0
 40
0.0
 40
1.290413089218164
 40
1.290413089218164
 40
1.290413089218164
 40
1.290413089218164
 10
-1.592067347862395
 20
-0.9247518266135799
 30
0.0
 10
-2.022205044268449
 20
-0.9247518266135802
 30
0.0
 10
-2.257136196065467
 20
-0.4623759133067226
 30
0.0
 10
-2.492067347862485
 20
0.000000000000135
 30
0.0
 11
-1.592067347862395
 21
-0.9247518266135799
 31
0.0
 11
-2.492067347862485
 21
0.000000000000135
 31
0.0
  0
SPLINE
  5
3774
330
1F
100
AcDbEntity
  8
AM_0
100
AcDbSpline
210
0.0
220
0.0
230
1.0
 70
     8
 71
     3
 72
     8
 73
     4
 74
     0
 42
0.0000000001
 43
0.0000000001
 40
0.3982504941345976
 40
0.3982504941345976
 40
0.3982504941345976
 40
0.3982504941345976
 40
6.452065446090842
 40
6.452065446090842
 40
6.452065446090842
 40
6.452065446090842
 10
-3.560669665360291
 20
0.9827402689500718
 30
0.0
 10
-2.932927637117883
 20
0.8676719852858667
 30
0.0
 10
-2.712497492490185
 20
0.4338359926430009
 30
0.0
 10
-2.492067347862485
 20
0.000000000000135
 30
0.0
  0
SPLINE
  5
3776
330
1F
100
AcDbEntity
  8
AM_0
100
AcDbSpline
210
0.0
220
0.0
230
1.0
 70
     8
 71
     3
 72
     8
 73
     4
 74
     2
 42
0.0000000001
 43
0.0000000001
 44
0.0000000001
 12
1.0
 22
0.0000000000000006
 32
0.0
 40
0.0
 40
0.0
 40
0.0
 40
0.0
 40
1.345362404707432
 40
1.345362404707432
 40
1.345362404707432
 40
1.345362404707432
 10
-3.699999999999547
 20
1.000000000000113
 30
0.0
 10
-3.251545865097069
 20
1.000000000000113
 30
0.0
 10
-3.025772932548262
 20
0.5000000000001138
 30
0.0
 10
-2.799999999999455
 20
0.0000000000001137
 30
0.0
 11
-3.699999999999547
 21
1.000000000000113
 31
0.0
 11
-2.799999999999455
 21
0.0000000000001137
 31
0.0
  0
SPLINE
  5
3777
330
1F
100
AcDbEntity
  8
AM_0
100
AcDbSpline
210
0.0
220
0.0
230
1.0
 70
     8
 71
     3
 72
     8
 73
     4
 74
     0
 42
0.0000000001
 43
0.0000000001
 40
0.0
 40
0.0
 40
0.0
 40
0.0
 40
3.69259279141909
 40
3.69259279141909
 40
3.69259279141909
 40
3.69259279141909
 10
-0.0999999999993655
 20
0.9999999999999111
 30
0.0
 10
-0.3461728527606303
 20
0.9999999999999538
 30
0.0
 10
-0.525244888355612
 20
0.8493343478095098
 30
0.0
 10
-0.674050195933706
 20
0.6307089224164884
 30
0.0
  0
SPLINE
  5
3778
330
1F
100
AcDbEntity
  8
AM_0
100
AcDbSpline
210
0.0
220
0.0
230
1.0
 70
     8
 71
     3
 72
     8
 73
     4
 74
     0
 42
0.0000000001
 43
0.0000000001
 40
0.0
 40
0.0
 40
0.0
 40
0.0
 40
2.65269546380069
 40
2.65269546380069
 40
2.65269546380069
 40
2.65269546380069
 10
-1.592067347862395
 20
-0.9247518266135799
 30
0.0
 10
-1.415220983609106
 20
-0.9247518266135799
 30
0.0
 10
-1.271371405000719
 20
-0.846594001888139
 30
0.0
 10
-1.146952347973274
 20
-0.7224120790465136
 30
0.0
  0
SPLINE
  5
3779
330
1F
100
AcDbEntity
  8
AM_0
100
AcDbSpline
210
0.0
220
0.0
230
1.0
 70
     8
 71
     3
 72
     8
 73
     4
 74
     2
 42
0.0000000001
 43
0.0000000001
 44
0.0000000001
 12
0.1987604188408253
 22
-0.9800481089733398
 32
0.0
 13
-1.0
 23
-0.0000000000000008
 33
0.0
 40
0.0
 40
0.0
 40
0.0
 40
0.0
 40
0.4818962807878774
 40
0.4818962807878774
 40
0.4818962807878774
 40
0.4818962807878774
 10
-0.0999999999993655
 20
0.9999999999999111
 30
0.0
 10
-0.068072697796954
 20
0.8425728204307628
 30
0.0
 10
-0.1254286046719617
 20
0.5554716634486782
 30
0.0
 10
-0.2860606982679208
 20
0.5554716634486781
 30
0.0
 11
-0.0999999999993655
 21
0.9999999999999111
 31
0.0
 11
-0.2860606982679208
 21
0.5554716634486781
 31
0.0
  0
SPLINE
  5
377A
330
1F
100
AcDbEntity
  8
AM_0
100
AcDbSpline
210
0.0
220
0.0
230
1.0
 70
     8
 71
     3
 72
     8
 73
     4
 74
     0
 42
0.0000000001
 43
0.0000000001
 40
0.0
 40
0.0
 40
0.0
 40
0.0
 40
3.69259279141909
 40
3.69259279141909
 40
3.69259279141909
 40
3.69259279141909
 10
-1.899999999999091
 20
0.9999999999999076
 30
0.0
 10
-2.146172852760357
 20
0.9999999999999538
 30
0.0
 10
-2.325244888355338
 20
0.8493343478095063
 30
0.0
 10
-2.474050195933434
 20
0.6307089224164884
 30
0.0
  0
SPLINE
  5
377B
330
1F
100
AcDbEntity
  8
AM_0
100
AcDbSpline
210
0.0
220
0.0
230
1.0
 70
     8
 71
     3
 72
     8
 73
     4
 74
     0
 42
0.0000000001
 43
0.0000000001
 40
0.0
 40
0.0
 40
0.0
 40
0.0
 40
2.65269546380069
 40
2.65269546380069
 40
2.65269546380069
 40
2.65269546380069
 10
-3.392067347862212
 20
-0.9247518266135799
 30
0.0
 10
-3.215220983608742
 20
-0.9247518266135799
 30
0.0
 10
-3.071371405000445
 20
-0.846594001888139
 30
0.0
 10
-2.946952347973002
 20
-0.7224120790465136
 30
0.0
  0
SPLINE
  5
377C
330
1F
100
AcDbEntity
  8
AM_0
100
AcDbSpline
210
0.0
220
0.0
230
1.0
 70
     8
 71
     3
 72
     8
 73
     4
 74
     0
 42
0.0000000001
 43
0.0000000001
 40
0.0
 40
0.0
 40
0.0
 40
0.0
 40
1.274172826456642
 40
1.274172826456642
 40
1.274172826456642
 40
1.274172826456642
 10
-3.547401941125099
 20
-0.9700769615890543
 30
0.0
 10
-3.462457086028007
 20
-0.9700769615890543
 30
0.0
 10
-3.385361117286993
 20
-0.9520884807613363
 30
0.0
 10
-3.314602503453898
 20
-0.9195757245029909
 30
0.0
  0
SPLINE
  5
377D
330
1F
100
AcDbEntity
  8
AM_0
100
AcDbSpline
210
0.0
220
0.0
230
1.0
 70
     8
 71
     3
 72
     8
 73
     4
 74
     0
 42
0.0000000001
 43
0.0000000001
 40
0.0
 40
0.0
 40
0.0
 40
0.0
 40
0.9875149967633806
 40
0.9875149967633806
 40
0.9875149967633806
 40
0.9875149967633806
 10
-3.699999999999363
 20
-0.9999999999998436
 30
0.0
 10
-3.634165666881745
 20
-0.9999999999998436
 30
0.0
 10
-3.573130351704367
 20
-0.989224465537589
 30
0.0
 10
-3.516189545084398
 20
-0.9692552754945857
 30
0.0
  0
SPLINE
  5
377E
330
1F
100
AcDbEntity
  8
AM_0
100
AcDbSpline
210
0.0
220
0.0
230
1.0
 70
     8
 71
     3
 72
     8
 73
     4
 74
     0
 42
0.0000000001
 43
0.0000000001
 40
0.0
 40
0.0
 40
0.0
 40
0.0
 40
3.69259279141909
 40
3.69259279141909
 40
3.69259279141909
 40
3.69259279141909
 10
-3.69999999999891
 20
0.9999999999999076
 30
0.0
 10
-3.946172852760175
 20
0.9999999999999538
 30
0.0
 10
-4.125244888355156
 20
0.8493343478095063
 30
0.0
 10
-4.274050195933161
 20
0.6307089224164848
 30
0.0
  0
LINE
  5
3780
330
1F
100
AcDbEntity
  8
AM_11
100
AcDbLine
 10
-6.0
 20
-1.000000000000005
 30
0.0
 11
-0.0864370147372045
 21
-1.0
 31
0.0
  0
LINE
  5
3781
330
1F
100
AcDbEntity
  8
AM_11
100
AcDbLine
 10
-0.0000000000000027
 20
0.9999999999999928
 30
0.0
 11
-6.0
 21
0.9999999999999928
 31
0.0
  0
LINE
  5
3782
330
1F
100
AcDbEntity
  8
AM_0
100
AcDbLine
 10
-2.086060698267649
 20
0.5554716634486781
 30
0.0
 11
-2.946952347986918
 21
0.7224120790602662
 31
0.0
  0
LINE
  5
3783
330
1F
100
AcDbEntity
  8
AM_0
100
AcDbLine
 10
-2.474050195933888
 20
-0.6307089224164919
 30
0.0
 11
-2.946952347986372
 21
-0.7224120790598612
 31
0.0
  0
LINE
  5
3786
330
1F
100
AcDbEntity
  8
AM_0
100
AcDbLine
 10
-7.765106486371497
 20
-0.2536136974354655
 30
0.0
 11
-7.552629530956075
 21
-0.5880802177248228
 31
0.0
  0
ARC
  5
3787
330
1F
100
AcDbEntity
  8
AM_0
100
AcDbCircle
 10
-7.596290710008819
 20
-0.1463698927144001
 30
0.0
 40
0.2
100
AcDbArc
 50
100.9743473747733
 51
100.9743473747734
1001
GENIUS_GENODEF_13
1002
{
1000
HIER
1070
     0
1002
}
1002
{
1000
MANEDIT
1070
     0
1002
}
1002
{
1000
NOSEL
1070
     0
1002
}
1002
{
1000
BEHIND
1070
     0
1002
}
1002
{
1000
REACTOR
1002
}
1001
GENIUS_GENOBJ-N-FIL_13
1002
{
1000
OWNER
1000
GEN
1002
}
  0
LINE
  5
3788
330
1F
100
AcDbEntity
  8
AM_0
100
AcDbLine
 10
-6.074050195933342
 20
-0.6307089224164955
 30
0.0
 11
-6.546952347985826
 21
-0.7224120790598647
 31
0.0
  0
LINE
  5
3789
330
1F
100
AcDbEntity
  8
AM_0
100
AcDbLine
 10
-4.274050195933615
 20
-0.6307089224164919
 30
0.0
 11
-4.746952347986191
 21
-0.7224120790598647
 31
0.0
  0
LINE
  5
378A
330
1F
100
AcDbEntity
  8
AM_0
100
AcDbLine
 10
-5.686060698267194
 20
0.5554716634486745
 30
0.0
 11
-6.546952347986373
 21
0.7224120790602627
 31
0.0
  0
LINE
  5
378C
330
1F
100
AcDbEntity
  8
AM_0
100
AcDbLine
 10
-3.886060698267467
 20
0.5554716634486745
 30
0.0
 11
-4.746952347986738
 21
0.7224120790602627
 31
0.0
  0
LINE
  5
378D
330
1F
100
AcDbEntity
  8
AM_0
100
AcDbLine
 10
-0.0577350269190005
 20
0.1599999999999895
 30
0.0
 11
-0.0000000000000018
 21
0.2599999999999909
 31
0.0
  0
LINE
  5
378E
330
1F
100
AcDbEntity
  8
AM_0
100
AcDbLine
 10
-0.0000000000000018
 20
0.0599999999999881
 30
0.0
 11
-0.2860606982679217
 21
0.5554716634486781
 31
0.0
  0
LINE
  5
378F
330
1F
100
AcDbEntity
  8
AM_0
100
AcDbLine
 10
-0.0864370147372045
 20
-0.9998465311698758
 30
0.0
 11
-0.0000000000000018
 21
-0.9766858028748863
 31
0.0
  0
ARC
  5
3790
330
1F
100
AcDbEntity
  8
AM_0
100
AcDbCircle
 10
2.491475170015836
 20
-0.2119003087976132
 30
0.0
 40
2.603595800053259
100
AcDbArc
 50
170.9425708683469
 51
196.8758087950523
  0
LINE
  5
3791
330
1F
100
AcDbEntity
  8
AM_0
100
AcDbLine
 10
-0.674050195934071
 20
-0.6307089224164884
 30
0.0
 11
-1.146952347986645
 21
-0.7224120790598612
 31
0.0
  0
LINE
  5
3792
330
1F
100
AcDbEntity
  8
AM_0
100
AcDbLine
 10
-0.0000000000000018
 20
-0.9766858028748863
 30
0.0
 11
-0.0000000000000018
 21
0.0599999999999881
 31
0.0
  0
LINE
  5
3793
330
1F
100
AcDbEntity
  8
AM_0
100
AcDbLine
 10
-0.1000000000201942
 20
1.000000000005456
 30
0.0
 11
-0.0000000000000027
 21
0.9732050807569514
 31
0.0
  0
LINE
  5
3794
330
1F
100
AcDbEntity
  8
AM_0
100
AcDbLine
 10
-0.2860606982679217
 20
0.5554716634486781
 30
0.0
 11
-1.146952347987192
 21
0.7224120790602662
 31
0.0
  0
LINE
  5
3795
330
1F
100
AcDbEntity
  8
AM_0
100
AcDbLine
 10
-0.0000000000000018
 20
0.2599999999999909
 30
0.0
 11
-0.0000000000000027
 21
0.9732050807569514
 31
0.0
  0
LINE
  5
379C
330
1F
100
AcDbEntity
  8
AM_11
100
AcDbLine
 10
-6.0
 20
-1.000000000000005
 30
0.0
 11
-6.0
 21
0.9999999999999875
 31
0.0
  0
LINE
  5
379D
330
1F
100
AcDbEntity
  8
AM_11
100
AcDbLine
 10
-0.0000000000000027
 20
-1.0
 30
0.0
 11
-0.0000000000000027
 21
0.9999999999999928
 31
0.0
  0
LINE
  5
397D
330
1F
100
AcDbEntity
  8
AM_0
100
AcDbLine
 10
-6.82871818038198
 20
0.9217008324178584
 30
0.0
 11
-6.828718180381979
 21
0.2830674745445911
 31
0.0
  0
LINE
  5
3ADB
330
1F
100
AcDbEntity
  8
AM_0
100
AcDbLine
 10
-6.0
 20
-0.1793400167743907
 30
0.0
 11
-6.0
 21
-0.7302721662075724
 31
0.0
  0
ARC
  5
3ADE
330
1F
100
AcDbEntity
  8
AM_0
100
AcDbCircle
 10
-2.510020379505485
 20
-15.09161843579574
 30
0.0
 40
15.9697250300972
100
AcDbArc
 50
104.8538278209375
 51
109.0885482275161
  0
ARC
  5
3ADF
330
1F
100
AcDbEntity
  8
AM_0
100
AcDbCircle
 10
-7.596290710008819
 20
-0.1463698927144001
 30
0.0
 40
0.2
100
AcDbArc
 50
132.9583339906985
 51
212.4266204144655
1001
GENIUS_GENODEF_13
1002
{
1000
HIER
1070
     0
1002
}
1002
{
1000
MANEDIT
1070
     0
1002
}
1002
{
1000
NOSEL
1070
     0
1002
}
1002
{
1000
BEHIND
1070
     0
1002
}
1002
{
1000
REACTOR
1002
}
1001
GENIUS_GENOBJ-N-FIL_13
1002
{
1000
OWNER
1000
GEN
1002
}
  0
VIEWPORT
  5
110
330
101
100
AcDbEntity
 67
     1
  8
0
100
AcDbViewport
 10
420.5
 20
297.0
 30
0.0
 40
948.9782706766916
 41
628.452
 68
     1
 69
     1
1001
ACAD
1000
MVIEW
1002
{
1070
    16
1010
0.0
1020
0.0
1030
0.0
1010
0.0
1020
0.0
1030
1.0
1040
0.0
1040
628.452
1040
420.5
1040
297.0
1040
50.0
1040
0.0
1040
0.0
1070
     0
1070
   100
1070
     1
1070
     1
1070
     0
1070
     0
1070
     0
1070
     0
1040
0.0
1040
0.0
1040
0.0
1040
10.0
1040
10.0
1040
10.0
1040
10.0
1070
     0
1002
{
1002
}
1002
}
  0
ENDSEC
  0
SECTION
  2
OBJECTS
  0
DICTIONARY
  5
C
330
0
100
AcDbDictionary
  3
ACAD_GROUP
350
D
  3
ACAD_LAYOUT
350
1A
  3
ACAD_MLINESTYLE
350
17
  3
ACAD_PLOTSETTINGS
350
19
  3
ACAD_PLOTSTYLENAME
350
E
  3
ACDBVARIABLEDICTIONARY
350
34
  3
ACMDICTIONARY
350
43
  3
AMG
350
2B
  3
AMGSNAPSETTINGS
350
6E
  3
ASE_INDEX_DICTIONARY
350
151A
  3
DWGPROPS
350
3AF7
  3
ACDBHEADERROUNDTRIPXREC
350
3B03
  0
DICTIONARY
  5
74
330
1F
100
AcDbDictionary
280
     1
  3
ACAD_INDEX
360
3AF9
  3
ACAD_LAYOUTSELFREF
360
3B26
  0
DICTIONARY
  5
3B2B
330
101
100
AcDbDictionary
280
     1
  3
ACAD_LAYOUTSELFREF
360
3B2C
  0
DICTIONARY
  5
D
102
{ACAD_REACTORS
330
C
102
}
330
C
100
AcDbDictionary
  0
DICTIONARY
  5
1A
102
{ACAD_REACTORS
330
C
102
}
330
C
100
AcDbDictionary
  0
DICTIONARY
  5
17
102
{ACAD_REACTORS
330
C
102
}
330
C
100
AcDbDictionary
  3
STANDARD
350
18
  0
DICTIONARY
  5
19
102
{ACAD_REACTORS
330
C
102
}
330
C
100
AcDbDictionary
  0
ACDBDICTIONARYWDFLT
  5
E
102
{ACAD_REACTORS
330
C
102
}
330
C
100
AcDbDictionary
281
     1
  3
Normal
350
F
100
AcDbDictionaryWithDefault
340
F
  0
DICTIONARY
  5
34
102
{ACAD_REACTORS
330
C
102
}
330
C
100
AcDbDictionary
  3
INDEXCTL
350
35
  3
SORTENTS
350
B5E
  0
DICTIONARY
  5
43
102
{ACAD_REACTORS
330
C
102
}
330
C
100
AcDbDictionary
  3
ACMSTDDICTIONARY
350
260
  0
DICTIONARY
  5
2B
102
{ACAD_REACTORS
330
C
102
}
330
C
100
AcDbDictionary
  3
ACMGSETTINGS
350
2C
  0
DICTIONARY
  5
6E
102
{ACAD_REACTORS
330
C
102
}
330
C
100
AcDbDictionary
  0
DICTIONARY
  5
151A
102
{ACAD_REACTORS
330
C
102
}
330
C
100
AcDbDictionary
  3
ASEBLOCKHIERARCHYINDEXRECORD
350
151C
1001
DCO15
1040
1471862535.906
  0
XRECORD
  5
3AF7
102
{ACAD_REACTORS
330
C
102
}
330
C
100
AcDbXrecord
  1
DWGPROPS COOKIE
  2

  3

  4

  6

  7

  8

  9

300
AmdtFileType=82
301
=
302
=
303
=
304
=
305
=
306
=
307
=
308
=
309
=
 40
0.1345183796296296
 41
2452838.430434386
 42
2453045.46881721
  1

 90
        1
  0
DICTIONARY
  5
3B03
102
{ACAD_REACTORS
330
C
102
}
330
C
100
AcDbDictionary
  3
TSTACKALIGN
350
3B04
  3
TSTACKSIZE
350
3B05
  3
HYPERLINKBASE
350
3B06
  3
STYLESHEET
350
3B07
  3
LAYOUTDICT
350
3B08
  3
PLOTSETDICT
350
3B09
  3
PLOTSTYLNAMDICT
350
3B0A
  3
LWETCUNION
350
3B0B
  3
INSUNITS
350
3B0C
  3
CEPSNTYPE
350
3B0D
  3
FINGERPRINTGUID
350
3B0E
  3
VERSIONGUID
350
3B0F
  3
PSVPSCALE
350
3B10
  3
DIMSTYLEDATA
350
3B11
  3
PUCSORTHOREF
350
3B12
  3
PUCSORTHOVIEW
350
3B13
  3
PUCSBASE
350
3B14
  3
PUCSORGTOP
350
3B15
  3
PUCSORGBOTTOM
350
3B16
  3
PUCSORGLEFT
350
3B17
  3
PUCSORGRIGHT
350
3B18
  3
PUCSORGFRONT
350
3B19
  3
PUCSORGBACK
350
3B1A
  3
UCSORTHOREF
350
3B1B
  3
UCSORTHOVIEW
350
3B1C
  3
UCSBASE
350
3B1D
  3
UCSORGTOP
350
3B1E
  3
UCSORGBOTTOM
350
3B1F
  3
UCSORGLEFT
350
3B20
  3
UCSORGRIGHT
350
3B21
  3
UCSORGFRONT
350
3B22
  3
UCSORGBACK
350
3B23
  0
DICTIONARY
  5
3AF9
102
{ACAD_REACTORS
330
74
102
}
330
74
100
AcDbDictionary
  3
*A1
350
3AFA
  0
XRECORD
  5
3B26
102
{ACAD_REACTORS
330
74
102
}
330
74
100
AcDbXrecord
340
1F
  0
XRECORD
  5
3B2C
102
{ACAD_REACTORS
330
3B2B
102
}
330
3B2B
100
AcDbXrecord
340
101
  0
MLINESTYLE
  5
18
102
{ACAD_REACTORS
330
17
102
}
330
17
100
AcDbMlineStyle
  2
STANDARD
 70
     0
  3

 62
   256
 51
90.0
 52
90.0
 71
     2
 49
0.5
 62
   256
  6
BYLAYER
 49
-0.5
 62
   256
  6
BYLAYER
  0
ACDBPLACEHOLDER
  5
F
102
{ACAD_REACTORS
330
E
102
}
330
E
100
AcDbPlaceHolder
280
     0
  0
DICTIONARYVAR
  5
35
102
{ACAD_REACTORS
330
34
102
}
330
34
100
DictionaryVariables
280
     0
  1
1
  0
DICTIONARYVAR
  5
B5E
102
{ACAD_REACTORS
330
34
102
}
330
34
100
DictionaryVariables
280
     0
  1
96
  0
DICTIONARY
  5
260
102
{ACAD_REACTORS
330
43
102
}
330
43
100
AcDbDictionary
  0
DICTIONARY
  5
2C
102
{ACAD_REACTORS
330
2B
102
}
330
2B
100
AcDbDictionary
  3
DWGSETTINGS
350
2D
  0
XRECORD
  5
151C
102
{ACAD_REACTORS
330
151A
102
}
330
151A
100
AcDbXrecord
330
0
330
0
330
0
330
0
330
1A95
330
1A96
330
0
330
0
  0
XRECORD
  5
3B04
102
{ACAD_REACTORS
330
3B03
102
}
330
3B03
100
AcDbXrecord
 90
        1
  0
XRECORD
  5
3B05
102
{ACAD_REACTORS
330
3B03
102
}
330
3B03
100
AcDbXrecord
 90
       70
  0
XRECORD
  5
3B06
102
{ACAD_REACTORS
330
3B03
102
}
330
3B03
100
AcDbXrecord
  1

  0
XRECORD
  5
3B07
102
{ACAD_REACTORS
330
3B03
102
}
330
3B03
100
AcDbXrecord
  1
ASAMI.ctb
  0
XRECORD
  5
3B08
102
{ACAD_REACTORS
330
3B03
102
}
330
3B03
100
AcDbXrecord
340
1A
  0
XRECORD
  5
3B09
102
{ACAD_REACTORS
330
3B03
102
}
330
3B03
100
AcDbXrecord
340
19
  0
XRECORD
  5
3B0A
102
{ACAD_REACTORS
330
3B03
102
}
330
3B03
100
AcDbXrecord
340
E
  0
XRECORD
  5
3B0B
102
{ACAD_REACTORS
330
3B03
102
}
330
3B03
100
AcDbXrecord
 90
    10781
  0
XRECORD
  5
3B0C
102
{ACAD_REACTORS
330
3B03
102
}
330
3B03
100
AcDbXrecord
 90
        4
  0
XRECORD
  5
3B0D
102
{ACAD_REACTORS
330
3B03
102
}
330
3B03
100
AcDbXrecord
 90
        0
  0
XRECORD
  5
3B0E
102
{ACAD_REACTORS
330
3B03
102
}
330
3B03
100
AcDbXrecord
  1
{AFB28963-8C59-40AE-9337-C84526B81ACE}
  0
XRECORD
  5
3B0F
102
{ACAD_REACTORS
330
3B03
102
}
330
3B03
100
AcDbXrecord
  1
{B53AD8B1-A9F3-4BD0-98AC-DB4A6171E665}
  0
XRECORD
  5
3B10
102
{ACAD_REACTORS
330
3B03
102
}
330
3B03
100
AcDbXrecord
 40
0.0
  0
XRECORD
  5
3B11
102
{ACAD_REACTORS
330
3B03
102
}
330
3B03
100
AcDbXrecord
1000
DSTYLE
1002
{
1070
    79
 70
     2
1070
   341
340
59
1070
   342
340
59
1070
   371
 70
    -1
1070
   372
 70
    -1
1002
}
  0
XRECORD
  5
3B12
102
{ACAD_REACTORS
330
3B03
102
}
330
3B03
100
AcDbXrecord
340
0
  0
XRECORD
  5
3B13
102
{ACAD_REACTORS
330
3B03
102
}
330
3B03
100
AcDbXrecord
 70
     0
  0
XRECORD
  5
3B14
102
{ACAD_REACTORS
330
3B03
102
}
330
3B03
100
AcDbXrecord
340
0
  0
XRECORD
  5
3B15
102
{ACAD_REACTORS
330
3B03
102
}
330
3B03
100
AcDbXrecord
 10
0.0
 20
0.0
 30
0.0
  0
XRECORD
  5
3B16
102
{ACAD_REACTORS
330
3B03
102
}
330
3B03
100
AcDbXrecord
 10
0.0
 20
0.0
 30
0.0
  0
XRECORD
  5
3B17
102
{ACAD_REACTORS
330
3B03
102
}
330
3B03
100
AcDbXrecord
 10
0.0
 20
0.0
 30
0.0
  0
XRECORD
  5
3B18
102
{ACAD_REACTORS
330
3B03
102
}
330
3B03
100
AcDbXrecord
 10
0.0
 20
0.0
 30
0.0
  0
XRECORD
  5
3B19
102
{ACAD_REACTORS
330
3B03
102
}
330
3B03
100
AcDbXrecord
 10
0.0
 20
0.0
 30
0.0
  0
XRECORD
  5
3B1A
102
{ACAD_REACTORS
330
3B03
102
}
330
3B03
100
AcDbXrecord
 10
0.0
 20
0.0
 30
0.0
  0
XRECORD
  5
3B1B
102
{ACAD_REACTORS
330
3B03
102
}
330
3B03
100
AcDbXrecord
340
0
  0
XRECORD
  5
3B1C
102
{ACAD_REACTORS
330
3B03
102
}
330
3B03
100
AcDbXrecord
 70
     0
  0
XRECORD
  5
3B1D
102
{ACAD_REACTORS
330
3B03
102
}
330
3B03
100
AcDbXrecord
340
0
  0
XRECORD
  5
3B1E
102
{ACAD_REACTORS
330
3B03
102
}
330
3B03
100
AcDbXrecord
 10
0.0
 20
0.0
 30
0.0
  0
XRECORD
  5
3B1F
102
{ACAD_REACTORS
330
3B03
102
}
330
3B03
100
AcDbXrecord
 10
0.0
 20
0.0
 30
0.0
  0
XRECORD
  5
3B20
102
{ACAD_REACTORS
330
3B03
102
}
330
3B03
100
AcDbXrecord
 10
0.0
 20
0.0
 30
0.0
  0
XRECORD
  5
3B21
102
{ACAD_REACTORS
330
3B03
102
}
330
3B03
100
AcDbXrecord
 10
0.0
 20
0.0
 30
0.0
  0
XRECORD
  5
3B22
102
{ACAD_REACTORS
330
3B03
102
}
330
3B03
100
AcDbXrecord
 10
0.0
 20
0.0
 30
0.0
  0
XRECORD
  5
3B23
102
{ACAD_REACTORS
330
3B03
102
}
330
3B03
100
AcDbXrecord
 10
0.0
 20
0.0
 30
0.0
  0
LAYER_INDEX
  5
3AFA
102
{ACAD_REACTORS
330
3AF9
102
}
330
3AF9
100
AcDbIndex
 40
2453152.473655208
100
AcDbLayerIndex
  8
0
360
3AFB
 90
        0
  8
AM_0
360
3AFC
 90
       64
  8
AM_11
360
3AFD
 90
        4
  8
AM_7
360
3AFE
 90
        1
  8
AM_5
360
3AFF
 90
        4
  8
Defpoints
360
3B00
 90
        0
  8
AM_6
360
3B01
 90
        1
  0
XRECORD
  5
2D
102
{ACAD_REACTORS
330
2C
102
}
330
2C
100
AcDbXrecord
  1
VERSION
140
15.0
  1
PRODUCT
  2
AutoCAD Mechanical 2000
  0
IDBUFFER
  5
3AFB
330
0
100
AcDbIdBuffer
  0
IDBUFFER
  5
3AFC
330
0
100
AcDbIdBuffer
330
3789
330
378A
330
378C
330
378D
330
378E
330
378F
330
3790
330
3791
330
3792
330
3793
330
3794
330
3795
330
397D
330
3ADB
330
3ADE
330
3ADF
330
C38
330
C39
330
1A81
330
1A82
330
1A83
330
1A84
330
1A85
330
1A86
330
1A87
330
3755
330
3757
330
3758
330
375A
330
375B
330
375C
330
375D
330
375F
330
3760
330
3761
330
3763
330
3764
330
3765
330
3766
330
3767
330
3768
330
3769
330
376B
330
376C
330
376E
330
376F
330
3770
330
3771
330
3773
330
3774
330
3776
330
3777
330
3778
330
3779
330
377A
330
377B
330
377C
330
377D
330
377E
330
3782
330
3783
330
3786
330
3787
330
3788
  0
IDBUFFER
  5
3AFD
330
0
100
AcDbIdBuffer
330
3780
330
3781
330
379C
330
379D
  0
IDBUFFER
  5
3AFE
330
0
100
AcDbIdBuffer
330
C2E
  0
IDBUFFER
  5
3AFF
330
0
100
AcDbIdBuffer
330
10F0
330
12D8
330
1A73
330
31A2
  0
IDBUFFER
  5
3B00
330
0
100
AcDbIdBuffer
  0
IDBUFFER
  5
3B01
330
0
100
AcDbIdBuffer
330
1500
  0
ENDSEC
  0
EOF
