  0
SECTION
  2
HEADER
  9
$ACADVER
  1
AC1014
  9
$ACADMAINTVER
 70
     9
  9
$DWGCODEPAGE
  3
ANSI_932
  9
$INSBASE
 10
0.0
 20
0.0
 30
0.0
  9
$EXTMIN
 10
-55.850001
 20
-27.25000099999997
 30
-0.00000001
  9
$EXTMAX
 10
9.551050680252128
 20
5.499999999999996
 30
0.00000001
  9
$LIMMIN
 10
-59.15084248051645
 20
-32.62800210594363
  9
$LIMMAX
 10
17.0718491009257
 20
12.46911654738932
  9
$ORTHOMODE
 70
     0
  9
$REGENMODE
 70
     1
  9
$FILLMODE
 70
     1
  9
$QTEXTMODE
 70
     0
  9
$MIRRTEXT
 70
     0
  9
$DRAGMODE
 70
     2
  9
$LTSCALE
 40
1.0
  9
$OSMODE
 70
    55
  9
$ATTMODE
 70
     1
  9
$TEXTSIZE
 40
2.5
  9
$TRACEWID
 40
1.0
  9
$TEXTSTYLE
  7
STANDARD
  9
$CLAYER
  8
AM_0
  9
$CELTYPE
  6
BYLAYER
  9
$CECOLOR
 62
   256
  9
$CELTSCALE
 40
1.0
  9
$DELOBJ
 70
     1
  9
$DISPSILH
 70
     0
  9
$DIMSCALE
 40
0.5
  9
$DIMASZ
 40
2.5
  9
$DIMEXO
 40
1.0
  9
$DIMDLI
 40
12.0
  9
$DIMRND
 40
0.0
  9
$DIMDLE
 40
0.0
  9
$DIMEXE
 40
1.0
  9
$DIMTP
 40
0.1
  9
$DIMTM
 40
0.1
  9
$DIMTXT
 40
3.2
  9
$DIMCEN
 40
0.0
  9
$DIMTSZ
 40
0.0
  9
$DIMTOL
 70
     0
  9
$DIMLIM
 70
     0
  9
$DIMTIH
 70
     0
  9
$DIMTOH
 70
     0
  9
$DIMSE1
 70
     0
  9
$DIMSE2
 70
     0
  9
$DIMTAD
 70
     3
  9
$DIMZIN
 70
     8
  9
$DIMBLK
  1
OPEN30
  9
$DIMASO
 70
     1
  9
$DIMSHO
 70
     1
  9
$DIMPOST
  1

  9
$DIMAPOST
  1
"
  9
$DIMALT
 70
     0
  9
$DIMALTD
 70
     2
  9
$DIMALTF
 40
0.0393701
  9
$DIMLFAC
 40
1.0
  9
$DIMTOFL
 70
     1
  9
$DIMTVP
 40
0.0
  9
$DIMTIX
 70
     0
  9
$DIMSOXD
 70
     0
  9
$DIMSAH
 70
     0
  9
$DIMBLK1
  1

  9
$DIMBLK2
  1

  9
$DIMSTYLE
  2
AM_JIS
  9
$DIMCLRD
 70
   256
  9
$DIMCLRE
 70
   256
  9
$DIMCLRT
 70
     2
  9
$DIMTFAC
 40
0.71
  9
$DIMGAP
 40
1.5
  9
$DIMJUST
 70
     0
  9
$DIMSD1
 70
     0
  9
$DIMSD2
 70
     0
  9
$DIMTOLJ
 70
     0
  9
$DIMTZIN
 70
     0
  9
$DIMALTZ
 70
     0
  9
$DIMALTTZ
 70
     0
  9
$DIMFIT
 70
     3
  9
$DIMUPT
 70
     0
  9
$DIMUNIT
 70
     2
  9
$DIMDEC
 70
     3
  9
$DIMTDEC
 70
     3
  9
$DIMALTU
 70
     2
  9
$DIMALTTD
 70
     2
  9
$DIMTXSTY
  7
ASAMI
  9
$DIMAUNIT
 70
     0
  9
$LUNITS
 70
     2
  9
$LUPREC
 70
     2
  9
$SKETCHINC
 40
1.0
  9
$FILLETRAD
 40
2.5
  9
$AUNITS
 70
     0
  9
$AUPREC
 70
     0
  9
$MENU
  1
.
  9
$ELEVATION
 40
0.0
  9
$PELEVATION
 40
0.0
  9
$THICKNESS
 40
0.0
  9
$LIMCHECK
 70
     0
  9
$BLIPMODE
 70
     0
  9
$CHAMFERA
 40
0.5
  9
$CHAMFERB
 40
0.5
  9
$CHAMFERC
 40
20.0
  9
$CHAMFERD
 40
0.0
  9
$SKPOLY
 70
     0
  9
$TDCREATE
 40
2452838.430434386
  9
$TDUPDATE
 40
2453152.473830810
  9
$TDINDWG
 40
0.1393741667
  9
$TDUSRTIMER
 40
0.1393741667
  9
$USRTIMER
 70
     1
  9
$ANGBASE
 50
0.0
  9
$ANGDIR
 70
     0
  9
$PDMODE
 70
     0
  9
$PDSIZE
 40
0.0
  9
$PLINEWID
 40
0.0
  9
$COORDS
 70
     1
  9
$SPLFRAME
 70
     0
  9
$SPLINETYPE
 70
     6
  9
$SPLINESEGS
 70
     8
  9
$ATTDIA
 70
     1
  9
$ATTREQ
 70
     1
  9
$HANDLING
 70
 12289
  9
$HANDSEED
  5
3DDA
  9
$SURFTAB1
 70
     6
  9
$SURFTAB2
 70
     6
  9
$SURFTYPE
 70
     6
  9
$SURFU
 70
     6
  9
$SURFV
 70
     6
  9
$UCSNAME
  2

  9
$UCSORG
 10
0.0
 20
0.0
 30
0.0
  9
$UCSXDIR
 10
1.0
 20
0.0
 30
0.0
  9
$UCSYDIR
 10
0.0
 20
1.0
 30
0.0
  9
$PUCSNAME
  2

  9
$PUCSORG
 10
0.0
 20
0.0
 30
0.0
  9
$PUCSXDIR
 10
1.0
 20
0.0
 30
0.0
  9
$PUCSYDIR
 10
0.0
 20
1.0
 30
0.0
  9
$USERI1
 70
     0
  9
$USERI2
 70
     0
  9
$USERI3
 70
     0
  9
$USERI4
 70
     0
  9
$USERI5
 70
     0
  9
$USERR1
 40
0.0
  9
$USERR2
 40
0.0
  9
$USERR3
 40
0.0
  9
$USERR4
 40
0.0
  9
$USERR5
 40
0.0
  9
$WORLDVIEW
 70
     1
  9
$SHADEDGE
 70
     3
  9
$SHADEDIF
 70
    70
  9
$TILEMODE
 70
     1
  9
$MAXACTVP
 70
    64
  9
$PINSBASE
 10
0.0
 20
0.0
 30
0.0
  9
$PLIMCHECK
 70
     0
  9
$PEXTMIN
 10
1.000000000000000E+20
 20
1.000000000000000E+20
 30
1.000000000000000E+20
  9
$PEXTMAX
 10
-1.000000000000000E+20
 20
-1.000000000000000E+20
 30
-1.000000000000000E+20
  9
$PLIMMIN
 10
0.0
 20
0.0
  9
$PLIMMAX
 10
841.0
 20
594.0
  9
$UNITMODE
 70
     0
  9
$VISRETAIN
 70
     1
  9
$PLINEGEN
 70
     0
  9
$PSLTSCALE
 70
     0
  9
$TREEDEPTH
 70
  3020
  9
$PICKSTYLE
 70
     0
  9
$CMLSTYLE
  2
STANDARD
  9
$CMLJUST
 70
     0
  9
$CMLSCALE
 40
20.0
  9
$PROXYGRAPHICS
 70
     1
  9
$MEASUREMENT
 70
     1
  0
ENDSEC
  0
SECTION
  2
CLASSES
  0
CLASS
  1
ACDBDICTIONARYWDFLT
  2
AcDbDictionaryWithDefault
  3
AutoCAD 2000
 90
        0
280
     0
281
     0
  0
CLASS
  1
ACDBPLACEHOLDER
  2
AcDbPlaceHolder
  3
AutoCAD 2000
 90
        0
280
     0
281
     0
  0
CLASS
  1
LAYOUT
  2
AcDbLayout
  3
AutoCAD 2000
 90
        0
280
     0
281
     0
  0
CLASS
  1
AMGSETTINGSOBJ
  2
AmgSettingsObj
  3
"AcadM|Product Description: AutoCAD Mechanical 2000|Company: Autodesk"
 90
        0
280
     0
281
     0
  0
CLASS
  1
ACME_DOCUMENT
  2
AcMeDbDoc
  3
AcMeServices
 90
        0
280
     0
281
     0
  0
CLASS
  1
ACMESCOPE
  2
AcMeScope
  3
AcMeServices
 90
        0
280
     0
281
     0
  0
CLASS
  1
ACMECOMMANDHISTORY
  2
AcMeCommandHistory
  3
AcMeServices
 90
        0
280
     0
281
     0
  0
CLASS
  1
DICTIONARYVAR
  2
AcDbDictionaryVar
  3
AutoCAD 2000
 90
        0
280
     0
281
     0
  0
CLASS
  1
ACIMSYSVARMAN
  2
AcImSysVarManager
  3
AcMeServices
 90
        0
280
     0
281
     0
  0
CLASS
  1
ACIMREALSYSVAR
  2
AcImRealSysVar
  3
AcMeServices
 90
        0
280
     0
281
     0
  0
CLASS
  1
ACIMINTSYSVAR
  2
AcImIntSysVar
  3
AcMeServices
 90
        0
280
     0
281
     0
  0
CLASS
  1
ACMEDRAWINGMAN
  2
AcMeDrawingMan
  3
AcMeServices
 90
        0
280
     0
281
     0
  0
CLASS
  1
ACMEVIEW
  2
AcMeView
  3
AcMeServices
 90
        0
280
     0
281
     0
  0
CLASS
  1
ACDBENTITYCACHE
  2
AcMeEntityCache
  3
AcMeServices
 90
        0
280
     0
281
     0
  0
CLASS
  1
GSMANAGER
  2
AcMeGSManager
  3
AcMeServices
 90
        0
280
     0
281
     0
  0
CLASS
  1
AmdtInternalReactor
  2
AmdtInternalReactor
  3
AcMeServices
 90
        0
280
     0
281
     0
  0
CLASS
  1
ACMESTATEMGR
  2
AcMeStateMgr
  3
AcMeServices
 90
        0
280
     0
281
     0
  0
CLASS
  1
ACME_DATABASE
  2
AcMeDbDatabase
  3
AcMeServices
 90
        0
280
     0
281
     0
  0
CLASS
  1
ACRFINSADJUSTERMGR
  2
AcRfInsAdjusterMgr
  3
AcMeServices
 90
        0
280
     0
281
     0
  0
CLASS
  1
ACMDATADICTIONARY
  2
AcmDataDictionary
  3
"AcmSymBB|Product Description: AutoCAD Mechanical 2000|Company: Autodesk"
 90
        0
280
     0
281
     0
  0
CLASS
  1
ACMDATAENTRYBLOCK
  2
AcmDataEntryBlock
  3
"AcmSymBB|Product Description: AutoCAD Mechanical 2000|Company: Autodesk"
 90
        0
280
     0
281
     0
  0
CLASS
  1
AMGOBJPROPCFG
  2
AmgObjPropCfg
  3
"AmgLay|Product Description: AutoCAD Mechanical 2000|Company: Autodesk"
 90
        1
280
     0
281
     0
  0
CLASS
  1
ACAMGFILTERDAT
  2
AcAmgFilterDat
  3
"AcadM|Product Description: AutoCAD Mechanical 2000|Company: Autodesk"
 90
        0
280
     0
281
     0
  0
CLASS
  1
LAYER_INDEX
  2
AcDbLayerIndex
  3
AutoCAD 2000
 90
        0
280
     0
281
     0
  0
CLASS
  1
IDBUFFER
  2
AcDbIdBuffer
  3
AutoCAD 2000
 90
        0
280
     0
281
     0
  0
CLASS
  1
ACIMSTRSYSVAR
  2
AcImStrSysVar
  3
AcMeServices
 90
        0
280
     0
281
     0
  0
CLASS
  1
ACMSTANDARDJIS
  2
AcmStandardJIS
  3
"AcmSymBB|Product Description: AutoCAD Mechanical 2000|Company: Autodesk"
 90
        0
280
     0
281
     0
  0
CLASS
  1
ACMSURFSTANDARDJIS
  2
AcmSurfTextStdJIS
  3
"AcmSymBB|Product Description: AutoCAD Mechanical 2000|Company: Autodesk"
 90
        0
280
     0
281
     0
  0
CLASS
  1
ACMFCFSTANDARDJIS
  2
AcmFCFStdJIS
  3
"AcmSymBB|Product Description: AutoCAD Mechanical 2000|Company: Autodesk"
 90
        0
280
     0
281
     0
  0
CLASS
  1
ACMWELDSTANDARDJIS
  2
AcmWeldingStdJIS
  3
"AcmSymBB|Product Description: AutoCAD Mechanical 2000|Company: Autodesk"
 90
        0
280
     0
281
     0
  0
CLASS
  1
ACMIDSTANDARDJIS
  2
AcmIdStdJIS
  3
"AcmSymBB|Product Description: AutoCAD Mechanical 2000|Company: Autodesk"
 90
        0
280
     0
281
     0
  0
CLASS
  1
ACMDATUMSTANDARDJIS
  2
AcmDatumStdJIS
  3
"AcmSymBB|Product Description: AutoCAD Mechanical 2000|Company: Autodesk"
 90
        0
280
     0
281
     0
  0
CLASS
  1
ACMBOMSTANDARDJIS
  2
AcmBOMStdJIS
  3
"AcmSymBB|Product Description: AutoCAD Mechanical 2000|Company: Autodesk"
 90
        0
280
     0
281
     0
  0
CLASS
  1
ACMSTANDARDANSI
  2
AcmStandardANSI
  3
"AcmSymBB|Product Description: AutoCAD Mechanical 2000|Company: Autodesk"
 90
        0
280
     0
281
     0
  0
CLASS
  1
ACMSURFSTANDARDANSI
  2
AcmSurfTextStdANSI
  3
"AcmSymBB|Product Description: AutoCAD Mechanical 2000|Company: Autodesk"
 90
        0
280
     0
281
     0
  0
CLASS
  1
ACMFCFSTANDARDANSI
  2
AcmFCFStdANSI
  3
"AcmSymBB|Product Description: AutoCAD Mechanical 2000|Company: Autodesk"
 90
        0
280
     0
281
     0
  0
CLASS
  1
ACMWELDSTANDARDANSI
  2
AcmWeldingStdANSI
  3
"AcmSymBB|Product Description: AutoCAD Mechanical 2000|Company: Autodesk"
 90
        0
280
     0
281
     0
  0
CLASS
  1
ACMIDSTANDARDANSI
  2
AcmIdStdANSI
  3
"AcmSymBB|Product Description: AutoCAD Mechanical 2000|Company: Autodesk"
 90
        0
280
     0
281
     0
  0
CLASS
  1
ACMDATUMSTANDARDANSI
  2
AcmDatumStdANSI
  3
"AcmSymBB|Product Description: AutoCAD Mechanical 2000|Company: Autodesk"
 90
        0
280
     0
281
     0
  0
CLASS
  1
ACMBOMSTANDARDANSI
  2
AcmBOMStdANSI
  3
"AcmSymBB|Product Description: AutoCAD Mechanical 2000|Company: Autodesk"
 90
        0
280
     0
281
     0
  0
CLASS
  1
ACMSTANDARDBSI
  2
AcmStandardBSI
  3
"AcmSymBB|Product Description: AutoCAD Mechanical 2000|Company: Autodesk"
 90
        0
280
     0
281
     0
  0
CLASS
  1
ACMSURFSTANDARDBSI
  2
AcmSurfTextStdBSI
  3
"AcmSymBB|Product Description: AutoCAD Mechanical 2000|Company: Autodesk"
 90
        0
280
     0
281
     0
  0
CLASS
  1
ACMFCFSTANDARDBSI
  2
AcmFCFStdBSI
  3
"AcmSymBB|Product Description: AutoCAD Mechanical 2000|Company: Autodesk"
 90
        0
280
     0
281
     0
  0
CLASS
  1
ACMWELDSTANDARDBSI
  2
AcmWeldingStdBSI
  3
"AcmSymBB|Product Description: AutoCAD Mechanical 2000|Company: Autodesk"
 90
        0
280
     0
281
     0
  0
CLASS
  1
ACMIDSTANDARDBSI
  2
AcmIdStdBSI
  3
"AcmSymBB|Product Description: AutoCAD Mechanical 2000|Company: Autodesk"
 90
        0
280
     0
281
     0
  0
CLASS
  1
ACMDATUMSTANDARDBSI
  2
AcmDatumStdBSI
  3
"AcmSymBB|Product Description: AutoCAD Mechanical 2000|Company: Autodesk"
 90
        0
280
     0
281
     0
  0
CLASS
  1
ACMBOMSTANDARDBSI
  2
AcmBOMStdBSI
  3
"AcmSymBB|Product Description: AutoCAD Mechanical 2000|Company: Autodesk"
 90
        0
280
     0
281
     0
  0
CLASS
  1
LONG_TRANSACTION
  2
AcDbLongTransaction
  3
AutoCAD 2000
 90
        0
280
     0
281
     0
  0
CLASS
  1
LWPOLYLINE
  2
AcDbPolyline
  3
AutoCAD 2000
 90
        0
280
     0
281
     1
  0
CLASS
  1
HATCH
  2
AcDbHatch
  3
AutoCAD 2000
 90
        0
280
     0
281
     1
  0
CLASS
  1
XRECORD
  2
AcDbXrecord
  3
AutoCAD 2000
 90
        0
280
     0
281
     0
  0
ENDSEC
  0
SECTION
  2
TABLES
  0
TABLE
  2
VPORT
  5
8
330
0
100
AcDbSymbolTable
 70
     3
  0
VPORT
  5
3DAF
330
8
100
AcDbSymbolTableRecord
100
AcDbViewportTableRecord
  2
*ACTIVE
 70
     0
 10
0.0
 20
0.0
 11
1.0
 21
1.0
 12
-20.17675286274643
 22
-5.924529389586702
 13
0.0
 23
0.0
 14
2.5
 24
2.5
 15
10.0
 25
10.0
 16
0.0
 26
0.0
 36
1.0
 17
0.0
 27
0.0
 37
0.0
 40
59.5127742085897
 41
1.56570841889117
 42
50.0
 43
0.0
 44
0.0
 50
0.0
 51
0.0
 71
     0
 72
   100
 73
     1
 74
     3
 75
     0
 76
     0
 77
     0
 78
     0
  0
ENDTAB
  0
TABLE
  2
LTYPE
  5
5
330
0
100
AcDbSymbolTable
 70
    10
  0
LTYPE
  5
14
330
5
100
AcDbSymbolTableRecord
100
AcDbLinetypeTableRecord
  2
BYBLOCK
 70
     0
  3

 72
    65
 73
     0
 40
0.0
  0
LTYPE
  5
15
330
5
100
AcDbSymbolTableRecord
100
AcDbLinetypeTableRecord
  2
BYLAYER
 70
     0
  3

 72
    65
 73
     0
 40
0.0
  0
LTYPE
  5
16
330
5
100
AcDbSymbolTableRecord
100
AcDbLinetypeTableRecord
  2
CONTINUOUS
 70
     0
  3
Solid line
 72
    65
 73
     0
 40
0.0
  0
LTYPE
  5
4B
330
5
100
AcDbSymbolTableRecord
100
AcDbLinetypeTableRecord
  2
AM_ISO02W050
 70
     0
  3
__ __ __ __ __ __ __ __ __ __ __ __ __ __ __
 72
    65
 73
     2
 40
7.5
 49
6.0
 74
     0
 49
-1.5
 74
     0
  0
LTYPE
  5
4C
330
5
100
AcDbSymbolTableRecord
100
AcDbLinetypeTableRecord
  2
AM_ISO08W050
 70
     0
  3
____ . ____ . ____ . ____ . ____ . ____ . ____
 72
    65
 73
     4
 40
18.0
 49
12.0
 74
     0
 49
-1.5
 74
     0
 49
3.0
 74
     0
 49
-1.5
 74
     0
  0
LTYPE
  5
4D
330
5
100
AcDbSymbolTableRecord
100
AcDbLinetypeTableRecord
  2
AM_ISO09W050
 70
     0
  3
_____ . . _____ . . _____ . . ____ .. ____
 72
    65
 73
     6
 40
22.5
 49
12.0
 74
     0
 49
-1.5
 74
     0
 49
3.0
 74
     0
 49
-1.5
 74
     0
 49
3.0
 74
     0
 49
-1.5
 74
     0
  0
LTYPE
  5
4E
330
5
100
AcDbSymbolTableRecord
100
AcDbLinetypeTableRecord
  2
AMCONSTR
 70
     0
  3
_______________________
 72
    65
 73
     2
 40
9999.0
 49
9999.0
 74
     0
 49
0.0
 74
     0
  0
LTYPE
  5
4F
330
5
100
AcDbSymbolTableRecord
100
AcDbLinetypeTableRecord
  2
AM_ISO02W050X2
 70
     0
  3
 _ _ _ _ _ _ _ _ _ _ _ _
 72
    65
 73
     2
 40
3.75
 49
3.0
 74
     0
 49
-0.75
 74
     0
  0
LTYPE
  5
50
330
5
100
AcDbSymbolTableRecord
100
AcDbLinetypeTableRecord
  2
AM_ISO08W050X2
 70
     0
  3
__ . __ . __ . __ . __ . __
 72
    65
 73
     4
 40
9.0
 49
6.0
 74
     0
 49
-0.75
 74
     0
 49
1.5
 74
     0
 49
-0.75
 74
     0
  0
LTYPE
  5
53
330
5
100
AcDbSymbolTableRecord
100
AcDbLinetypeTableRecord
  2
AMZIGZAG
 70
     0
  3
/\/-/\/-/\/-/\/-/\/-/\/
 72
    65
 73
     2
 40
11.00009999999999
 49
0.0001
 74
     4
 75
   135
340
52
 46
0.04
 50
0.0
 44
0.0
 45
0.0
 49
-11.0
 74
     0
  0
LTYPE
  5
166
330
5
100
AcDbSymbolTableRecord
100
AcDbLinetypeTableRecord
  2
ACJISTGL
 70
     0
  3
_ _ _ _ _
 72
    65
 73
     2
 40
3.0
 49
2.0
 74
     0
 49
-1.0
 74
     0
  0
LTYPE
  5
26A
330
5
100
AcDbSymbolTableRecord
100
AcDbLinetypeTableRecord
  2
ACJISTGB
 70
     0
  3
__ . . __ . .
 72
    65
 73
     6
 40
9.0
 49
4.0
 74
     0
 49
-1.0
 74
     0
 49
1.0
 74
     0
 49
-1.0
 74
     0
 49
1.0
 74
     0
 49
-1.0
 74
     0
  0
ENDTAB
  0
TABLE
  2
LAYER
  5
2
330
0
100
AcDbSymbolTable
 70
     7
  0
LAYER
  5
10
330
2
100
AcDbSymbolTableRecord
100
AcDbLayerTableRecord
  2
0
 70
     0
 62
     7
  6
CONTINUOUS
  0
LAYER
  5
3F9
330
2
100
AcDbSymbolTableRecord
100
AcDbLayerTableRecord
  2
AM_0
 70
     0
 62
     7
  6
CONTINUOUS
  0
LAYER
  5
BDD
330
2
100
AcDbSymbolTableRecord
100
AcDbLayerTableRecord
  2
AM_11
 70
     0
 62
     3
  6
AM_ISO09W050
  0
LAYER
  5
BDE
330
2
100
AcDbSymbolTableRecord
100
AcDbLayerTableRecord
  2
AM_7
 70
     0
 62
     4
  6
AM_ISO08W050
  0
LAYER
  5
BDF
330
2
100
AcDbSymbolTableRecord
100
AcDbLayerTableRecord
  2
AM_5
 70
     0
 62
     3
  6
CONTINUOUS
  0
LAYER
  5
BE0
330
2
100
AcDbSymbolTableRecord
100
AcDbLayerTableRecord
  2
DEFPOINTS
 70
     0
 62
     7
  6
CONTINUOUS
  0
LAYER
  5
14FF
330
2
100
AcDbSymbolTableRecord
100
AcDbLayerTableRecord
  2
AM_6
 70
     0
 62
     2
  6
CONTINUOUS
  0
ENDTAB
  0
TABLE
  2
STYLE
  5
3
330
0
100
AcDbSymbolTable
 70
     5
  0
STYLE
  5
11
330
3
100
AcDbSymbolTableRecord
100
AcDbTextStyleTableRecord
  2
STANDARD
 70
     0
 40
0.0
 41
1.0
 50
0.0
 71
     0
 42
2.5
  3
simplex.shx
  4
EXTFONT.SHX
  0
STYLE
  5
52
330
3
100
AcDbSymbolTableRecord
100
AcDbTextStyleTableRecord
  2

 70
     1
 40
0.0
 41
1.0
 50
0.0
 71
     0
 42
2.5
  3
ltypeshp.shx
  4

  0
STYLE
  5
6B
330
3
100
AcDbSymbolTableRecord
100
AcDbTextStyleTableRecord
  2
ASAMI
 70
     0
 40
0.0
 41
1.0
 50
0.0
 71
     0
 42
2.5
  3
simplex.shx
  4
EXTFONT.SHX
  0
STYLE
  5
262
330
3
100
AcDbSymbolTableRecord
100
AcDbTextStyleTableRecord
  2
ACJISTS
 70
     0
 40
1.0
 41
1.0
 50
0.0
 71
     0
 42
2.5
  3
simplex.shx
  4
bigfont.shx
  0
STYLE
  5
269
330
3
100
AcDbSymbolTableRecord
100
AcDbTextStyleTableRecord
  2
ACJISGDT
 70
     0
 40
0.0
 41
1.0
 50
0.0
 71
     0
 42
2.5
  3
amgdtans.shx
  4

  0
ENDTAB
  0
TABLE
  2
VIEW
  5
6
330
0
100
AcDbSymbolTable
 70
     0
  0
ENDTAB
  0
TABLE
  2
UCS
  5
7
330
0
100
AcDbSymbolTable
 70
     0
  0
ENDTAB
  0
TABLE
  2
APPID
  5
9
330
0
100
AcDbSymbolTable
 70
    14
  0
APPID
  5
12
330
9
100
AcDbSymbolTableRecord
100
AcDbRegAppTableRecord
  2
ACAD
 70
     0
  0
APPID
  5
30
330
9
100
AcDbSymbolTableRecord
100
AcDbRegAppTableRecord
  2
MCAD_NO_VIS
 70
     0
  0
APPID
  5
31
330
9
100
AcDbSymbolTableRecord
100
AcDbRegAppTableRecord
  2
ACAD_TEMP_GRAPHIC
 70
     0
  0
APPID
  5
2C2
330
9
100
AcDbSymbolTableRecord
100
AcDbRegAppTableRecord
  2
GENIUS_GENDTOL_13
 70
     0
  0
APPID
  5
339
330
9
100
AcDbSymbolTableRecord
100
AcDbRegAppTableRecord
  2
GENIUS_GENODEF_13
 70
     0
  0
APPID
  5
33A
330
9
100
AcDbSymbolTableRecord
100
AcDbRegAppTableRecord
  2
GENIUS_GENOBJ-N-RSBK_13
 70
     0
  0
APPID
  5
33B
330
9
100
AcDbSymbolTableRecord
100
AcDbRegAppTableRecord
  2
GENIUS_GENOBJ-N-LIB_13
 70
     0
  0
APPID
  5
33C
330
9
100
AcDbSymbolTableRecord
100
AcDbRegAppTableRecord
  2
GENIUS_GENSCALE_13
 70
     0
  0
APPID
  5
378
330
9
100
AcDbSymbolTableRecord
100
AcDbRegAppTableRecord
  2
GENIUS_GENDIMSH_14
 70
     0
  0
APPID
  5
BE1
330
9
100
AcDbSymbolTableRecord
100
AcDbRegAppTableRecord
  2
GENIUS_GENFIL_13
 70
     0
  0
APPID
  5
BE2
330
9
100
AcDbSymbolTableRecord
100
AcDbRegAppTableRecord
  2
GENIUS_GENOBJ-N-CHA_13
 70
     0
  0
APPID
  5
151B
330
9
100
AcDbSymbolTableRecord
100
AcDbRegAppTableRecord
  2
DCO15
 70
     0
  0
APPID
  5
1860
330
9
100
AcDbSymbolTableRecord
100
AcDbRegAppTableRecord
  2
GENIUS_GENOBJ-N-CEN_13
 70
     0
  0
APPID
  5
359C
330
9
100
AcDbSymbolTableRecord
100
AcDbRegAppTableRecord
  2
GENIUS_GENOBJ-N-FIL_13
 70
     0
  0
ENDTAB
  0
TABLE
  2
DIMSTYLE
  5
A
330
0
100
AcDbSymbolTable
 70
     8
  0
DIMSTYLE
105
58
102
{ACAD_REACTORS
330
10F0
330
12D8
330
31A2
330
37E3
102
}
330
A
100
AcDbSymbolTableRecord
100
AcDbDimStyleTableRecord
  2
AM_JIS
 70
     0
  3

  4
"
  5
OPEN30
  6

  7

 40
0.5
 41
2.5
 42
1.0
 43
12.0
 44
1.0
 45
0.0
 46
0.0
 47
0.1
 48
0.1
140
3.2
141
0.0
142
0.0
143
0.0393701
144
1.0
145
0.0
146
0.71
147
1.5
 71
     0
 72
     0
 73
     0
 74
     0
 75
     0
 76
     0
 77
     3
 78
     8
170
     0
171
     2
172
     1
173
     0
174
     0
175
     0
176
   256
177
   256
178
     2
270
     2
271
     3
272
     3
273
     2
274
     2
340
6B
275
     0
280
     0
281
     0
282
     0
283
     0
284
     0
285
     0
286
     0
287
     3
288
     0
  0
DIMSTYLE
105
5F
330
A
100
AcDbSymbolTableRecord
100
AcDbDimStyleTableRecord
  2
AM_JIS$3
 70
     0
  3

  4
"
  5
OPEN30
  6

  7

 40
0.5
 41
2.5
 42
1.0
 43
10.0
 44
1.0
 45
0.0
 46
0.0
 47
0.1
 48
0.1
140
3.2
141
0.0
142
0.0
143
0.0393701
144
1.0
145
0.0
146
0.71
147
1.5
 71
     0
 72
     0
 73
     0
 74
     1
 75
     0
 76
     0
 77
     3
 78
     8
170
     0
171
     2
172
     0
173
     0
174
     0
175
     0
176
   256
177
   256
178
     2
270
     2
271
     2
272
     3
273
     2
274
     2
340
6B
275
     0
280
     0
281
     0
282
     0
283
     0
284
     0
285
     0
286
     0
287
     0
288
     1
  0
DIMSTYLE
105
60
330
A
100
AcDbSymbolTableRecord
100
AcDbDimStyleTableRecord
  2
AM_JIS$4
 70
     0
  3

  4
"
  5
OPEN30
  6

  7

 40
0.5
 41
2.5
 42
1.0
 43
10.0
 44
1.0
 45
0.0
 46
0.0
 47
0.1
 48
0.1
140
3.2
141
0.0
142
0.0
143
0.0393701
144
1.0
145
0.0
146
0.71
147
1.5
 71
     0
 72
     0
 73
     0
 74
     1
 75
     0
 76
     0
 77
     3
 78
     8
170
     0
171
     2
172
     0
173
     0
174
     0
175
     0
176
   256
177
   256
178
     2
270
     2
271
     2
272
     3
273
     2
274
     2
340
6B
275
     0
280
     0
281
     0
282
     0
283
     0
284
     0
285
     0
286
     0
287
     0
288
     1
  0
DIMSTYLE
105
61
330
A
100
AcDbSymbolTableRecord
100
AcDbDimStyleTableRecord
  2
AM_JIS$6
 70
     0
  3

  4
"
  5
OPEN30
  6

  7

 40
0.5
 41
2.5
 42
1.0
 43
10.0
 44
1.0
 45
0.0
 46
0.0
 47
0.1
 48
0.1
140
3.2
141
0.0
142
0.0
143
0.0393701
144
1.0
145
0.0
146
0.71
147
1.5
 71
     0
 72
     0
 73
     0
 74
     0
 75
     0
 76
     0
 77
     0
 78
     8
170
     0
171
     2
172
     1
173
     0
174
     0
175
     0
176
   256
177
   256
178
     2
270
     2
271
     2
272
     2
273
     2
274
     2
340
6B
275
     0
280
     0
281
     0
282
     0
283
     0
284
     0
285
     0
286
     0
287
     3
288
     0
  0
DIMSTYLE
105
62
330
A
100
AcDbSymbolTableRecord
100
AcDbDimStyleTableRecord
  2
AM_JIS$7
 70
     0
  3

  4
"
  5
OPEN30
  6

  7

 40
0.5
 41
2.5
 42
1.0
 43
10.0
 44
1.0
 45
0.0
 46
0.0
 47
0.1
 48
0.1
140
3.2
141
0.0
142
0.0
143
0.0393701
144
1.0
145
0.0
146
0.71
147
1.5
 71
     0
 72
     0
 73
     0
 74
     0
 75
     0
 76
     0
 77
     3
 78
     8
170
     0
171
     2
172
     1
173
     0
174
     0
175
     0
176
   256
177
   256
178
     2
270
     2
271
     2
272
     3
273
     2
274
     2
340
6B
275
     0
280
     0
281
     0
282
     0
283
     0
284
     0
285
     0
286
     0
287
     3
288
     0
  0
DIMSTYLE
105
63
330
A
100
AcDbSymbolTableRecord
100
AcDbDimStyleTableRecord
  2
AM_JIS$SF
 70
     0
  3

  4
"
  5
OPEN30
  6

  7

 40
0.5
 41
2.5
 42
1.0
 43
10.0
 44
1.0
 45
0.0
 46
0.0
 47
0.1
 48
0.1
140
3.2
141
0.0
142
0.0
143
0.0393701
144
1.0
145
0.0
146
0.71
147
1.5
 71
     0
 72
     0
 73
     0
 74
     0
 75
     1
 76
     1
 77
     3
 78
     8
170
     0
171
     2
172
     1
173
     0
174
     0
175
     0
176
   256
177
   256
178
     2
270
     2
271
     2
272
     2
273
     2
274
     2
340
6B
275
     0
280
     0
281
     0
282
     0
283
     0
284
     0
285
     0
286
     0
287
     3
288
     0
  0
DIMSTYLE
105
68
330
A
100
AcDbSymbolTableRecord
100
AcDbDimStyleTableRecord
  2
AM_JIS$SH
 70
     0
  3

  4
"
  5

  6
GENAXEH
  7
OPEN30
 40
0.5
 41
2.5
 42
1.0
 43
10.0
 44
1.0
 45
0.0
 46
0.0
 47
0.1
 48
0.1
140
3.2
141
0.0
142
0.0
143
0.0393701
144
2.0
145
0.0
146
0.71
147
1.5
 71
     0
 72
     0
 73
     0
 74
     0
 75
     1
 76
     1
 77
     3
 78
     8
170
     0
171
     2
172
     1
173
     1
174
     0
175
     0
176
   256
177
   256
178
     2
270
     2
271
     2
272
     2
273
     2
274
     2
340
6B
275
     0
280
     0
281
     0
282
     0
283
     0
284
     0
285
     0
286
     0
287
     3
288
     0
  0
DIMSTYLE
105
B34
330
A
100
AcDbSymbolTableRecord
100
AcDbDimStyleTableRecord
  2
AM_JIS$2
 70
     0
  3

  4
"
  5
OPEN30
  6

  7

 40
0.5
 41
2.5
 42
1.0
 43
12.0
 44
1.0
 45
0.0
 46
0.0
 47
0.1
 48
0.1
140
3.2
141
0.0
142
0.0
143
0.0393701
144
1.0
145
0.0
146
0.71
147
1.5
 71
     0
 72
     0
 73
     0
 74
     0
 75
     0
 76
     0
 77
     3
 78
     8
170
     0
171
     2
172
     1
173
     0
174
     0
175
     0
176
   256
177
   256
178
     2
270
     2
271
     3
272
     3
273
     2
274
     2
340
6B
275
     0
280
     0
281
     0
282
     0
283
     0
284
     0
285
     0
286
     0
287
     3
288
     0
  0
ENDTAB
  0
TABLE
  2
BLOCK_RECORD
  5
1
330
0
100
AcDbSymbolTable
 70
     9
  0
BLOCK_RECORD
  5
1F
102
{ACAD_XDICTIONARY
360
74
102
}
330
1
100
AcDbSymbolTableRecord
100
AcDbBlockTableRecord
  2
*MODEL_SPACE
  0
BLOCK_RECORD
  5
101
102
{ACAD_XDICTIONARY
360
3DD8
102
}
330
1
100
AcDbSymbolTableRecord
100
AcDbBlockTableRecord
  2
*PAPER_SPACE
  0
BLOCK_RECORD
  5
59
330
1
100
AcDbSymbolTableRecord
100
AcDbBlockTableRecord
  2
_OPEN30
  0
BLOCK_RECORD
  5
64
330
1
100
AcDbSymbolTableRecord
100
AcDbBlockTableRecord
  2
GENAXEH
  0
BLOCK_RECORD
  5
10F1
330
1
100
AcDbSymbolTableRecord
100
AcDbBlockTableRecord
  2
*D5
  0
BLOCK_RECORD
  5
12D9
330
1
100
AcDbSymbolTableRecord
100
AcDbBlockTableRecord
  2
*D6
  0
BLOCK_RECORD
  5
31A3
330
1
100
AcDbSymbolTableRecord
100
AcDbBlockTableRecord
  2
*D7
  0
BLOCK_RECORD
  5
37E4
330
1
100
AcDbSymbolTableRecord
100
AcDbBlockTableRecord
  2
*D8
  0
ENDTAB
  0
ENDSEC
  0
SECTION
  2
BLOCKS
  0
BLOCK
  5
20
330
1F
100
AcDbEntity
  8
0
100
AcDbBlockBegin
  2
*MODEL_SPACE
 70
     0
 10
0.0
 20
0.0
 30
0.0
  3
*MODEL_SPACE
  1

  0
ENDBLK
  5
21
330
1F
100
AcDbEntity
  8
0
100
AcDbBlockEnd
  0
BLOCK
  5
103
330
101
100
AcDbEntity
 67
     1
  8
0
100
AcDbBlockBegin
  2
*PAPER_SPACE
 70
     0
 10
0.0
 20
0.0
 30
0.0
  3
*PAPER_SPACE
  1

  0
ENDBLK
  5
104
330
101
100
AcDbEntity
 67
     1
  8
0
100
AcDbBlockEnd
  0
BLOCK
  5
5D
330
59
100
AcDbEntity
  8
0
100
AcDbBlockBegin
  2
_OPEN30
 70
     0
 10
0.0
 20
0.0
 30
0.0
  3
_OPEN30
  1

  0
LINE
  5
5A
330
59
100
AcDbEntity
  8
0
 62
     0
100
AcDbLine
 10
-1.0
 20
0.26794919
 30
0.0
 11
0.0
 21
0.0
 31
0.0
  0
LINE
  5
5B
330
59
100
AcDbEntity
  8
0
 62
     0
100
AcDbLine
 10
0.0
 20
0.0
 30
0.0
 11
-1.0
 21
-0.26794919
 31
0.0
  0
LINE
  5
5C
330
59
100
AcDbEntity
  8
0
 62
     0
100
AcDbLine
 10
0.0
 20
0.0
 30
0.0
 11
-1.0
 21
0.0
 31
0.0
  0
ENDBLK
  5
5E
330
59
100
AcDbEntity
  8
0
100
AcDbBlockEnd
  0
BLOCK
  5
66
330
64
100
AcDbEntity
  8
0
100
AcDbBlockBegin
  2
GENAXEH
 70
     0
 10
0.0
 20
0.0
 30
0.0
  3
GENAXEH
  1

  0
LINE
  5
65
330
64
100
AcDbEntity
  8
0
100
AcDbLine
 10
-1.0
 20
0.0
 30
0.0
 11
1.0
 21
0.0
 31
0.0
  0
ENDBLK
  5
67
330
64
100
AcDbEntity
  8
0
100
AcDbBlockEnd
  0
BLOCK
  5
10FB
330
10F1
100
AcDbEntity
  8
0
100
AcDbBlockBegin
  2
*D5
 70
     1
 10
0.0
 20
0.0
 30
0.0
  3
*D5
  1

  0
LINE
  5
3ADD
330
10F1
100
AcDbEntity
  8
AM_5
100
AcDbLine
 10
-45.0
 20
-3.0
 30
0.0
 11
-45.0
 21
-16.50000099999997
 31
0.0
  0
LINE
  5
3ADE
330
10F1
100
AcDbEntity
  8
AM_5
100
AcDbLine
 10
-0.0000000000001386
 20
-2.0
 30
0.0
 11
-0.0000000000001395
 21
-16.50000099999997
 31
0.0
  0
LINE
  5
3ADF
330
10F1
100
AcDbEntity
  8
AM_5
100
AcDbLine
 10
-43.75
 20
-16.00000099999997
 30
0.0
 11
-1.250000000000139
 21
-16.00000099999997
 31
0.0
  0
INSERT
  5
3AE0
330
10F1
100
AcDbEntity
  8
AM_5
100
AcDbBlockReference
  2
_OPEN30
 10
-45.0
 20
-16.00000099999997
 30
0.0
 41
1.25
 42
1.25
 43
1.25
 50
180.0
  0
INSERT
  5
3AE1
330
10F1
100
AcDbEntity
  8
AM_5
100
AcDbBlockReference
  2
_OPEN30
 10
-0.0000000000001395
 20
-16.00000099999997
 30
0.0
 41
1.25
 42
1.25
 43
1.25
  0
MTEXT
  5
3AE2
330
10F1
100
AcDbEntity
  8
AM_5
 62
     2
100
AcDbMText
 10
-22.50000000000007
 20
-14.45000099999997
 30
0.0
 40
1.6
 41
0.0
 71
     5
 72
     1
  1
45
  7
ASAMI
1001
ACAD
1000
MTEXTBEGIN
1070
    73
1070
     1
1070
    44
1040
1.0
1070
    74
1070
     0
1000
MTEXTEND
  0
POINT
  5
3AE3
330
10F1
100
AcDbEntity
  8
DEFPOINTS
 62
     0
100
AcDbPoint
 10
-45.0
 20
-2.5
 30
0.0
  0
POINT
  5
3AE4
330
10F1
100
AcDbEntity
  8
DEFPOINTS
 62
     0
100
AcDbPoint
 10
-0.0000000000001386
 20
-1.5
 30
0.0
  0
POINT
  5
3AE5
330
10F1
100
AcDbEntity
  8
DEFPOINTS
 62
     0
100
AcDbPoint
 10
-0.0000000000001395
 20
-16.00000099999997
 30
0.0
  0
ENDBLK
  5
10FC
330
10F1
100
AcDbEntity
  8
0
100
AcDbBlockEnd
  0
BLOCK
  5
12E5
330
12D9
100
AcDbEntity
  8
0
100
AcDbBlockBegin
  2
*D6
 70
     1
 10
0.0
 20
0.0
 30
0.0
  3
*D6
  1

  0
LINE
  5
3AD4
330
12D9
100
AcDbEntity
  8
AM_5
100
AcDbLine
 10
-0.0000000000001386
 20
-2.0
 30
0.0
 11
-0.0000000000001391
 21
-10.50000099999998
 31
0.0
  0
LINE
  5
3AD5
330
12D9
100
AcDbEntity
  8
AM_5
100
AcDbLine
 10
-8.000000000000001
 20
-2.000000000000007
 30
0.0
 11
-8.000000000000001
 21
-10.50000099999998
 31
0.0
  0
LINE
  5
3AD6
330
12D9
100
AcDbEntity
  8
AM_5
100
AcDbLine
 10
-1.250000000000138
 20
-10.00000099999998
 30
0.0
 11
-6.750000000000001
 21
-10.00000099999998
 31
0.0
  0
INSERT
  5
3AD7
330
12D9
100
AcDbEntity
  8
AM_5
100
AcDbBlockReference
  2
_OPEN30
 10
-0.0000000000001391
 20
-10.00000099999998
 30
0.0
 41
1.25
 42
1.25
 43
1.25
  0
INSERT
  5
3AD8
330
12D9
100
AcDbEntity
  8
AM_5
100
AcDbBlockReference
  2
_OPEN30
 10
-8.000000000000001
 20
-10.00000099999998
 30
0.0
 41
1.25
 42
1.25
 43
1.25
 50
180.0
  0
MTEXT
  5
3AD9
330
12D9
100
AcDbEntity
  8
AM_5
 62
     2
100
AcDbMText
 10
-4.00000000000007
 20
-8.450000999999984
 30
0.0
 40
1.6
 41
0.0
 71
     5
 72
     1
  1
8
  7
ASAMI
1001
ACAD
1000
MTEXTBEGIN
1070
    73
1070
     1
1070
    44
1040
1.0
1070
    74
1070
     0
1000
MTEXTEND
  0
POINT
  5
3ADA
330
12D9
100
AcDbEntity
  8
DEFPOINTS
 62
     0
100
AcDbPoint
 10
-0.0000000000001386
 20
-1.5
 30
0.0
  0
POINT
  5
3ADB
330
12D9
100
AcDbEntity
  8
DEFPOINTS
 62
     0
100
AcDbPoint
 10
-8.000000000000001
 20
-1.500000000000007
 30
0.0
  0
POINT
  5
3ADC
330
12D9
100
AcDbEntity
  8
DEFPOINTS
 62
     0
100
AcDbPoint
 10
-8.000000000000001
 20
-10.00000099999998
 30
0.0
  0
ENDBLK
  5
12E6
330
12D9
100
AcDbEntity
  8
0
100
AcDbBlockEnd
  0
BLOCK
  5
31AF
330
31A3
100
AcDbEntity
  8
0
100
AcDbBlockBegin
  2
*D7
 70
     1
 10
0.0
 20
0.0
 30
0.0
  3
*D7
  1

  0
LINE
  5
39CB
330
31A3
100
AcDbEntity
  8
AM_5
100
AcDbLine
 10
0.5
 20
1.5
 30
0.0
 11
9.551050680252128
 21
1.499999999999997
 31
0.0
  0
LINE
  5
39CC
330
31A3
100
AcDbEntity
  8
AM_5
100
AcDbLine
 10
0.5
 20
-1.499999999999989
 30
0.0
 11
9.551050680252128
 21
-1.499999999999992
 31
0.0
  0
LINE
  5
39CD
330
31A3
100
AcDbEntity
  8
AM_5
100
AcDbLine
 10
9.051050680252128
 20
2.749999999999997
 30
0.0
 11
9.051050680252128
 21
3.999999999999997
 31
0.0
  0
LINE
  5
39CE
330
31A3
100
AcDbEntity
  8
AM_5
100
AcDbLine
 10
9.051050680252128
 20
-2.749999999999992
 30
0.0
 11
9.051050680252126
 21
-8.014285714285707
 31
0.0
  0
LINE
  5
39CF
330
31A3
100
AcDbEntity
  8
AM_5
100
AcDbLine
 10
9.051050680252128
 20
1.499999999999997
 30
0.0
 11
9.051050680252128
 21
-1.499999999999991
 31
0.0
  0
INSERT
  5
39D0
330
31A3
100
AcDbEntity
  8
AM_5
100
AcDbBlockReference
  2
_OPEN30
 10
9.051050680252128
 20
1.499999999999997
 30
0.0
 41
1.25
 42
1.25
 43
1.25
 50
270.0
  0
INSERT
  5
39D1
330
31A3
100
AcDbEntity
  8
AM_5
100
AcDbBlockReference
  2
_OPEN30
 10
9.051050680252128
 20
-1.499999999999991
 30
0.0
 41
1.25
 42
1.25
 43
1.25
 50
90.0
  0
MTEXT
  5
39D2
330
31A3
100
AcDbEntity
  8
AM_5
 62
     2
100
AcDbMText
 10
7.501050680252127
 20
-6.007142857142848
 30
0.0
 40
1.6
 41
0.0
 71
     5
 72
     1
  1
%%c3
  7
ASAMI
 11
0.0000000000000001
 21
1.0
 31
0.0
1001
ACAD
1000
MTEXTBEGIN
1070
    73
1070
     1
1070
    44
1040
1.0
1070
    74
1070
     0
1000
MTEXTEND
  0
POINT
  5
39D3
330
31A3
100
AcDbEntity
  8
DEFPOINTS
 62
     0
100
AcDbPoint
 10
0.0
 20
1.5
 30
0.0
  0
POINT
  5
39D4
330
31A3
100
AcDbEntity
  8
DEFPOINTS
 62
     0
100
AcDbPoint
 10
0.0
 20
-1.499999999999989
 30
0.0
  0
POINT
  5
39D5
330
31A3
100
AcDbEntity
  8
DEFPOINTS
 62
     0
100
AcDbPoint
 10
9.051050680252128
 20
-1.499999999999991
 30
0.0
  0
ENDBLK
  5
31B0
330
31A3
100
AcDbEntity
  8
0
100
AcDbBlockEnd
  0
BLOCK
  5
37F0
330
37E4
100
AcDbEntity
  8
0
100
AcDbBlockBegin
  2
*D8
 70
     1
 10
0.0
 20
0.0
 30
0.0
  3
*D8
  1

  0
LINE
  5
381C
330
37E4
100
AcDbEntity
  8
AM_5
100
AcDbLine
 10
-45.00000000000001
 20
2.999999999999994
 30
0.0
 11
-54.00000099999999
 21
2.999999999999996
 31
0.0
  0
LINE
  5
381D
330
37E4
100
AcDbEntity
  8
AM_5
100
AcDbLine
 10
-45.00000000000001
 20
-3.000000000000007
 30
0.0
 11
-54.00000099999999
 21
-3.000000000000004
 31
0.0
  0
LINE
  5
381E
330
37E4
100
AcDbEntity
  8
AM_5
100
AcDbLine
 10
-53.50000099999999
 20
4.249999999999996
 30
0.0
 11
-53.50000099999999
 21
5.499999999999996
 31
0.0
  0
LINE
  5
381F
330
37E4
100
AcDbEntity
  8
AM_5
100
AcDbLine
 10
-53.50000099999999
 20
-4.250000000000005
 30
0.0
 11
-53.50000099999999
 21
-5.500000000000005
 31
0.0
  0
LINE
  5
3820
330
37E4
100
AcDbEntity
  8
AM_5
100
AcDbLine
 10
-53.50000099999999
 20
2.999999999999996
 30
0.0
 11
-53.50000099999999
 21
-3.000000000000004
 31
0.0
  0
INSERT
  5
3821
330
37E4
100
AcDbEntity
  8
AM_5
100
AcDbBlockReference
  2
_OPEN30
 10
-53.50000099999999
 20
2.999999999999996
 30
0.0
 41
1.25
 42
1.25
 43
1.25
 50
270.0
  0
INSERT
  5
3822
330
37E4
100
AcDbEntity
  8
AM_5
100
AcDbBlockReference
  2
_OPEN30
 10
-53.50000099999999
 20
-3.000000000000004
 30
0.0
 41
1.25
 42
1.25
 43
1.25
 50
90.0
  0
MTEXT
  5
3823
330
37E4
100
AcDbEntity
  8
AM_5
 62
     2
100
AcDbMText
 10
-55.050001
 20
-0.0000000000000154
 30
0.0
 40
1.6
 41
0.0
 71
     5
 72
     1
  1
%%c6
  7
ASAMI
 11
0.0000000000000001
 21
1.0
 31
0.0
1001
ACAD
1000
MTEXTBEGIN
1070
    73
1070
     1
1070
    44
1040
1.0
1070
    74
1070
     0
1000
MTEXTEND
  0
POINT
  5
3824
330
37E4
100
AcDbEntity
  8
DEFPOINTS
 62
     0
100
AcDbPoint
 10
-44.50000000000001
 20
2.999999999999994
 30
0.0
  0
POINT
  5
3825
330
37E4
100
AcDbEntity
  8
DEFPOINTS
 62
     0
100
AcDbPoint
 10
-44.50000000000001
 20
-3.000000000000007
 30
0.0
  0
POINT
  5
3826
330
37E4
100
AcDbEntity
  8
DEFPOINTS
 62
     0
100
AcDbPoint
 10
-53.50000099999999
 20
-3.000000000000004
 30
0.0
  0
ENDBLK
  5
37F1
330
37E4
100
AcDbEntity
  8
0
100
AcDbBlockEnd
  0
ENDSEC
  0
SECTION
  2
ENTITIES
  0
LINE
  5
C2E
330
1F
100
AcDbEntity
  8
AM_7
  6
AM_ISO08W050X2
100
AcDbLine
 10
2.051049680252134
 20
0.0
 30
0.0
 11
-46.5
 21
-0.0000000000000062
 31
0.0
  0
DIMENSION
  5
10F0
330
1F
100
AcDbEntity
  8
AM_5
100
AcDbDimension
  2
*D5
 10
-0.0000000000001395
 20
-16.00000099999997
 30
0.0
 11
-22.50000000000007
 21
-14.45000099999997
 31
0.0
 70
    32
  1
<>
  3
AM_JIS
100
AcDbAlignedDimension
 13
-45.0
 23
-2.5
 33
0.0
 14
-0.0000000000001386
 24
-1.5
 34
0.0
 50
0.0000000000001132
100
AcDbRotatedDimension
1001
GENIUS_GENDTOL_13
1000

1000
h7
1000

1040
0.0
  0
DIMENSION
  5
12D8
330
1F
100
AcDbEntity
  8
AM_5
100
AcDbDimension
  2
*D6
 10
-8.000000000000001
 20
-10.00000099999998
 30
0.0
 11
-4.00000000000007
 21
-8.450000999999984
 31
0.0
 70
    32
  1
<>
  3
AM_JIS
100
AcDbAlignedDimension
 13
-0.0000000000001386
 23
-1.5
 33
0.0
 14
-8.000000000000001
 24
-1.500000000000007
 34
0.0
 50
0.0000000000001132
100
AcDbRotatedDimension
1001
GENIUS_GENDTOL_13
1000

1000
h7
1000

1040
0.0
  0
TEXT
  5
1500
330
1F
100
AcDbEntity
  8
AM_6
100
AcDbText
 10
-30.83333333333339
 20
-27.25000099999997
 30
0.0
 40
2.5
  1
HSM2030
 72
     4
 11
-22.50000000000006
 21
-26.00000099999997
 31
0.0
100
AcDbText
  0
DIMENSION
  5
31A2
330
1F
100
AcDbEntity
  8
AM_5
100
AcDbDimension
  2
*D7
 10
9.051050680252128
 20
-1.499999999999991
 30
0.0
 11
7.501050680252127
 21
-6.007142857142848
 31
0.0
 70
    32
  1
%%c<>
  3
AM_JIS
100
AcDbAlignedDimension
 13
0.0
 23
1.5
 33
0.0
 14
0.0
 24
-1.499999999999989
 34
0.0
 50
90.0
100
AcDbRotatedDimension
1001
GENIUS_GENDTOL_13
1000

1000
h7
1000

1040
0.0
  0
SPLINE
  5
3755
330
1F
100
AcDbEntity
  8
AM_0
100
AcDbSpline
210
0.0
220
0.0
230
1.0
 70
     8
 71
     3
 72
     8
 73
     4
 74
     2
 42
0.0000000001
 43
0.0000000001
 44
0.0000000001
 12
-1.0
 22
-0.0000000000000008
 32
0.0
 40
0.0
 40
0.0
 40
0.0
 40
0.0
 40
1.935619633827152
 40
1.935619633827152
 40
1.935619633827152
 40
1.935619633827152
 10
-5.088101021793318
 20
-1.387127739920369
 30
0.0
 10
-5.733307566402368
 20
-1.38712773992037
 30
0.0
 10
-6.085704294097843
 20
-0.6935638699600838
 30
0.0
 10
-6.438101021793319
 20
0.0000000000002025
 30
0.0
 11
-5.088101021793318
 21
-1.387127739920369
 31
0.0
 11
-6.438101021793319
 21
0.0000000000002025
 31
0.0
  0
SPLINE
  5
3756
330
1F
100
AcDbEntity
  8
AM_0
100
AcDbSpline
210
0.0
220
0.0
230
1.0
 70
     8
 71
     3
 72
     8
 73
     4
 74
     2
 42
0.0000000001
 43
0.0000000001
 44
0.0000000001
 12
-1.0
 22
-0.0000000000000008
 32
0.0
 40
0.0
 40
0.0
 40
0.0
 40
0.0
 40
1.984908297797167
 40
1.984908297797167
 40
1.984908297797167
 40
1.984908297797167
 10
-5.321102911687376
 20
-1.455115442383682
 30
0.0
 10
-5.982739010953099
 20
-1.455115442383683
 30
0.0
 10
-6.326920961320238
 20
-0.7275577211917403
 30
0.0
 10
-6.671102911687377
 20
0.0000000000002025
 30
0.0
 11
-5.321102911687376
 21
-1.455115442383682
 31
0.0
 11
-6.671102911687377
 21
0.0000000000002025
 31
0.0
  0
SPLINE
  5
3757
330
1F
100
AcDbEntity
  8
AM_0
100
AcDbSpline
210
0.0
220
0.0
230
1.0
 70
     8
 71
     3
 72
     8
 73
     4
 74
     2
 42
0.0000000001
 43
0.0000000001
 44
0.0000000001
 12
-1.0
 22
-0.0000000000000008
 32
0.0
 40
0.0
 40
0.0
 40
0.0
 40
0.0
 40
2.018043607061148
 40
2.018043607061148
 40
2.018043607061148
 40
2.018043607061148
 10
-5.549999999998636
 20
-1.499999999999834
 30
0.0
 10
-6.222681202352352
 20
-1.499999999999835
 30
0.0
 10
-6.561340601175563
 20
-0.7499999999998349
 30
0.0
 10
-6.899999999998773
 20
0.0000000000001652
 30
0.0
 11
-5.549999999998636
 21
-1.499999999999834
 31
0.0
 11
-6.899999999998773
 21
0.0000000000001652
 31
0.0
  0
SPLINE
  5
3758
330
1F
100
AcDbEntity
  8
AM_0
100
AcDbSpline
210
0.0
220
0.0
230
1.0
 70
     8
 71
     3
 72
     8
 73
     4
 74
     0
 42
0.0000000001
 43
0.0000000001
 40
0.4298522709213874
 40
0.4298522709213874
 40
0.4298522709213874
 40
0.4298522709213874
 40
6.452065446090842
 40
6.452065446090842
 40
6.452065446090842
 40
6.452065446090842
 10
-7.662957705949476
 20
1.37809758187875
 30
0.0
 10
-7.095939425370128
 20
1.294713920804302
 30
0.0
 10
-6.767020223581724
 20
0.6473569604022528
 30
0.0
 10
-6.438101021793319
 20
0.0000000000002025
 30
0.0
  0
SPLINE
  5
375B
330
1F
100
AcDbEntity
  8
AM_0
100
AcDbSpline
210
0.0
220
0.0
230
1.0
 70
     8
 71
     3
 72
     8
 73
     4
 74
     0
 42
0.0000000001
 43
0.0000000001
 40
0.0
 40
0.0
 40
0.0
 40
0.0
 40
2.65269546380069
 40
2.65269546380069
 40
2.65269546380069
 40
2.65269546380069
 10
-7.788101021792909
 20
-1.387127739920369
 30
0.0
 10
-7.522831475412841
 20
-1.387127739920369
 30
0.0
 10
-7.307057107500259
 20
-1.269891002832213
 30
0.0
 10
-7.120428521959095
 20
-1.08361811856977
 30
0.0
  0
SPLINE
  5
3768
330
1F
100
AcDbEntity
  8
AM_0
100
AcDbSpline
210
0.0
220
0.0
230
1.0
 70
     8
 71
     3
 72
     8
 73
     4
 74
     0
 42
0.0000000001
 43
0.0000000001
 40
0.0
 40
0.0
 40
0.0
 40
0.0
 40
0.0681566725481266
 40
0.0681566725481266
 40
0.0681566725481266
 40
0.0681566725481266
 10
-0.149999999999729
 20
-1.49999999999976
 30
0.0
 10
-0.1431843327449322
 20
-1.49999999999976
 30
0.0
 10
-0.136402955925043
 20
-1.499923005546488
 30
0.0
 10
-0.1296555221060784
 20
-1.499769796754808
 30
0.0
  0
SPLINE
  5
3769
330
1F
100
AcDbEntity
  8
AM_0
100
AcDbSpline
210
0.0
220
0.0
230
1.0
 70
     8
 71
     3
 72
     8
 73
     4
 74
     0
 42
0.0000000001
 43
0.0000000001
 40
1.28030251894658
 40
1.28030251894658
 40
1.28030251894658
 40
1.28030251894658
 40
6.452065446090842
 40
6.452065446090842
 40
6.452065446090842
 40
6.452065446090842
 10
-0.0398908998414762
 20
-1.31061827745475
 30
0.0
 10
-0.4731618260681909
 20
-1.111875860602108
 30
0.0
 10
-0.7556314239313005
 20
-0.5559379303009316
 30
0.0
 10
-1.038101021794138
 20
0.0000000000002025
 30
0.0
  0
SPLINE
  5
376A
330
1F
100
AcDbEntity
  8
AM_0
100
AcDbSpline
210
0.0
220
0.0
230
1.0
 70
     8
 71
     3
 72
     8
 73
     4
 74
     0
 42
0.0000000001
 43
0.0000000001
 40
0.2681335515649923
 40
0.2681335515649923
 40
0.2681335515649923
 40
0.2681335515649923
 40
6.616360992657454
 40
6.616360992657454
 40
6.616360992657454
 40
6.616360992657454
 10
-0.0000000000000013
 20
-1.451579168094964
 30
0.0
 10
-0.6106355325731792
 20
-1.396145674570764
 30
0.0
 10
-0.9408692221306878
 20
-0.698072837285281
 30
0.0
 10
-1.271102911688196
 20
0.0000000000002025
 30
0.0
  0
SPLINE
  5
376B
330
1F
100
AcDbEntity
  8
AM_0
100
AcDbSpline
210
0.0
220
0.0
230
1.0
 70
     8
 71
     3
 72
     8
 73
     4
 74
     2
 42
0.0000000001
 43
0.0000000001
 44
0.0000000001
 12
-1.0
 22
-0.0000000000000008
 32
0.0
 40
0.0
 40
0.0
 40
0.0
 40
0.0
 40
2.018043607061056
 40
2.018043607061056
 40
2.018043607061056
 40
2.018043607061056
 10
-0.1499999999994559
 20
-1.499999999999829
 30
0.0
 10
-0.8226812023531412
 20
-1.499999999999829
 30
0.0
 10
-1.161340601176298
 20
-0.7499999999998297
 30
0.0
 10
-1.499999999999455
 20
0.0000000000001705
 30
0.0
 11
-0.1499999999994559
 21
-1.499999999999829
 31
0.0
 11
-1.499999999999455
 21
0.0000000000001705
 31
0.0
  0
SPLINE
  5
376C
330
1F
100
AcDbEntity
  8
AM_0
100
AcDbSpline
210
0.0
220
0.0
230
1.0
 70
     8
 71
     3
 72
     8
 73
     4
 74
     2
 42
0.0000000001
 43
0.0000000001
 44
0.0000000001
 12
1.0
 22
0.0000000000000006
 32
0.0
 40
0.0
 40
0.0
 40
0.0
 40
0.0
 40
2.01804360706124
 40
2.01804360706124
 40
2.01804360706124
 40
2.01804360706124
 10
-2.849999999999729
 20
1.50000000000017
 30
0.0
 10
-2.177318797645983
 20
1.50000000000017
 30
0.0
 10
-1.838659398822719
 20
0.7500000000001707
 30
0.0
 10
-1.499999999999455
 20
0.0000000000001705
 30
0.0
 11
-2.849999999999729
 21
1.50000000000017
 31
0.0
 11
-1.499999999999455
 21
0.0000000000001705
 31
0.0
  0
SPLINE
  5
376D
330
1F
100
AcDbEntity
  8
AM_0
100
AcDbSpline
210
0.0
220
0.0
230
1.0
 70
     8
 71
     3
 72
     8
 73
     4
 74
     0
 42
0.0000000001
 43
0.0000000001
 40
0.157854605497133
 40
0.157854605497133
 40
0.157854605497133
 40
0.157854605497133
 40
6.616360992657454
 40
6.616360992657454
 40
6.616360992657454
 40
6.616360992657454
 10
-2.574284317600544
 20
1.453882913232941
 30
0.0
 10
-1.94304367406767
 20
1.420398975981211
 30
0.0
 10
-1.607073292877795
 20
0.7101994879906908
 30
0.0
 10
-1.271102911688196
 20
0.0000000000001386
 30
0.0
  0
SPLINE
  5
376E
330
1F
100
AcDbEntity
  8
AM_0
100
AcDbSpline
210
0.0
220
0.0
230
1.0
 70
     8
 71
     3
 72
     8
 73
     4
 74
     0
 42
0.0000000001
 43
0.0000000001
 40
0.3982504941345976
 40
0.3982504941345976
 40
0.3982504941345976
 40
0.3982504941345976
 40
6.452065446090842
 40
6.452065446090842
 40
6.452065446090842
 40
6.452065446090842
 10
-2.271903755181669
 20
1.379363586754891
 30
0.0
 10
-1.699391455677235
 20
1.301507977928805
 30
0.0
 10
-1.368746238735686
 20
0.6507539889645067
 30
0.0
 10
-1.038101021794138
 20
0.0000000000002025
 30
0.0
  0
SPLINE
  5
376F
330
1F
100
AcDbEntity
  8
AM_0
100
AcDbSpline
210
0.0
220
0.0
230
1.0
 70
     8
 71
     3
 72
     8
 73
     4
 74
     0
 42
0.0000000001
 43
0.0000000001
 40
0.0
 40
0.0
 40
0.0
 40
0.0
 40
0.9875149967633806
 40
0.9875149967633806
 40
0.9875149967633806
 40
0.9875149967633806
 10
-2.849999999999454
 20
-1.499999999999765
 30
0.0
 10
-2.751248500323163
 20
-1.499999999999765
 30
0.0
 10
-2.659695527556959
 20
-1.483836698306383
 30
0.0
 10
-2.574284317627008
 20
-1.453882913241878
 30
0.0
  0
SPLINE
  5
3770
330
1F
100
AcDbEntity
  8
AM_0
100
AcDbSpline
210
0.0
220
0.0
230
1.0
 70
     8
 71
     3
 72
     8
 73
     4
 74
     0
 42
0.0000000001
 43
0.0000000001
 40
0.0
 40
0.0
 40
0.0
 40
0.0
 40
1.274172826456642
 40
1.274172826456642
 40
1.274172826456642
 40
1.274172826456642
 10
-2.621102911688058
 20
-1.455115442383581
 30
0.0
 10
-2.493685629042421
 20
-1.455115442383581
 30
0.0
 10
-2.3780416759309
 20
-1.428132721142004
 30
0.0
 10
-2.271903755181257
 20
-1.379363586754481
 30
0.0
  0
SPLINE
  5
3771
330
1F
100
AcDbEntity
  8
AM_0
100
AcDbSpline
210
0.0
220
0.0
230
1.0
 70
     8
 71
     3
 72
     8
 73
     4
 74
     2
 42
0.0000000001
 43
0.0000000001
 44
0.0000000001
 12
-1.0
 22
-0.0000000000000008
 32
0.0
 40
0.0
 40
0.0
 40
0.0
 40
0.0
 40
2.018043607061148
 40
2.018043607061148
 40
2.018043607061148
 40
2.018043607061148
 10
-2.849999999999045
 20
-1.499999999999829
 30
0.0
 10
-3.522681202352761
 20
-1.499999999999829
 30
0.0
 10
-3.861340601175971
 20
-0.7499999999998297
 30
0.0
 10
-4.199999999999183
 20
0.0000000000001705
 30
0.0
 11
-2.849999999999045
 21
-1.499999999999829
 31
0.0
 11
-4.199999999999183
 21
0.0000000000001705
 31
0.0
  0
SPLINE
  5
3772
330
1F
100
AcDbEntity
  8
AM_0
100
AcDbSpline
210
0.0
220
0.0
230
1.0
 70
     8
 71
     3
 72
     8
 73
     4
 74
     2
 42
0.0000000001
 43
0.0000000001
 44
0.0000000001
 12
-1.0
 22
-0.0000000000000008
 32
0.0
 40
0.0
 40
0.0
 40
0.0
 40
0.0
 40
1.984908297797261
 40
1.984908297797261
 40
1.984908297797261
 40
1.984908297797261
 10
-2.621102911687649
 20
-1.455115442383682
 30
0.0
 10
-3.282739010953402
 20
-1.455115442383683
 30
0.0
 10
-3.626920961320594
 20
-0.7275577211917403
 30
0.0
 10
-3.971102911687787
 20
0.0000000000002025
 30
0.0
 11
-2.621102911687649
 21
-1.455115442383682
 31
0.0
 11
-3.971102911687787
 21
0.0000000000002025
 31
0.0
  0
SPLINE
  5
3773
330
1F
100
AcDbEntity
  8
AM_0
100
AcDbSpline
210
0.0
220
0.0
230
1.0
 70
     8
 71
     3
 72
     8
 73
     4
 74
     2
 42
0.0000000001
 43
0.0000000001
 44
0.0000000001
 12
-1.0
 22
-0.0000000000000008
 32
0.0
 40
0.0
 40
0.0
 40
0.0
 40
0.0
 40
1.935619633827246
 40
1.935619633827246
 40
1.935619633827246
 40
1.935619633827246
 10
-2.388101021793592
 20
-1.387127739920369
 30
0.0
 10
-3.033307566402674
 20
-1.38712773992037
 30
0.0
 10
-3.385704294098201
 20
-0.6935638699600838
 30
0.0
 10
-3.738101021793728
 20
0.0000000000002025
 30
0.0
 11
-2.388101021793592
 21
-1.387127739920369
 31
0.0
 11
-3.738101021793728
 21
0.0000000000002025
 31
0.0
  0
SPLINE
  5
3774
330
1F
100
AcDbEntity
  8
AM_0
100
AcDbSpline
210
0.0
220
0.0
230
1.0
 70
     8
 71
     3
 72
     8
 73
     4
 74
     0
 42
0.0000000001
 43
0.0000000001
 40
0.3982504941345976
 40
0.3982504941345976
 40
0.3982504941345976
 40
0.3982504941345976
 40
6.452065446090842
 40
6.452065446090842
 40
6.452065446090842
 40
6.452065446090842
 10
-4.971903755181259
 20
1.379363586754891
 30
0.0
 10
-4.399391455676825
 20
1.3015079779288
 30
0.0
 10
-4.068746238735277
 20
0.6507539889645014
 30
0.0
 10
-3.738101021793728
 20
0.0000000000002025
 30
0.0
  0
SPLINE
  5
3775
330
1F
100
AcDbEntity
  8
AM_0
100
AcDbSpline
210
0.0
220
0.0
230
1.0
 70
     8
 71
     3
 72
     8
 73
     4
 74
     0
 42
0.0000000001
 43
0.0000000001
 40
0.157854605497133
 40
0.157854605497133
 40
0.157854605497133
 40
0.157854605497133
 40
6.616360992657454
 40
6.616360992657454
 40
6.616360992657454
 40
6.616360992657454
 10
-5.27428431760027
 20
1.453882913232936
 30
0.0
 10
-4.643043674067123
 20
1.420398975981205
 30
0.0
 10
-4.307073292877523
 20
0.7101994879906855
 30
0.0
 10
-3.971102911687787
 20
0.0000000000001332
 30
0.0
  0
SPLINE
  5
3776
330
1F
100
AcDbEntity
  8
AM_0
100
AcDbSpline
210
0.0
220
0.0
230
1.0
 70
     8
 71
     3
 72
     8
 73
     4
 74
     2
 42
0.0000000001
 43
0.0000000001
 44
0.0000000001
 12
1.0
 22
0.0000000000000006
 32
0.0
 40
0.0
 40
0.0
 40
0.0
 40
0.0
 40
2.018043607061148
 40
2.018043607061148
 40
2.018043607061148
 40
2.018043607061148
 10
-5.54999999999932
 20
1.50000000000017
 30
0.0
 10
-4.877318797645604
 20
1.50000000000017
 30
0.0
 10
-4.538659398822394
 20
0.7500000000001707
 30
0.0
 10
-4.199999999999183
 20
0.0000000000001705
 30
0.0
 11
-5.54999999999932
 21
1.50000000000017
 31
0.0
 11
-4.199999999999183
 21
0.0000000000001705
 31
0.0
  0
SPLINE
  5
3777
330
1F
100
AcDbEntity
  8
AM_0
100
AcDbSpline
210
0.0
220
0.0
230
1.0
 70
     8
 71
     3
 72
     8
 73
     4
 74
     0
 42
0.0000000001
 43
0.0000000001
 40
0.0
 40
0.0
 40
0.0
 40
0.0
 40
3.69259279141909
 40
3.69259279141909
 40
3.69259279141909
 40
3.69259279141909
 10
-0.1499999999990482
 20
1.499999999999866
 30
0.0
 10
-0.5192592791409454
 20
1.49999999999993
 30
0.0
 10
-0.787867332533418
 20
1.274001521714264
 30
0.0
 10
-1.011075293900558
 20
0.9460633836247325
 30
0.0
  0
SPLINE
  5
3778
330
1F
100
AcDbEntity
  8
AM_0
100
AcDbSpline
210
0.0
220
0.0
230
1.0
 70
     8
 71
     3
 72
     8
 73
     4
 74
     0
 42
0.0000000001
 43
0.0000000001
 40
0.0
 40
0.0
 40
0.0
 40
0.0
 40
2.65269546380069
 40
2.65269546380069
 40
2.65269546380069
 40
2.65269546380069
 10
-2.388101021793592
 20
-1.387127739920369
 30
0.0
 10
-2.12283147541366
 20
-1.387127739920369
 30
0.0
 10
-1.907057107501079
 20
-1.269891002832208
 30
0.0
 10
-1.720428521959912
 20
-1.08361811856977
 30
0.0
  0
SPLINE
  5
3779
330
1F
100
AcDbEntity
  8
AM_0
100
AcDbSpline
210
0.0
220
0.0
230
1.0
 70
     8
 71
     3
 72
     8
 73
     4
 74
     2
 42
0.0000000001
 43
0.0000000001
 44
0.0000000001
 12
0.1987604188408254
 22
-0.9800481089733402
 32
0.0
 13
-1.0
 23
-0.0000000000000008
 33
0.0
 40
0.0
 40
0.0
 40
0.0
 40
0.0
 40
0.7228444211818161
 40
0.7228444211818161
 40
0.7228444211818161
 40
0.7228444211818161
 10
-0.1499999999990482
 20
1.499999999999866
 30
0.0
 10
-0.102109046695431
 20
1.263859230646144
 30
0.0
 10
-0.1881429070079425
 20
0.8332074951730172
 30
0.0
 10
-0.4290910474018812
 20
0.833207495173017
 30
0.0
 11
-0.1499999999990482
 21
1.499999999999866
 31
0.0
 11
-0.4290910474018812
 21
0.833207495173017
 31
0.0
  0
SPLINE
  5
377A
330
1F
100
AcDbEntity
  8
AM_0
100
AcDbSpline
210
0.0
220
0.0
230
1.0
 70
     8
 71
     3
 72
     8
 73
     4
 74
     0
 42
0.0000000001
 43
0.0000000001
 40
0.0
 40
0.0
 40
0.0
 40
0.0
 40
3.69259279141909
 40
3.69259279141909
 40
3.69259279141909
 40
3.69259279141909
 10
-2.849999999998637
 20
1.499999999999861
 30
0.0
 10
-3.219259279140536
 20
1.49999999999993
 30
0.0
 10
-3.487867332533007
 20
1.274001521714259
 30
0.0
 10
-3.711075293900151
 20
0.9460633836247325
 30
0.0
  0
SPLINE
  5
377B
330
1F
100
AcDbEntity
  8
AM_0
100
AcDbSpline
210
0.0
220
0.0
230
1.0
 70
     8
 71
     3
 72
     8
 73
     4
 74
     0
 42
0.0000000001
 43
0.0000000001
 40
0.0
 40
0.0
 40
0.0
 40
0.0
 40
2.65269546380069
 40
2.65269546380069
 40
2.65269546380069
 40
2.65269546380069
 10
-5.088101021793318
 20
-1.387127739920369
 30
0.0
 10
-4.822831475413114
 20
-1.387127739920369
 30
0.0
 10
-4.607057107500668
 20
-1.269891002832208
 30
0.0
 10
-4.420428521959503
 20
-1.08361811856977
 30
0.0
  0
SPLINE
  5
377C
330
1F
100
AcDbEntity
  8
AM_0
100
AcDbSpline
210
0.0
220
0.0
230
1.0
 70
     8
 71
     3
 72
     8
 73
     4
 74
     0
 42
0.0000000001
 43
0.0000000001
 40
0.0
 40
0.0
 40
0.0
 40
0.0
 40
1.274172826456642
 40
1.274172826456642
 40
1.274172826456642
 40
1.274172826456642
 10
-5.321102911687649
 20
-1.455115442383581
 30
0.0
 10
-5.193685629042011
 20
-1.455115442383581
 30
0.0
 10
-5.07804167593049
 20
-1.428132721142004
 30
0.0
 10
-4.971903755180847
 20
-1.379363586754486
 30
0.0
  0
SPLINE
  5
377D
330
1F
100
AcDbEntity
  8
AM_0
100
AcDbSpline
210
0.0
220
0.0
230
1.0
 70
     8
 71
     3
 72
     8
 73
     4
 74
     0
 42
0.0000000001
 43
0.0000000001
 40
0.0
 40
0.0
 40
0.0
 40
0.0
 40
0.9875149967633806
 40
0.9875149967633806
 40
0.9875149967633806
 40
0.9875149967633806
 10
-5.549999999999045
 20
-1.499999999999765
 30
0.0
 10
-5.451248500322617
 20
-1.499999999999765
 30
0.0
 10
-5.35969552755655
 20
-1.483836698306383
 30
0.0
 10
-5.274284317626598
 20
-1.453882913241878
 30
0.0
  0
SPLINE
  5
377E
330
1F
100
AcDbEntity
  8
AM_0
100
AcDbSpline
210
0.0
220
0.0
230
1.0
 70
     8
 71
     3
 72
     8
 73
     4
 74
     0
 42
0.0000000001
 43
0.0000000001
 40
0.0
 40
0.0
 40
0.0
 40
0.0
 40
3.69259279141909
 40
3.69259279141909
 40
3.69259279141909
 40
3.69259279141909
 10
-5.549999999998365
 20
1.499999999999861
 30
0.0
 10
-5.919259279140263
 20
1.49999999999993
 30
0.0
 10
-6.187867332532735
 20
1.274001521714259
 30
0.0
 10
-6.411075293899742
 20
0.9460633836247271
 30
0.0
  0
LINE
  5
3780
330
1F
100
AcDbEntity
  8
AM_11
100
AcDbLine
 10
-8.000000000000001
 20
-1.500000000000007
 30
0.0
 11
-0.000000000000004
 21
-1.5
 31
0.0
  0
LINE
  5
3781
330
1F
100
AcDbEntity
  8
AM_11
100
AcDbLine
 10
-0.000000000000004
 20
1.499999999999989
 30
0.0
 11
-8.000000000000001
 21
1.499999999999989
 31
0.0
  0
LINE
  5
3782
330
1F
100
AcDbEntity
  8
AM_0
100
AcDbLine
 10
-3.129091047401474
 20
0.833207495173017
 30
0.0
 11
-4.420428521980378
 21
1.083618118590399
 31
0.0
  0
LINE
  5
3783
330
1F
100
AcDbEntity
  8
AM_0
100
AcDbLine
 10
-3.711075293900833
 20
-0.9460633836247378
 30
0.0
 11
-4.420428521979559
 21
-1.083618118589791
 31
0.0
  0
LINE
  5
3789
330
1F
100
AcDbEntity
  8
AM_0
100
AcDbLine
 10
-6.411075293900422
 20
-0.9460633836247378
 30
0.0
 11
-7.120428521979286
 21
-1.083618118589797
 31
0.0
  0
LINE
  5
378C
330
1F
100
AcDbEntity
  8
AM_0
100
AcDbLine
 10
-5.829091047401201
 20
0.8332074951730117
 30
0.0
 11
-7.120428521980107
 21
1.083618118590393
 31
0.0
  0
LINE
  5
378D
330
1F
100
AcDbEntity
  8
AM_0
100
AcDbLine
 10
-0.0866025403785007
 20
0.2399999999999842
 30
0.0
 11
-0.0000000000000027
 21
0.3899999999999863
 31
0.0
  0
LINE
  5
378E
330
1F
100
AcDbEntity
  8
AM_0
100
AcDbLine
 10
-0.0000000000000027
 20
0.0899999999999821
 30
0.0
 11
-0.4290910474018826
 21
0.833207495173017
 31
0.0
  0
LINE
  5
378F
330
1F
100
AcDbEntity
  8
AM_0
100
AcDbLine
 10
-0.1296555221058067
 20
-1.499769796754813
 30
0.0
 11
-0.0000000000000027
 21
-1.465028704312329
 31
0.0
  0
ARC
  5
3790
330
1F
100
AcDbEntity
  8
AM_0
100
AcDbCircle
 10
3.737212755023754
 20
-0.3178504631964198
 30
0.0
 40
3.905393700079889
100
AcDbArc
 50
170.9425708683469
 51
196.8758087950523
  0
LINE
  5
3791
330
1F
100
AcDbEntity
  8
AM_0
100
AcDbLine
 10
-1.011075293901106
 20
-0.9460633836247325
 30
0.0
 11
-1.720428521979968
 21
-1.083618118589791
 31
0.0
  0
LINE
  5
3792
330
1F
100
AcDbEntity
  8
AM_0
100
AcDbLine
 10
-0.0000000000000027
 20
-1.465028704312329
 30
0.0
 11
-0.0000000000000027
 21
0.0899999999999821
 31
0.0
  0
LINE
  5
3793
330
1F
100
AcDbEntity
  8
AM_0
100
AcDbLine
 10
-0.1500000000302912
 20
1.500000000008185
 30
0.0
 11
-0.000000000000004
 21
1.459807621135427
 31
0.0
  0
LINE
  5
3794
330
1F
100
AcDbEntity
  8
AM_0
100
AcDbLine
 10
-0.4290910474018826
 20
0.833207495173017
 30
0.0
 11
-1.720428521980788
 21
1.083618118590399
 31
0.0
  0
LINE
  5
3795
330
1F
100
AcDbEntity
  8
AM_0
100
AcDbLine
 10
-0.0000000000000027
 20
0.3899999999999863
 30
0.0
 11
-0.000000000000004
 21
1.459807621135427
 31
0.0
  0
LINE
  5
379D
330
1F
100
AcDbEntity
  8
AM_11
100
AcDbLine
 10
-0.000000000000004
 20
-1.5
 30
0.0
 11
-0.000000000000004
 21
1.499999999999989
 31
0.0
  0
LINE
  5
37DE
330
1F
100
AcDbEntity
  8
AM_0
100
AcDbLine
 10
-44.49999999999999
 20
-3.000000000000007
 30
0.0
 11
-16.49999999999999
 21
-3.000000000000001
 31
0.0
  0
LINE
  5
37E1
330
1F
100
AcDbEntity
  8
AM_0
100
AcDbLine
 10
-44.50000000000001
 20
2.999999999999994
 30
0.0
 11
-44.50000000000001
 21
-3.000000000000007
 31
0.0
  0
LINE
  5
37E2
330
1F
100
AcDbEntity
  8
AM_0
100
AcDbLine
 10
-44.99999999999999
 20
-2.500000000000007
 30
0.0
 11
-45.00000000000001
 21
2.499999999999994
 31
0.0
  0
DIMENSION
  5
37E3
330
1F
100
AcDbEntity
  8
AM_5
100
AcDbDimension
  2
*D8
 10
-53.50000099999999
 20
-3.000000000000004
 30
0.0
 11
-53.50000099999999
 21
-0.0000000000000156
 31
0.0
 70
   160
  1
%%c<>
  3
AM_JIS
100
AcDbAlignedDimension
 13
-44.50000000000001
 23
2.999999999999994
 33
0.0
 14
-44.50000000000001
 24
-3.000000000000007
 34
0.0
 50
270.0
100
AcDbRotatedDimension
1001
GENIUS_GENDTOL_13
1000

1000
h7
1000

1040
0.0
  0
LINE
  5
37F2
330
1F
100
AcDbEntity
  8
AM_0
100
AcDbLine
 10
-44.50000000000001
 20
2.999999999999994
 30
0.0
 11
-16.50000000000001
 21
3.000000000000001
 31
0.0
  0
LINE
  5
3803
330
1F
100
AcDbEntity
  8
AM_0
100
AcDbLine
 10
-44.50000000000001
 20
2.999999999999994
 30
0.0
 11
-45.00000000000001
 21
2.499999999999994
 31
0.0
1001
GENIUS_GENFIL_13
1070
     0
1040
0.5
1040
0.5
1040
20.0
1040
0.0
1002
{
1002
}
1001
GENIUS_GENODEF_13
1002
{
1000
HIER
1070
     0
1002
}
1002
{
1000
MANEDIT
1070
     0
1002
}
1002
{
1000
NOSEL
1070
     0
1002
}
1002
{
1000
BEHIND
1070
     0
1002
}
1002
{
1000
REACTOR
1002
}
1001
GENIUS_GENOBJ-N-CHA_13
1002
{
1000
OWNER
1000
GEN
1002
}
  0
LINE
  5
3806
330
1F
100
AcDbEntity
  8
AM_0
100
AcDbLine
 10
-44.99999999999999
 20
-2.500000000000007
 30
0.0
 11
-44.49999999999999
 21
-3.000000000000007
 31
0.0
1001
GENIUS_GENFIL_13
1070
     0
1040
0.5
1040
0.5
1040
20.0
1040
0.0
1002
{
1002
}
1001
GENIUS_GENODEF_13
1002
{
1000
HIER
1070
     0
1002
}
1002
{
1000
MANEDIT
1070
     0
1002
}
1002
{
1000
NOSEL
1070
     0
1002
}
1002
{
1000
BEHIND
1070
     0
1002
}
1002
{
1000
REACTOR
1002
}
1001
GENIUS_GENOBJ-N-CHA_13
1002
{
1000
OWNER
1000
GEN
1002
}
  0
LINE
  5
382E
330
1F
100
AcDbEntity
  8
AM_0
100
AcDbLine
 10
-16.49999999999999
 20
-3.000000000000002
 30
0.0
 11
-16.50000000000001
 21
3.0
 31
0.0
  0
LINE
  5
3846
330
1F
100
AcDbEntity
  8
AM_11
100
AcDbLine
 10
-8.000000000000001
 20
-1.500000000000007
 30
0.0
 11
-8.000000000000001
 21
1.499999999999981
 31
0.0
  0
LINE
  5
38C8
330
1F
100
AcDbEntity
  8
AM_0
100
AcDbLine
 10
-8.054161454977339
 20
1.499999999999981
 30
0.0
 11
-10.90192378864665
 21
1.499999999999986
 31
0.0
  0
LINE
  5
38CA
330
1F
100
AcDbEntity
  8
AM_0
100
AcDbLine
 10
-10.90192378864671
 20
-1.50000000000001
 30
0.0
 11
-10.90192378864671
 21
1.500000000000003
 31
0.0
  0
LINE
  5
38CB
330
1F
100
AcDbEntity
  8
AM_0
100
AcDbLine
 10
-10.90192378864671
 20
1.500000000000003
 30
0.0
 11
-16.50000000000001
 21
3.0
 31
0.0
  0
LINE
  5
38CC
330
1F
100
AcDbEntity
  8
AM_0
100
AcDbLine
 10
-16.49999999999999
 20
-3.000000000000001
 30
0.0
 11
-10.90192378864671
 21
-1.50000000000001
 31
0.0
  0
SPLINE
  5
391B
330
1F
100
AcDbEntity
  8
AM_0
100
AcDbSpline
210
0.0
220
0.0
230
1.0
 70
     8
 71
     3
 72
     8
 73
     4
 74
     0
 42
0.0000000001
 43
0.0000000001
 40
0.0
 40
0.0
 40
0.0
 40
0.0
 40
1.274172826456642
 40
1.274172826456642
 40
1.274172826456642
 40
1.274172826456642
 10
-8.163162992165029
 20
-1.50000000000001
 30
0.0
 10
-7.826755499361437
 20
-1.468551842599985
 30
0.0
 10
-7.752169415909452
 20
-1.428132721142009
 30
0.0
 10
-7.671903755180574
 20
-1.379363586754486
 30
0.0
  0
SPLINE
  5
391C
330
1F
100
AcDbEntity
  8
AM_0
100
AcDbSpline
210
0.0
220
0.0
230
1.0
 70
     8
 71
     3
 72
     8
 73
     4
 74
     0
 42
0.0000000001
 43
0.0000000001
 40
0.0
 40
0.0
 40
0.0
 40
0.0
 40
3.513493495898223
 40
3.513493495898223
 40
3.513493495898223
 40
3.513493495898223
 10
-7.788101021792909
 20
-1.387127739920375
 30
0.0
 10
-8.139450371382693
 20
-1.387127739920375
 30
0.0
 10
-8.403970398363938
 20
-1.181459495429198
 30
0.0
 10
-8.628944296434521
 20
-0.8821203265872288
 30
0.0
  0
SPLINE
  5
391D
330
1F
100
AcDbEntity
  8
AM_0
100
AcDbSpline
210
0.0
220
0.0
230
1.0
 70
     8
 71
     3
 72
     8
 73
     4
 74
     0
 42
0.0000000001
 43
0.0000000001
 40
0.0
 40
0.0
 40
0.0
 40
0.0
 40
2.65269546380069
 40
2.65269546380069
 40
2.65269546380069
 40
2.65269546380069
 10
-7.788101021792909
 20
-1.387127739920375
 30
0.0
 10
-7.522831475412841
 20
-1.387127739920375
 30
0.0
 10
-7.307057107500398
 20
-1.269891002832213
 30
0.0
 10
-7.12042852195923
 20
-1.083618118569775
 30
0.0
  0
SPLINE
  5
391E
330
1F
100
AcDbEntity
  8
AM_0
100
AcDbSpline
210
0.0
220
0.0
230
1.0
 70
     8
 71
     3
 72
     8
 73
     4
 74
     0
 42
0.0000000001
 43
0.0000000001
 40
5.522945922693301
 40
5.522945922693301
 40
5.522945922693301
 40
5.522945922693301
 40
6.726812023537159
 40
6.726812023537159
 40
6.726812023537159
 40
6.726812023537159
 10
-8.000000000000001
 20
1.253667443461466
 30
0.0
 10
-7.410871775317792
 20
1.194907205741687
 30
0.0
 10
-7.163767042705927
 20
0.5098841746923029
 30
0.0
 10
-6.899999999998772
 20
0.0000000000001652
 30
0.0
  0
LINE
  5
3920
330
1F
100
AcDbEntity
  8
AM_0
100
AcDbLine
 10
-8.947659729557656
 20
-0.3804205461531982
 30
0.0
 11
-8.628944296434525
 21
-0.8821203265872341
 31
0.0
  0
LINE
  5
3921
330
1F
100
AcDbEntity
  8
AM_0
100
AcDbLine
 10
-8.163162992164984
 20
-1.50000000000001
 30
0.0
 11
-8.201923788647121
 21
-1.50000000000001
 31
0.0
  0
LINE
  5
3922
330
1F
100
AcDbEntity
  8
AM_0
100
AcDbLine
 10
-6.411075293900424
 20
-0.9460633836247431
 30
0.0
 11
-7.12042852197915
 21
-1.083618118589797
 31
0.0
  0
SPLINE
  5
39B1
330
1F
100
AcDbEntity
  8
AM_0
100
AcDbSpline
210
0.0
220
0.0
230
1.0
 70
     8
 71
     3
 72
     8
 73
     4
 74
     0
 42
0.0000000001
 43
0.0000000001
 40
0.157854605497133
 40
0.157854605497133
 40
0.157854605497133
 40
0.157854605497133
 40
6.616360992657454
 40
6.616360992657454
 40
6.616360992657454
 40
6.616360992657454
 10
-8.054161454977428
 20
1.499999999999991
 30
0.0
 10
-7.343043674066848
 20
1.420398975981198
 30
0.0
 10
-7.007073292877112
 20
0.7101994879906802
 30
0.0
 10
-6.671102911687512
 20
0.0000000000001261
 30
0.0
  0
LINE
  5
39B2
330
1F
100
AcDbEntity
  8
AM_0
100
AcDbLine
 10
-8.16316299216497
 20
-1.500000000000008
 30
0.0
 11
-10.90192378864671
 21
-1.50000000000001
 31
0.0
  0
ARC
  5
3D88
330
1F
100
AcDbEntity
  8
AM_0
100
AcDbCircle
 10
-6.389580827321875
 20
-0.9271261788702965
 30
0.0
 40
2.710961219739632
100
AcDbArc
 50
126.4442200434351
 51
162.8014701792304
  0
ARC
  5
3D8A
330
1F
100
AcDbEntity
  8
AM_0
100
AcDbCircle
 10
-8.69443606501364
 20
-0.2195548390716002
 30
0.0
 40
0.3
100
AcDbArc
 50
161.736702031086
 51
212.4266204144655
1001
GENIUS_GENODEF_13
1002
{
1000
HIER
1070
     0
1002
}
1002
{
1000
MANEDIT
1070
     0
1002
}
1002
{
1000
NOSEL
1070
     0
1002
}
1002
{
1000
BEHIND
1070
     0
1002
}
1002
{
1000
REACTOR
1002
}
1001
GENIUS_GENOBJ-N-FIL_13
1002
{
1000
OWNER
1000
GEN
1002
}
  0
LINE
  5
3D8C
330
1F
100
AcDbEntity
  8
AM_0
100
AcDbLine
 10
-8.000000000000001
 20
1.492612462028634
 30
0.0
 11
-8.000000000000001
 21
1.253667443461466
 31
0.0
  0
LINE
  5
3D8D
330
1F
100
AcDbEntity
  8
AM_0
100
AcDbLine
 10
-8.000000000000001
 20
-1.360542601254936
 30
0.0
 11
-8.000000000000001
 21
-1.48139862320207
 31
0.0
  0
VIEWPORT
  5
110
330
101
100
AcDbEntity
 67
     1
  8
0
100
AcDbViewport
 10
420.5
 20
297.0
 30
0.0
 40
948.9782706766916
 41
628.452
 68
     1
 69
     1
1001
ACAD
1000
MVIEW
1002
{
1070
    16
1010
0.0
1020
0.0
1030
0.0
1010
0.0
1020
0.0
1030
1.0
1040
0.0
1040
628.452
1040
420.5
1040
297.0
1040
50.0
1040
0.0
1040
0.0
1070
     0
1070
   100
1070
     1
1070
     1
1070
     0
1070
     0
1070
     0
1070
     0
1040
0.0
1040
0.0
1040
0.0
1040
10.0
1040
10.0
1040
10.0
1040
10.0
1070
     0
1002
{
1002
}
1002
}
  0
ENDSEC
  0
SECTION
  2
OBJECTS
  0
DICTIONARY
  5
C
330
0
100
AcDbDictionary
  3
ACAD_GROUP
350
D
  3
ACAD_LAYOUT
350
1A
  3
ACAD_MLINESTYLE
350
17
  3
ACAD_PLOTSETTINGS
350
19
  3
ACAD_PLOTSTYLENAME
350
E
  3
ACDBVARIABLEDICTIONARY
350
34
  3
ACMDICTIONARY
350
43
  3
AMG
350
2B
  3
AMGSNAPSETTINGS
350
6E
  3
ASE_INDEX_DICTIONARY
350
151A
  3
DWGPROPS
350
3DA4
  3
ACDBHEADERROUNDTRIPXREC
350
3DB0
  0
DICTIONARY
  5
74
330
1F
100
AcDbDictionary
280
     1
  3
ACAD_INDEX
360
3DA6
  3
ACAD_LAYOUTSELFREF
360
3DD3
  0
DICTIONARY
  5
3DD8
330
101
100
AcDbDictionary
280
     1
  3
ACAD_LAYOUTSELFREF
360
3DD9
  0
DICTIONARY
  5
D
102
{ACAD_REACTORS
330
C
102
}
330
C
100
AcDbDictionary
  0
DICTIONARY
  5
1A
102
{ACAD_REACTORS
330
C
102
}
330
C
100
AcDbDictionary
  0
DICTIONARY
  5
17
102
{ACAD_REACTORS
330
C
102
}
330
C
100
AcDbDictionary
  3
STANDARD
350
18
  0
DICTIONARY
  5
19
102
{ACAD_REACTORS
330
C
102
}
330
C
100
AcDbDictionary
  0
ACDBDICTIONARYWDFLT
  5
E
102
{ACAD_REACTORS
330
C
102
}
330
C
100
AcDbDictionary
281
     1
  3
Normal
350
F
100
AcDbDictionaryWithDefault
340
F
  0
DICTIONARY
  5
34
102
{ACAD_REACTORS
330
C
102
}
330
C
100
AcDbDictionary
  3
INDEXCTL
350
35
  3
SORTENTS
350
B5E
  0
DICTIONARY
  5
43
102
{ACAD_REACTORS
330
C
102
}
330
C
100
AcDbDictionary
  3
ACMSTDDICTIONARY
350
260
  0
DICTIONARY
  5
2B
102
{ACAD_REACTORS
330
C
102
}
330
C
100
AcDbDictionary
  3
ACMGSETTINGS
350
2C
  0
DICTIONARY
  5
6E
102
{ACAD_REACTORS
330
C
102
}
330
C
100
AcDbDictionary
  0
DICTIONARY
  5
151A
102
{ACAD_REACTORS
330
C
102
}
330
C
100
AcDbDictionary
  3
ASEBLOCKHIERARCHYINDEXRECORD
350
151C
1001
DCO15
1040
1471862535.906
  0
XRECORD
  5
3DA4
102
{ACAD_REACTORS
330
C
102
}
330
C
100
AcDbXrecord
  1
DWGPROPS COOKIE
  2

  3

  4

  6

  7

  8

  9

300
AmdtFileType=82
301
=
302
=
303
=
304
=
305
=
306
=
307
=
308
=
309
=
 40
0.1392307523148148
 41
2452838.430434386
 42
2453045.468835301
  1

 90
        1
  0
DICTIONARY
  5
3DB0
102
{ACAD_REACTORS
330
C
102
}
330
C
100
AcDbDictionary
  3
TSTACKALIGN
350
3DB1
  3
TSTACKSIZE
350
3DB2
  3
HYPERLINKBASE
350
3DB3
  3
STYLESHEET
350
3DB4
  3
LAYOUTDICT
350
3DB5
  3
PLOTSETDICT
350
3DB6
  3
PLOTSTYLNAMDICT
350
3DB7
  3
LWETCUNION
350
3DB8
  3
INSUNITS
350
3DB9
  3
CEPSNTYPE
350
3DBA
  3
FINGERPRINTGUID
350
3DBB
  3
VERSIONGUID
350
3DBC
  3
PSVPSCALE
350
3DBD
  3
DIMSTYLEDATA
350
3DBE
  3
PUCSORTHOREF
350
3DBF
  3
PUCSORTHOVIEW
350
3DC0
  3
PUCSBASE
350
3DC1
  3
PUCSORGTOP
350
3DC2
  3
PUCSORGBOTTOM
350
3DC3
  3
PUCSORGLEFT
350
3DC4
  3
PUCSORGRIGHT
350
3DC5
  3
PUCSORGFRONT
350
3DC6
  3
PUCSORGBACK
350
3DC7
  3
UCSORTHOREF
350
3DC8
  3
UCSORTHOVIEW
350
3DC9
  3
UCSBASE
350
3DCA
  3
UCSORGTOP
350
3DCB
  3
UCSORGBOTTOM
350
3DCC
  3
UCSORGLEFT
350
3DCD
  3
UCSORGRIGHT
350
3DCE
  3
UCSORGFRONT
350
3DCF
  3
UCSORGBACK
350
3DD0
  0
DICTIONARY
  5
3DA6
102
{ACAD_REACTORS
330
74
102
}
330
74
100
AcDbDictionary
  3
*A1
350
3DA7
  0
XRECORD
  5
3DD3
102
{ACAD_REACTORS
330
74
102
}
330
74
100
AcDbXrecord
340
1F
  0
XRECORD
  5
3DD9
102
{ACAD_REACTORS
330
3DD8
102
}
330
3DD8
100
AcDbXrecord
340
101
  0
MLINESTYLE
  5
18
102
{ACAD_REACTORS
330
17
102
}
330
17
100
AcDbMlineStyle
  2
STANDARD
 70
     0
  3

 62
   256
 51
90.0
 52
90.0
 71
     2
 49
0.5
 62
   256
  6
BYLAYER
 49
-0.5
 62
   256
  6
BYLAYER
  0
ACDBPLACEHOLDER
  5
F
102
{ACAD_REACTORS
330
E
102
}
330
E
100
AcDbPlaceHolder
280
     0
  0
DICTIONARYVAR
  5
35
102
{ACAD_REACTORS
330
34
102
}
330
34
100
DictionaryVariables
280
     0
  1
1
  0
DICTIONARYVAR
  5
B5E
102
{ACAD_REACTORS
330
34
102
}
330
34
100
DictionaryVariables
280
     0
  1
96
  0
DICTIONARY
  5
260
102
{ACAD_REACTORS
330
43
102
}
330
43
100
AcDbDictionary
  0
DICTIONARY
  5
2C
102
{ACAD_REACTORS
330
2B
102
}
330
2B
100
AcDbDictionary
  3
DWGSETTINGS
350
2D
  0
XRECORD
  5
151C
102
{ACAD_REACTORS
330
151A
102
}
330
151A
100
AcDbXrecord
330
0
330
0
330
0
330
0
330
0
330
0
330
0
330
0
  0
XRECORD
  5
3DB1
102
{ACAD_REACTORS
330
3DB0
102
}
330
3DB0
100
AcDbXrecord
 90
        1
  0
XRECORD
  5
3DB2
102
{ACAD_REACTORS
330
3DB0
102
}
330
3DB0
100
AcDbXrecord
 90
       70
  0
XRECORD
  5
3DB3
102
{ACAD_REACTORS
330
3DB0
102
}
330
3DB0
100
AcDbXrecord
  1

  0
XRECORD
  5
3DB4
102
{ACAD_REACTORS
330
3DB0
102
}
330
3DB0
100
AcDbXrecord
  1
ASAMI.ctb
  0
XRECORD
  5
3DB5
102
{ACAD_REACTORS
330
3DB0
102
}
330
3DB0
100
AcDbXrecord
340
1A
  0
XRECORD
  5
3DB6
102
{ACAD_REACTORS
330
3DB0
102
}
330
3DB0
100
AcDbXrecord
340
19
  0
XRECORD
  5
3DB7
102
{ACAD_REACTORS
330
3DB0
102
}
330
3DB0
100
AcDbXrecord
340
E
  0
XRECORD
  5
3DB8
102
{ACAD_REACTORS
330
3DB0
102
}
330
3DB0
100
AcDbXrecord
 90
    10781
  0
XRECORD
  5
3DB9
102
{ACAD_REACTORS
330
3DB0
102
}
330
3DB0
100
AcDbXrecord
 90
        4
  0
XRECORD
  5
3DBA
102
{ACAD_REACTORS
330
3DB0
102
}
330
3DB0
100
AcDbXrecord
 90
        0
  0
XRECORD
  5
3DBB
102
{ACAD_REACTORS
330
3DB0
102
}
330
3DB0
100
AcDbXrecord
  1
{AFB28963-8C59-40AE-9337-C84526B81ACE}
  0
XRECORD
  5
3DBC
102
{ACAD_REACTORS
330
3DB0
102
}
330
3DB0
100
AcDbXrecord
  1
{9DC50200-69D5-43D6-8640-55113F594174}
  0
XRECORD
  5
3DBD
102
{ACAD_REACTORS
330
3DB0
102
}
330
3DB0
100
AcDbXrecord
 40
0.0
  0
XRECORD
  5
3DBE
102
{ACAD_REACTORS
330
3DB0
102
}
330
3DB0
100
AcDbXrecord
1000
DSTYLE
1002
{
1070
    79
 70
     2
1070
   341
340
59
1070
   342
340
59
1070
   371
 70
    -1
1070
   372
 70
    -1
1002
}
  0
XRECORD
  5
3DBF
102
{ACAD_REACTORS
330
3DB0
102
}
330
3DB0
100
AcDbXrecord
340
0
  0
XRECORD
  5
3DC0
102
{ACAD_REACTORS
330
3DB0
102
}
330
3DB0
100
AcDbXrecord
 70
     0
  0
XRECORD
  5
3DC1
102
{ACAD_REACTORS
330
3DB0
102
}
330
3DB0
100
AcDbXrecord
340
0
  0
XRECORD
  5
3DC2
102
{ACAD_REACTORS
330
3DB0
102
}
330
3DB0
100
AcDbXrecord
 10
0.0
 20
0.0
 30
0.0
  0
XRECORD
  5
3DC3
102
{ACAD_REACTORS
330
3DB0
102
}
330
3DB0
100
AcDbXrecord
 10
0.0
 20
0.0
 30
0.0
  0
XRECORD
  5
3DC4
102
{ACAD_REACTORS
330
3DB0
102
}
330
3DB0
100
AcDbXrecord
 10
0.0
 20
0.0
 30
0.0
  0
XRECORD
  5
3DC5
102
{ACAD_REACTORS
330
3DB0
102
}
330
3DB0
100
AcDbXrecord
 10
0.0
 20
0.0
 30
0.0
  0
XRECORD
  5
3DC6
102
{ACAD_REACTORS
330
3DB0
102
}
330
3DB0
100
AcDbXrecord
 10
0.0
 20
0.0
 30
0.0
  0
XRECORD
  5
3DC7
102
{ACAD_REACTORS
330
3DB0
102
}
330
3DB0
100
AcDbXrecord
 10
0.0
 20
0.0
 30
0.0
  0
XRECORD
  5
3DC8
102
{ACAD_REACTORS
330
3DB0
102
}
330
3DB0
100
AcDbXrecord
340
0
  0
XRECORD
  5
3DC9
102
{ACAD_REACTORS
330
3DB0
102
}
330
3DB0
100
AcDbXrecord
 70
     0
  0
XRECORD
  5
3DCA
102
{ACAD_REACTORS
330
3DB0
102
}
330
3DB0
100
AcDbXrecord
340
0
  0
XRECORD
  5
3DCB
102
{ACAD_REACTORS
330
3DB0
102
}
330
3DB0
100
AcDbXrecord
 10
0.0
 20
0.0
 30
0.0
  0
XRECORD
  5
3DCC
102
{ACAD_REACTORS
330
3DB0
102
}
330
3DB0
100
AcDbXrecord
 10
0.0
 20
0.0
 30
0.0
  0
XRECORD
  5
3DCD
102
{ACAD_REACTORS
330
3DB0
102
}
330
3DB0
100
AcDbXrecord
 10
0.0
 20
0.0
 30
0.0
  0
XRECORD
  5
3DCE
102
{ACAD_REACTORS
330
3DB0
102
}
330
3DB0
100
AcDbXrecord
 10
0.0
 20
0.0
 30
0.0
  0
XRECORD
  5
3DCF
102
{ACAD_REACTORS
330
3DB0
102
}
330
3DB0
100
AcDbXrecord
 10
0.0
 20
0.0
 30
0.0
  0
XRECORD
  5
3DD0
102
{ACAD_REACTORS
330
3DB0
102
}
330
3DB0
100
AcDbXrecord
 10
0.0
 20
0.0
 30
0.0
  0
LAYER_INDEX
  5
3DA7
102
{ACAD_REACTORS
330
3DA6
102
}
330
3DA6
100
AcDbIndex
 40
2453152.47383081
100
AcDbLayerIndex
  8
0
360
3DA8
 90
        0
  8
AM_0
360
3DA9
 90
       65
  8
AM_11
360
3DAA
 90
        4
  8
AM_7
360
3DAB
 90
        1
  8
AM_5
360
3DAC
 90
        4
  8
Defpoints
360
3DAD
 90
        0
  8
AM_6
360
3DAE
 90
        1
  0
XRECORD
  5
2D
102
{ACAD_REACTORS
330
2C
102
}
330
2C
100
AcDbXrecord
  1
VERSION
140
15.0
  1
PRODUCT
  2
AutoCAD Mechanical 2000
  0
IDBUFFER
  5
3DA8
330
0
100
AcDbIdBuffer
  0
IDBUFFER
  5
3DA9
330
0
100
AcDbIdBuffer
330
38C8
330
38CA
330
38CB
330
38CC
330
391B
330
391C
330
391D
330
391E
330
3920
330
3921
330
3922
330
39B1
330
39B2
330
3D88
330
3D8A
330
3D8C
330
3D8D
330
3755
330
3756
330
3757
330
3758
330
375B
330
3768
330
3769
330
376A
330
376B
330
376C
330
376D
330
376E
330
376F
330
3770
330
3771
330
3772
330
3773
330
3774
330
3775
330
3776
330
3777
330
3778
330
3779
330
377A
330
377B
330
377C
330
377D
330
377E
330
3782
330
3783
330
3789
330
378C
330
378D
330
378E
330
378F
330
3790
330
3791
330
3792
330
3793
330
3794
330
3795
330
37DE
330
37E1
330
37E2
330
37F2
330
3803
330
3806
330
382E
  0
IDBUFFER
  5
3DAA
330
0
100
AcDbIdBuffer
330
3780
330
3781
330
379D
330
3846
  0
IDBUFFER
  5
3DAB
330
0
100
AcDbIdBuffer
330
C2E
  0
IDBUFFER
  5
3DAC
330
0
100
AcDbIdBuffer
330
10F0
330
12D8
330
31A2
330
37E3
  0
IDBUFFER
  5
3DAD
330
0
100
AcDbIdBuffer
  0
IDBUFFER
  5
3DAE
330
0
100
AcDbIdBuffer
330
1500
  0
ENDSEC
  0
EOF
