  0
SECTION
  2
HEADER
  9
$ACADVER
  1
AC1014
  9
$ACADMAINTVER
 70
     9
  9
$DWGCODEPAGE
  3
ANSI_932
  9
$INSBASE
 10
0.0
 20
0.0
 30
0.0
  9
$EXTMIN
 10
-62.04470045058476
 20
-27.2500010000001
 30
-0.00000001
  9
$EXTMAX
 10
12.05776903085518
 20
3.544295532567682
 30
0.00000001
  9
$LIMMIN
 10
-74.68614024176019
 20
-40.34126636968451
  9
$LIMMAX
 10
15.75837735201798
 20
17.08572638557728
  9
$ORTHOMODE
 70
     0
  9
$REGENMODE
 70
     1
  9
$FILLMODE
 70
     1
  9
$QTEXTMODE
 70
     0
  9
$MIRRTEXT
 70
     0
  9
$DRAGMODE
 70
     2
  9
$LTSCALE
 40
1.0
  9
$OSMODE
 70
    55
  9
$ATTMODE
 70
     1
  9
$TEXTSIZE
 40
2.5
  9
$TRACEWID
 40
1.0
  9
$TEXTSTYLE
  7
STANDARD
  9
$CLAYER
  8
AM_0
  9
$CELTYPE
  6
BYLAYER
  9
$CECOLOR
 62
   256
  9
$CELTSCALE
 40
1.0
  9
$DELOBJ
 70
     1
  9
$DISPSILH
 70
     0
  9
$DIMSCALE
 40
0.5
  9
$DIMASZ
 40
2.5
  9
$DIMEXO
 40
1.0
  9
$DIMDLI
 40
12.0
  9
$DIMRND
 40
0.0
  9
$DIMDLE
 40
0.0
  9
$DIMEXE
 40
1.0
  9
$DIMTP
 40
0.1
  9
$DIMTM
 40
0.1
  9
$DIMTXT
 40
3.2
  9
$DIMCEN
 40
0.0
  9
$DIMTSZ
 40
0.0
  9
$DIMTOL
 70
     0
  9
$DIMLIM
 70
     0
  9
$DIMTIH
 70
     0
  9
$DIMTOH
 70
     0
  9
$DIMSE1
 70
     0
  9
$DIMSE2
 70
     0
  9
$DIMTAD
 70
     3
  9
$DIMZIN
 70
     8
  9
$DIMBLK
  1
OPEN30
  9
$DIMASO
 70
     1
  9
$DIMSHO
 70
     1
  9
$DIMPOST
  1

  9
$DIMAPOST
  1
"
  9
$DIMALT
 70
     0
  9
$DIMALTD
 70
     2
  9
$DIMALTF
 40
0.0393701
  9
$DIMLFAC
 40
1.0
  9
$DIMTOFL
 70
     1
  9
$DIMTVP
 40
0.0
  9
$DIMTIX
 70
     0
  9
$DIMSOXD
 70
     0
  9
$DIMSAH
 70
     0
  9
$DIMBLK1
  1

  9
$DIMBLK2
  1

  9
$DIMSTYLE
  2
AM_JIS
  9
$DIMCLRD
 70
   256
  9
$DIMCLRE
 70
   256
  9
$DIMCLRT
 70
     2
  9
$DIMTFAC
 40
0.71
  9
$DIMGAP
 40
1.5
  9
$DIMJUST
 70
     0
  9
$DIMSD1
 70
     0
  9
$DIMSD2
 70
     0
  9
$DIMTOLJ
 70
     0
  9
$DIMTZIN
 70
     0
  9
$DIMALTZ
 70
     0
  9
$DIMALTTZ
 70
     0
  9
$DIMFIT
 70
     3
  9
$DIMUPT
 70
     0
  9
$DIMUNIT
 70
     2
  9
$DIMDEC
 70
     3
  9
$DIMTDEC
 70
     3
  9
$DIMALTU
 70
     2
  9
$DIMALTTD
 70
     2
  9
$DIMTXSTY
  7
ASAMI
  9
$DIMAUNIT
 70
     0
  9
$LUNITS
 70
     2
  9
$LUPREC
 70
     2
  9
$SKETCHINC
 40
1.0
  9
$FILLETRAD
 40
2.5
  9
$AUNITS
 70
     0
  9
$AUPREC
 70
     0
  9
$MENU
  1
.
  9
$ELEVATION
 40
0.0
  9
$PELEVATION
 40
0.0
  9
$THICKNESS
 40
0.0
  9
$LIMCHECK
 70
     0
  9
$BLIPMODE
 70
     0
  9
$CHAMFERA
 40
0.5
  9
$CHAMFERB
 40
0.5
  9
$CHAMFERC
 40
20.0
  9
$CHAMFERD
 40
0.0
  9
$SKPOLY
 70
     0
  9
$TDCREATE
 40
2452838.430434386
  9
$TDUPDATE
 40
2453152.468827789
  9
$TDINDWG
 40
0.1529440625
  9
$TDUSRTIMER
 40
0.1529440625
  9
$USRTIMER
 70
     1
  9
$ANGBASE
 50
0.0
  9
$ANGDIR
 70
     0
  9
$PDMODE
 70
     0
  9
$PDSIZE
 40
0.0
  9
$PLINEWID
 40
0.0
  9
$COORDS
 70
     1
  9
$SPLFRAME
 70
     0
  9
$SPLINETYPE
 70
     6
  9
$SPLINESEGS
 70
     8
  9
$ATTDIA
 70
     1
  9
$ATTREQ
 70
     1
  9
$HANDLING
 70
 12289
  9
$HANDSEED
  5
42E9
  9
$SURFTAB1
 70
     6
  9
$SURFTAB2
 70
     6
  9
$SURFTYPE
 70
     6
  9
$SURFU
 70
     6
  9
$SURFV
 70
     6
  9
$UCSNAME
  2

  9
$UCSORG
 10
0.0
 20
0.0
 30
0.0
  9
$UCSXDIR
 10
1.0
 20
0.0
 30
0.0
  9
$UCSYDIR
 10
0.0
 20
1.0
 30
0.0
  9
$PUCSNAME
  2

  9
$PUCSORG
 10
0.0
 20
0.0
 30
0.0
  9
$PUCSXDIR
 10
1.0
 20
0.0
 30
0.0
  9
$PUCSYDIR
 10
0.0
 20
1.0
 30
0.0
  9
$USERI1
 70
     0
  9
$USERI2
 70
     0
  9
$USERI3
 70
     0
  9
$USERI4
 70
     0
  9
$USERI5
 70
     0
  9
$USERR1
 40
0.0
  9
$USERR2
 40
0.0
  9
$USERR3
 40
0.0
  9
$USERR4
 40
0.0
  9
$USERR5
 40
0.0
  9
$WORLDVIEW
 70
     1
  9
$SHADEDGE
 70
     3
  9
$SHADEDIF
 70
    70
  9
$TILEMODE
 70
     1
  9
$MAXACTVP
 70
    64
  9
$PINSBASE
 10
0.0
 20
0.0
 30
0.0
  9
$PLIMCHECK
 70
     0
  9
$PEXTMIN
 10
1.000000000000000E+20
 20
1.000000000000000E+20
 30
1.000000000000000E+20
  9
$PEXTMAX
 10
-1.000000000000000E+20
 20
-1.000000000000000E+20
 30
-1.000000000000000E+20
  9
$PLIMMIN
 10
0.0
 20
0.0
  9
$PLIMMAX
 10
841.0
 20
594.0
  9
$UNITMODE
 70
     0
  9
$VISRETAIN
 70
     1
  9
$PLINEGEN
 70
     0
  9
$PSLTSCALE
 70
     0
  9
$TREEDEPTH
 70
  3020
  9
$PICKSTYLE
 70
     0
  9
$CMLSTYLE
  2
STANDARD
  9
$CMLJUST
 70
     0
  9
$CMLSCALE
 40
20.0
  9
$PROXYGRAPHICS
 70
     1
  9
$MEASUREMENT
 70
     1
  0
ENDSEC
  0
SECTION
  2
CLASSES
  0
CLASS
  1
ACDBDICTIONARYWDFLT
  2
AcDbDictionaryWithDefault
  3
AutoCAD 2000
 90
        0
280
     0
281
     0
  0
CLASS
  1
ACDBPLACEHOLDER
  2
AcDbPlaceHolder
  3
AutoCAD 2000
 90
        0
280
     0
281
     0
  0
CLASS
  1
LAYOUT
  2
AcDbLayout
  3
AutoCAD 2000
 90
        0
280
     0
281
     0
  0
CLASS
  1
AMGSETTINGSOBJ
  2
AmgSettingsObj
  3
"AcadM|Product Description: AutoCAD Mechanical 2000|Company: Autodesk"
 90
        0
280
     0
281
     0
  0
CLASS
  1
ACME_DOCUMENT
  2
AcMeDbDoc
  3
AcMeServices
 90
        0
280
     0
281
     0
  0
CLASS
  1
ACMESCOPE
  2
AcMeScope
  3
AcMeServices
 90
        0
280
     0
281
     0
  0
CLASS
  1
ACMECOMMANDHISTORY
  2
AcMeCommandHistory
  3
AcMeServices
 90
        0
280
     0
281
     0
  0
CLASS
  1
DICTIONARYVAR
  2
AcDbDictionaryVar
  3
AutoCAD 2000
 90
        0
280
     0
281
     0
  0
CLASS
  1
ACIMSYSVARMAN
  2
AcImSysVarManager
  3
AcMeServices
 90
        0
280
     0
281
     0
  0
CLASS
  1
ACIMREALSYSVAR
  2
AcImRealSysVar
  3
AcMeServices
 90
        0
280
     0
281
     0
  0
CLASS
  1
ACIMINTSYSVAR
  2
AcImIntSysVar
  3
AcMeServices
 90
        0
280
     0
281
     0
  0
CLASS
  1
ACMEDRAWINGMAN
  2
AcMeDrawingMan
  3
AcMeServices
 90
        0
280
     0
281
     0
  0
CLASS
  1
ACMEVIEW
  2
AcMeView
  3
AcMeServices
 90
        0
280
     0
281
     0
  0
CLASS
  1
ACDBENTITYCACHE
  2
AcMeEntityCache
  3
AcMeServices
 90
        0
280
     0
281
     0
  0
CLASS
  1
GSMANAGER
  2
AcMeGSManager
  3
AcMeServices
 90
        0
280
     0
281
     0
  0
CLASS
  1
AmdtInternalReactor
  2
AmdtInternalReactor
  3
AcMeServices
 90
        0
280
     0
281
     0
  0
CLASS
  1
ACMESTATEMGR
  2
AcMeStateMgr
  3
AcMeServices
 90
        0
280
     0
281
     0
  0
CLASS
  1
ACME_DATABASE
  2
AcMeDbDatabase
  3
AcMeServices
 90
        0
280
     0
281
     0
  0
CLASS
  1
ACRFINSADJUSTERMGR
  2
AcRfInsAdjusterMgr
  3
AcMeServices
 90
        0
280
     0
281
     0
  0
CLASS
  1
ACMDATADICTIONARY
  2
AcmDataDictionary
  3
"AcmSymBB|Product Description: AutoCAD Mechanical 2000|Company: Autodesk"
 90
        0
280
     0
281
     0
  0
CLASS
  1
ACMDATAENTRYBLOCK
  2
AcmDataEntryBlock
  3
"AcmSymBB|Product Description: AutoCAD Mechanical 2000|Company: Autodesk"
 90
        0
280
     0
281
     0
  0
CLASS
  1
AMGOBJPROPCFG
  2
AmgObjPropCfg
  3
"AmgLay|Product Description: AutoCAD Mechanical 2000|Company: Autodesk"
 90
        1
280
     0
281
     0
  0
CLASS
  1
ACAMGFILTERDAT
  2
AcAmgFilterDat
  3
"AcadM|Product Description: AutoCAD Mechanical 2000|Company: Autodesk"
 90
        0
280
     0
281
     0
  0
CLASS
  1
LAYER_INDEX
  2
AcDbLayerIndex
  3
AutoCAD 2000
 90
        0
280
     0
281
     0
  0
CLASS
  1
IDBUFFER
  2
AcDbIdBuffer
  3
AutoCAD 2000
 90
        0
280
     0
281
     0
  0
CLASS
  1
ACIMSTRSYSVAR
  2
AcImStrSysVar
  3
AcMeServices
 90
        0
280
     0
281
     0
  0
CLASS
  1
ACMSTANDARDJIS
  2
AcmStandardJIS
  3
"AcmSymBB|Product Description: AutoCAD Mechanical 2000|Company: Autodesk"
 90
        0
280
     0
281
     0
  0
CLASS
  1
ACMSURFSTANDARDJIS
  2
AcmSurfTextStdJIS
  3
"AcmSymBB|Product Description: AutoCAD Mechanical 2000|Company: Autodesk"
 90
        0
280
     0
281
     0
  0
CLASS
  1
ACMFCFSTANDARDJIS
  2
AcmFCFStdJIS
  3
"AcmSymBB|Product Description: AutoCAD Mechanical 2000|Company: Autodesk"
 90
        0
280
     0
281
     0
  0
CLASS
  1
ACMWELDSTANDARDJIS
  2
AcmWeldingStdJIS
  3
"AcmSymBB|Product Description: AutoCAD Mechanical 2000|Company: Autodesk"
 90
        0
280
     0
281
     0
  0
CLASS
  1
ACMIDSTANDARDJIS
  2
AcmIdStdJIS
  3
"AcmSymBB|Product Description: AutoCAD Mechanical 2000|Company: Autodesk"
 90
        0
280
     0
281
     0
  0
CLASS
  1
ACMDATUMSTANDARDJIS
  2
AcmDatumStdJIS
  3
"AcmSymBB|Product Description: AutoCAD Mechanical 2000|Company: Autodesk"
 90
        0
280
     0
281
     0
  0
CLASS
  1
ACMBOMSTANDARDJIS
  2
AcmBOMStdJIS
  3
"AcmSymBB|Product Description: AutoCAD Mechanical 2000|Company: Autodesk"
 90
        0
280
     0
281
     0
  0
CLASS
  1
ACMSTANDARDANSI
  2
AcmStandardANSI
  3
"AcmSymBB|Product Description: AutoCAD Mechanical 2000|Company: Autodesk"
 90
        0
280
     0
281
     0
  0
CLASS
  1
ACMSURFSTANDARDANSI
  2
AcmSurfTextStdANSI
  3
"AcmSymBB|Product Description: AutoCAD Mechanical 2000|Company: Autodesk"
 90
        0
280
     0
281
     0
  0
CLASS
  1
ACMFCFSTANDARDANSI
  2
AcmFCFStdANSI
  3
"AcmSymBB|Product Description: AutoCAD Mechanical 2000|Company: Autodesk"
 90
        0
280
     0
281
     0
  0
CLASS
  1
ACMWELDSTANDARDANSI
  2
AcmWeldingStdANSI
  3
"AcmSymBB|Product Description: AutoCAD Mechanical 2000|Company: Autodesk"
 90
        0
280
     0
281
     0
  0
CLASS
  1
ACMIDSTANDARDANSI
  2
AcmIdStdANSI
  3
"AcmSymBB|Product Description: AutoCAD Mechanical 2000|Company: Autodesk"
 90
        0
280
     0
281
     0
  0
CLASS
  1
ACMDATUMSTANDARDANSI
  2
AcmDatumStdANSI
  3
"AcmSymBB|Product Description: AutoCAD Mechanical 2000|Company: Autodesk"
 90
        0
280
     0
281
     0
  0
CLASS
  1
ACMBOMSTANDARDANSI
  2
AcmBOMStdANSI
  3
"AcmSymBB|Product Description: AutoCAD Mechanical 2000|Company: Autodesk"
 90
        0
280
     0
281
     0
  0
CLASS
  1
ACMSTANDARDBSI
  2
AcmStandardBSI
  3
"AcmSymBB|Product Description: AutoCAD Mechanical 2000|Company: Autodesk"
 90
        0
280
     0
281
     0
  0
CLASS
  1
ACMSURFSTANDARDBSI
  2
AcmSurfTextStdBSI
  3
"AcmSymBB|Product Description: AutoCAD Mechanical 2000|Company: Autodesk"
 90
        0
280
     0
281
     0
  0
CLASS
  1
ACMFCFSTANDARDBSI
  2
AcmFCFStdBSI
  3
"AcmSymBB|Product Description: AutoCAD Mechanical 2000|Company: Autodesk"
 90
        0
280
     0
281
     0
  0
CLASS
  1
ACMWELDSTANDARDBSI
  2
AcmWeldingStdBSI
  3
"AcmSymBB|Product Description: AutoCAD Mechanical 2000|Company: Autodesk"
 90
        0
280
     0
281
     0
  0
CLASS
  1
ACMIDSTANDARDBSI
  2
AcmIdStdBSI
  3
"AcmSymBB|Product Description: AutoCAD Mechanical 2000|Company: Autodesk"
 90
        0
280
     0
281
     0
  0
CLASS
  1
ACMDATUMSTANDARDBSI
  2
AcmDatumStdBSI
  3
"AcmSymBB|Product Description: AutoCAD Mechanical 2000|Company: Autodesk"
 90
        0
280
     0
281
     0
  0
CLASS
  1
ACMBOMSTANDARDBSI
  2
AcmBOMStdBSI
  3
"AcmSymBB|Product Description: AutoCAD Mechanical 2000|Company: Autodesk"
 90
        0
280
     0
281
     0
  0
CLASS
  1
LONG_TRANSACTION
  2
AcDbLongTransaction
  3
AutoCAD 2000
 90
        0
280
     0
281
     0
  0
CLASS
  1
LWPOLYLINE
  2
AcDbPolyline
  3
AutoCAD 2000
 90
        0
280
     0
281
     1
  0
CLASS
  1
HATCH
  2
AcDbHatch
  3
AutoCAD 2000
 90
        0
280
     0
281
     1
  0
CLASS
  1
XRECORD
  2
AcDbXrecord
  3
AutoCAD 2000
 90
        0
280
     0
281
     0
  0
ENDSEC
  0
SECTION
  2
TABLES
  0
TABLE
  2
VPORT
  5
8
330
0
100
AcDbSymbolTable
 70
     3
  0
VPORT
  5
42BE
330
8
100
AcDbSymbolTableRecord
100
AcDbViewportTableRecord
  2
*ACTIVE
 70
     0
 10
0.0
 20
0.0
 11
1.0
 21
1.0
 12
-17.38000697337066
 22
-1.192760871237105
 13
0.0
 23
0.0
 14
2.5
 24
2.5
 15
10.0
 25
10.0
 16
0.0
 26
0.0
 36
1.0
 17
0.0
 27
0.0
 37
0.0
 40
82.26015374360832
 41
1.56570841889117
 42
50.0
 43
0.0
 44
0.0
 50
0.0
 51
0.0
 71
     0
 72
   100
 73
     1
 74
     3
 75
     0
 76
     0
 77
     0
 78
     0
  0
ENDTAB
  0
TABLE
  2
LTYPE
  5
5
330
0
100
AcDbSymbolTable
 70
    10
  0
LTYPE
  5
14
330
5
100
AcDbSymbolTableRecord
100
AcDbLinetypeTableRecord
  2
BYBLOCK
 70
     0
  3

 72
    65
 73
     0
 40
0.0
  0
LTYPE
  5
15
330
5
100
AcDbSymbolTableRecord
100
AcDbLinetypeTableRecord
  2
BYLAYER
 70
     0
  3

 72
    65
 73
     0
 40
0.0
  0
LTYPE
  5
16
330
5
100
AcDbSymbolTableRecord
100
AcDbLinetypeTableRecord
  2
CONTINUOUS
 70
     0
  3
Solid line
 72
    65
 73
     0
 40
0.0
  0
LTYPE
  5
4B
330
5
100
AcDbSymbolTableRecord
100
AcDbLinetypeTableRecord
  2
AM_ISO02W050
 70
     0
  3
__ __ __ __ __ __ __ __ __ __ __ __ __ __ __
 72
    65
 73
     2
 40
7.5
 49
6.0
 74
     0
 49
-1.5
 74
     0
  0
LTYPE
  5
4C
330
5
100
AcDbSymbolTableRecord
100
AcDbLinetypeTableRecord
  2
AM_ISO08W050
 70
     0
  3
____ . ____ . ____ . ____ . ____ . ____ . ____
 72
    65
 73
     4
 40
18.0
 49
12.0
 74
     0
 49
-1.5
 74
     0
 49
3.0
 74
     0
 49
-1.5
 74
     0
  0
LTYPE
  5
4D
330
5
100
AcDbSymbolTableRecord
100
AcDbLinetypeTableRecord
  2
AM_ISO09W050
 70
     0
  3
_____ . . _____ . . _____ . . ____ .. ____
 72
    65
 73
     6
 40
22.5
 49
12.0
 74
     0
 49
-1.5
 74
     0
 49
3.0
 74
     0
 49
-1.5
 74
     0
 49
3.0
 74
     0
 49
-1.5
 74
     0
  0
LTYPE
  5
4E
330
5
100
AcDbSymbolTableRecord
100
AcDbLinetypeTableRecord
  2
AMCONSTR
 70
     0
  3
_______________________
 72
    65
 73
     2
 40
9999.0
 49
9999.0
 74
     0
 49
0.0
 74
     0
  0
LTYPE
  5
4F
330
5
100
AcDbSymbolTableRecord
100
AcDbLinetypeTableRecord
  2
AM_ISO02W050X2
 70
     0
  3
 _ _ _ _ _ _ _ _ _ _ _ _
 72
    65
 73
     2
 40
3.75
 49
3.0
 74
     0
 49
-0.75
 74
     0
  0
LTYPE
  5
50
330
5
100
AcDbSymbolTableRecord
100
AcDbLinetypeTableRecord
  2
AM_ISO08W050X2
 70
     0
  3
__ . __ . __ . __ . __ . __
 72
    65
 73
     4
 40
9.0
 49
6.0
 74
     0
 49
-0.75
 74
     0
 49
1.5
 74
     0
 49
-0.75
 74
     0
  0
LTYPE
  5
53
330
5
100
AcDbSymbolTableRecord
100
AcDbLinetypeTableRecord
  2
AMZIGZAG
 70
     0
  3
/\/-/\/-/\/-/\/-/\/-/\/
 72
    65
 73
     2
 40
11.00009999999999
 49
0.0001
 74
     4
 75
   135
340
52
 46
0.04
 50
0.0
 44
0.0
 45
0.0
 49
-11.0
 74
     0
  0
LTYPE
  5
166
330
5
100
AcDbSymbolTableRecord
100
AcDbLinetypeTableRecord
  2
ACJISTGL
 70
     0
  3
_ _ _ _ _
 72
    65
 73
     2
 40
3.0
 49
2.0
 74
     0
 49
-1.0
 74
     0
  0
LTYPE
  5
26A
330
5
100
AcDbSymbolTableRecord
100
AcDbLinetypeTableRecord
  2
ACJISTGB
 70
     0
  3
__ . . __ . .
 72
    65
 73
     6
 40
9.0
 49
4.0
 74
     0
 49
-1.0
 74
     0
 49
1.0
 74
     0
 49
-1.0
 74
     0
 49
1.0
 74
     0
 49
-1.0
 74
     0
  0
ENDTAB
  0
TABLE
  2
LAYER
  5
2
330
0
100
AcDbSymbolTable
 70
     7
  0
LAYER
  5
10
330
2
100
AcDbSymbolTableRecord
100
AcDbLayerTableRecord
  2
0
 70
     0
 62
     7
  6
CONTINUOUS
  0
LAYER
  5
3F9
330
2
100
AcDbSymbolTableRecord
100
AcDbLayerTableRecord
  2
AM_0
 70
     0
 62
     7
  6
CONTINUOUS
  0
LAYER
  5
BDD
330
2
100
AcDbSymbolTableRecord
100
AcDbLayerTableRecord
  2
AM_11
 70
     0
 62
     3
  6
AM_ISO09W050
  0
LAYER
  5
BDE
330
2
100
AcDbSymbolTableRecord
100
AcDbLayerTableRecord
  2
AM_7
 70
     0
 62
     4
  6
AM_ISO08W050
  0
LAYER
  5
BDF
330
2
100
AcDbSymbolTableRecord
100
AcDbLayerTableRecord
  2
AM_5
 70
     0
 62
     3
  6
CONTINUOUS
  0
LAYER
  5
BE0
330
2
100
AcDbSymbolTableRecord
100
AcDbLayerTableRecord
  2
DEFPOINTS
 70
     0
 62
     7
  6
CONTINUOUS
  0
LAYER
  5
14FF
330
2
100
AcDbSymbolTableRecord
100
AcDbLayerTableRecord
  2
AM_6
 70
     0
 62
     2
  6
CONTINUOUS
  0
ENDTAB
  0
TABLE
  2
STYLE
  5
3
330
0
100
AcDbSymbolTable
 70
     5
  0
STYLE
  5
11
330
3
100
AcDbSymbolTableRecord
100
AcDbTextStyleTableRecord
  2
STANDARD
 70
     0
 40
0.0
 41
1.0
 50
0.0
 71
     0
 42
2.5
  3
simplex.shx
  4
EXTFONT.SHX
  0
STYLE
  5
52
330
3
100
AcDbSymbolTableRecord
100
AcDbTextStyleTableRecord
  2

 70
     1
 40
0.0
 41
1.0
 50
0.0
 71
     0
 42
2.5
  3
ltypeshp.shx
  4

  0
STYLE
  5
6B
330
3
100
AcDbSymbolTableRecord
100
AcDbTextStyleTableRecord
  2
ASAMI
 70
     0
 40
0.0
 41
1.0
 50
0.0
 71
     0
 42
2.5
  3
simplex.shx
  4
EXTFONT.SHX
  0
STYLE
  5
262
330
3
100
AcDbSymbolTableRecord
100
AcDbTextStyleTableRecord
  2
ACJISTS
 70
     0
 40
1.0
 41
1.0
 50
0.0
 71
     0
 42
2.5
  3
simplex.shx
  4
bigfont.shx
  0
STYLE
  5
269
330
3
100
AcDbSymbolTableRecord
100
AcDbTextStyleTableRecord
  2
ACJISGDT
 70
     0
 40
0.0
 41
1.0
 50
0.0
 71
     0
 42
2.5
  3
amgdtans.shx
  4

  0
ENDTAB
  0
TABLE
  2
VIEW
  5
6
330
0
100
AcDbSymbolTable
 70
     0
  0
ENDTAB
  0
TABLE
  2
UCS
  5
7
330
0
100
AcDbSymbolTable
 70
     0
  0
ENDTAB
  0
TABLE
  2
APPID
  5
9
330
0
100
AcDbSymbolTable
 70
    14
  0
APPID
  5
12
330
9
100
AcDbSymbolTableRecord
100
AcDbRegAppTableRecord
  2
ACAD
 70
     0
  0
APPID
  5
30
330
9
100
AcDbSymbolTableRecord
100
AcDbRegAppTableRecord
  2
MCAD_NO_VIS
 70
     0
  0
APPID
  5
31
330
9
100
AcDbSymbolTableRecord
100
AcDbRegAppTableRecord
  2
ACAD_TEMP_GRAPHIC
 70
     0
  0
APPID
  5
2C2
330
9
100
AcDbSymbolTableRecord
100
AcDbRegAppTableRecord
  2
GENIUS_GENDTOL_13
 70
     0
  0
APPID
  5
339
330
9
100
AcDbSymbolTableRecord
100
AcDbRegAppTableRecord
  2
GENIUS_GENODEF_13
 70
     0
  0
APPID
  5
33A
330
9
100
AcDbSymbolTableRecord
100
AcDbRegAppTableRecord
  2
GENIUS_GENOBJ-N-RSBK_13
 70
     0
  0
APPID
  5
33B
330
9
100
AcDbSymbolTableRecord
100
AcDbRegAppTableRecord
  2
GENIUS_GENOBJ-N-LIB_13
 70
     0
  0
APPID
  5
33C
330
9
100
AcDbSymbolTableRecord
100
AcDbRegAppTableRecord
  2
GENIUS_GENSCALE_13
 70
     0
  0
APPID
  5
378
330
9
100
AcDbSymbolTableRecord
100
AcDbRegAppTableRecord
  2
GENIUS_GENDIMSH_14
 70
     0
  0
APPID
  5
BE1
330
9
100
AcDbSymbolTableRecord
100
AcDbRegAppTableRecord
  2
GENIUS_GENFIL_13
 70
     0
  0
APPID
  5
BE2
330
9
100
AcDbSymbolTableRecord
100
AcDbRegAppTableRecord
  2
GENIUS_GENOBJ-N-CHA_13
 70
     0
  0
APPID
  5
151B
330
9
100
AcDbSymbolTableRecord
100
AcDbRegAppTableRecord
  2
DCO15
 70
     0
  0
APPID
  5
1860
330
9
100
AcDbSymbolTableRecord
100
AcDbRegAppTableRecord
  2
GENIUS_GENOBJ-N-CEN_13
 70
     0
  0
APPID
  5
359C
330
9
100
AcDbSymbolTableRecord
100
AcDbRegAppTableRecord
  2
GENIUS_GENOBJ-N-FIL_13
 70
     0
  0
ENDTAB
  0
TABLE
  2
DIMSTYLE
  5
A
330
0
100
AcDbSymbolTable
 70
     8
  0
DIMSTYLE
105
58
102
{ACAD_REACTORS
330
423F
330
4240
330
4245
330
4247
102
}
330
A
100
AcDbSymbolTableRecord
100
AcDbDimStyleTableRecord
  2
AM_JIS
 70
     0
  3

  4
"
  5
OPEN30
  6

  7

 40
0.5
 41
2.5
 42
1.0
 43
12.0
 44
1.0
 45
0.0
 46
0.0
 47
0.1
 48
0.1
140
3.2
141
0.0
142
0.0
143
0.0393701
144
1.0
145
0.0
146
0.71
147
1.5
 71
     0
 72
     0
 73
     0
 74
     0
 75
     0
 76
     0
 77
     3
 78
     8
170
     0
171
     2
172
     1
173
     0
174
     0
175
     0
176
   256
177
   256
178
     2
270
     2
271
     3
272
     3
273
     2
274
     2
340
6B
275
     0
280
     0
281
     0
282
     0
283
     0
284
     0
285
     0
286
     0
287
     3
288
     0
  0
DIMSTYLE
105
5F
330
A
100
AcDbSymbolTableRecord
100
AcDbDimStyleTableRecord
  2
AM_JIS$3
 70
     0
  3

  4
"
  5
OPEN30
  6

  7

 40
0.5
 41
2.5
 42
1.0
 43
10.0
 44
1.0
 45
0.0
 46
0.0
 47
0.1
 48
0.1
140
3.2
141
0.0
142
0.0
143
0.0393701
144
1.0
145
0.0
146
0.71
147
1.5
 71
     0
 72
     0
 73
     0
 74
     1
 75
     0
 76
     0
 77
     3
 78
     8
170
     0
171
     2
172
     0
173
     0
174
     0
175
     0
176
   256
177
   256
178
     2
270
     2
271
     2
272
     3
273
     2
274
     2
340
6B
275
     0
280
     0
281
     0
282
     0
283
     0
284
     0
285
     0
286
     0
287
     0
288
     1
  0
DIMSTYLE
105
60
330
A
100
AcDbSymbolTableRecord
100
AcDbDimStyleTableRecord
  2
AM_JIS$4
 70
     0
  3

  4
"
  5
OPEN30
  6

  7

 40
0.5
 41
2.5
 42
1.0
 43
10.0
 44
1.0
 45
0.0
 46
0.0
 47
0.1
 48
0.1
140
3.2
141
0.0
142
0.0
143
0.0393701
144
1.0
145
0.0
146
0.71
147
1.5
 71
     0
 72
     0
 73
     0
 74
     1
 75
     0
 76
     0
 77
     3
 78
     8
170
     0
171
     2
172
     0
173
     0
174
     0
175
     0
176
   256
177
   256
178
     2
270
     2
271
     2
272
     3
273
     2
274
     2
340
6B
275
     0
280
     0
281
     0
282
     0
283
     0
284
     0
285
     0
286
     0
287
     0
288
     1
  0
DIMSTYLE
105
61
330
A
100
AcDbSymbolTableRecord
100
AcDbDimStyleTableRecord
  2
AM_JIS$6
 70
     0
  3

  4
"
  5
OPEN30
  6

  7

 40
0.5
 41
2.5
 42
1.0
 43
10.0
 44
1.0
 45
0.0
 46
0.0
 47
0.1
 48
0.1
140
3.2
141
0.0
142
0.0
143
0.0393701
144
1.0
145
0.0
146
0.71
147
1.5
 71
     0
 72
     0
 73
     0
 74
     0
 75
     0
 76
     0
 77
     0
 78
     8
170
     0
171
     2
172
     1
173
     0
174
     0
175
     0
176
   256
177
   256
178
     2
270
     2
271
     2
272
     2
273
     2
274
     2
340
6B
275
     0
280
     0
281
     0
282
     0
283
     0
284
     0
285
     0
286
     0
287
     3
288
     0
  0
DIMSTYLE
105
62
330
A
100
AcDbSymbolTableRecord
100
AcDbDimStyleTableRecord
  2
AM_JIS$7
 70
     0
  3

  4
"
  5
OPEN30
  6

  7

 40
0.5
 41
2.5
 42
1.0
 43
10.0
 44
1.0
 45
0.0
 46
0.0
 47
0.1
 48
0.1
140
3.2
141
0.0
142
0.0
143
0.0393701
144
1.0
145
0.0
146
0.71
147
1.5
 71
     0
 72
     0
 73
     0
 74
     0
 75
     0
 76
     0
 77
     3
 78
     8
170
     0
171
     2
172
     1
173
     0
174
     0
175
     0
176
   256
177
   256
178
     2
270
     2
271
     2
272
     3
273
     2
274
     2
340
6B
275
     0
280
     0
281
     0
282
     0
283
     0
284
     0
285
     0
286
     0
287
     3
288
     0
  0
DIMSTYLE
105
63
330
A
100
AcDbSymbolTableRecord
100
AcDbDimStyleTableRecord
  2
AM_JIS$SF
 70
     0
  3

  4
"
  5
OPEN30
  6

  7

 40
0.5
 41
2.5
 42
1.0
 43
10.0
 44
1.0
 45
0.0
 46
0.0
 47
0.1
 48
0.1
140
3.2
141
0.0
142
0.0
143
0.0393701
144
1.0
145
0.0
146
0.71
147
1.5
 71
     0
 72
     0
 73
     0
 74
     0
 75
     1
 76
     1
 77
     3
 78
     8
170
     0
171
     2
172
     1
173
     0
174
     0
175
     0
176
   256
177
   256
178
     2
270
     2
271
     2
272
     2
273
     2
274
     2
340
6B
275
     0
280
     0
281
     0
282
     0
283
     0
284
     0
285
     0
286
     0
287
     3
288
     0
  0
DIMSTYLE
105
68
330
A
100
AcDbSymbolTableRecord
100
AcDbDimStyleTableRecord
  2
AM_JIS$SH
 70
     0
  3

  4
"
  5

  6
GENAXEH
  7
OPEN30
 40
0.5
 41
2.5
 42
1.0
 43
10.0
 44
1.0
 45
0.0
 46
0.0
 47
0.1
 48
0.1
140
3.2
141
0.0
142
0.0
143
0.0393701
144
2.0
145
0.0
146
0.71
147
1.5
 71
     0
 72
     0
 73
     0
 74
     0
 75
     1
 76
     1
 77
     3
 78
     8
170
     0
171
     2
172
     1
173
     1
174
     0
175
     0
176
   256
177
   256
178
     2
270
     2
271
     2
272
     2
273
     2
274
     2
340
6B
275
     0
280
     0
281
     0
282
     0
283
     0
284
     0
285
     0
286
     0
287
     3
288
     0
  0
DIMSTYLE
105
B34
330
A
100
AcDbSymbolTableRecord
100
AcDbDimStyleTableRecord
  2
AM_JIS$2
 70
     0
  3

  4
"
  5
OPEN30
  6

  7

 40
0.5
 41
2.5
 42
1.0
 43
12.0
 44
1.0
 45
0.0
 46
0.0
 47
0.1
 48
0.1
140
3.2
141
0.0
142
0.0
143
0.0393701
144
1.0
145
0.0
146
0.71
147
1.5
 71
     0
 72
     0
 73
     0
 74
     0
 75
     0
 76
     0
 77
     3
 78
     8
170
     0
171
     2
172
     1
173
     0
174
     0
175
     0
176
   256
177
   256
178
     2
270
     2
271
     3
272
     3
273
     2
274
     2
340
6B
275
     0
280
     0
281
     0
282
     0
283
     0
284
     0
285
     0
286
     0
287
     3
288
     0
  0
ENDTAB
  0
TABLE
  2
BLOCK_RECORD
  5
1
330
0
100
AcDbSymbolTable
 70
     9
  0
BLOCK_RECORD
  5
1F
102
{ACAD_XDICTIONARY
360
74
102
}
330
1
100
AcDbSymbolTableRecord
100
AcDbBlockTableRecord
  2
*MODEL_SPACE
  0
BLOCK_RECORD
  5
101
102
{ACAD_XDICTIONARY
360
42E7
102
}
330
1
100
AcDbSymbolTableRecord
100
AcDbBlockTableRecord
  2
*PAPER_SPACE
  0
BLOCK_RECORD
  5
59
330
1
100
AcDbSymbolTableRecord
100
AcDbBlockTableRecord
  2
_OPEN30
  0
BLOCK_RECORD
  5
64
330
1
100
AcDbSymbolTableRecord
100
AcDbBlockTableRecord
  2
GENAXEH
  0
BLOCK_RECORD
  5
4248
330
1
100
AcDbSymbolTableRecord
100
AcDbBlockTableRecord
  2
*D5
  0
BLOCK_RECORD
  5
4254
330
1
100
AcDbSymbolTableRecord
100
AcDbBlockTableRecord
  2
*D6
  0
BLOCK_RECORD
  5
4260
330
1
100
AcDbSymbolTableRecord
100
AcDbBlockTableRecord
  2
*D7
  0
BLOCK_RECORD
  5
426C
330
1
100
AcDbSymbolTableRecord
100
AcDbBlockTableRecord
  2
*D8
  0
ENDTAB
  0
ENDSEC
  0
SECTION
  2
BLOCKS
  0
BLOCK
  5
20
330
1F
100
AcDbEntity
  8
0
100
AcDbBlockBegin
  2
*MODEL_SPACE
 70
     0
 10
0.0
 20
0.0
 30
0.0
  3
*MODEL_SPACE
  1

  0
ENDBLK
  5
21
330
1F
100
AcDbEntity
  8
0
100
AcDbBlockEnd
  0
BLOCK
  5
103
330
101
100
AcDbEntity
 67
     1
  8
0
100
AcDbBlockBegin
  2
*PAPER_SPACE
 70
     0
 10
0.0
 20
0.0
 30
0.0
  3
*PAPER_SPACE
  1

  0
ENDBLK
  5
104
330
101
100
AcDbEntity
 67
     1
  8
0
100
AcDbBlockEnd
  0
BLOCK
  5
5D
330
59
100
AcDbEntity
  8
0
100
AcDbBlockBegin
  2
_OPEN30
 70
     0
 10
0.0
 20
0.0
 30
0.0
  3
_OPEN30
  1

  0
LINE
  5
5A
330
59
100
AcDbEntity
  8
0
 62
     0
100
AcDbLine
 10
-1.0
 20
0.26794919
 30
0.0
 11
0.0
 21
0.0
 31
0.0
  0
LINE
  5
5B
330
59
100
AcDbEntity
  8
0
 62
     0
100
AcDbLine
 10
0.0
 20
0.0
 30
0.0
 11
-1.0
 21
-0.26794919
 31
0.0
  0
LINE
  5
5C
330
59
100
AcDbEntity
  8
0
 62
     0
100
AcDbLine
 10
0.0
 20
0.0
 30
0.0
 11
-1.0
 21
0.0
 31
0.0
  0
ENDBLK
  5
5E
330
59
100
AcDbEntity
  8
0
100
AcDbBlockEnd
  0
BLOCK
  5
66
330
64
100
AcDbEntity
  8
0
100
AcDbBlockBegin
  2
GENAXEH
 70
     0
 10
0.0
 20
0.0
 30
0.0
  3
GENAXEH
  1

  0
LINE
  5
65
330
64
100
AcDbEntity
  8
0
100
AcDbLine
 10
-1.0
 20
0.0
 30
0.0
 11
1.0
 21
0.0
 31
0.0
  0
ENDBLK
  5
67
330
64
100
AcDbEntity
  8
0
100
AcDbBlockEnd
  0
BLOCK
  5
4252
330
4248
100
AcDbEntity
  8
0
100
AcDbBlockBegin
  2
*D5
 70
     1
 10
0.0
 20
0.0
 30
0.0
  3
*D5
  1

  0
LINE
  5
4278
330
4248
100
AcDbEntity
  8
AM_5
100
AcDbLine
 10
0.0
 20
-3.499999999999995
 30
0.0
 11
-0.0000000000000008
 21
-16.50000100000009
 31
0.0
  0
LINE
  5
4279
330
4248
100
AcDbEntity
  8
AM_5
100
AcDbLine
 10
-49.99999999999996
 20
-3.000000000000014
 30
0.0
 11
-49.99999999999996
 21
-16.50000100000009
 31
0.0
  0
LINE
  5
427A
330
4248
100
AcDbEntity
  8
AM_5
100
AcDbLine
 10
-1.25
 20
-16.00000100000009
 30
0.0
 11
-48.74999999999996
 21
-16.00000100000009
 31
0.0
  0
INSERT
  5
427B
330
4248
100
AcDbEntity
  8
AM_5
100
AcDbBlockReference
  2
_OPEN30
 10
-0.0000000000000008
 20
-16.00000100000009
 30
0.0
 41
1.25
 42
1.25
 43
1.25
  0
INSERT
  5
427C
330
4248
100
AcDbEntity
  8
AM_5
100
AcDbBlockReference
  2
_OPEN30
 10
-49.99999999999996
 20
-16.00000100000009
 30
0.0
 41
1.25
 42
1.25
 43
1.25
 50
180.0
  0
MTEXT
  5
427D
330
4248
100
AcDbEntity
  8
AM_5
 62
     2
100
AcDbMText
 10
-24.99999999999998
 20
-14.45000100000009
 30
0.0
 40
1.6
 41
0.0
 71
     5
 72
     1
  1
50
  7
ASAMI
1001
ACAD
1000
MTEXTBEGIN
1070
    73
1070
     1
1070
    44
1040
1.0
1070
    74
1070
     0
1000
MTEXTEND
  0
POINT
  5
427E
330
4248
100
AcDbEntity
  8
DEFPOINTS
 62
     0
100
AcDbPoint
 10
0.0
 20
-2.999999999999995
 30
0.0
  0
POINT
  5
427F
330
4248
100
AcDbEntity
  8
DEFPOINTS
 62
     0
100
AcDbPoint
 10
-49.99999999999996
 20
-2.500000000000014
 30
0.0
  0
POINT
  5
4280
330
4248
100
AcDbEntity
  8
DEFPOINTS
 62
     0
100
AcDbPoint
 10
-49.99999999999996
 20
-16.00000100000009
 30
0.0
  0
ENDBLK
  5
4253
330
4248
100
AcDbEntity
  8
0
100
AcDbBlockEnd
  0
BLOCK
  5
425E
330
4254
100
AcDbEntity
  8
0
100
AcDbBlockBegin
  2
*D6
 70
     1
 10
0.0
 20
0.0
 30
0.0
  3
*D6
  1

  0
LINE
  5
4281
330
4254
100
AcDbEntity
  8
AM_5
100
AcDbLine
 10
-49.75
 20
2.999999999999999
 30
0.0
 11
-60.19470045058476
 21
3.000000000000002
 31
0.0
  0
LINE
  5
4282
330
4254
100
AcDbEntity
  8
AM_5
100
AcDbLine
 10
-49.99999999999996
 20
-3.000000000000014
 30
0.0
 11
-60.19470045058476
 21
-3.000000000000011
 31
0.0
  0
LINE
  5
4283
330
4254
100
AcDbEntity
  8
AM_5
100
AcDbLine
 10
-59.69470045058476
 20
1.750000000000001
 30
0.0
 11
-59.69470045058476
 21
-1.750000000000011
 31
0.0
  0
INSERT
  5
4284
330
4254
100
AcDbEntity
  8
AM_5
100
AcDbBlockReference
  2
_OPEN30
 10
-59.69470045058476
 20
3.000000000000001
 30
0.0
 41
1.25
 42
1.25
 43
1.25
 50
90.0
  0
INSERT
  5
4285
330
4254
100
AcDbEntity
  8
AM_5
100
AcDbBlockReference
  2
_OPEN30
 10
-59.69470045058476
 20
-3.000000000000011
 30
0.0
 41
1.25
 42
1.25
 43
1.25
 50
270.0
  0
MTEXT
  5
4286
330
4254
100
AcDbEntity
  8
AM_5
 62
     2
100
AcDbMText
 10
-61.24470045058476
 20
-0.0000000000000146
 30
0.0
 40
1.6
 41
0.0
 71
     5
 72
     1
  1
%%c6
  7
ASAMI
 11
0.0000000000000001
 21
1.0
 31
0.0
1001
ACAD
1000
MTEXTBEGIN
1070
    73
1070
     1
1070
    44
1040
1.0
1070
    74
1070
     0
1000
MTEXTEND
  0
POINT
  5
4287
330
4254
100
AcDbEntity
  8
DEFPOINTS
 62
     0
100
AcDbPoint
 10
-49.25
 20
2.999999999999999
 30
0.0
  0
POINT
  5
4288
330
4254
100
AcDbEntity
  8
DEFPOINTS
 62
     0
100
AcDbPoint
 10
-49.49999999999996
 20
-3.000000000000014
 30
0.0
  0
POINT
  5
4289
330
4254
100
AcDbEntity
  8
DEFPOINTS
 62
     0
100
AcDbPoint
 10
-59.69470045058476
 20
-3.000000000000011
 30
0.0
  0
ENDBLK
  5
425F
330
4254
100
AcDbEntity
  8
0
100
AcDbBlockEnd
  0
BLOCK
  5
426A
330
4260
100
AcDbEntity
  8
0
100
AcDbBlockBegin
  2
*D7
 70
     1
 10
0.0
 20
0.0
 30
0.0
  3
*D7
  1

  0
LINE
  5
428A
330
4260
100
AcDbEntity
  8
AM_5
100
AcDbLine
 10
0.0
 20
-3.499999999999995
 30
0.0
 11
-0.0000000000000005
 21
-10.50000100000002
 31
0.0
  0
LINE
  5
428B
330
4260
100
AcDbEntity
  8
AM_5
100
AcDbLine
 10
-15.0
 20
-3.499999999999995
 30
0.0
 11
-15.0
 21
-10.50000100000002
 31
0.0
  0
LINE
  5
428C
330
4260
100
AcDbEntity
  8
AM_5
100
AcDbLine
 10
-1.25
 20
-10.00000100000002
 30
0.0
 11
-13.75
 21
-10.00000100000002
 31
0.0
  0
INSERT
  5
428D
330
4260
100
AcDbEntity
  8
AM_5
100
AcDbBlockReference
  2
_OPEN30
 10
-0.0000000000000004
 20
-10.00000100000002
 30
0.0
 41
1.25
 42
1.25
 43
1.25
  0
INSERT
  5
428E
330
4260
100
AcDbEntity
  8
AM_5
100
AcDbBlockReference
  2
_OPEN30
 10
-15.0
 20
-10.00000100000002
 30
0.0
 41
1.25
 42
1.25
 43
1.25
 50
180.0
  0
MTEXT
  5
428F
330
4260
100
AcDbEntity
  8
AM_5
 62
     2
100
AcDbMText
 10
-7.5
 20
-8.450001000000025
 30
0.0
 40
1.6
 41
0.0
 71
     5
 72
     1
  1
15
  7
ASAMI
1001
ACAD
1000
MTEXTBEGIN
1070
    73
1070
     1
1070
    44
1040
1.0
1070
    74
1070
     0
1000
MTEXTEND
  0
POINT
  5
4290
330
4260
100
AcDbEntity
  8
DEFPOINTS
 62
     0
100
AcDbPoint
 10
0.0
 20
-2.999999999999995
 30
0.0
  0
POINT
  5
4291
330
4260
100
AcDbEntity
  8
DEFPOINTS
 62
     0
100
AcDbPoint
 10
-15.0
 20
-2.999999999999995
 30
0.0
  0
POINT
  5
4292
330
4260
100
AcDbEntity
  8
DEFPOINTS
 62
     0
100
AcDbPoint
 10
-15.0
 20
-10.00000100000002
 30
0.0
  0
ENDBLK
  5
426B
330
4260
100
AcDbEntity
  8
0
100
AcDbBlockEnd
  0
BLOCK
  5
4276
330
426C
100
AcDbEntity
  8
0
100
AcDbBlockBegin
  2
*D8
 70
     1
 10
0.0
 20
0.0
 30
0.0
  3
*D8
  1

  0
LINE
  5
4293
330
426C
100
AcDbEntity
  8
AM_5
100
AcDbLine
 10
0.5
 20
3.000000000000003
 30
0.0
 11
12.05776903085518
 21
3.0
 31
0.0
  0
LINE
  5
4294
330
426C
100
AcDbEntity
  8
AM_5
100
AcDbLine
 10
0.5000000000000043
 20
-2.999999999999995
 30
0.0
 11
12.05776903085518
 21
-2.999999999999998
 31
0.0
  0
LINE
  5
4295
330
426C
100
AcDbEntity
  8
AM_5
100
AcDbLine
 10
11.55776903085518
 20
1.75
 30
0.0
 11
11.55776903085518
 21
-1.749999999999998
 31
0.0
  0
INSERT
  5
4296
330
426C
100
AcDbEntity
  8
AM_5
100
AcDbBlockReference
  2
_OPEN30
 10
11.55776903085518
 20
3.0
 30
0.0
 41
1.25
 42
1.25
 43
1.25
 50
90.0
  0
INSERT
  5
4297
330
426C
100
AcDbEntity
  8
AM_5
100
AcDbBlockReference
  2
_OPEN30
 10
11.55776903085518
 20
-2.999999999999998
 30
0.0
 41
1.25
 42
1.25
 43
1.25
 50
270.0
  0
MTEXT
  5
4298
330
426C
100
AcDbEntity
  8
AM_5
 62
     2
100
AcDbMText
 10
10.00776903085518
 20
0.000000000000003
 30
0.0
 40
1.6
 41
0.0
 71
     5
 72
     1
  1
%%c6
  7
ASAMI
 11
0.0000000000000001
 21
1.0
 31
0.0
1001
ACAD
1000
MTEXTBEGIN
1070
    73
1070
     1
1070
    44
1040
1.0
1070
    74
1070
     0
1000
MTEXTEND
  0
POINT
  5
4299
330
426C
100
AcDbEntity
  8
DEFPOINTS
 62
     0
100
AcDbPoint
 10
0.0
 20
3.000000000000003
 30
0.0
  0
POINT
  5
429A
330
426C
100
AcDbEntity
  8
DEFPOINTS
 62
     0
100
AcDbPoint
 10
0.0000000000000043
 20
-2.999999999999995
 30
0.0
  0
POINT
  5
429B
330
426C
100
AcDbEntity
  8
DEFPOINTS
 62
     0
100
AcDbPoint
 10
11.55776903085518
 20
-2.999999999999998
 30
0.0
  0
ENDBLK
  5
4277
330
426C
100
AcDbEntity
  8
0
100
AcDbBlockEnd
  0
ENDSEC
  0
SECTION
  2
ENTITIES
  0
TEXT
  5
1500
330
1F
100
AcDbEntity
  8
AM_6
100
AcDbText
 10
-35.71428571428568
 20
-27.25000100000009
 30
0.0
 40
2.5
  1
HSM3060ZX
 72
     4
 11
-24.99999999999996
 21
-26.00000100000009
 31
0.0
100
AcDbText
  0
SPLINE
  5
41F2
330
1F
100
AcDbEntity
  8
AM_0
100
AcDbSpline
210
0.0
220
0.0
230
1.0
 70
     8
 71
     3
 72
     8
 73
     4
 74
     0
 42
0.0000000001
 43
0.0000000001
 40
0.0
 40
0.0
 40
0.0
 40
0.0
 40
2.948331486770748
 40
2.948331486770748
 40
2.948331486770748
 40
2.948331486770748
 10
-14.699999999991
 20
3.000000000000476
 30
0.0
 10
-15.28966629734505
 20
3.000000000000817
 30
0.0
 10
-15.75099944604481
 20
2.711845572734162
 30
0.0
 10
-16.16021207651144
 20
2.238641346147305
 30
0.0
  0
SPLINE
  5
41F3
330
1F
100
AcDbEntity
  8
AM_0
100
AcDbSpline
210
0.0
220
0.0
230
1.0
 70
     8
 71
     3
 72
     8
 73
     4
 74
     0
 42
0.0000000001
 43
0.0000000001
 40
0.3982504941345976
 40
0.3982504941345976
 40
0.3982504941345976
 40
0.3982504941345976
 40
6.452065446090842
 40
6.452065446090842
 40
6.452065446090842
 40
6.452065446090842
 10
-17.30385506559611
 20
2.758727173509853
 30
0.0
 10
-15.99878291134765
 20
2.603015955857607
 30
0.0
 10
-15.33749247746428
 20
1.301507977929077
 30
0.0
 10
-14.67620204358146
 20
0.0000000000004761
 30
0.0
  0
SPLINE
  5
41F4
330
1F
100
AcDbEntity
  8
AM_0
100
AcDbSpline
210
0.0
220
0.0
230
1.0
 70
     8
 71
     3
 72
     8
 73
     4
 74
     0
 42
0.0000000001
 43
0.0000000001
 40
0.157854605497133
 40
0.157854605497133
 40
0.157854605497133
 40
0.157854605497133
 40
6.616360992657454
 40
6.616360992657454
 40
6.616360992657454
 40
6.616360992657454
 10
-18.29999999999199
 20
3.000000000000003
 30
0.0
 10
-16.48608734812825
 20
2.840797951962485
 30
0.0
 10
-15.81414658574877
 20
1.420398975981377
 30
0.0
 10
-15.14220582336958
 20
0.0000000000003411
 30
0.0
  0
SPLINE
  5
41F5
330
1F
100
AcDbEntity
  8
AM_0
100
AcDbSpline
210
0.0
220
0.0
230
1.0
 70
     8
 71
     3
 72
     8
 73
     4
 74
     0
 42
0.0000000001
 43
0.0000000001
 40
5.042249938661838
 40
5.042249938661838
 40
5.042249938661838
 40
5.042249938661838
 40
6.726812023537159
 40
6.726812023537159
 40
6.726812023537159
 40
6.726812023537159
 10
-16.11934424530977
 20
1.103355380727778
 30
0.0
 10
-15.93923515682305
 20
0.7512750820070274
 30
0.0
 10
-15.76961757840757
 20
0.3756375410037197
 30
0.0
 10
-15.59999999999209
 20
0.0000000000004121
 30
0.0
  0
SPLINE
  5
41F6
330
1F
100
AcDbEntity
  8
AM_0
100
AcDbSpline
210
0.0
220
0.0
230
1.0
 70
     8
 71
     3
 72
     8
 73
     4
 74
     0
 42
0.0000000001
 43
0.0000000001
 40
0.0
 40
0.0
 40
0.0
 40
0.0
 40
0.9875149967633806
 40
0.9875149967633806
 40
0.9875149967633806
 40
0.9875149967633806
 10
-9.299999999995371
 20
-2.999999999999459
 30
0.0
 10
-9.102497000642792
 20
-2.999999999999459
 30
0.0
 10
-8.919391055110384
 20
-2.967673396612752
 30
0.0
 10
-8.748568635250752
 20
-2.907765826483682
 30
0.0
  0
SPLINE
  5
41F7
330
1F
100
AcDbEntity
  8
AM_0
100
AcDbSpline
210
0.0
220
0.0
230
1.0
 70
     8
 71
     3
 72
     8
 73
     4
 74
     0
 42
0.0000000001
 43
0.0000000001
 40
0.0
 40
0.0
 40
0.0
 40
0.0
 40
1.274172826456642
 40
1.274172826456642
 40
1.274172826456642
 40
1.274172826456642
 10
-8.842205823372854
 20
-2.910230884767088
 30
0.0
 10
-8.587371258081578
 20
-2.910230884767088
 30
0.0
 10
-8.356083351858536
 20
-2.856265442283941
 30
0.0
 10
-8.143807510359248
 20
-2.758727173508901
 30
0.0
  0
SPLINE
  5
41F8
330
1F
100
AcDbEntity
  8
AM_0
100
AcDbSpline
210
0.0
220
0.0
230
1.0
 70
     8
 71
     3
 72
     8
 73
     4
 74
     0
 42
0.0000000001
 43
0.0000000001
 40
0.0
 40
0.0
 40
0.0
 40
0.0
 40
2.420483029949796
 40
2.420483029949796
 40
2.420483029949796
 40
2.420483029949796
 10
-4.776202043587467
 20
-2.774255479840732
 30
0.0
 10
-4.292105437597559
 20
-2.774255479840732
 30
0.0
 10
-3.890426853155544
 20
-2.579036062056658
 30
0.0
 10
-3.540247288558123
 20
-2.261833509010926
 30
0.0
  0
SPLINE
  5
41F9
330
1F
100
AcDbEntity
  8
AM_0
100
AcDbSpline
210
0.0
220
0.0
230
1.0
 70
     8
 71
     3
 72
     8
 73
     4
 74
     0
 42
0.0000000001
 43
0.0000000001
 40
0.0
 40
0.0
 40
0.0
 40
0.0
 40
1.274172826456642
 40
1.274172826456642
 40
1.274172826456642
 40
1.274172826456642
 10
-5.242205823375583
 20
-2.910230884767159
 30
0.0
 10
-4.987371258084307
 20
-2.910230884767159
 30
0.0
 10
-4.756083351861265
 20
-2.856265442283941
 30
0.0
 10
-4.543807510361979
 20
-2.758727173508901
 30
0.0
  0
SPLINE
  5
41FA
330
1F
100
AcDbEntity
  8
AM_0
100
AcDbSpline
210
0.0
220
0.0
230
1.0
 70
     8
 71
     3
 72
     8
 73
     4
 74
     0
 42
0.0000000001
 43
0.0000000001
 40
0.0
 40
0.0
 40
0.0
 40
0.0
 40
0.9875149967633806
 40
0.9875149967633806
 40
0.9875149967633806
 40
0.9875149967633806
 10
-5.699999999998375
 20
-2.999999999999516
 30
0.0
 10
-5.50249700064552
 20
-2.999999999999516
 30
0.0
 10
-5.319391055113387
 20
-2.967673396612823
 30
0.0
 10
-5.14856863525348
 20
-2.907765826483753
 30
0.0
  0
SPLINE
  5
41FB
330
1F
100
AcDbEntity
  8
AM_0
100
AcDbSpline
210
0.0
220
0.0
230
1.0
 70
     8
 71
     3
 72
     8
 73
     4
 74
     0
 42
0.0000000001
 43
0.0000000001
 40
0.0
 40
0.0
 40
0.0
 40
0.0
 40
2.420483029949796
 40
2.420483029949796
 40
2.420483029949796
 40
2.420483029949796
 10
-8.376202043584736
 20
-2.774255479840732
 30
0.0
 10
-7.892105437594832
 20
-2.774255479840732
 30
0.0
 10
-7.490426853152815
 20
-2.579036062056587
 30
0.0
 10
-7.140247288555396
 20
-2.261833509010855
 30
0.0
  0
SPLINE
  5
41FC
330
1F
100
AcDbEntity
  8
AM_0
100
AcDbSpline
210
0.0
220
0.0
230
1.0
 70
     8
 71
     3
 72
     8
 73
     4
 74
     2
 42
0.0000000001
 43
0.0000000001
 44
0.0000000001
 12
-1.0
 22
0.0000000000000001
 32
0.0
 40
0.0
 40
0.0
 40
0.0
 40
0.0
 40
4.036087214122294
 40
4.036087214122294
 40
4.036087214122294
 40
4.036087214122294
 10
-5.699999999997556
 20
-2.999999999999658
 30
0.0
 10
-7.045362404704988
 20
-2.999999999999658
 30
0.0
 10
-7.722681202351409
 20
-1.499999999999658
 30
0.0
 10
-8.399999999997827
 20
0.0000000000003411
 30
0.0
 11
-5.699999999997556
 21
-2.999999999999658
 31
0.0
 11
-8.399999999997827
 21
0.0000000000003411
 31
0.0
  0
SPLINE
  5
41FD
330
1F
100
AcDbEntity
  8
AM_0
100
AcDbSpline
210
0.0
220
0.0
230
1.0
 70
     8
 71
     3
 72
     8
 73
     4
 74
     2
 42
0.0000000001
 43
0.0000000001
 44
0.0000000001
 12
-1.0
 22
0.0000000000000001
 32
0.0
 40
0.0
 40
0.0
 40
0.0
 40
0.0
 40
3.969816595594334
 40
3.969816595594334
 40
3.969816595594334
 40
3.969816595594334
 10
-5.242205823375037
 20
-2.910230884767358
 30
0.0
 10
-6.565478021906482
 20
-2.910230884767358
 30
0.0
 10
-7.253841922640758
 20
-1.455115442383473
 30
0.0
 10
-7.942205823375036
 20
0.0000000000004121
 30
0.0
 11
-5.242205823375037
 21
-2.910230884767358
 31
0.0
 11
-7.942205823375036
 21
0.0000000000004121
 31
0.0
  0
SPLINE
  5
41FE
330
1F
100
AcDbEntity
  8
AM_0
100
AcDbSpline
210
0.0
220
0.0
230
1.0
 70
     8
 71
     3
 72
     8
 73
     4
 74
     2
 42
0.0000000001
 43
0.0000000001
 44
0.0000000001
 12
-1.0
 22
0.0000000000000001
 32
0.0
 40
0.0
 40
0.0
 40
0.0
 40
0.0
 40
3.8712392676543
 40
3.8712392676543
 40
3.8712392676543
 40
3.8712392676543
 10
-4.776202043586922
 20
-2.774255479840732
 30
0.0
 10
-6.066615132805022
 20
-2.774255479840732
 30
0.0
 10
-6.771408588195971
 20
-1.38712773992016
 30
0.0
 10
-7.476202043586919
 20
0.0000000000004121
 30
0.0
 11
-4.776202043586922
 21
-2.774255479840732
 31
0.0
 11
-7.476202043586919
 21
0.0000000000004121
 31
0.0
  0
SPLINE
  5
41FF
330
1F
100
AcDbEntity
  8
AM_0
100
AcDbSpline
210
0.0
220
0.0
230
1.0
 70
     8
 71
     3
 72
     9
 73
     5
 74
     3
 42
0.0000000001
 43
0.0000000001
 44
0.0000000001
 12
-0.3385048798911531
 22
0.9409646360463691
 32
0.0
 13
0.9630016908632653
 23
-0.2694953494858349
 33
0.0
 40
0.0
 40
0.0
 40
0.0
 40
0.0
 40
0.9968722223250344
 40
1.247201673768505
 40
1.247201673768505
 40
1.247201673768505
 40
1.247201673768505
 10
-0.3900000000000683
 20
-2.050846116166127
 30
0.0
 10
-0.5024820372950558
 20
-1.73817228021119
 30
0.0
 10
-1.25835346126187
 20
-1.38057153877301
 30
0.0
 10
-0.7628770554617442
 20
-1.077219738430664
 30
0.0
 10
-0.6825211604574319
 20
-1.099707279431783
 30
0.0
 11
-0.3900000000000683
 21
-2.050846116166127
 31
0.0
 11
-0.9113626792919744
 21
-1.201178425663059
 31
0.0
 11
-0.6825211604574319
 21
-1.099707279431783
 31
0.0
  0
SPLINE
  5
4200
330
1F
100
AcDbEntity
  8
AM_0
100
AcDbSpline
210
0.0
220
0.0
230
1.0
 70
     8
 71
     3
 72
     9
 73
     5
 74
     3
 42
0.0000000001
 43
0.0000000001
 44
0.0000000001
 12
-0.7037104554506215
 22
-0.7104868717221163
 32
0.0
 13
-0.5728114391284046
 23
0.8196871691100488
 33
0.0
 40
0.0
 40
0.0
 40
0.0
 40
0.0
 40
0.2079852722096623
 40
0.3894205841539946
 40
0.3894205841539946
 40
0.3894205841539946
 40
0.3894205841539946
 10
-0.120000000003998
 20
-2.050846116166127
 30
0.0
 10
-0.1687871368818923
 20
-2.100103051304965
 30
0.0
 10
-0.2735541409867377
 20
-2.281513298276021
 30
0.0
 10
-0.3553572592855536
 20
-2.100419515240876
 30
0.0
 10
-0.3900000000000683
 20
-2.050846116166127
 30
0.0
 11
-0.120000000003998
 21
-2.050846116166127
 31
0.0
 11
-0.2741464834019232
 21
-2.190476825940805
 31
0.0
 11
-0.3900000000000683
 21
-2.050846116166127
 31
0.0
  0
SPLINE
  5
4201
330
1F
100
AcDbEntity
  8
AM_0
100
AcDbSpline
210
0.0
220
0.0
230
1.0
 70
     8
 71
     3
 72
     8
 73
     4
 74
     0
 42
0.0000000001
 43
0.0000000001
 40
0.0
 40
0.0
 40
0.0
 40
0.0
 40
0.9875149968653097
 40
0.9875149968653097
 40
0.9875149968653097
 40
0.9875149968653097
 10
-2.09999999999974
 20
-2.999999999999516
 30
0.0
 10
-1.902497000626695
 20
-2.999999999999516
 30
0.0
 10
-1.719391055077098
 20
-2.967673396606144
 30
0.0
 10
-1.548568635201913
 20
-2.907765826465194
 30
0.0
  0
SPLINE
  5
4202
330
1F
100
AcDbEntity
  8
AM_0
100
AcDbSpline
210
0.0
220
0.0
230
1.0
 70
     8
 71
     3
 72
     8
 73
     4
 74
     0
 42
0.0000000001
 43
0.0000000001
 40
0.0
 40
0.0
 40
0.0
 40
0.0
 40
3.138307834541913
 40
3.138307834541913
 40
3.138307834541913
 40
3.138307834541913
 10
-1.642205823377221
 20
-2.910230884767159
 30
0.0
 10
-1.014544256468811
 20
-2.910230884767159
 30
0.0
 10
-0.5297272476737957
 20
-2.582852390751128
 30
0.0
 10
-0.1200000000050887
 20
-2.083379325977062
 30
0.0
  0
SPLINE
  5
4203
330
1F
100
AcDbEntity
  8
AM_0
100
AcDbSpline
210
0.0
220
0.0
230
1.0
 70
     8
 71
     3
 72
     8
 73
     4
 74
     0
 42
0.0000000001
 43
0.0000000001
 40
0.0
 40
0.0
 40
0.0
 40
0.0
 40
0.4556590281797062
 40
0.4556590281797062
 40
0.4556590281797062
 40
0.4556590281797062
 10
-1.176202043589105
 20
-2.774255479840803
 30
0.0
 10
-1.085070237953019
 20
-2.774255479840803
 30
0.0
 10
-0.9968592070293331
 20
-2.767337187844645
 30
0.0
 10
-0.9113626792949746
 20
-2.753989188823155
 30
0.0
  0
SPLINE
  5
4204
330
1F
100
AcDbEntity
  8
AM_0
100
AcDbSpline
210
0.0
220
0.0
230
1.0
 70
     8
 71
     3
 72
     8
 73
     4
 74
     0
 42
0.0000000001
 43
0.0000000001
 40
4.390614724758877
 40
4.390614724758877
 40
4.390614724758877
 40
4.390614724758877
 40
6.726812023537121
 40
6.726812023537121
 40
6.726812023537121
 40
6.726812023537121
 10
-0.4663252277902894
 20
-1.499999999992496
 30
0.0
 10
-0.7295393003583881
 20
-1.041889065995839
 30
0.0
 10
-0.9647696501789281
 20
-0.5209445329977172
 30
0.0
 10
-1.199999999999194
 20
0.0000000000003411
 30
0.0
  0
SPLINE
  5
4205
330
1F
100
AcDbEntity
  8
AM_0
100
AcDbSpline
210
0.0
220
0.0
230
1.0
 70
     8
 71
     3
 72
     8
 73
     4
 74
     0
 42
0.0000000001
 43
0.0000000001
 40
4.32310436431184
 40
4.32310436431184
 40
4.32310436431184
 40
4.32310436431184
 40
6.616360992657454
 40
6.616360992657454
 40
6.616360992657454
 40
6.616360992657454
 10
0.0000000000002591
 20
-1.452456564403973
 30
0.0
 10
-0.2650265764084134
 20
-1.008697420517705
 30
0.0
 10
-0.5036161998925446
 20
-0.5043487102586824
 30
0.0
 10
-0.742205823376674
 20
0.0000000000003411
 30
0.0
  0
SPLINE
  5
4206
330
1F
100
AcDbEntity
  8
AM_0
100
AcDbSpline
210
0.0
220
0.0
230
1.0
 70
     8
 71
     3
 72
     8
 73
     4
 74
     2
 42
0.0000000001
 43
0.0000000001
 44
0.0000000001
 12
-1.0
 22
0.0000000000000001
 32
0.0
 40
0.0
 40
0.0
 40
0.0
 40
0.0
 40
3.871239267654301
 40
3.871239267654301
 40
3.871239267654301
 40
3.871239267654301
 10
-1.176202043586922
 20
-2.774255479840732
 30
0.0
 10
-2.466615132805022
 20
-2.774255479840732
 30
0.0
 10
-3.171408588195971
 20
-1.38712773992016
 30
0.0
 10
-3.876202043586921
 20
0.0000000000004121
 30
0.0
 11
-1.176202043586922
 21
-2.774255479840732
 31
0.0
 11
-3.876202043586921
 21
0.0000000000004121
 31
0.0
  0
SPLINE
  5
4207
330
1F
100
AcDbEntity
  8
AM_0
100
AcDbSpline
210
0.0
220
0.0
230
1.0
 70
     8
 71
     3
 72
     8
 73
     4
 74
     2
 42
0.0000000001
 43
0.0000000001
 44
0.0000000001
 12
-1.0
 22
0.0000000000000001
 32
0.0
 40
0.0
 40
0.0
 40
0.0
 40
0.0
 40
3.969816595594334
 40
3.969816595594334
 40
3.969816595594334
 40
3.969816595594334
 10
-1.642205823375038
 20
-2.910230884767358
 30
0.0
 10
-2.965478021906482
 20
-2.910230884767358
 30
0.0
 10
-3.65384192264076
 20
-1.455115442383473
 30
0.0
 10
-4.342205823375037
 20
0.0000000000004121
 30
0.0
 11
-1.642205823375038
 21
-2.910230884767358
 31
0.0
 11
-4.342205823375037
 21
0.0000000000004121
 31
0.0
  0
SPLINE
  5
4208
330
1F
100
AcDbEntity
  8
AM_0
100
AcDbSpline
210
0.0
220
0.0
230
1.0
 70
     8
 71
     3
 72
     8
 73
     4
 74
     2
 42
0.0000000001
 43
0.0000000001
 44
0.0000000001
 12
-1.0
 22
0.0000000000000001
 32
0.0
 40
0.0
 40
0.0
 40
0.0
 40
0.0
 40
4.036087214122294
 40
4.036087214122294
 40
4.036087214122294
 40
4.036087214122294
 10
-2.099999999997558
 20
-2.999999999999658
 30
0.0
 10
-3.44536240470499
 20
-2.999999999999658
 30
0.0
 10
-4.122681202351409
 20
-1.499999999999658
 30
0.0
 10
-4.79999999999783
 20
0.0000000000003411
 30
0.0
 11
-2.099999999997558
 21
-2.999999999999658
 31
0.0
 11
-4.79999999999783
 21
0.0000000000003411
 31
0.0
  0
SPLINE
  5
4209
330
1F
100
AcDbEntity
  8
AM_0
100
AcDbSpline
210
0.0
220
0.0
230
1.0
 70
     8
 71
     3
 72
     8
 73
     4
 74
     0
 42
0.0000000001
 43
0.0000000001
 40
0.0
 40
0.0
 40
0.0
 40
0.0
 40
2.948331486770748
 40
2.948331486770748
 40
2.948331486770748
 40
2.948331486770748
 10
-3.899999999999739
 20
3.000000000000412
 30
0.0
 10
-4.489666297353791
 20
3.000000000000682
 30
0.0
 10
-4.950999446053277
 20
2.711845572734091
 30
0.0
 10
-5.340247288560853
 20
2.261833509011808
 30
0.0
  0
SPLINE
  5
420A
330
1F
100
AcDbEntity
  8
AM_0
100
AcDbSpline
210
0.0
220
0.0
230
1.0
 70
     8
 71
     3
 72
     8
 73
     4
 74
     0
 42
0.0000000001
 43
0.0000000001
 40
0.0
 40
0.0
 40
0.0
 40
0.0
 40
2.948331486770748
 40
2.948331486770748
 40
2.948331486770748
 40
2.948331486770748
 10
-7.499999999996738
 20
3.000000000000412
 30
0.0
 10
-8.089666297350788
 20
3.000000000000682
 30
0.0
 10
-8.550999446050546
 20
2.711845572734091
 30
0.0
 10
-8.940247288558122
 20
2.261833509011879
 30
0.0
  0
SPLINE
  5
420B
330
1F
100
AcDbEntity
  8
AM_0
100
AcDbSpline
210
0.0
220
0.0
230
1.0
 70
     8
 71
     3
 72
     8
 73
     4
 74
     0
 42
0.0000000001
 43
0.0000000001
 40
0.0
 40
0.0
 40
0.0
 40
0.0
 40
2.948331486770748
 40
2.948331486770748
 40
2.948331486770748
 40
2.948331486770748
 10
-0.299999999998102
 20
3.000000000000476
 30
0.0
 10
-0.8896662973521538
 20
3.000000000000753
 30
0.0
 10
-1.350999446051913
 20
2.711845572734091
 30
0.0
 10
-1.740247288559489
 20
2.261833509011879
 30
0.0
  0
SPLINE
  5
420C
330
1F
100
AcDbEntity
  8
AM_0
100
AcDbSpline
210
0.0
220
0.0
230
1.0
 70
     8
 71
     3
 72
     8
 73
     4
 74
     2
 42
0.0000000001
 43
0.0000000001
 44
0.0000000001
 12
0.2563440340107919
 22
-0.9665856072935671
 32
0.0
 13
-1.0
 23
0.0000000000000001
 33
0.0
 40
0.0
 40
0.0
 40
0.0
 40
0.0
 40
1.466813588501708
 40
1.466813588501708
 40
1.466813588501708
 40
1.466813588501708
 10
-0.299999999996466
 20
3.0
 30
0.0
 10
-0.1746636958570081
 20
2.527399698923873
 30
0.0
 10
-0.4224248164580699
 20
1.666666666666628
 30
0.0
 10
-0.9113626792919726
 20
1.666666666666628
 30
0.0
 11
-0.299999999996466
 21
3.0
 31
0.0
 11
-0.9113626792919726
 21
1.666666666666628
 31
0.0
  0
SPLINE
  5
420D
330
1F
100
AcDbEntity
  8
AM_0
100
AcDbSpline
210
0.0
220
0.0
230
1.0
 70
     8
 71
     3
 72
     8
 73
     4
 74
     2
 42
0.0000000001
 43
0.0000000001
 44
0.0000000001
 12
1.0
 22
-0.0000000000000002
 32
0.0
 40
0.0
 40
0.0
 40
0.0
 40
0.0
 40
4.036087214122295
 40
4.036087214122295
 40
4.036087214122295
 40
4.036087214122295
 10
-11.0999999999981
 20
3.000000000000341
 30
0.0
 10
-9.754637595290668
 20
3.00000000000034
 30
0.0
 10
-9.077318797644249
 20
1.50000000000034
 30
0.0
 10
-8.399999999997827
 20
0.0000000000003411
 30
0.0
 11
-11.0999999999981
 21
3.000000000000341
 31
0.0
 11
-8.399999999997827
 21
0.0000000000003411
 31
0.0
  0
SPLINE
  5
420E
330
1F
100
AcDbEntity
  8
AM_0
100
AcDbSpline
210
0.0
220
0.0
230
1.0
 70
     8
 71
     3
 72
     8
 73
     4
 74
     0
 42
0.0000000001
 43
0.0000000001
 40
0.157854605497133
 40
0.157854605497133
 40
0.157854605497133
 40
0.157854605497133
 40
6.616360992657454
 40
6.616360992657454
 40
6.616360992657454
 40
6.616360992657454
 10
-10.54856863519972
 20
2.907765826465876
 30
0.0
 10
-9.286087348133982
 20
2.840797951962414
 30
0.0
 10
-8.614146585754781
 20
1.420398975981377
 30
0.0
 10
-7.942205823375036
 20
0.00000000000027
 30
0.0
  0
SPLINE
  5
420F
330
1F
100
AcDbEntity
  8
AM_0
100
AcDbSpline
210
0.0
220
0.0
230
1.0
 70
     8
 71
     3
 72
     8
 73
     4
 74
     0
 42
0.0000000001
 43
0.0000000001
 40
0.3982504941345976
 40
0.3982504941345976
 40
0.3982504941345976
 40
0.3982504941345976
 40
6.452065446090842
 40
6.452065446090842
 40
6.452065446090842
 40
6.452065446090842
 10
-9.943807510361978
 20
2.758727173509782
 30
0.0
 10
-8.798782911353111
 20
2.603015955857607
 30
0.0
 10
-8.137492477470289
 20
1.301507977929006
 30
0.0
 10
-7.476202043586919
 20
0.0000000000004121
 30
0.0
  0
SPLINE
  5
4210
330
1F
100
AcDbEntity
  8
AM_0
100
AcDbSpline
210
0.0
220
0.0
230
1.0
 70
     8
 71
     3
 72
     8
 73
     4
 74
     0
 42
0.0000000001
 43
0.0000000001
 40
0.3982504941345976
 40
0.3982504941345976
 40
0.3982504941345976
 40
0.3982504941345976
 40
6.452065446090842
 40
6.452065446090842
 40
6.452065446090842
 40
6.452065446090842
 10
-6.343807510364708
 20
2.758727173509711
 30
0.0
 10
-5.198782911355841
 20
2.603015955857543
 30
0.0
 10
-4.537492477473019
 20
1.301507977928935
 30
0.0
 10
-3.876202043589923
 20
0.0000000000004121
 30
0.0
  0
SPLINE
  5
4211
330
1F
100
AcDbEntity
  8
AM_0
100
AcDbSpline
210
0.0
220
0.0
230
1.0
 70
     8
 71
     3
 72
     8
 73
     4
 74
     0
 42
0.0000000001
 43
0.0000000001
 40
0.157854605497133
 40
0.157854605497133
 40
0.157854605497133
 40
0.157854605497133
 40
6.616360992657454
 40
6.616360992657454
 40
6.616360992657454
 40
6.616360992657454
 10
-6.948568635202731
 20
2.907765826465805
 30
0.0
 10
-5.686087348136711
 20
2.840797951962414
 30
0.0
 10
-5.014146585757512
 20
1.420398975981314
 30
0.0
 10
-4.342205823378039
 20
0.00000000000027
 30
0.0
  0
SPLINE
  5
4212
330
1F
100
AcDbEntity
  8
AM_0
100
AcDbSpline
210
0.0
220
0.0
230
1.0
 70
     8
 71
     3
 72
     8
 73
     4
 74
     2
 42
0.0000000001
 43
0.0000000001
 44
0.0000000001
 12
1.0
 22
-0.0000000000000002
 32
0.0
 40
0.0
 40
0.0
 40
0.0
 40
0.0
 40
4.036087214122112
 40
4.036087214122112
 40
4.036087214122112
 40
4.036087214122112
 10
-7.500000000000831
 20
3.000000000000341
 30
0.0
 10
-6.15463759529346
 20
3.00000000000034
 30
0.0
 10
-5.477318797647146
 20
1.50000000000034
 30
0.0
 10
-4.800000000000832
 20
0.0000000000003411
 30
0.0
 11
-7.500000000000831
 21
3.000000000000341
 31
0.0
 11
-4.800000000000832
 21
0.0000000000003411
 31
0.0
  0
SPLINE
  5
4213
330
1F
100
AcDbEntity
  8
AM_0
100
AcDbSpline
210
0.0
220
0.0
230
1.0
 70
     8
 71
     3
 72
     8
 73
     4
 74
     2
 42
0.0000000001
 43
0.0000000001
 44
0.0000000001
 12
1.0
 22
-0.0000000000000002
 32
0.0
 40
0.0
 40
0.0
 40
0.0
 40
0.0
 40
4.036087214122477
 40
4.036087214122477
 40
4.036087214122477
 40
4.036087214122477
 10
-3.899999999999739
 20
3.000000000000412
 30
0.0
 10
-2.554637595292247
 20
3.000000000000411
 30
0.0
 10
-1.87731879764572
 20
1.500000000000411
 30
0.0
 10
-1.199999999999194
 20
0.0000000000004121
 30
0.0
 11
-3.899999999999739
 21
3.000000000000412
 31
0.0
 11
-1.199999999999194
 21
0.0000000000004121
 31
0.0
  0
SPLINE
  5
4214
330
1F
100
AcDbEntity
  8
AM_0
100
AcDbSpline
210
0.0
220
0.0
230
1.0
 70
     8
 71
     3
 72
     8
 73
     4
 74
     0
 42
0.0000000001
 43
0.0000000001
 40
0.157854605497133
 40
0.157854605497133
 40
0.157854605497133
 40
0.157854605497133
 40
6.616360992657454
 40
6.616360992657454
 40
6.616360992657454
 40
6.616360992657454
 10
-3.348568635201367
 20
2.907765826465947
 30
0.0
 10
-2.086087348135347
 20
2.840797951962485
 30
0.0
 10
-1.414146585755874
 20
1.420398975981377
 30
0.0
 10
-0.742205823376674
 20
0.00000000000027
 30
0.0
  0
SPLINE
  5
4215
330
1F
100
AcDbEntity
  8
AM_0
100
AcDbSpline
210
0.0
220
0.0
230
1.0
 70
     8
 71
     3
 72
     8
 73
     4
 74
     0
 42
0.0000000001
 43
0.0000000001
 40
0.3982504941345976
 40
0.3982504941345976
 40
0.3982504941345976
 40
0.3982504941345976
 40
6.01848148651983
 40
6.01848148651983
 40
6.01848148651983
 40
6.01848148651983
 10
-2.743807510363616
 20
2.758727173509853
 30
0.0
 10
-1.680791413990404
 20
2.614168243602605
 30
0.0
 10
-1.034699234761332
 20
1.482062623829072
 30
0.0
 10
-0.418467816766418
 20
0.2792273224495148
 30
0.0
  0
SPLINE
  5
4216
330
1F
100
AcDbEntity
  8
AM_0
100
AcDbSpline
210
0.0
220
0.0
230
1.0
 70
     8
 71
     3
 72
     8
 73
     4
 74
     0
 42
0.0000000001
 43
0.0000000001
 40
0.0
 40
0.0
 40
0.0
 40
0.0
 40
2.420483029949796
 40
2.420483029949796
 40
2.420483029949796
 40
2.420483029949796
 10
-15.576202043579
 20
-2.774255479840661
 30
0.0
 10
-15.0921054375891
 20
-2.774255479840661
 30
0.0
 10
-14.69042685314708
 20
-2.579036062056587
 30
0.0
 10
-14.34024728854966
 20
-2.261833509010784
 30
0.0
  0
SPLINE
  5
4217
330
1F
100
AcDbEntity
  8
AM_0
100
AcDbSpline
210
0.0
220
0.0
230
1.0
 70
     8
 71
     3
 72
     8
 73
     4
 74
     2
 42
0.0000000001
 43
0.0000000001
 44
0.0000000001
 12
-1.0
 22
0.0000000000000001
 32
0.0
 40
0.0
 40
0.0
 40
0.0
 40
0.0
 40
4.036087214122112
 40
4.036087214122112
 40
4.036087214122112
 40
4.036087214122112
 10
-12.89999999999209
 20
-2.999999999999587
 30
0.0
 10
-14.24536240469946
 20
-2.999999999999587
 30
0.0
 10
-14.92268120234578
 20
-1.499999999999588
 30
0.0
 10
-15.59999999999209
 20
0.0000000000004121
 30
0.0
 11
-12.89999999999209
 21
-2.999999999999587
 31
0.0
 11
-15.59999999999209
 21
0.0000000000004121
 31
0.0
  0
SPLINE
  5
4218
330
1F
100
AcDbEntity
  8
AM_0
100
AcDbSpline
210
0.0
220
0.0
230
1.0
 70
     8
 71
     3
 72
     8
 73
     4
 74
     2
 42
0.0000000001
 43
0.0000000001
 44
0.0000000001
 12
-1.0
 22
0.0000000000000001
 32
0.0
 40
0.0
 40
0.0
 40
0.0
 40
0.0
 40
3.969816595594469
 40
3.969816595594469
 40
3.969816595594469
 40
3.969816595594469
 10
-12.4422058233693
 20
-2.910230884767287
 30
0.0
 10
-13.76547802190079
 20
-2.910230884767287
 30
0.0
 10
-14.45384192263518
 20
-1.455115442383437
 30
0.0
 10
-15.14220582336958
 20
0.0000000000004121
 30
0.0
 11
-12.4422058233693
 21
-2.910230884767287
 31
0.0
 11
-15.14220582336958
 21
0.0000000000004121
 31
0.0
  0
SPLINE
  5
4219
330
1F
100
AcDbEntity
  8
AM_0
100
AcDbSpline
210
0.0
220
0.0
230
1.0
 70
     8
 71
     3
 72
     8
 73
     4
 74
     0
 42
0.0000000001
 43
0.0000000001
 40
0.0
 40
0.0
 40
0.0
 40
0.0
 40
0.9875149967633806
 40
0.9875149967633806
 40
0.9875149967633806
 40
0.9875149967633806
 10
-12.89999999999264
 20
-2.999999999999459
 30
0.0
 10
-12.70249700064006
 20
-2.999999999999459
 30
0.0
 10
-12.51939105510765
 20
-2.967673396612696
 30
0.0
 10
-12.34856863524774
 20
-2.907765826483682
 30
0.0
  0
SPLINE
  5
421A
330
1F
100
AcDbEntity
  8
AM_0
100
AcDbSpline
210
0.0
220
0.0
230
1.0
 70
     8
 71
     3
 72
     8
 73
     4
 74
     2
 42
0.0000000001
 43
0.0000000001
 44
0.0000000001
 12
-1.0
 22
0.0000000000000001
 32
0.0
 40
0.0
 40
0.0
 40
0.0
 40
0.0
 40
3.871239267654533
 40
3.871239267654533
 40
3.871239267654533
 40
3.871239267654533
 10
-11.97620204358119
 20
-2.774255479840661
 30
0.0
 10
-13.26661513279936
 20
-2.774255479840661
 30
0.0
 10
-13.97140858819041
 20
-1.38712773992006
 30
0.0
 10
-14.67620204358146
 20
0.00000000000054
 30
0.0
 11
-11.97620204358119
 21
-2.774255479840661
 31
0.0
 11
-14.67620204358146
 21
0.00000000000054
 31
0.0
  0
SPLINE
  5
421B
330
1F
100
AcDbEntity
  8
AM_0
100
AcDbSpline
210
0.0
220
0.0
230
1.0
 70
     8
 71
     3
 72
     8
 73
     4
 74
     0
 42
0.0000000001
 43
0.0000000001
 40
0.0
 40
0.0
 40
0.0
 40
0.0
 40
1.274172826456642
 40
1.274172826456642
 40
1.274172826456642
 40
1.274172826456642
 10
-12.44220582337012
 20
-2.910230884767088
 30
0.0
 10
-12.18737125807884
 20
-2.910230884767088
 30
0.0
 10
-11.9560833518558
 20
-2.856265442283941
 30
0.0
 10
-11.74380751035652
 20
-2.758727173508901
 30
0.0
  0
SPLINE
  5
421C
330
1F
100
AcDbEntity
  8
AM_0
100
AcDbSpline
210
0.0
220
0.0
230
1.0
 70
     8
 71
     3
 72
     8
 73
     4
 74
     2
 42
0.0000000001
 43
0.0000000001
 44
0.0000000001
 12
1.0
 22
-0.0000000000000002
 32
0.0
 40
0.0
 40
0.0
 40
0.0
 40
0.0
 40
4.036087214122295
 40
4.036087214122295
 40
4.036087214122295
 40
4.036087214122295
 10
-14.69999999999537
 20
3.000000000000412
 30
0.0
 10
-13.35463759528794
 20
3.000000000000411
 30
0.0
 10
-12.67731879764152
 20
1.500000000000411
 30
0.0
 10
-11.9999999999951
 20
0.0000000000004121
 30
0.0
 11
-14.69999999999537
 21
3.000000000000412
 31
0.0
 11
-11.9999999999951
 21
0.0000000000004121
 31
0.0
  0
SPLINE
  5
421D
330
1F
100
AcDbEntity
  8
AM_0
100
AcDbSpline
210
0.0
220
0.0
230
1.0
 70
     8
 71
     3
 72
     8
 73
     4
 74
     0
 42
0.0000000001
 43
0.0000000001
 40
0.0
 40
0.0
 40
0.0
 40
0.0
 40
2.420483029949796
 40
2.420483029949796
 40
2.420483029949796
 40
2.420483029949796
 10
-11.976202043582
 20
-2.774255479840661
 30
0.0
 10
-11.49210543759182
 20
-2.774255479840661
 30
0.0
 10
-11.09042685315008
 20
-2.579036062056587
 30
0.0
 10
-10.74024728855266
 20
-2.261833509010855
 30
0.0
  0
SPLINE
  5
421E
330
1F
100
AcDbEntity
  8
AM_0
100
AcDbSpline
210
0.0
220
0.0
230
1.0
 70
     8
 71
     3
 72
     8
 73
     4
 74
     2
 42
0.0000000001
 43
0.0000000001
 44
0.0000000001
 12
-1.0
 22
0.0000000000000001
 32
0.0
 40
0.0
 40
0.0
 40
0.0
 40
0.0
 40
3.969816595594334
 40
3.969816595594334
 40
3.969816595594334
 40
3.969816595594334
 10
-8.842205823372307
 20
-2.910230884767358
 30
0.0
 10
-10.16547802190375
 20
-2.910230884767358
 30
0.0
 10
-10.85384192263802
 20
-1.455115442383473
 30
0.0
 10
-11.5422058233723
 20
0.0000000000004121
 30
0.0
 11
-8.842205823372307
 21
-2.910230884767358
 31
0.0
 11
-11.5422058233723
 21
0.0000000000004121
 31
0.0
  0
SPLINE
  5
421F
330
1F
100
AcDbEntity
  8
AM_0
100
AcDbSpline
210
0.0
220
0.0
230
1.0
 70
     8
 71
     3
 72
     8
 73
     4
 74
     2
 42
0.0000000001
 43
0.0000000001
 44
0.0000000001
 12
-1.0
 22
0.0000000000000001
 32
0.0
 40
0.0
 40
0.0
 40
0.0
 40
0.0
 40
3.871239267654347
 40
3.871239267654347
 40
3.871239267654347
 40
3.871239267654347
 10
-8.376202043584193
 20
-2.774255479840732
 30
0.0
 10
-9.666615132802309
 20
-2.774255479840732
 30
0.0
 10
-10.37140858819325
 20
-1.387127739920128
 30
0.0
 10
-11.07620204358419
 20
0.0000000000004761
 30
0.0
 11
-8.376202043584193
 21
-2.774255479840732
 31
0.0
 11
-11.07620204358419
 21
0.0000000000004761
 31
0.0
  0
SPLINE
  5
4220
330
1F
100
AcDbEntity
  8
AM_0
100
AcDbSpline
210
0.0
220
0.0
230
1.0
 70
     8
 71
     3
 72
     8
 73
     4
 74
     2
 42
0.0000000001
 43
0.0000000001
 44
0.0000000001
 12
-1.0
 22
0.0000000000000001
 32
0.0
 40
0.0
 40
0.0
 40
0.0
 40
0.0
 40
4.036087214122295
 40
4.036087214122295
 40
4.036087214122295
 40
4.036087214122295
 10
-9.299999999994827
 20
-2.999999999999587
 30
0.0
 10
-10.64536240470226
 20
-2.999999999999587
 30
0.0
 10
-11.32268120234867
 20
-1.499999999999588
 30
0.0
 10
-11.9999999999951
 20
0.0000000000004121
 30
0.0
 11
-9.299999999994827
 21
-2.999999999999587
 31
0.0
 11
-11.9999999999951
 21
0.0000000000004121
 31
0.0
  0
SPLINE
  5
4221
330
1F
100
AcDbEntity
  8
AM_0
100
AcDbSpline
210
0.0
220
0.0
230
1.0
 70
     8
 71
     3
 72
     8
 73
     4
 74
     0
 42
0.0000000001
 43
0.0000000001
 40
0.0
 40
0.0
 40
0.0
 40
0.0
 40
2.948331486770748
 40
2.948331486770748
 40
2.948331486770748
 40
2.948331486770748
 10
-11.09999999999373
 20
3.000000000000476
 30
0.0
 10
-11.68966629734805
 20
3.000000000000753
 30
0.0
 10
-12.15099944604782
 20
2.711845572734091
 30
0.0
 10
-12.54024728855539
 20
2.261833509011879
 30
0.0
  0
SPLINE
  5
4222
330
1F
100
AcDbEntity
  8
AM_0
100
AcDbSpline
210
0.0
220
0.0
230
1.0
 70
     8
 71
     3
 72
     8
 73
     4
 74
     0
 42
0.0000000001
 43
0.0000000001
 40
0.157854605497133
 40
0.157854605497133
 40
0.157854605497133
 40
0.157854605497133
 40
6.616360992657454
 40
6.616360992657454
 40
6.616360992657454
 40
6.616360992657454
 10
-14.14856863519699
 20
2.907765826465947
 30
0.0
 10
-12.88608734813125
 20
2.840797951962485
 30
0.0
 10
-12.21414658575178
 20
1.420398975981377
 30
0.0
 10
-11.5422058233723
 20
0.00000000000027
 30
0.0
  0
SPLINE
  5
4223
330
1F
100
AcDbEntity
  8
AM_0
100
AcDbSpline
210
0.0
220
0.0
230
1.0
 70
     8
 71
     3
 72
     8
 73
     4
 74
     0
 42
0.0000000001
 43
0.0000000001
 40
0.3982504941345976
 40
0.3982504941345976
 40
0.3982504941345976
 40
0.3982504941345976
 40
6.452065446090842
 40
6.452065446090842
 40
6.452065446090842
 40
6.452065446090842
 10
-13.54380751035924
 20
2.758727173509853
 30
0.0
 10
-12.39878291135038
 20
2.603015955857607
 30
0.0
 10
-11.73749247746728
 20
1.301507977929006
 30
0.0
 10
-11.07620204358419
 20
0.0000000000004121
 30
0.0
  0
SPLINE
  5
4224
330
1F
100
AcDbEntity
  8
AM_0
100
AcDbSpline
210
0.0
220
0.0
230
1.0
 70
     8
 71
     3
 72
     8
 73
     4
 74
     2
 42
0.0000000001
 43
0.0000000001
 44
0.0000000001
 12
-1.0
 22
0.0000000000000001
 32
0.0
 40
0.0
 40
0.0
 40
0.0
 40
0.0
 40
2.657569869500607
 40
2.657569869500607
 40
2.657569869500607
 40
2.657569869500607
 10
-15.57620204357818
 20
-2.774255479840668
 30
0.0
 10
-16.46205866674505
 20
-2.774255479840668
 30
0.0
 10
-17.06464663152841
 20
-1.954154803904174
 30
0.0
 10
-17.66723459631176
 20
-1.134054127967679
 30
0.0
 11
-15.57620204357818
 21
-2.774255479840668
 31
0.0
 11
-17.66723459631176
 21
-1.134054127967679
 31
0.0
  0
SPLINE
  5
4225
330
1F
100
AcDbEntity
  8
AM_0
100
AcDbSpline
210
0.0
220
0.0
230
1.0
 70
     8
 71
     3
 72
     8
 73
     4
 74
     0
 42
0.0000000001
 43
0.0000000001
 40
0.0
 40
0.0
 40
0.0
 40
0.0
 40
1.274172826456642
 40
1.274172826456642
 40
1.274172826456642
 40
1.274172826456642
 10
-16.04220582336685
 20
-3.000000000000078
 30
0.0
 10
-15.78737125807557
 20
-2.910230884767095
 30
0.0
 10
-15.55608335185253
 20
-2.856265442283877
 30
0.0
 10
-15.34380751035351
 20
-2.758727173508837
 30
0.0
  0
SPLINE
  5
4226
330
1F
100
AcDbEntity
  8
AM_0
100
AcDbSpline
210
0.0
220
0.0
230
1.0
 70
     8
 71
     3
 72
     8
 73
     4
 74
     0
 42
0.0000000001
 43
0.0000000001
 40
0.0
 40
0.0
 40
0.0
 40
0.0
 40
2.420483029949796
 40
2.420483029949796
 40
2.420483029949796
 40
2.420483029949796
 10
-15.57620204357872
 20
-2.774255479840668
 30
0.0
 10
-15.09210543758882
 20
-2.774255479840668
 30
0.0
 10
-14.69042685314708
 20
-2.579036062056609
 30
0.0
 10
-14.34024728854965
 20
-2.261833509010862
 30
0.0
  0
LINE
  5
4227
330
1F
100
AcDbEntity
  8
AM_11
100
AcDbLine
 10
0.0
 20
3.000000000000003
 30
0.0
 11
-15.0
 21
3.000000000000003
 31
0.0
  0
LINE
  5
4228
330
1F
100
AcDbEntity
  8
AM_11
100
AcDbLine
 10
-15.0
 20
-2.999999999999995
 30
0.0
 11
0.0
 21
-2.999999999999995
 31
0.0
  0
ARC
  5
4229
330
1F
100
AcDbEntity
  8
AM_0
100
AcDbCircle
 10
-16.6413176601599
 20
-0.5115636138899191
 30
0.0
 40
1.199999999999999
100
AcDbArc
 50
117.0923257436931
 51
211.2479114875234
  0
LINE
  5
422A
330
1F
100
AcDbEntity
  8
AM_0
100
AcDbLine
 10
-17.18782846070217
 20
0.5567649614514423
 30
0.0
 11
-16.11934424530992
 21
1.103355380727698
 31
0.0
  0
LINE
  5
422B
330
1F
100
AcDbEntity
  8
AM_11
100
AcDbLine
 10
-15.0
 20
3.000000000000003
 30
0.0
 11
-15.0
 21
-2.999999999999995
 31
0.0
  0
LINE
  5
422C
330
1F
100
AcDbEntity
  8
AM_0
100
AcDbLine
 10
-15.00000000000001
 20
-1.257986840621008
 30
0.0
 11
-15.00000000000001
 21
0.6283296317472207
 31
0.0
  0
LINE
  5
422D
330
1F
100
AcDbEntity
  8
AM_11
100
AcDbLine
 10
0.0
 20
3.000000000000003
 30
0.0
 11
0.0
 21
-2.999999999999995
 31
0.0
  0
LINE
  5
422E
330
1F
100
AcDbEntity
  8
AM_0
100
AcDbLine
 10
-0.0000000000000126
 20
0.0
 30
0.0
 11
-0.0000000000002844
 21
2.919615242271675
 31
0.0
  0
LINE
  5
422F
330
1F
100
AcDbEntity
  8
AM_0
100
AcDbLine
 10
-0.0000000000000126
 20
-0.4667171480581374
 30
0.0
 11
-0.1200000000001753
 21
0.0
 31
0.0
  0
LINE
  5
4230
330
1F
100
AcDbEntity
  8
AM_0
100
AcDbLine
 10
-0.1199999999999053
 20
-0.9042390166556302
 30
0.0
 11
-0.1200000000001753
 21
0.0
 31
0.0
  0
ARC
  5
4231
330
1F
100
AcDbEntity
  8
AM_0
100
AcDbCircle
 10
3.003817380114638
 20
0.5129510670163456
 30
0.0
 40
3.430256952119363
100
AcDbArc
 50
171.6411574078214
 51
204.4024896870891
  0
LINE
  5
4232
330
1F
100
AcDbEntity
  8
AM_0
100
AcDbLine
 10
0.0000000000002591
 20
-1.499999999998429
 30
0.0
 11
-0.1199999999999053
 21
-2.083379325970781
 31
0.0
  0
LINE
  5
4233
330
1F
100
AcDbEntity
  8
AM_0
100
AcDbLine
 10
-0.1200000000050887
 20
-2.083379325995885
 30
0.0
 11
-0.1199999999835344
 21
-1.499999999993995
 31
0.0
  0
LINE
  5
4234
330
1F
100
AcDbEntity
  8
AM_0
100
AcDbLine
 10
-0.3900000000000683
 20
-2.05084611616612
 30
0.0
 11
-0.2602882169217227
 21
-1.499999999988816
 31
0.0
  0
LINE
  5
4235
330
1F
100
AcDbEntity
  8
AM_0
100
AcDbLine
 10
-0.466325227802294
 20
-1.499999999981312
 30
0.0
 11
0.0000000000002591
 21
-1.499999999998429
 31
0.0
  0
LINE
  5
4236
330
1F
100
AcDbEntity
  8
AM_0
100
AcDbLine
 10
0.0000000000002591
 20
-1.499999999998429
 30
0.0
 11
-0.1199999999999053
 21
-0.9042390166556302
 31
0.0
  0
LINE
  5
4237
330
1F
100
AcDbEntity
  8
AM_0
100
AcDbLine
 10
0.0000000000002591
 20
-1.499999999998429
 30
0.0
 11
-0.0000000000000126
 21
-0.4667171480582084
 31
0.0
  0
LINE
  5
4238
330
1F
100
AcDbEntity
  8
AM_0
100
AcDbLine
 10
-0.1200000000001753
 20
0.0
 30
0.0
 11
-0.3900000000000665
 21
1.011615631624408
 31
0.0
  0
LINE
  5
4239
330
1F
100
AcDbEntity
  8
AM_0
100
AcDbLine
 10
-0.0000000000000126
 20
0.0
 30
0.0
 11
-0.061238036926728
 21
-0.2285434651658775
 31
0.0
  0
LINE
  5
423A
330
1F
100
AcDbEntity
  8
AM_0
100
AcDbLine
 10
-0.3900000000000665
 20
1.011615631624408
 30
0.0
 11
-0.9113626792919726
 21
1.666666666666628
 31
0.0
  0
LINE
  5
423B
330
1F
100
AcDbEntity
  8
AM_0
100
AcDbLine
 10
-0.2999999999997398
 20
3.000000000000952
 30
0.0
 11
-0.0000000000002844
 21
2.919615242271675
 31
0.0
  0
LINE
  5
423C
330
1F
100
AcDbEntity
  8
AM_7
  6
AM_ISO08W050X2
100
AcDbLine
 10
4.557768030855186
 20
0.0
 30
0.0
 11
-52.69469945058478
 21
-0.0000000000000142
 31
0.0
1001
GENIUS_GENODEF_13
1002
{
1000
HIER
1070
     0
1002
}
1002
{
1000
MANEDIT
1070
     0
1002
}
1002
{
1000
NOSEL
1070
     0
1002
}
1002
{
1000
BEHIND
1070
     0
1002
}
1002
{
1000
REACTOR
1002
}
1001
GENIUS_GENOBJ-N-CEN_13
1002
{
1000
OWNER
1000
GEN
1002
}
  0
LINE
  5
423D
330
1F
100
AcDbEntity
  8
AM_0
100
AcDbLine
 10
-18.29999999999199
 20
3.000000000000003
 30
0.0
 11
-49.50000000000001
 21
2.999999999999998
 31
0.0
  0
LINE
  5
423E
330
1F
100
AcDbEntity
  8
AM_0
100
AcDbLine
 10
-16.04220582336685
 20
-2.999999999999995
 30
0.0
 11
-49.49999999999995
 21
-3.000000000000014
 31
0.0
  0
DIMENSION
  5
423F
330
1F
100
AcDbEntity
  8
AM_5
100
AcDbDimension
  2
*D5
 10
-49.99999999999996
 20
-16.00000100000009
 30
0.0
 11
-24.99999999999998
 21
-14.45000100000009
 31
0.0
 70
    32
  1
<>
  3
AM_JIS
100
AcDbAlignedDimension
 13
0.0
 23
-2.999999999999995
 33
0.0
 14
-49.99999999999996
 24
-2.500000000000014
 34
0.0
 50
0.0000000000001132
100
AcDbRotatedDimension
1001
GENIUS_GENDTOL_13
1000

1000
h7
1000

1040
0.0
  0
DIMENSION
  5
4240
330
1F
100
AcDbEntity
  8
AM_5
100
AcDbDimension
  2
*D6
 10
-59.69470045058476
 20
-3.000000000000011
 30
0.0
 11
-61.24470045058476
 21
-0.0000000000000146
 31
0.0
 70
    32
  1
%%c<>
  3
AM_JIS
100
AcDbAlignedDimension
 13
-49.25
 23
2.999999999999999
 33
0.0
 14
-49.49999999999996
 24
-3.000000000000014
 34
0.0
 50
270.0
100
AcDbRotatedDimension
1001
GENIUS_GENDTOL_13
1000

1000
h7
1000

1040
0.0
  0
LINE
  5
4241
330
1F
100
AcDbEntity
  8
AM_0
100
AcDbLine
 10
-49.99999999999996
 20
-2.500000000000014
 30
0.0
 11
-49.49999999999995
 21
-3.000000000000014
 31
0.0
1001
GENIUS_GENFIL_13
1070
     0
1040
0.5
1040
0.5
1040
20.0
1040
0.0
1002
{
1002
}
1001
GENIUS_GENODEF_13
1002
{
1000
HIER
1070
     0
1002
}
1002
{
1000
MANEDIT
1070
     0
1002
}
1002
{
1000
NOSEL
1070
     0
1002
}
1002
{
1000
BEHIND
1070
     0
1002
}
1002
{
1000
REACTOR
1002
}
1001
GENIUS_GENOBJ-N-CHA_13
1002
{
1000
OWNER
1000
GEN
1002
}
  0
LINE
  5
4242
330
1F
100
AcDbEntity
  8
AM_0
100
AcDbLine
 10
-49.49999999999999
 20
2.999999999999998
 30
0.0
 11
-49.49999999999996
 21
-3.000000000000014
 31
0.0
  0
LINE
  5
4243
330
1F
100
AcDbEntity
  8
AM_0
100
AcDbLine
 10
-50.0
 20
2.499999999999998
 30
0.0
 11
-49.99999999999996
 21
-2.500000000000014
 31
0.0
  0
LINE
  5
4244
330
1F
100
AcDbEntity
  8
AM_0
100
AcDbLine
 10
-49.50000000000001
 20
2.999999999999998
 30
0.0
 11
-50.0
 21
2.499999999999998
 31
0.0
1001
GENIUS_GENFIL_13
1070
     0
1040
0.5
1040
0.5
1040
20.0
1040
0.0
1002
{
1002
}
1001
GENIUS_GENODEF_13
1002
{
1000
HIER
1070
     0
1002
}
1002
{
1000
MANEDIT
1070
     0
1002
}
1002
{
1000
NOSEL
1070
     0
1002
}
1002
{
1000
BEHIND
1070
     0
1002
}
1002
{
1000
REACTOR
1002
}
1001
GENIUS_GENOBJ-N-CHA_13
1002
{
1000
OWNER
1000
GEN
1002
}
  0
DIMENSION
  5
4245
330
1F
100
AcDbEntity
  8
AM_5
100
AcDbDimension
  2
*D7
 10
-15.0
 20
-10.00000100000002
 30
0.0
 11
-7.5
 21
-8.450001000000025
 31
0.0
 70
    32
  1
<>
  3
AM_JIS
100
AcDbAlignedDimension
 13
0.0
 23
-2.999999999999995
 33
0.0
 14
-15.0
 24
-2.999999999999995
 34
0.0
 50
0.0000000000001132
100
AcDbRotatedDimension
1001
GENIUS_GENDTOL_13
1000

1000
h7
1000

1040
0.0
  0
LINE
  5
4246
330
1F
100
AcDbEntity
  8
AM_0
100
AcDbLine
 10
-16.04220582336685
 20
-3.000000000000071
 30
0.0
 11
-21.49231026005156
 21
-3.000000000000071
 31
0.0
  0
DIMENSION
  5
4247
330
1F
100
AcDbEntity
  8
AM_5
100
AcDbDimension
  2
*D8
 10
11.55776903085518
 20
-2.999999999999998
 30
0.0
 11
10.00776903085518
 21
0.000000000000003
 31
0.0
 70
    32
  1
%%c<>
  3
AM_JIS
100
AcDbAlignedDimension
 13
0.0
 23
3.000000000000003
 33
0.0
 14
0.0000000000000043
 24
-2.999999999999995
 34
0.0
 50
90.00000000000003
100
AcDbRotatedDimension
1001
GENIUS_GENDTOL_13
1000

1000
h7
1000

1040
0.0
  0
VIEWPORT
  5
110
330
101
100
AcDbEntity
 67
     1
  8
0
100
AcDbViewport
 10
420.5
 20
297.0
 30
0.0
 40
948.9782706766916
 41
628.452
 68
     1
 69
     1
1001
ACAD
1000
MVIEW
1002
{
1070
    16
1010
0.0
1020
0.0
1030
0.0
1010
0.0
1020
0.0
1030
1.0
1040
0.0
1040
628.452
1040
420.5
1040
297.0
1040
50.0
1040
0.0
1040
0.0
1070
     0
1070
   100
1070
     1
1070
     1
1070
     0
1070
     0
1070
     0
1070
     0
1040
0.0
1040
0.0
1040
0.0
1040
10.0
1040
10.0
1040
10.0
1040
10.0
1070
     0
1002
{
1002
}
1002
}
  0
ENDSEC
  0
SECTION
  2
OBJECTS
  0
DICTIONARY
  5
C
330
0
100
AcDbDictionary
  3
ACAD_GROUP
350
D
  3
ACAD_LAYOUT
350
1A
  3
ACAD_MLINESTYLE
350
17
  3
ACAD_PLOTSETTINGS
350
19
  3
ACAD_PLOTSTYLENAME
350
E
  3
ACDBVARIABLEDICTIONARY
350
34
  3
ACMDICTIONARY
350
43
  3
AMG
350
2B
  3
AMGSNAPSETTINGS
350
6E
  3
ASE_INDEX_DICTIONARY
350
151A
  3
DWGPROPS
350
42B3
  3
ACDBHEADERROUNDTRIPXREC
350
42BF
  0
DICTIONARY
  5
74
330
1F
100
AcDbDictionary
280
     1
  3
ACAD_INDEX
360
42B5
  3
ACAD_LAYOUTSELFREF
360
42E2
  0
DICTIONARY
  5
42E7
330
101
100
AcDbDictionary
280
     1
  3
ACAD_LAYOUTSELFREF
360
42E8
  0
DICTIONARY
  5
D
102
{ACAD_REACTORS
330
C
102
}
330
C
100
AcDbDictionary
  0
DICTIONARY
  5
1A
102
{ACAD_REACTORS
330
C
102
}
330
C
100
AcDbDictionary
  0
DICTIONARY
  5
17
102
{ACAD_REACTORS
330
C
102
}
330
C
100
AcDbDictionary
  3
STANDARD
350
18
  0
DICTIONARY
  5
19
102
{ACAD_REACTORS
330
C
102
}
330
C
100
AcDbDictionary
  0
ACDBDICTIONARYWDFLT
  5
E
102
{ACAD_REACTORS
330
C
102
}
330
C
100
AcDbDictionary
281
     1
  3
Normal
350
F
100
AcDbDictionaryWithDefault
340
F
  0
DICTIONARY
  5
34
102
{ACAD_REACTORS
330
C
102
}
330
C
100
AcDbDictionary
  3
INDEXCTL
350
35
  3
SORTENTS
350
B5E
  0
DICTIONARY
  5
43
102
{ACAD_REACTORS
330
C
102
}
330
C
100
AcDbDictionary
  3
ACMSTDDICTIONARY
350
260
  0
DICTIONARY
  5
2B
102
{ACAD_REACTORS
330
C
102
}
330
C
100
AcDbDictionary
  3
ACMGSETTINGS
350
2C
  0
DICTIONARY
  5
6E
102
{ACAD_REACTORS
330
C
102
}
330
C
100
AcDbDictionary
  0
DICTIONARY
  5
151A
102
{ACAD_REACTORS
330
C
102
}
330
C
100
AcDbDictionary
  3
ASEBLOCKHIERARCHYINDEXRECORD
350
151C
1001
DCO15
1040
1471862535.906
  0
XRECORD
  5
42B3
102
{ACAD_REACTORS
330
C
102
}
330
C
100
AcDbXrecord
  1
DWGPROPS COOKIE
  2

  3

  4

  6

  7

  8

  9

300
AmdtFileType=82
301
=
302
=
303
=
304
=
305
=
306
=
307
=
308
=
309
=
 40
0.1528089699074074
 41
2452838.430434386
 42
2453045.64356699
  1

 90
        1
  0
DICTIONARY
  5
42BF
102
{ACAD_REACTORS
330
C
102
}
330
C
100
AcDbDictionary
  3
TSTACKALIGN
350
42C0
  3
TSTACKSIZE
350
42C1
  3
HYPERLINKBASE
350
42C2
  3
STYLESHEET
350
42C3
  3
LAYOUTDICT
350
42C4
  3
PLOTSETDICT
350
42C5
  3
PLOTSTYLNAMDICT
350
42C6
  3
LWETCUNION
350
42C7
  3
INSUNITS
350
42C8
  3
CEPSNTYPE
350
42C9
  3
FINGERPRINTGUID
350
42CA
  3
VERSIONGUID
350
42CB
  3
PSVPSCALE
350
42CC
  3
DIMSTYLEDATA
350
42CD
  3
PUCSORTHOREF
350
42CE
  3
PUCSORTHOVIEW
350
42CF
  3
PUCSBASE
350
42D0
  3
PUCSORGTOP
350
42D1
  3
PUCSORGBOTTOM
350
42D2
  3
PUCSORGLEFT
350
42D3
  3
PUCSORGRIGHT
350
42D4
  3
PUCSORGFRONT
350
42D5
  3
PUCSORGBACK
350
42D6
  3
UCSORTHOREF
350
42D7
  3
UCSORTHOVIEW
350
42D8
  3
UCSBASE
350
42D9
  3
UCSORGTOP
350
42DA
  3
UCSORGBOTTOM
350
42DB
  3
UCSORGLEFT
350
42DC
  3
UCSORGRIGHT
350
42DD
  3
UCSORGFRONT
350
42DE
  3
UCSORGBACK
350
42DF
  0
DICTIONARY
  5
42B5
102
{ACAD_REACTORS
330
74
102
}
330
74
100
AcDbDictionary
  3
*A1
350
42B6
  0
XRECORD
  5
42E2
102
{ACAD_REACTORS
330
74
102
}
330
74
100
AcDbXrecord
340
1F
  0
XRECORD
  5
42E8
102
{ACAD_REACTORS
330
42E7
102
}
330
42E7
100
AcDbXrecord
340
101
  0
MLINESTYLE
  5
18
102
{ACAD_REACTORS
330
17
102
}
330
17
100
AcDbMlineStyle
  2
STANDARD
 70
     0
  3

 62
   256
 51
90.0
 52
90.0
 71
     2
 49
0.5
 62
   256
  6
BYLAYER
 49
-0.5
 62
   256
  6
BYLAYER
  0
ACDBPLACEHOLDER
  5
F
102
{ACAD_REACTORS
330
E
102
}
330
E
100
AcDbPlaceHolder
280
     0
  0
DICTIONARYVAR
  5
35
102
{ACAD_REACTORS
330
34
102
}
330
34
100
DictionaryVariables
280
     0
  1
1
  0
DICTIONARYVAR
  5
B5E
102
{ACAD_REACTORS
330
34
102
}
330
34
100
DictionaryVariables
280
     0
  1
96
  0
DICTIONARY
  5
260
102
{ACAD_REACTORS
330
43
102
}
330
43
100
AcDbDictionary
  0
DICTIONARY
  5
2C
102
{ACAD_REACTORS
330
2B
102
}
330
2B
100
AcDbDictionary
  3
DWGSETTINGS
350
2D
  0
XRECORD
  5
151C
102
{ACAD_REACTORS
330
151A
102
}
330
151A
100
AcDbXrecord
330
0
330
0
330
0
330
0
330
0
330
0
330
0
330
0
  0
XRECORD
  5
42C0
102
{ACAD_REACTORS
330
42BF
102
}
330
42BF
100
AcDbXrecord
 90
        1
  0
XRECORD
  5
42C1
102
{ACAD_REACTORS
330
42BF
102
}
330
42BF
100
AcDbXrecord
 90
       70
  0
XRECORD
  5
42C2
102
{ACAD_REACTORS
330
42BF
102
}
330
42BF
100
AcDbXrecord
  1

  0
XRECORD
  5
42C3
102
{ACAD_REACTORS
330
42BF
102
}
330
42BF
100
AcDbXrecord
  1
ASAMI.ctb
  0
XRECORD
  5
42C4
102
{ACAD_REACTORS
330
42BF
102
}
330
42BF
100
AcDbXrecord
340
1A
  0
XRECORD
  5
42C5
102
{ACAD_REACTORS
330
42BF
102
}
330
42BF
100
AcDbXrecord
340
19
  0
XRECORD
  5
42C6
102
{ACAD_REACTORS
330
42BF
102
}
330
42BF
100
AcDbXrecord
340
E
  0
XRECORD
  5
42C7
102
{ACAD_REACTORS
330
42BF
102
}
330
42BF
100
AcDbXrecord
 90
    10781
  0
XRECORD
  5
42C8
102
{ACAD_REACTORS
330
42BF
102
}
330
42BF
100
AcDbXrecord
 90
        4
  0
XRECORD
  5
42C9
102
{ACAD_REACTORS
330
42BF
102
}
330
42BF
100
AcDbXrecord
 90
        0
  0
XRECORD
  5
42CA
102
{ACAD_REACTORS
330
42BF
102
}
330
42BF
100
AcDbXrecord
  1
{AFB28963-8C59-40AE-9337-C84526B81ACE}
  0
XRECORD
  5
42CB
102
{ACAD_REACTORS
330
42BF
102
}
330
42BF
100
AcDbXrecord
  1
{900A39FB-CFBA-4FFA-96C3-137AD06717F6}
  0
XRECORD
  5
42CC
102
{ACAD_REACTORS
330
42BF
102
}
330
42BF
100
AcDbXrecord
 40
0.0
  0
XRECORD
  5
42CD
102
{ACAD_REACTORS
330
42BF
102
}
330
42BF
100
AcDbXrecord
1000
DSTYLE
1002
{
1070
    79
 70
     2
1070
   341
340
59
1070
   342
340
59
1070
   371
 70
    -1
1070
   372
 70
    -1
1002
}
  0
XRECORD
  5
42CE
102
{ACAD_REACTORS
330
42BF
102
}
330
42BF
100
AcDbXrecord
340
0
  0
XRECORD
  5
42CF
102
{ACAD_REACTORS
330
42BF
102
}
330
42BF
100
AcDbXrecord
 70
     0
  0
XRECORD
  5
42D0
102
{ACAD_REACTORS
330
42BF
102
}
330
42BF
100
AcDbXrecord
340
0
  0
XRECORD
  5
42D1
102
{ACAD_REACTORS
330
42BF
102
}
330
42BF
100
AcDbXrecord
 10
0.0
 20
0.0
 30
0.0
  0
XRECORD
  5
42D2
102
{ACAD_REACTORS
330
42BF
102
}
330
42BF
100
AcDbXrecord
 10
0.0
 20
0.0
 30
0.0
  0
XRECORD
  5
42D3
102
{ACAD_REACTORS
330
42BF
102
}
330
42BF
100
AcDbXrecord
 10
0.0
 20
0.0
 30
0.0
  0
XRECORD
  5
42D4
102
{ACAD_REACTORS
330
42BF
102
}
330
42BF
100
AcDbXrecord
 10
0.0
 20
0.0
 30
0.0
  0
XRECORD
  5
42D5
102
{ACAD_REACTORS
330
42BF
102
}
330
42BF
100
AcDbXrecord
 10
0.0
 20
0.0
 30
0.0
  0
XRECORD
  5
42D6
102
{ACAD_REACTORS
330
42BF
102
}
330
42BF
100
AcDbXrecord
 10
0.0
 20
0.0
 30
0.0
  0
XRECORD
  5
42D7
102
{ACAD_REACTORS
330
42BF
102
}
330
42BF
100
AcDbXrecord
340
0
  0
XRECORD
  5
42D8
102
{ACAD_REACTORS
330
42BF
102
}
330
42BF
100
AcDbXrecord
 70
     0
  0
XRECORD
  5
42D9
102
{ACAD_REACTORS
330
42BF
102
}
330
42BF
100
AcDbXrecord
340
0
  0
XRECORD
  5
42DA
102
{ACAD_REACTORS
330
42BF
102
}
330
42BF
100
AcDbXrecord
 10
0.0
 20
0.0
 30
0.0
  0
XRECORD
  5
42DB
102
{ACAD_REACTORS
330
42BF
102
}
330
42BF
100
AcDbXrecord
 10
0.0
 20
0.0
 30
0.0
  0
XRECORD
  5
42DC
102
{ACAD_REACTORS
330
42BF
102
}
330
42BF
100
AcDbXrecord
 10
0.0
 20
0.0
 30
0.0
  0
XRECORD
  5
42DD
102
{ACAD_REACTORS
330
42BF
102
}
330
42BF
100
AcDbXrecord
 10
0.0
 20
0.0
 30
0.0
  0
XRECORD
  5
42DE
102
{ACAD_REACTORS
330
42BF
102
}
330
42BF
100
AcDbXrecord
 10
0.0
 20
0.0
 30
0.0
  0
XRECORD
  5
42DF
102
{ACAD_REACTORS
330
42BF
102
}
330
42BF
100
AcDbXrecord
 10
0.0
 20
0.0
 30
0.0
  0
LAYER_INDEX
  5
42B6
102
{ACAD_REACTORS
330
42B5
102
}
330
42B5
100
AcDbIndex
 40
2453152.468827789
100
AcDbLayerIndex
  8
0
360
42B7
 90
        0
  8
AM_0
360
42B8
 90
       77
  8
AM_11
360
42B9
 90
        4
  8
AM_7
360
42BA
 90
        1
  8
AM_5
360
42BB
 90
        4
  8
Defpoints
360
42BC
 90
        0
  8
AM_6
360
42BD
 90
        1
  0
XRECORD
  5
2D
102
{ACAD_REACTORS
330
2C
102
}
330
2C
100
AcDbXrecord
  1
VERSION
140
15.0
  1
PRODUCT
  2
AutoCAD Mechanical 2000
  0
IDBUFFER
  5
42B7
330
0
100
AcDbIdBuffer
  0
IDBUFFER
  5
42B8
330
0
100
AcDbIdBuffer
330
4222
330
4223
330
4224
330
4225
330
4226
330
4229
330
422A
330
422C
330
422E
330
422F
330
4230
330
4231
330
4232
330
4233
330
4234
330
4235
330
4236
330
4237
330
4238
330
4239
330
423A
330
423B
330
423D
330
423E
330
4241
330
4242
330
4243
330
4244
330
4246
330
41F2
330
41F3
330
41F4
330
41F5
330
41F6
330
41F7
330
41F8
330
41F9
330
41FA
330
41FB
330
41FC
330
41FD
330
41FE
330
41FF
330
4200
330
4201
330
4202
330
4203
330
4204
330
4205
330
4206
330
4207
330
4208
330
4209
330
420A
330
420B
330
420C
330
420D
330
420E
330
420F
330
4210
330
4211
330
4212
330
4213
330
4214
330
4215
330
4216
330
4217
330
4218
330
4219
330
421A
330
421B
330
421C
330
421D
330
421E
330
421F
330
4220
330
4221
  0
IDBUFFER
  5
42B9
330
0
100
AcDbIdBuffer
330
4227
330
4228
330
422B
330
422D
  0
IDBUFFER
  5
42BA
330
0
100
AcDbIdBuffer
330
423C
  0
IDBUFFER
  5
42BB
330
0
100
AcDbIdBuffer
330
423F
330
4240
330
4245
330
4247
  0
IDBUFFER
  5
42BC
330
0
100
AcDbIdBuffer
  0
IDBUFFER
  5
42BD
330
0
100
AcDbIdBuffer
330
1500
  0
ENDSEC
  0
EOF
