  0
SECTION
  2
HEADER
  9
$ACADVER
  1
AC1014
  9
$ACADMAINTVER
 70
     9
  9
$DWGCODEPAGE
  3
ANSI_932
  9
$INSBASE
 10
0.0
 20
0.0
 30
0.0
  9
$EXTMIN
 10
-82.04470045058476
 20
-29.25000000000005
 30
-0.00000001
  9
$EXTMAX
 10
12.05776903085518
 20
5.791047507887455
 30
0.00000001
  9
$LIMMIN
 10
-87.62931250067964
 20
-39.01712345563365
  9
$LIMMAX
 10
15.89215666046845
 20
17.27093205706415
  9
$ORTHOMODE
 70
     0
  9
$REGENMODE
 70
     1
  9
$FILLMODE
 70
     1
  9
$QTEXTMODE
 70
     0
  9
$MIRRTEXT
 70
     0
  9
$DRAGMODE
 70
     2
  9
$LTSCALE
 40
1.0
  9
$OSMODE
 70
    55
  9
$ATTMODE
 70
     1
  9
$TEXTSIZE
 40
2.5
  9
$TRACEWID
 40
1.0
  9
$TEXTSTYLE
  7
STANDARD
  9
$CLAYER
  8
AM_0
  9
$CELTYPE
  6
BYLAYER
  9
$CECOLOR
 62
   256
  9
$CELTSCALE
 40
1.0
  9
$DELOBJ
 70
     1
  9
$DISPSILH
 70
     0
  9
$DIMSCALE
 40
0.5
  9
$DIMASZ
 40
2.5
  9
$DIMEXO
 40
1.0
  9
$DIMDLI
 40
12.0
  9
$DIMRND
 40
0.0
  9
$DIMDLE
 40
0.0
  9
$DIMEXE
 40
1.0
  9
$DIMTP
 40
0.1
  9
$DIMTM
 40
0.1
  9
$DIMTXT
 40
3.2
  9
$DIMCEN
 40
0.0
  9
$DIMTSZ
 40
0.0
  9
$DIMTOL
 70
     0
  9
$DIMLIM
 70
     0
  9
$DIMTIH
 70
     0
  9
$DIMTOH
 70
     0
  9
$DIMSE1
 70
     0
  9
$DIMSE2
 70
     0
  9
$DIMTAD
 70
     3
  9
$DIMZIN
 70
     8
  9
$DIMBLK
  1
OPEN30
  9
$DIMASO
 70
     1
  9
$DIMSHO
 70
     1
  9
$DIMPOST
  1

  9
$DIMAPOST
  1
"
  9
$DIMALT
 70
     0
  9
$DIMALTD
 70
     2
  9
$DIMALTF
 40
0.0393701
  9
$DIMLFAC
 40
1.0
  9
$DIMTOFL
 70
     1
  9
$DIMTVP
 40
0.0
  9
$DIMTIX
 70
     0
  9
$DIMSOXD
 70
     0
  9
$DIMSAH
 70
     0
  9
$DIMBLK1
  1

  9
$DIMBLK2
  1

  9
$DIMSTYLE
  2
AM_JIS
  9
$DIMCLRD
 70
   256
  9
$DIMCLRE
 70
   256
  9
$DIMCLRT
 70
     2
  9
$DIMTFAC
 40
0.71
  9
$DIMGAP
 40
1.5
  9
$DIMJUST
 70
     0
  9
$DIMSD1
 70
     0
  9
$DIMSD2
 70
     0
  9
$DIMTOLJ
 70
     0
  9
$DIMTZIN
 70
     0
  9
$DIMALTZ
 70
     0
  9
$DIMALTTZ
 70
     0
  9
$DIMFIT
 70
     3
  9
$DIMUPT
 70
     0
  9
$DIMUNIT
 70
     2
  9
$DIMDEC
 70
     3
  9
$DIMTDEC
 70
     3
  9
$DIMALTU
 70
     2
  9
$DIMALTTD
 70
     2
  9
$DIMTXSTY
  7
ASAMI
  9
$DIMAUNIT
 70
     0
  9
$LUNITS
 70
     2
  9
$LUPREC
 70
     2
  9
$SKETCHINC
 40
1.0
  9
$FILLETRAD
 40
2.5
  9
$AUNITS
 70
     0
  9
$AUPREC
 70
     0
  9
$MENU
  1
.
  9
$ELEVATION
 40
0.0
  9
$PELEVATION
 40
0.0
  9
$THICKNESS
 40
0.0
  9
$LIMCHECK
 70
     0
  9
$BLIPMODE
 70
     0
  9
$CHAMFERA
 40
0.75
  9
$CHAMFERB
 40
0.75
  9
$CHAMFERC
 40
20.0
  9
$CHAMFERD
 40
0.0
  9
$SKPOLY
 70
     0
  9
$TDCREATE
 40
2452838.430434386
  9
$TDUPDATE
 40
2453152.471739282
  9
$TDINDWG
 40
0.1410417361
  9
$TDUSRTIMER
 40
0.1410417361
  9
$USRTIMER
 70
     1
  9
$ANGBASE
 50
0.0
  9
$ANGDIR
 70
     0
  9
$PDMODE
 70
     0
  9
$PDSIZE
 40
0.0
  9
$PLINEWID
 40
0.0
  9
$COORDS
 70
     1
  9
$SPLFRAME
 70
     0
  9
$SPLINETYPE
 70
     6
  9
$SPLINESEGS
 70
     8
  9
$ATTDIA
 70
     1
  9
$ATTREQ
 70
     1
  9
$HANDLING
 70
 12289
  9
$HANDSEED
  5
40DC
  9
$SURFTAB1
 70
     6
  9
$SURFTAB2
 70
     6
  9
$SURFTYPE
 70
     6
  9
$SURFU
 70
     6
  9
$SURFV
 70
     6
  9
$UCSNAME
  2

  9
$UCSORG
 10
0.0
 20
0.0
 30
0.0
  9
$UCSXDIR
 10
1.0
 20
0.0
 30
0.0
  9
$UCSYDIR
 10
0.0
 20
1.0
 30
0.0
  9
$PUCSNAME
  2

  9
$PUCSORG
 10
0.0
 20
0.0
 30
0.0
  9
$PUCSXDIR
 10
1.0
 20
0.0
 30
0.0
  9
$PUCSYDIR
 10
0.0
 20
1.0
 30
0.0
  9
$USERI1
 70
     0
  9
$USERI2
 70
     0
  9
$USERI3
 70
     0
  9
$USERI4
 70
     0
  9
$USERI5
 70
     0
  9
$USERR1
 40
0.0
  9
$USERR2
 40
0.0
  9
$USERR3
 40
0.0
  9
$USERR4
 40
0.0
  9
$USERR5
 40
0.0
  9
$WORLDVIEW
 70
     1
  9
$SHADEDGE
 70
     3
  9
$SHADEDIF
 70
    70
  9
$TILEMODE
 70
     1
  9
$MAXACTVP
 70
    64
  9
$PINSBASE
 10
0.0
 20
0.0
 30
0.0
  9
$PLIMCHECK
 70
     0
  9
$PEXTMIN
 10
1.000000000000000E+20
 20
1.000000000000000E+20
 30
1.000000000000000E+20
  9
$PEXTMAX
 10
-1.000000000000000E+20
 20
-1.000000000000000E+20
 30
-1.000000000000000E+20
  9
$PLIMMIN
 10
0.0
 20
0.0
  9
$PLIMMAX
 10
841.0
 20
594.0
  9
$UNITMODE
 70
     0
  9
$VISRETAIN
 70
     1
  9
$PLINEGEN
 70
     0
  9
$PSLTSCALE
 70
     0
  9
$TREEDEPTH
 70
  3020
  9
$PICKSTYLE
 70
     0
  9
$CMLSTYLE
  2
STANDARD
  9
$CMLJUST
 70
     0
  9
$CMLSCALE
 40
20.0
  9
$PROXYGRAPHICS
 70
     1
  9
$MEASUREMENT
 70
     1
  0
ENDSEC
  0
SECTION
  2
CLASSES
  0
CLASS
  1
ACDBDICTIONARYWDFLT
  2
AcDbDictionaryWithDefault
  3
AutoCAD 2000
 90
        0
280
     0
281
     0
  0
CLASS
  1
ACDBPLACEHOLDER
  2
AcDbPlaceHolder
  3
AutoCAD 2000
 90
        0
280
     0
281
     0
  0
CLASS
  1
LAYOUT
  2
AcDbLayout
  3
AutoCAD 2000
 90
        0
280
     0
281
     0
  0
CLASS
  1
AMGSETTINGSOBJ
  2
AmgSettingsObj
  3
"AcadM|Product Description: AutoCAD Mechanical 2000|Company: Autodesk"
 90
        0
280
     0
281
     0
  0
CLASS
  1
ACME_DOCUMENT
  2
AcMeDbDoc
  3
AcMeServices
 90
        0
280
     0
281
     0
  0
CLASS
  1
ACMESCOPE
  2
AcMeScope
  3
AcMeServices
 90
        0
280
     0
281
     0
  0
CLASS
  1
ACMECOMMANDHISTORY
  2
AcMeCommandHistory
  3
AcMeServices
 90
        0
280
     0
281
     0
  0
CLASS
  1
DICTIONARYVAR
  2
AcDbDictionaryVar
  3
AutoCAD 2000
 90
        0
280
     0
281
     0
  0
CLASS
  1
ACIMSYSVARMAN
  2
AcImSysVarManager
  3
AcMeServices
 90
        0
280
     0
281
     0
  0
CLASS
  1
ACIMREALSYSVAR
  2
AcImRealSysVar
  3
AcMeServices
 90
        0
280
     0
281
     0
  0
CLASS
  1
ACIMINTSYSVAR
  2
AcImIntSysVar
  3
AcMeServices
 90
        0
280
     0
281
     0
  0
CLASS
  1
ACMEDRAWINGMAN
  2
AcMeDrawingMan
  3
AcMeServices
 90
        0
280
     0
281
     0
  0
CLASS
  1
ACMEVIEW
  2
AcMeView
  3
AcMeServices
 90
        0
280
     0
281
     0
  0
CLASS
  1
ACDBENTITYCACHE
  2
AcMeEntityCache
  3
AcMeServices
 90
        0
280
     0
281
     0
  0
CLASS
  1
GSMANAGER
  2
AcMeGSManager
  3
AcMeServices
 90
        0
280
     0
281
     0
  0
CLASS
  1
AmdtInternalReactor
  2
AmdtInternalReactor
  3
AcMeServices
 90
        0
280
     0
281
     0
  0
CLASS
  1
ACMESTATEMGR
  2
AcMeStateMgr
  3
AcMeServices
 90
        0
280
     0
281
     0
  0
CLASS
  1
ACME_DATABASE
  2
AcMeDbDatabase
  3
AcMeServices
 90
        0
280
     0
281
     0
  0
CLASS
  1
ACRFINSADJUSTERMGR
  2
AcRfInsAdjusterMgr
  3
AcMeServices
 90
        0
280
     0
281
     0
  0
CLASS
  1
ACMDATADICTIONARY
  2
AcmDataDictionary
  3
"AcmSymBB|Product Description: AutoCAD Mechanical 2000|Company: Autodesk"
 90
        0
280
     0
281
     0
  0
CLASS
  1
ACMDATAENTRYBLOCK
  2
AcmDataEntryBlock
  3
"AcmSymBB|Product Description: AutoCAD Mechanical 2000|Company: Autodesk"
 90
        0
280
     0
281
     0
  0
CLASS
  1
AMGOBJPROPCFG
  2
AmgObjPropCfg
  3
"AmgLay|Product Description: AutoCAD Mechanical 2000|Company: Autodesk"
 90
        1
280
     0
281
     0
  0
CLASS
  1
ACAMGFILTERDAT
  2
AcAmgFilterDat
  3
"AcadM|Product Description: AutoCAD Mechanical 2000|Company: Autodesk"
 90
        0
280
     0
281
     0
  0
CLASS
  1
LAYER_INDEX
  2
AcDbLayerIndex
  3
AutoCAD 2000
 90
        0
280
     0
281
     0
  0
CLASS
  1
IDBUFFER
  2
AcDbIdBuffer
  3
AutoCAD 2000
 90
        0
280
     0
281
     0
  0
CLASS
  1
ACIMSTRSYSVAR
  2
AcImStrSysVar
  3
AcMeServices
 90
        0
280
     0
281
     0
  0
CLASS
  1
ACMSTANDARDJIS
  2
AcmStandardJIS
  3
"AcmSymBB|Product Description: AutoCAD Mechanical 2000|Company: Autodesk"
 90
        0
280
     0
281
     0
  0
CLASS
  1
ACMSURFSTANDARDJIS
  2
AcmSurfTextStdJIS
  3
"AcmSymBB|Product Description: AutoCAD Mechanical 2000|Company: Autodesk"
 90
        0
280
     0
281
     0
  0
CLASS
  1
ACMFCFSTANDARDJIS
  2
AcmFCFStdJIS
  3
"AcmSymBB|Product Description: AutoCAD Mechanical 2000|Company: Autodesk"
 90
        0
280
     0
281
     0
  0
CLASS
  1
ACMWELDSTANDARDJIS
  2
AcmWeldingStdJIS
  3
"AcmSymBB|Product Description: AutoCAD Mechanical 2000|Company: Autodesk"
 90
        0
280
     0
281
     0
  0
CLASS
  1
ACMIDSTANDARDJIS
  2
AcmIdStdJIS
  3
"AcmSymBB|Product Description: AutoCAD Mechanical 2000|Company: Autodesk"
 90
        0
280
     0
281
     0
  0
CLASS
  1
ACMDATUMSTANDARDJIS
  2
AcmDatumStdJIS
  3
"AcmSymBB|Product Description: AutoCAD Mechanical 2000|Company: Autodesk"
 90
        0
280
     0
281
     0
  0
CLASS
  1
ACMBOMSTANDARDJIS
  2
AcmBOMStdJIS
  3
"AcmSymBB|Product Description: AutoCAD Mechanical 2000|Company: Autodesk"
 90
        0
280
     0
281
     0
  0
CLASS
  1
ACMSTANDARDANSI
  2
AcmStandardANSI
  3
"AcmSymBB|Product Description: AutoCAD Mechanical 2000|Company: Autodesk"
 90
        0
280
     0
281
     0
  0
CLASS
  1
ACMSURFSTANDARDANSI
  2
AcmSurfTextStdANSI
  3
"AcmSymBB|Product Description: AutoCAD Mechanical 2000|Company: Autodesk"
 90
        0
280
     0
281
     0
  0
CLASS
  1
ACMFCFSTANDARDANSI
  2
AcmFCFStdANSI
  3
"AcmSymBB|Product Description: AutoCAD Mechanical 2000|Company: Autodesk"
 90
        0
280
     0
281
     0
  0
CLASS
  1
ACMWELDSTANDARDANSI
  2
AcmWeldingStdANSI
  3
"AcmSymBB|Product Description: AutoCAD Mechanical 2000|Company: Autodesk"
 90
        0
280
     0
281
     0
  0
CLASS
  1
ACMIDSTANDARDANSI
  2
AcmIdStdANSI
  3
"AcmSymBB|Product Description: AutoCAD Mechanical 2000|Company: Autodesk"
 90
        0
280
     0
281
     0
  0
CLASS
  1
ACMDATUMSTANDARDANSI
  2
AcmDatumStdANSI
  3
"AcmSymBB|Product Description: AutoCAD Mechanical 2000|Company: Autodesk"
 90
        0
280
     0
281
     0
  0
CLASS
  1
ACMBOMSTANDARDANSI
  2
AcmBOMStdANSI
  3
"AcmSymBB|Product Description: AutoCAD Mechanical 2000|Company: Autodesk"
 90
        0
280
     0
281
     0
  0
CLASS
  1
ACMSTANDARDBSI
  2
AcmStandardBSI
  3
"AcmSymBB|Product Description: AutoCAD Mechanical 2000|Company: Autodesk"
 90
        0
280
     0
281
     0
  0
CLASS
  1
ACMSURFSTANDARDBSI
  2
AcmSurfTextStdBSI
  3
"AcmSymBB|Product Description: AutoCAD Mechanical 2000|Company: Autodesk"
 90
        0
280
     0
281
     0
  0
CLASS
  1
ACMFCFSTANDARDBSI
  2
AcmFCFStdBSI
  3
"AcmSymBB|Product Description: AutoCAD Mechanical 2000|Company: Autodesk"
 90
        0
280
     0
281
     0
  0
CLASS
  1
ACMWELDSTANDARDBSI
  2
AcmWeldingStdBSI
  3
"AcmSymBB|Product Description: AutoCAD Mechanical 2000|Company: Autodesk"
 90
        0
280
     0
281
     0
  0
CLASS
  1
ACMIDSTANDARDBSI
  2
AcmIdStdBSI
  3
"AcmSymBB|Product Description: AutoCAD Mechanical 2000|Company: Autodesk"
 90
        0
280
     0
281
     0
  0
CLASS
  1
ACMDATUMSTANDARDBSI
  2
AcmDatumStdBSI
  3
"AcmSymBB|Product Description: AutoCAD Mechanical 2000|Company: Autodesk"
 90
        0
280
     0
281
     0
  0
CLASS
  1
ACMBOMSTANDARDBSI
  2
AcmBOMStdBSI
  3
"AcmSymBB|Product Description: AutoCAD Mechanical 2000|Company: Autodesk"
 90
        0
280
     0
281
     0
  0
CLASS
  1
LONG_TRANSACTION
  2
AcDbLongTransaction
  3
AutoCAD 2000
 90
        0
280
     0
281
     0
  0
CLASS
  1
LWPOLYLINE
  2
AcDbPolyline
  3
AutoCAD 2000
 90
        0
280
     0
281
     1
  0
CLASS
  1
HATCH
  2
AcDbHatch
  3
AutoCAD 2000
 90
        0
280
     0
281
     1
  0
CLASS
  1
XRECORD
  2
AcDbXrecord
  3
AutoCAD 2000
 90
        0
280
     0
281
     0
  0
ENDSEC
  0
SECTION
  2
TABLES
  0
TABLE
  2
VPORT
  5
8
330
0
100
AcDbSymbolTable
 70
     3
  0
VPORT
  5
40B1
330
8
100
AcDbSymbolTableRecord
100
AcDbViewportTableRecord
  2
*ACTIVE
 70
     0
 10
0.0
 20
0.0
 11
1.0
 21
1.0
 12
-8.686691472323587
 22
-19.50291915887076
 13
0.0
 23
0.0
 14
2.5
 24
2.5
 15
10.0
 25
10.0
 16
0.0
 26
0.0
 36
1.0
 17
0.0
 27
0.0
 37
0.0
 40
154.9348661117779
 41
1.56570841889117
 42
50.0
 43
0.0
 44
0.0
 50
0.0
 51
0.0
 71
     0
 72
   100
 73
     1
 74
     3
 75
     0
 76
     0
 77
     0
 78
     0
  0
ENDTAB
  0
TABLE
  2
LTYPE
  5
5
330
0
100
AcDbSymbolTable
 70
    10
  0
LTYPE
  5
14
330
5
100
AcDbSymbolTableRecord
100
AcDbLinetypeTableRecord
  2
BYBLOCK
 70
     0
  3

 72
    65
 73
     0
 40
0.0
  0
LTYPE
  5
15
330
5
100
AcDbSymbolTableRecord
100
AcDbLinetypeTableRecord
  2
BYLAYER
 70
     0
  3

 72
    65
 73
     0
 40
0.0
  0
LTYPE
  5
16
330
5
100
AcDbSymbolTableRecord
100
AcDbLinetypeTableRecord
  2
CONTINUOUS
 70
     0
  3
Solid line
 72
    65
 73
     0
 40
0.0
  0
LTYPE
  5
4B
330
5
100
AcDbSymbolTableRecord
100
AcDbLinetypeTableRecord
  2
AM_ISO02W050
 70
     0
  3
__ __ __ __ __ __ __ __ __ __ __ __ __ __ __
 72
    65
 73
     2
 40
7.5
 49
6.0
 74
     0
 49
-1.5
 74
     0
  0
LTYPE
  5
4C
330
5
100
AcDbSymbolTableRecord
100
AcDbLinetypeTableRecord
  2
AM_ISO08W050
 70
     0
  3
____ . ____ . ____ . ____ . ____ . ____ . ____
 72
    65
 73
     4
 40
18.0
 49
12.0
 74
     0
 49
-1.5
 74
     0
 49
3.0
 74
     0
 49
-1.5
 74
     0
  0
LTYPE
  5
4D
330
5
100
AcDbSymbolTableRecord
100
AcDbLinetypeTableRecord
  2
AM_ISO09W050
 70
     0
  3
_____ . . _____ . . _____ . . ____ .. ____
 72
    65
 73
     6
 40
22.5
 49
12.0
 74
     0
 49
-1.5
 74
     0
 49
3.0
 74
     0
 49
-1.5
 74
     0
 49
3.0
 74
     0
 49
-1.5
 74
     0
  0
LTYPE
  5
4E
330
5
100
AcDbSymbolTableRecord
100
AcDbLinetypeTableRecord
  2
AMCONSTR
 70
     0
  3
_______________________
 72
    65
 73
     2
 40
9999.0
 49
9999.0
 74
     0
 49
0.0
 74
     0
  0
LTYPE
  5
4F
330
5
100
AcDbSymbolTableRecord
100
AcDbLinetypeTableRecord
  2
AM_ISO02W050X2
 70
     0
  3
 _ _ _ _ _ _ _ _ _ _ _ _
 72
    65
 73
     2
 40
3.75
 49
3.0
 74
     0
 49
-0.75
 74
     0
  0
LTYPE
  5
50
330
5
100
AcDbSymbolTableRecord
100
AcDbLinetypeTableRecord
  2
AM_ISO08W050X2
 70
     0
  3
__ . __ . __ . __ . __ . __
 72
    65
 73
     4
 40
9.0
 49
6.0
 74
     0
 49
-0.75
 74
     0
 49
1.5
 74
     0
 49
-0.75
 74
     0
  0
LTYPE
  5
53
330
5
100
AcDbSymbolTableRecord
100
AcDbLinetypeTableRecord
  2
AMZIGZAG
 70
     0
  3
/\/-/\/-/\/-/\/-/\/-/\/
 72
    65
 73
     2
 40
11.00009999999999
 49
0.0001
 74
     4
 75
   135
340
52
 46
0.04
 50
0.0
 44
0.0
 45
0.0
 49
-11.0
 74
     0
  0
LTYPE
  5
166
330
5
100
AcDbSymbolTableRecord
100
AcDbLinetypeTableRecord
  2
ACJISTGL
 70
     0
  3
_ _ _ _ _
 72
    65
 73
     2
 40
3.0
 49
2.0
 74
     0
 49
-1.0
 74
     0
  0
LTYPE
  5
26A
330
5
100
AcDbSymbolTableRecord
100
AcDbLinetypeTableRecord
  2
ACJISTGB
 70
     0
  3
__ . . __ . .
 72
    65
 73
     6
 40
9.0
 49
4.0
 74
     0
 49
-1.0
 74
     0
 49
1.0
 74
     0
 49
-1.0
 74
     0
 49
1.0
 74
     0
 49
-1.0
 74
     0
  0
ENDTAB
  0
TABLE
  2
LAYER
  5
2
330
0
100
AcDbSymbolTable
 70
     7
  0
LAYER
  5
10
330
2
100
AcDbSymbolTableRecord
100
AcDbLayerTableRecord
  2
0
 70
     0
 62
     7
  6
CONTINUOUS
  0
LAYER
  5
3F9
330
2
100
AcDbSymbolTableRecord
100
AcDbLayerTableRecord
  2
AM_0
 70
     0
 62
     7
  6
CONTINUOUS
  0
LAYER
  5
BDD
330
2
100
AcDbSymbolTableRecord
100
AcDbLayerTableRecord
  2
AM_11
 70
     0
 62
     3
  6
AM_ISO09W050
  0
LAYER
  5
BDE
330
2
100
AcDbSymbolTableRecord
100
AcDbLayerTableRecord
  2
AM_7
 70
     0
 62
     4
  6
AM_ISO08W050
  0
LAYER
  5
BDF
330
2
100
AcDbSymbolTableRecord
100
AcDbLayerTableRecord
  2
AM_5
 70
     0
 62
     3
  6
CONTINUOUS
  0
LAYER
  5
BE0
330
2
100
AcDbSymbolTableRecord
100
AcDbLayerTableRecord
  2
DEFPOINTS
 70
     0
 62
     7
  6
CONTINUOUS
  0
LAYER
  5
14FF
330
2
100
AcDbSymbolTableRecord
100
AcDbLayerTableRecord
  2
AM_6
 70
     0
 62
     2
  6
CONTINUOUS
  0
ENDTAB
  0
TABLE
  2
STYLE
  5
3
330
0
100
AcDbSymbolTable
 70
     5
  0
STYLE
  5
11
330
3
100
AcDbSymbolTableRecord
100
AcDbTextStyleTableRecord
  2
STANDARD
 70
     0
 40
0.0
 41
1.0
 50
0.0
 71
     0
 42
2.5
  3
simplex.shx
  4
EXTFONT.SHX
  0
STYLE
  5
52
330
3
100
AcDbSymbolTableRecord
100
AcDbTextStyleTableRecord
  2

 70
     1
 40
0.0
 41
1.0
 50
0.0
 71
     0
 42
2.5
  3
ltypeshp.shx
  4

  0
STYLE
  5
6B
330
3
100
AcDbSymbolTableRecord
100
AcDbTextStyleTableRecord
  2
ASAMI
 70
     0
 40
0.0
 41
1.0
 50
0.0
 71
     0
 42
2.5
  3
simplex.shx
  4
EXTFONT.SHX
  0
STYLE
  5
262
330
3
100
AcDbSymbolTableRecord
100
AcDbTextStyleTableRecord
  2
ACJISTS
 70
     0
 40
1.0
 41
1.0
 50
0.0
 71
     0
 42
2.5
  3
simplex.shx
  4
bigfont.shx
  0
STYLE
  5
269
330
3
100
AcDbSymbolTableRecord
100
AcDbTextStyleTableRecord
  2
ACJISGDT
 70
     0
 40
0.0
 41
1.0
 50
0.0
 71
     0
 42
2.5
  3
amgdtans.shx
  4

  0
ENDTAB
  0
TABLE
  2
VIEW
  5
6
330
0
100
AcDbSymbolTable
 70
     0
  0
ENDTAB
  0
TABLE
  2
UCS
  5
7
330
0
100
AcDbSymbolTable
 70
     0
  0
ENDTAB
  0
TABLE
  2
APPID
  5
9
330
0
100
AcDbSymbolTable
 70
    14
  0
APPID
  5
12
330
9
100
AcDbSymbolTableRecord
100
AcDbRegAppTableRecord
  2
ACAD
 70
     0
  0
APPID
  5
30
330
9
100
AcDbSymbolTableRecord
100
AcDbRegAppTableRecord
  2
MCAD_NO_VIS
 70
     0
  0
APPID
  5
31
330
9
100
AcDbSymbolTableRecord
100
AcDbRegAppTableRecord
  2
ACAD_TEMP_GRAPHIC
 70
     0
  0
APPID
  5
2C2
330
9
100
AcDbSymbolTableRecord
100
AcDbRegAppTableRecord
  2
GENIUS_GENDTOL_13
 70
     0
  0
APPID
  5
339
330
9
100
AcDbSymbolTableRecord
100
AcDbRegAppTableRecord
  2
GENIUS_GENODEF_13
 70
     0
  0
APPID
  5
33A
330
9
100
AcDbSymbolTableRecord
100
AcDbRegAppTableRecord
  2
GENIUS_GENOBJ-N-RSBK_13
 70
     0
  0
APPID
  5
33B
330
9
100
AcDbSymbolTableRecord
100
AcDbRegAppTableRecord
  2
GENIUS_GENOBJ-N-LIB_13
 70
     0
  0
APPID
  5
33C
330
9
100
AcDbSymbolTableRecord
100
AcDbRegAppTableRecord
  2
GENIUS_GENSCALE_13
 70
     0
  0
APPID
  5
378
330
9
100
AcDbSymbolTableRecord
100
AcDbRegAppTableRecord
  2
GENIUS_GENDIMSH_14
 70
     0
  0
APPID
  5
BE1
330
9
100
AcDbSymbolTableRecord
100
AcDbRegAppTableRecord
  2
GENIUS_GENFIL_13
 70
     0
  0
APPID
  5
BE2
330
9
100
AcDbSymbolTableRecord
100
AcDbRegAppTableRecord
  2
GENIUS_GENOBJ-N-CHA_13
 70
     0
  0
APPID
  5
151B
330
9
100
AcDbSymbolTableRecord
100
AcDbRegAppTableRecord
  2
DCO15
 70
     0
  0
APPID
  5
1860
330
9
100
AcDbSymbolTableRecord
100
AcDbRegAppTableRecord
  2
GENIUS_GENOBJ-N-CEN_13
 70
     0
  0
APPID
  5
359C
330
9
100
AcDbSymbolTableRecord
100
AcDbRegAppTableRecord
  2
GENIUS_GENOBJ-N-FIL_13
 70
     0
  0
ENDTAB
  0
TABLE
  2
DIMSTYLE
  5
A
330
0
100
AcDbSymbolTable
 70
     8
  0
DIMSTYLE
105
58
102
{ACAD_REACTORS
330
3FEB
330
3FF1
330
3FF4
330
4031
102
}
330
A
100
AcDbSymbolTableRecord
100
AcDbDimStyleTableRecord
  2
AM_JIS
 70
     0
  3

  4
"
  5
OPEN30
  6

  7

 40
0.5
 41
2.5
 42
1.0
 43
12.0
 44
1.0
 45
0.0
 46
0.0
 47
0.1
 48
0.1
140
3.2
141
0.0
142
0.0
143
0.0393701
144
1.0
145
0.0
146
0.71
147
1.5
 71
     0
 72
     0
 73
     0
 74
     0
 75
     0
 76
     0
 77
     3
 78
     8
170
     0
171
     2
172
     1
173
     0
174
     0
175
     0
176
   256
177
   256
178
     2
270
     2
271
     3
272
     3
273
     2
274
     2
340
6B
275
     0
280
     0
281
     0
282
     0
283
     0
284
     0
285
     0
286
     0
287
     3
288
     0
  0
DIMSTYLE
105
5F
330
A
100
AcDbSymbolTableRecord
100
AcDbDimStyleTableRecord
  2
AM_JIS$3
 70
     0
  3

  4
"
  5
OPEN30
  6

  7

 40
0.5
 41
2.5
 42
1.0
 43
10.0
 44
1.0
 45
0.0
 46
0.0
 47
0.1
 48
0.1
140
3.2
141
0.0
142
0.0
143
0.0393701
144
1.0
145
0.0
146
0.71
147
1.5
 71
     0
 72
     0
 73
     0
 74
     1
 75
     0
 76
     0
 77
     3
 78
     8
170
     0
171
     2
172
     0
173
     0
174
     0
175
     0
176
   256
177
   256
178
     2
270
     2
271
     2
272
     3
273
     2
274
     2
340
6B
275
     0
280
     0
281
     0
282
     0
283
     0
284
     0
285
     0
286
     0
287
     0
288
     1
  0
DIMSTYLE
105
60
330
A
100
AcDbSymbolTableRecord
100
AcDbDimStyleTableRecord
  2
AM_JIS$4
 70
     0
  3

  4
"
  5
OPEN30
  6

  7

 40
0.5
 41
2.5
 42
1.0
 43
10.0
 44
1.0
 45
0.0
 46
0.0
 47
0.1
 48
0.1
140
3.2
141
0.0
142
0.0
143
0.0393701
144
1.0
145
0.0
146
0.71
147
1.5
 71
     0
 72
     0
 73
     0
 74
     1
 75
     0
 76
     0
 77
     3
 78
     8
170
     0
171
     2
172
     0
173
     0
174
     0
175
     0
176
   256
177
   256
178
     2
270
     2
271
     2
272
     3
273
     2
274
     2
340
6B
275
     0
280
     0
281
     0
282
     0
283
     0
284
     0
285
     0
286
     0
287
     0
288
     1
  0
DIMSTYLE
105
61
330
A
100
AcDbSymbolTableRecord
100
AcDbDimStyleTableRecord
  2
AM_JIS$6
 70
     0
  3

  4
"
  5
OPEN30
  6

  7

 40
0.5
 41
2.5
 42
1.0
 43
10.0
 44
1.0
 45
0.0
 46
0.0
 47
0.1
 48
0.1
140
3.2
141
0.0
142
0.0
143
0.0393701
144
1.0
145
0.0
146
0.71
147
1.5
 71
     0
 72
     0
 73
     0
 74
     0
 75
     0
 76
     0
 77
     0
 78
     8
170
     0
171
     2
172
     1
173
     0
174
     0
175
     0
176
   256
177
   256
178
     2
270
     2
271
     2
272
     2
273
     2
274
     2
340
6B
275
     0
280
     0
281
     0
282
     0
283
     0
284
     0
285
     0
286
     0
287
     3
288
     0
  0
DIMSTYLE
105
62
330
A
100
AcDbSymbolTableRecord
100
AcDbDimStyleTableRecord
  2
AM_JIS$7
 70
     0
  3

  4
"
  5
OPEN30
  6

  7

 40
0.5
 41
2.5
 42
1.0
 43
10.0
 44
1.0
 45
0.0
 46
0.0
 47
0.1
 48
0.1
140
3.2
141
0.0
142
0.0
143
0.0393701
144
1.0
145
0.0
146
0.71
147
1.5
 71
     0
 72
     0
 73
     0
 74
     0
 75
     0
 76
     0
 77
     3
 78
     8
170
     0
171
     2
172
     1
173
     0
174
     0
175
     0
176
   256
177
   256
178
     2
270
     2
271
     2
272
     3
273
     2
274
     2
340
6B
275
     0
280
     0
281
     0
282
     0
283
     0
284
     0
285
     0
286
     0
287
     3
288
     0
  0
DIMSTYLE
105
63
330
A
100
AcDbSymbolTableRecord
100
AcDbDimStyleTableRecord
  2
AM_JIS$SF
 70
     0
  3

  4
"
  5
OPEN30
  6

  7

 40
0.5
 41
2.5
 42
1.0
 43
10.0
 44
1.0
 45
0.0
 46
0.0
 47
0.1
 48
0.1
140
3.2
141
0.0
142
0.0
143
0.0393701
144
1.0
145
0.0
146
0.71
147
1.5
 71
     0
 72
     0
 73
     0
 74
     0
 75
     1
 76
     1
 77
     3
 78
     8
170
     0
171
     2
172
     1
173
     0
174
     0
175
     0
176
   256
177
   256
178
     2
270
     2
271
     2
272
     2
273
     2
274
     2
340
6B
275
     0
280
     0
281
     0
282
     0
283
     0
284
     0
285
     0
286
     0
287
     3
288
     0
  0
DIMSTYLE
105
68
330
A
100
AcDbSymbolTableRecord
100
AcDbDimStyleTableRecord
  2
AM_JIS$SH
 70
     0
  3

  4
"
  5

  6
GENAXEH
  7
OPEN30
 40
0.5
 41
2.5
 42
1.0
 43
10.0
 44
1.0
 45
0.0
 46
0.0
 47
0.1
 48
0.1
140
3.2
141
0.0
142
0.0
143
0.0393701
144
2.0
145
0.0
146
0.71
147
1.5
 71
     0
 72
     0
 73
     0
 74
     0
 75
     1
 76
     1
 77
     3
 78
     8
170
     0
171
     2
172
     1
173
     1
174
     0
175
     0
176
   256
177
   256
178
     2
270
     2
271
     2
272
     2
273
     2
274
     2
340
6B
275
     0
280
     0
281
     0
282
     0
283
     0
284
     0
285
     0
286
     0
287
     3
288
     0
  0
DIMSTYLE
105
B34
330
A
100
AcDbSymbolTableRecord
100
AcDbDimStyleTableRecord
  2
AM_JIS$2
 70
     0
  3

  4
"
  5
OPEN30
  6

  7

 40
0.5
 41
2.5
 42
1.0
 43
12.0
 44
1.0
 45
0.0
 46
0.0
 47
0.1
 48
0.1
140
3.2
141
0.0
142
0.0
143
0.0393701
144
1.0
145
0.0
146
0.71
147
1.5
 71
     0
 72
     0
 73
     0
 74
     0
 75
     0
 76
     0
 77
     3
 78
     8
170
     0
171
     2
172
     1
173
     0
174
     0
175
     0
176
   256
177
   256
178
     2
270
     2
271
     3
272
     3
273
     2
274
     2
340
6B
275
     0
280
     0
281
     0
282
     0
283
     0
284
     0
285
     0
286
     0
287
     3
288
     0
  0
ENDTAB
  0
TABLE
  2
BLOCK_RECORD
  5
1
330
0
100
AcDbSymbolTable
 70
    17
  0
BLOCK_RECORD
  5
1F
102
{ACAD_XDICTIONARY
360
74
102
}
330
1
100
AcDbSymbolTableRecord
100
AcDbBlockTableRecord
  2
*MODEL_SPACE
  0
BLOCK_RECORD
  5
101
102
{ACAD_XDICTIONARY
360
40DA
102
}
330
1
100
AcDbSymbolTableRecord
100
AcDbBlockTableRecord
  2
*PAPER_SPACE
  0
BLOCK_RECORD
  5
59
330
1
100
AcDbSymbolTableRecord
100
AcDbBlockTableRecord
  2
_OPEN30
  0
BLOCK_RECORD
  5
64
330
1
100
AcDbSymbolTableRecord
100
AcDbBlockTableRecord
  2
GENAXEH
  0
BLOCK_RECORD
  5
4042
330
1
100
AcDbSymbolTableRecord
100
AcDbBlockTableRecord
  2
*D13
  0
BLOCK_RECORD
  5
404E
330
1
100
AcDbSymbolTableRecord
100
AcDbBlockTableRecord
  2
*D14
  0
BLOCK_RECORD
  5
405A
330
1
100
AcDbSymbolTableRecord
100
AcDbBlockTableRecord
  2
*D15
  0
BLOCK_RECORD
  5
4066
330
1
100
AcDbSymbolTableRecord
100
AcDbBlockTableRecord
  2
*D16
  0
ENDTAB
  0
ENDSEC
  0
SECTION
  2
BLOCKS
  0
BLOCK
  5
20
330
1F
100
AcDbEntity
  8
0
100
AcDbBlockBegin
  2
*MODEL_SPACE
 70
     0
 10
0.0
 20
0.0
 30
0.0
  3
*MODEL_SPACE
  1

  0
ENDBLK
  5
21
330
1F
100
AcDbEntity
  8
0
100
AcDbBlockEnd
  0
BLOCK
  5
103
330
101
100
AcDbEntity
 67
     1
  8
0
100
AcDbBlockBegin
  2
*PAPER_SPACE
 70
     0
 10
0.0
 20
0.0
 30
0.0
  3
*PAPER_SPACE
  1

  0
ENDBLK
  5
104
330
101
100
AcDbEntity
 67
     1
  8
0
100
AcDbBlockEnd
  0
BLOCK
  5
5D
330
59
100
AcDbEntity
  8
0
100
AcDbBlockBegin
  2
_OPEN30
 70
     0
 10
0.0
 20
0.0
 30
0.0
  3
_OPEN30
  1

  0
LINE
  5
5A
330
59
100
AcDbEntity
  8
0
 62
     0
100
AcDbLine
 10
-1.0
 20
0.26794919
 30
0.0
 11
0.0
 21
0.0
 31
0.0
  0
LINE
  5
5B
330
59
100
AcDbEntity
  8
0
 62
     0
100
AcDbLine
 10
0.0
 20
0.0
 30
0.0
 11
-1.0
 21
-0.26794919
 31
0.0
  0
LINE
  5
5C
330
59
100
AcDbEntity
  8
0
 62
     0
100
AcDbLine
 10
0.0
 20
0.0
 30
0.0
 11
-1.0
 21
0.0
 31
0.0
  0
ENDBLK
  5
5E
330
59
100
AcDbEntity
  8
0
100
AcDbBlockEnd
  0
BLOCK
  5
66
330
64
100
AcDbEntity
  8
0
100
AcDbBlockBegin
  2
GENAXEH
 70
     0
 10
0.0
 20
0.0
 30
0.0
  3
GENAXEH
  1

  0
LINE
  5
65
330
64
100
AcDbEntity
  8
0
100
AcDbLine
 10
-1.0
 20
0.0
 30
0.0
 11
1.0
 21
0.0
 31
0.0
  0
ENDBLK
  5
67
330
64
100
AcDbEntity
  8
0
100
AcDbBlockEnd
  0
BLOCK
  5
404C
330
4042
100
AcDbEntity
  8
0
100
AcDbBlockBegin
  2
*D13
 70
     1
 10
0.0
 20
0.0
 30
0.0
  3
*D13
  1

  0
LINE
  5
4072
330
4042
100
AcDbEntity
  8
AM_5
100
AcDbLine
 10
0.0
 20
-5.499999999999992
 30
0.0
 11
-0.0000000000000008
 21
-18.50000000000004
 31
0.0
  0
LINE
  5
4073
330
4042
100
AcDbEntity
  8
AM_5
100
AcDbLine
 10
-69.99999999999997
 20
-4.750000000000014
 30
0.0
 11
-69.99999999999997
 21
-18.50000000000004
 31
0.0
  0
LINE
  5
4074
330
4042
100
AcDbEntity
  8
AM_5
100
AcDbLine
 10
-1.25
 20
-18.00000000000004
 30
0.0
 11
-68.74999999999997
 21
-18.00000000000004
 31
0.0
  0
INSERT
  5
4075
330
4042
100
AcDbEntity
  8
AM_5
100
AcDbBlockReference
  2
_OPEN30
 10
-0.0000000000000008
 20
-18.00000000000004
 30
0.0
 41
1.25
 42
1.25
 43
1.25
  0
INSERT
  5
4076
330
4042
100
AcDbEntity
  8
AM_5
100
AcDbBlockReference
  2
_OPEN30
 10
-69.99999999999997
 20
-18.00000000000004
 30
0.0
 41
1.25
 42
1.25
 43
1.25
 50
180.0
  0
MTEXT
  5
4077
330
4042
100
AcDbEntity
  8
AM_5
 62
     2
100
AcDbMText
 10
-34.99999999999998
 20
-16.45000000000004
 30
0.0
 40
1.6
 41
0.0
 71
     5
 72
     1
  1
70
  7
ASAMI
1001
ACAD
1000
MTEXTBEGIN
1070
    73
1070
     1
1070
    44
1040
1.0
1070
    74
1070
     0
1000
MTEXTEND
  0
POINT
  5
4078
330
4042
100
AcDbEntity
  8
DEFPOINTS
 62
     0
100
AcDbPoint
 10
0.0
 20
-4.999999999999992
 30
0.0
  0
POINT
  5
4079
330
4042
100
AcDbEntity
  8
DEFPOINTS
 62
     0
100
AcDbPoint
 10
-69.99999999999997
 20
-4.250000000000014
 30
0.0
  0
POINT
  5
407A
330
4042
100
AcDbEntity
  8
DEFPOINTS
 62
     0
100
AcDbPoint
 10
-69.99999999999997
 20
-18.00000000000004
 30
0.0
  0
ENDBLK
  5
404D
330
4042
100
AcDbEntity
  8
0
100
AcDbBlockEnd
  0
BLOCK
  5
4058
330
404E
100
AcDbEntity
  8
0
100
AcDbBlockBegin
  2
*D14
 70
     1
 10
0.0
 20
0.0
 30
0.0
  3
*D14
  1

  0
LINE
  5
407B
330
404E
100
AcDbEntity
  8
AM_5
100
AcDbLine
 10
-69.75
 20
5.000000000000007
 30
0.0
 11
-80.19470045058476
 21
5.00000000000001
 31
0.0
  0
LINE
  5
407C
330
404E
100
AcDbEntity
  8
AM_5
100
AcDbLine
 10
-69.74999999999997
 20
-5.000000000000014
 30
0.0
 11
-80.19470045058476
 21
-5.00000000000001
 31
0.0
  0
LINE
  5
407D
330
404E
100
AcDbEntity
  8
AM_5
100
AcDbLine
 10
-79.69470045058476
 20
3.75000000000001
 30
0.0
 11
-79.69470045058476
 21
-3.75000000000001
 31
0.0
  0
INSERT
  5
407E
330
404E
100
AcDbEntity
  8
AM_5
100
AcDbBlockReference
  2
_OPEN30
 10
-79.69470045058476
 20
5.00000000000001
 30
0.0
 41
1.25
 42
1.25
 43
1.25
 50
90.0
  0
INSERT
  5
407F
330
404E
100
AcDbEntity
  8
AM_5
100
AcDbBlockReference
  2
_OPEN30
 10
-79.69470045058476
 20
-5.00000000000001
 30
0.0
 41
1.25
 42
1.25
 43
1.25
 50
270.0
  0
MTEXT
  5
4080
330
404E
100
AcDbEntity
  8
AM_5
 62
     2
100
AcDbMText
 10
-81.24470045058476
 20
-0.0000000000000127
 30
0.0
 40
1.6
 41
0.0
 71
     5
 72
     1
  1
%%c10
  7
ASAMI
 11
0.0000000000000001
 21
1.0
 31
0.0
1001
ACAD
1000
MTEXTBEGIN
1070
    73
1070
     1
1070
    44
1040
1.0
1070
    74
1070
     0
1000
MTEXTEND
  0
POINT
  5
4081
330
404E
100
AcDbEntity
  8
DEFPOINTS
 62
     0
100
AcDbPoint
 10
-69.25
 20
5.000000000000007
 30
0.0
  0
POINT
  5
4082
330
404E
100
AcDbEntity
  8
DEFPOINTS
 62
     0
100
AcDbPoint
 10
-69.24999999999997
 20
-5.000000000000014
 30
0.0
  0
POINT
  5
4083
330
404E
100
AcDbEntity
  8
DEFPOINTS
 62
     0
100
AcDbPoint
 10
-79.69470045058476
 20
-5.00000000000001
 30
0.0
  0
ENDBLK
  5
4059
330
404E
100
AcDbEntity
  8
0
100
AcDbBlockEnd
  0
BLOCK
  5
4064
330
405A
100
AcDbEntity
  8
0
100
AcDbBlockBegin
  2
*D15
 70
     1
 10
0.0
 20
0.0
 30
0.0
  3
*D15
  1

  0
LINE
  5
4084
330
405A
100
AcDbEntity
  8
AM_5
100
AcDbLine
 10
0.0
 20
-5.499999999999992
 30
0.0
 11
-0.0000000000000005
 21
-12.50000099999945
 31
0.0
  0
LINE
  5
4085
330
405A
100
AcDbEntity
  8
AM_5
100
AcDbLine
 10
-25.0
 20
-5.50000000000001
 30
0.0
 11
-25.0
 21
-12.50000099999945
 31
0.0
  0
LINE
  5
4086
330
405A
100
AcDbEntity
  8
AM_5
100
AcDbLine
 10
-1.25
 20
-12.00000099999945
 30
0.0
 11
-23.75
 21
-12.00000099999945
 31
0.0
  0
INSERT
  5
4087
330
405A
100
AcDbEntity
  8
AM_5
100
AcDbBlockReference
  2
_OPEN30
 10
-0.0000000000000004
 20
-12.00000099999945
 30
0.0
 41
1.25
 42
1.25
 43
1.25
  0
INSERT
  5
4088
330
405A
100
AcDbEntity
  8
AM_5
100
AcDbBlockReference
  2
_OPEN30
 10
-25.0
 20
-12.00000099999945
 30
0.0
 41
1.25
 42
1.25
 43
1.25
 50
180.0
  0
MTEXT
  5
4089
330
405A
100
AcDbEntity
  8
AM_5
 62
     2
100
AcDbMText
 10
-12.5
 20
-10.45000099999945
 30
0.0
 40
1.6
 41
0.0
 71
     5
 72
     1
  1
25
  7
ASAMI
1001
ACAD
1000
MTEXTBEGIN
1070
    73
1070
     1
1070
    44
1040
1.0
1070
    74
1070
     0
1000
MTEXTEND
  0
POINT
  5
408A
330
405A
100
AcDbEntity
  8
DEFPOINTS
 62
     0
100
AcDbPoint
 10
0.0
 20
-4.999999999999992
 30
0.0
  0
POINT
  5
408B
330
405A
100
AcDbEntity
  8
DEFPOINTS
 62
     0
100
AcDbPoint
 10
-25.0
 20
-5.00000000000001
 30
0.0
  0
POINT
  5
408C
330
405A
100
AcDbEntity
  8
DEFPOINTS
 62
     0
100
AcDbPoint
 10
-25.0
 20
-12.00000099999945
 30
0.0
  0
ENDBLK
  5
4065
330
405A
100
AcDbEntity
  8
0
100
AcDbBlockEnd
  0
BLOCK
  5
4070
330
4066
100
AcDbEntity
  8
0
100
AcDbBlockBegin
  2
*D16
 70
     1
 10
0.0
 20
0.0
 30
0.0
  3
*D16
  1

  0
LINE
  5
408D
330
4066
100
AcDbEntity
  8
AM_5
100
AcDbLine
 10
0.5
 20
5.000000000000007
 30
0.0
 11
12.05776903085518
 21
5.000000000000003
 31
0.0
  0
LINE
  5
408E
330
4066
100
AcDbEntity
  8
AM_5
100
AcDbLine
 10
0.5000000000000071
 20
-4.999999999999992
 30
0.0
 11
12.05776903085518
 21
-4.999999999999996
 31
0.0
  0
LINE
  5
408F
330
4066
100
AcDbEntity
  8
AM_5
100
AcDbLine
 10
11.55776903085518
 20
3.750000000000003
 30
0.0
 11
11.55776903085518
 21
-3.749999999999996
 31
0.0
  0
INSERT
  5
4090
330
4066
100
AcDbEntity
  8
AM_5
100
AcDbBlockReference
  2
_OPEN30
 10
11.55776903085518
 20
5.000000000000003
 30
0.0
 41
1.25
 42
1.25
 43
1.25
 50
90.0
  0
INSERT
  5
4091
330
4066
100
AcDbEntity
  8
AM_5
100
AcDbBlockReference
  2
_OPEN30
 10
11.55776903085518
 20
-4.999999999999996
 30
0.0
 41
1.25
 42
1.25
 43
1.25
 50
270.0
  0
MTEXT
  5
4092
330
4066
100
AcDbEntity
  8
AM_5
 62
     2
100
AcDbMText
 10
10.00776903085518
 20
0.0000000000000057
 30
0.0
 40
1.6
 41
0.0
 71
     5
 72
     1
  1
%%c10
  7
ASAMI
 11
0.0000000000000001
 21
1.0
 31
0.0
1001
ACAD
1000
MTEXTBEGIN
1070
    73
1070
     1
1070
    44
1040
1.0
1070
    74
1070
     0
1000
MTEXTEND
  0
POINT
  5
4093
330
4066
100
AcDbEntity
  8
DEFPOINTS
 62
     0
100
AcDbPoint
 10
0.0
 20
5.000000000000007
 30
0.0
  0
POINT
  5
4094
330
4066
100
AcDbEntity
  8
DEFPOINTS
 62
     0
100
AcDbPoint
 10
0.0000000000000071
 20
-4.999999999999992
 30
0.0
  0
POINT
  5
4095
330
4066
100
AcDbEntity
  8
DEFPOINTS
 62
     0
100
AcDbPoint
 10
11.55776903085518
 20
-4.999999999999996
 30
0.0
  0
ENDBLK
  5
4071
330
4066
100
AcDbEntity
  8
0
100
AcDbBlockEnd
  0
ENDSEC
  0
SECTION
  2
ENTITIES
  0
TEXT
  5
1500
330
1F
100
AcDbEntity
  8
AM_6
100
AcDbText
 10
-43.09523809523807
 20
-29.25000000000004
 30
0.0
 40
2.5
  1
HSM3100
 72
     4
 11
-34.99999999999998
 21
-28.00000000000004
 31
0.0
100
AcDbText
  0
DIMENSION
  5
3FEB
330
1F
100
AcDbEntity
  8
AM_5
100
AcDbDimension
  2
*D13
 10
-69.99999999999997
 20
-18.00000000000004
 30
0.0
 11
-34.99999999999998
 21
-16.45000000000004
 31
0.0
 70
    32
  1
<>
  3
AM_JIS
100
AcDbAlignedDimension
 13
0.0
 23
-4.999999999999992
 33
0.0
 14
-69.99999999999997
 24
-4.250000000000014
 34
0.0
 50
0.0000000000001132
100
AcDbRotatedDimension
1001
GENIUS_GENDTOL_13
1000

1000
h7
1000

1040
0.0
  0
LINE
  5
3FEC
330
1F
100
AcDbEntity
  8
AM_0
100
AcDbLine
 10
-29.94737995102411
 20
5.000000000000007
 30
0.0
 11
-69.25
 21
5.000000000000007
 31
0.0
  0
LINE
  5
3FED
330
1F
100
AcDbEntity
  8
AM_0
100
AcDbLine
 10
-26.88662489767964
 20
-4.999999999999985
 30
0.0
 11
-69.24999999999997
 21
-5.000000000000014
 31
0.0
  0
LINE
  5
3FEE
330
1F
100
AcDbEntity
  8
AM_7
  6
AM_ISO08W050X2
100
AcDbLine
 10
4.557768030855186
 20
0.0
 30
0.0
 11
-72.69469945058478
 21
-0.0000000000000142
 31
0.0
1001
GENIUS_GENODEF_13
1002
{
1000
HIER
1070
     0
1002
}
1002
{
1000
MANEDIT
1070
     0
1002
}
1002
{
1000
NOSEL
1070
     0
1002
}
1002
{
1000
BEHIND
1070
     0
1002
}
1002
{
1000
REACTOR
1002
}
1001
GENIUS_GENOBJ-N-CEN_13
1002
{
1000
OWNER
1000
GEN
1002
}
  0
LINE
  5
3FEF
330
1F
100
AcDbEntity
  8
AM_0
100
AcDbLine
 10
-70.0
 20
4.250000000000007
 30
0.0
 11
-69.99999999999997
 21
-4.250000000000014
 31
0.0
  0
LINE
  5
3FF0
330
1F
100
AcDbEntity
  8
AM_0
100
AcDbLine
 10
-69.25
 20
5.000000000000007
 30
0.0
 11
-69.24999999999997
 21
-5.000000000000014
 31
0.0
  0
DIMENSION
  5
3FF1
330
1F
100
AcDbEntity
  8
AM_5
100
AcDbDimension
  2
*D14
 10
-79.69470045058476
 20
-5.00000000000001
 30
0.0
 11
-81.24470045058476
 21
-0.0000000000000127
 31
0.0
 70
    32
  1
%%c<>
  3
AM_JIS
100
AcDbAlignedDimension
 13
-69.25
 23
5.000000000000007
 33
0.0
 14
-69.24999999999997
 24
-5.000000000000014
 34
0.0
 50
270.0
100
AcDbRotatedDimension
1001
GENIUS_GENDTOL_13
1000

1000
h7
1000

1040
0.0
  0
LINE
  5
3FF2
330
1F
100
AcDbEntity
  8
AM_0
100
AcDbLine
 10
-69.99999999999997
 20
-4.250000000000014
 30
0.0
 11
-69.24999999999997
 21
-5.000000000000014
 31
0.0
1001
GENIUS_GENFIL_13
1070
     0
1040
0.75
1040
0.75
1040
20.0
1040
0.0
1002
{
1002
}
1001
GENIUS_GENODEF_13
1002
{
1000
HIER
1070
     0
1002
}
1002
{
1000
MANEDIT
1070
     0
1002
}
1002
{
1000
NOSEL
1070
     0
1002
}
1002
{
1000
BEHIND
1070
     0
1002
}
1002
{
1000
REACTOR
1002
}
1001
GENIUS_GENOBJ-N-CHA_13
1002
{
1000
OWNER
1000
GEN
1002
}
  0
LINE
  5
3FF3
330
1F
100
AcDbEntity
  8
AM_0
100
AcDbLine
 10
-69.25
 20
5.000000000000007
 30
0.0
 11
-70.0
 21
4.250000000000007
 31
0.0
1001
GENIUS_GENFIL_13
1070
     0
1040
0.75
1040
0.75
1040
20.0
1040
0.0
1002
{
1002
}
1001
GENIUS_GENODEF_13
1002
{
1000
HIER
1070
     0
1002
}
1002
{
1000
MANEDIT
1070
     0
1002
}
1002
{
1000
NOSEL
1070
     0
1002
}
1002
{
1000
BEHIND
1070
     0
1002
}
1002
{
1000
REACTOR
1002
}
1001
GENIUS_GENOBJ-N-CHA_13
1002
{
1000
OWNER
1000
GEN
1002
}
  0
DIMENSION
  5
3FF4
330
1F
100
AcDbEntity
  8
AM_5
100
AcDbDimension
  2
*D15
 10
-25.0
 20
-12.00000099999945
 30
0.0
 11
-12.5
 21
-10.45000099999945
 31
0.0
 70
    32
  1
<>
  3
AM_JIS
100
AcDbAlignedDimension
 13
0.0
 23
-4.999999999999992
 33
0.0
 14
-25.0
 24
-5.00000000000001
 34
0.0
 50
0.0000000000001132
100
AcDbRotatedDimension
1001
GENIUS_GENDTOL_13
1000

1000
h7
1000

1040
0.0
  0
SPLINE
  5
3FF5
330
1F
100
AcDbEntity
  8
AM_0
100
AcDbSpline
210
0.0
220
0.0
230
1.0
 70
     8
 71
     3
 72
     8
 73
     4
 74
     0
 42
0.0000000001
 43
0.0000000001
 40
5.04224993866183
 40
5.04224993866183
 40
5.04224993866183
 40
5.04224993866183
 40
6.726812023537159
 40
6.726812023537159
 40
6.726812023537159
 40
6.726812023537159
 10
-26.86557374218293
 20
1.838925634546299
 30
0.0
 10
-26.5653919280384
 20
1.252125136678372
 30
0.0
 10
-26.2826959640126
 20
0.6260625683395347
 30
0.0
 10
-25.99999999998681
 20
0.0000000000006821
 30
0.0
  0
SPLINE
  5
3FF6
330
1F
100
AcDbEntity
  8
AM_0
100
AcDbSpline
210
0.0
220
0.0
230
1.0
 70
     8
 71
     3
 72
     8
 73
     4
 74
     0
 42
0.0000000001
 43
0.0000000001
 40
0.0
 40
0.0
 40
0.0
 40
0.0
 40
2.420483029949796
 40
2.420483029949796
 40
2.420483029949796
 40
2.420483029949796
 10
-25.96033673929787
 20
-4.623759133067778
 30
0.0
 10
-25.15350906264803
 20
-4.623759133067778
 30
0.0
 10
-24.48404475524512
 20
-4.298393436760989
 30
0.0
 10
-23.90041214758276
 20
-3.769722515018088
 30
0.0
  0
SPLINE
  5
3FF7
330
1F
100
AcDbEntity
  8
AM_0
100
AcDbSpline
210
0.0
220
0.0
230
1.0
 70
     8
 71
     3
 72
     8
 73
     4
 74
     2
 42
0.0000000001
 43
0.0000000001
 44
0.0000000001
 12
-1.0
 22
0.0000000000000001
 32
0.0
 40
0.0
 40
0.0
 40
0.0
 40
0.0
 40
4.429283115834358
 40
4.429283115834358
 40
4.429283115834358
 40
4.429283115834358
 10
-25.96033673929696
 20
-4.623759133067778
 30
0.0
 10
-27.43676444457508
 20
-4.623759133067778
 30
0.0
 10
-28.44107771921401
 20
-3.256924673173614
 30
0.0
 10
-29.44539099385293
 20
-1.890090213279449
 30
0.0
 11
-25.96033673929696
 21
-4.623759133067778
 31
0.0
 11
-29.44539099385293
 21
-1.890090213279449
 31
0.0
  0
SPLINE
  5
3FF8
330
1F
100
AcDbEntity
  8
AM_0
100
AcDbSpline
210
0.0
220
0.0
230
1.0
 70
     8
 71
     3
 72
     8
 73
     4
 74
     0
 42
0.0000000001
 43
0.0000000001
 40
0.0
 40
0.0
 40
0.0
 40
0.0
 40
2.420483029949796
 40
2.420483029949796
 40
2.420483029949796
 40
2.420483029949796
 10
-7.960336739312424
 20
-4.623759133067892
 30
0.0
 10
-7.153509062662578
 20
-4.623759133067892
 30
0.0
 10
-6.484044755259219
 20
-4.298393436761102
 30
0.0
 10
-5.900412147596853
 20
-3.769722515018202
 30
0.0
  0
SPLINE
  5
3FF9
330
1F
100
AcDbEntity
  8
AM_0
100
AcDbSpline
210
0.0
220
0.0
230
1.0
 70
     8
 71
     3
 72
     8
 73
     4
 74
     0
 42
0.0000000001
 43
0.0000000001
 40
0.0
 40
0.0
 40
0.0
 40
0.0
 40
1.274172826456642
 40
1.274172826456642
 40
1.274172826456642
 40
1.274172826456642
 10
-8.737009705625951
 20
-4.85038480794526
 30
0.0
 10
-8.312285430140491
 20
-4.85038480794526
 30
0.0
 10
-7.92680558643542
 20
-4.760442403806564
 30
0.0
 10
-7.573012517269944
 20
-4.597878622514826
 30
0.0
  0
SPLINE
  5
3FFA
330
1F
100
AcDbEntity
  8
AM_0
100
AcDbSpline
210
0.0
220
0.0
230
1.0
 70
     8
 71
     3
 72
     8
 73
     4
 74
     0
 42
0.0000000001
 43
0.0000000001
 40
0.0
 40
0.0
 40
0.0
 40
0.0
 40
0.9875149967633806
 40
0.9875149967633806
 40
0.9875149967633806
 40
0.9875149967633806
 10
-9.499999999997271
 20
-4.999999999999204
 30
0.0
 10
-9.170828334409179
 20
-4.999999999999204
 30
0.0
 10
-8.86565175852229
 20
-4.946122327688044
 30
0.0
 10
-8.580947725422447
 20
-4.846276377472918
 30
0.0
  0
SPLINE
  5
3FFB
330
1F
100
AcDbEntity
  8
AM_0
100
AcDbSpline
210
0.0
220
0.0
230
1.0
 70
     8
 71
     3
 72
     8
 73
     4
 74
     0
 42
0.0000000001
 43
0.0000000001
 40
0.0
 40
0.0
 40
0.0
 40
0.0
 40
2.420483029949796
 40
2.420483029949796
 40
2.420483029949796
 40
2.420483029949796
 10
-13.96033673930788
 20
-4.623759133067892
 30
0.0
 10
-13.15350906265803
 20
-4.623759133067892
 30
0.0
 10
-12.48404475525467
 20
-4.298393436760989
 30
0.0
 10
-11.9004121475923
 20
-3.769722515018088
 30
0.0
  0
SPLINE
  5
3FFC
330
1F
100
AcDbEntity
  8
AM_0
100
AcDbSpline
210
0.0
220
0.0
230
1.0
 70
     8
 71
     3
 72
     8
 73
     4
 74
     2
 42
0.0000000001
 43
0.0000000001
 44
0.0000000001
 12
-1.0
 22
0.0000000000000001
 32
0.0
 40
0.0
 40
0.0
 40
0.0
 40
0.0
 40
6.616360992657223
 40
6.616360992657223
 40
6.616360992657223
 40
6.616360992657223
 10
-8.737009705625041
 20
-4.850384807945602
 30
0.0
 10
-10.94246336984411
 20
-4.850384807945602
 30
0.0
 10
-12.08973653773457
 20
-2.425192403972459
 30
0.0
 10
-13.23700970562503
 20
0.0000000000006821
 30
0.0
 11
-8.737009705625041
 21
-4.850384807945602
 31
0.0
 11
-13.23700970562503
 21
0.0000000000006821
 31
0.0
  0
SPLINE
  5
3FFD
330
1F
100
AcDbEntity
  8
AM_0
100
AcDbSpline
210
0.0
220
0.0
230
1.0
 70
     8
 71
     3
 72
     8
 73
     4
 74
     2
 42
0.0000000001
 43
0.0000000001
 44
0.0000000001
 12
-1.0
 22
0.0000000000000001
 32
0.0
 40
0.0
 40
0.0
 40
0.0
 40
0.0
 40
6.452065446090501
 40
6.452065446090501
 40
6.452065446090501
 40
6.452065446090501
 10
-7.960336739311514
 20
-4.623759133067892
 30
0.0
 10
-10.11102522134168
 20
-4.623759133067892
 30
0.0
 10
-11.28568098032659
 20
-2.311879566533605
 30
0.0
 10
-12.46033673931151
 20
0.0000000000006821
 30
0.0
 11
-7.960336739311514
 21
-4.623759133067892
 31
0.0
 11
-12.46033673931151
 21
0.0000000000006821
 31
0.0
  0
SPLINE
  5
3FFE
330
1F
100
AcDbEntity
  8
AM_0
100
AcDbSpline
210
0.0
220
0.0
230
1.0
 70
     8
 71
     3
 72
     9
 73
     5
 74
     3
 42
0.0000000001
 43
0.0000000001
 44
0.0000000001
 12
-0.3385048798911531
 22
0.9409646360463693
 32
0.0
 13
0.9630016908632653
 23
-0.2694953494858349
 33
0.0
 40
0.0
 40
0.0
 40
0.0
 40
0.0
 40
1.661453703875053
 40
2.07866945628084
 40
2.07866945628084
 40
2.07866945628084
 40
2.07866945628084
 10
-0.650000000000091
 20
-3.418076860276869
 30
0.0
 10
-0.8374700621584029
 20
-2.896953800351975
 30
0.0
 10
-2.097255768769755
 20
-2.300952564621684
 30
0.0
 10
-1.271461759102884
 20
-1.795366230717764
 30
0.0
 10
-1.137535267429029
 20
-1.832845465719628
 30
0.0
 11
-0.650000000000091
 21
-3.418076860276869
 31
0.0
 11
-1.518937798819933
 21
-2.00196404277176
 31
0.0
 11
-1.137535267429029
 21
-1.832845465719628
 31
0.0
  0
SPLINE
  5
3FFF
330
1F
100
AcDbEntity
  8
AM_0
100
AcDbSpline
210
0.0
220
0.0
230
1.0
 70
     8
 71
     3
 72
     9
 73
     5
 74
     3
 42
0.0000000001
 43
0.0000000001
 44
0.0000000001
 12
-0.7037104554506215
 22
-0.7104868717221163
 32
0.0
 13
-0.5728114391284047
 23
0.819687169110049
 33
0.0
 40
0.0
 40
0.0
 40
0.0
 40
0.0
 40
0.3466421203494384
 40
0.6490343069233253
 40
0.6490343069233253
 40
0.6490343069233253
 40
0.6490343069233253
 10
-0.2000000000066393
 20
-3.418076860276869
 30
0.0
 10
-0.2813118948031301
 20
-3.500171752174933
 30
0.0
 10
-0.4559235683112074
 20
-3.80252216379336
 30
0.0
 10
-0.5922620988092332
 20
-3.500699192068118
 30
0.0
 10
-0.650000000000091
 20
-3.418076860276869
 30
0.0
 11
-0.2000000000066393
 21
-3.418076860276869
 31
0.0
 11
-0.4569108056698497
 21
-3.650794709901333
 31
0.0
 11
-0.650000000000091
 21
-3.418076860276869
 31
0.0
  0
SPLINE
  5
4000
330
1F
100
AcDbEntity
  8
AM_0
100
AcDbSpline
210
0.0
220
0.0
230
1.0
 70
     8
 71
     3
 72
     8
 73
     4
 74
     0
 42
0.0000000001
 43
0.0000000001
 40
0.0
 40
0.0
 40
0.0
 40
0.0
 40
0.9875149968653097
 40
0.9875149968653097
 40
0.9875149968653097
 40
0.9875149968653097
 10
-3.499999999999545
 20
-4.999999999999204
 30
0.0
 10
-3.170828334377802
 20
-4.999999999999204
 30
0.0
 10
-2.865651758461808
 20
-4.946122327676903
 30
0.0
 10
-2.5809477253365
 20
-4.846276377441995
 30
0.0
  0
SPLINE
  5
4001
330
1F
100
AcDbEntity
  8
AM_0
100
AcDbSpline
210
0.0
220
0.0
230
1.0
 70
     8
 71
     3
 72
     8
 73
     4
 74
     0
 42
0.0000000001
 43
0.0000000001
 40
4.390614724758877
 40
4.390614724758877
 40
4.390614724758877
 40
4.390614724758877
 40
6.726812023537121
 40
6.726812023537121
 40
6.726812023537121
 40
6.726812023537121
 10
-0.7772087129837928
 20
-2.499999999987494
 30
0.0
 10
-1.215898833930623
 20
-1.736481776659729
 30
0.0
 10
-1.607949416964856
 20
-0.8682408883295238
 30
0.0
 10
-1.999999999998635
 20
0.0000000000005684
 30
0.0
  0
SPLINE
  5
4002
330
1F
100
AcDbEntity
  8
AM_0
100
AcDbSpline
210
0.0
220
0.0
230
1.0
 70
     8
 71
     3
 72
     8
 73
     4
 74
     0
 42
0.0000000001
 43
0.0000000001
 40
4.32310436431184
 40
4.32310436431184
 40
4.32310436431184
 40
4.32310436431184
 40
6.616360992657454
 40
6.616360992657454
 40
6.616360992657454
 40
6.616360992657454
 10
0.0000000000004547
 20
-2.420760940673289
 30
0.0
 10
-0.4417109606806662
 20
-1.681162367529509
 30
0.0
 10
-0.839360333154218
 20
-0.8405811837644705
 30
0.0
 10
-1.23700970562777
 20
0.0000000000005684
 30
0.0
  0
SPLINE
  5
4003
330
1F
100
AcDbEntity
  8
AM_0
100
AcDbSpline
210
0.0
220
0.0
230
1.0
 70
     8
 71
     3
 72
     8
 73
     4
 74
     0
 42
0.0000000001
 43
0.0000000001
 40
0.0
 40
0.0
 40
0.0
 40
0.0
 40
3.138307834541913
 40
3.138307834541913
 40
3.138307834541913
 40
3.138307834541913
 10
-2.737009705628679
 20
-4.85038480794526
 30
0.0
 10
-1.690907094114663
 20
-4.85038480794526
 30
0.0
 10
-0.8828787461229694
 20
-4.304753984585204
 30
0.0
 10
-0.2000000000084583
 20
-3.472298876628428
 30
0.0
  0
SPLINE
  5
4004
330
1F
100
AcDbEntity
  8
AM_0
100
AcDbSpline
210
0.0
220
0.0
230
1.0
 70
     8
 71
     3
 72
     8
 73
     4
 74
     0
 42
0.0000000001
 43
0.0000000001
 40
0.0
 40
0.0
 40
0.0
 40
0.0
 40
0.4556590281797062
 40
0.4556590281797062
 40
0.4556590281797062
 40
0.4556590281797062
 10
-1.960336739315152
 20
-4.623759133068006
 30
0.0
 10
-1.808450396588341
 20
-4.623759133068006
 30
0.0
 10
-1.661432011715533
 20
-4.612228646407743
 30
0.0
 10
-1.518937798824936
 20
-4.58998198137192
 30
0.0
  0
SPLINE
  5
4005
330
1F
100
AcDbEntity
  8
AM_0
100
AcDbSpline
210
0.0
220
0.0
230
1.0
 70
     8
 71
     3
 72
     8
 73
     4
 74
     2
 42
0.0000000001
 43
0.0000000001
 44
0.0000000001
 12
-1.0
 22
0.0000000000000001
 32
0.0
 40
0.0
 40
0.0
 40
0.0
 40
0.0
 40
6.616360992657225
 40
6.616360992657225
 40
6.616360992657225
 40
6.616360992657225
 10
-2.737009705625041
 20
-4.850384807945602
 30
0.0
 10
-4.942463369844116
 20
-4.850384807945602
 30
0.0
 10
-6.089736537734578
 20
-2.425192403972459
 30
0.0
 10
-7.237009705625041
 20
0.0000000000006821
 30
0.0
 11
-2.737009705625041
 21
-4.850384807945602
 31
0.0
 11
-7.237009705625041
 21
0.0000000000006821
 31
0.0
  0
SPLINE
  5
4006
330
1F
100
AcDbEntity
  8
AM_0
100
AcDbSpline
210
0.0
220
0.0
230
1.0
 70
     8
 71
     3
 72
     8
 73
     4
 74
     2
 42
0.0000000001
 43
0.0000000001
 44
0.0000000001
 12
-1.0
 22
0.0000000000000001
 32
0.0
 40
0.0
 40
0.0
 40
0.0
 40
0.0
 40
6.726812023537159
 40
6.726812023537159
 40
6.726812023537159
 40
6.726812023537159
 10
-3.499999999995907
 20
-4.999999999999431
 30
0.0
 10
-5.742270674508294
 20
-4.999999999999431
 30
0.0
 10
-6.871135337252328
 20
-2.499999999999431
 30
0.0
 10
-7.999999999996362
 20
0.0000000000005684
 30
0.0
 11
-3.499999999995907
 21
-4.999999999999431
 31
0.0
 11
-7.999999999996362
 21
0.0000000000005684
 31
0.0
  0
SPLINE
  5
4007
330
1F
100
AcDbEntity
  8
AM_0
100
AcDbSpline
210
0.0
220
0.0
230
1.0
 70
     8
 71
     3
 72
     8
 73
     4
 74
     2
 42
0.0000000001
 43
0.0000000001
 44
0.0000000001
 12
-1.0
 22
0.0000000000000001
 32
0.0
 40
0.0
 40
0.0
 40
0.0
 40
0.0
 40
6.452065446090504
 40
6.452065446090504
 40
6.452065446090504
 40
6.452065446090504
 10
-1.960336739311514
 20
-4.623759133067892
 30
0.0
 10
-4.111025221341682
 20
-4.623759133067892
 30
0.0
 10
-5.285680980326598
 20
-2.311879566533605
 30
0.0
 10
-6.460336739311514
 20
0.0000000000006821
 30
0.0
 11
-1.960336739311514
 21
-4.623759133067892
 31
0.0
 11
-6.460336739311514
 21
0.0000000000006821
 31
0.0
  0
SPLINE
  5
4008
330
1F
100
AcDbEntity
  8
AM_0
100
AcDbSpline
210
0.0
220
0.0
230
1.0
 70
     8
 71
     3
 72
     8
 73
     4
 74
     0
 42
0.0000000001
 43
0.0000000001
 40
0.0
 40
0.0
 40
0.0
 40
0.0
 40
2.948331486770748
 40
2.948331486770748
 40
2.948331486770748
 40
2.948331486770748
 10
-6.499999999999545
 20
5.000000000000682
 30
0.0
 10
-7.482777162256297
 20
5.000000000001136
 30
0.0
 10
-8.251665743422108
 20
4.519742621223485
 30
0.0
 10
-8.9004121476014
 20
3.76972251501968
 30
0.0
  0
SPLINE
  5
4009
330
1F
100
AcDbEntity
  8
AM_0
100
AcDbSpline
210
0.0
220
0.0
230
1.0
 70
     8
 71
     3
 72
     8
 73
     4
 74
     0
 42
0.0000000001
 43
0.0000000001
 40
0.0
 40
0.0
 40
0.0
 40
0.0
 40
2.948331486770748
 40
2.948331486770748
 40
2.948331486770748
 40
2.948331486770748
 10
-0.4999999999968168
 20
5.000000000000795
 30
0.0
 10
-1.482777162253569
 20
5.00000000000125
 30
0.0
 10
-2.251665743419835
 20
4.519742621223485
 30
0.0
 10
-2.900412147599126
 20
3.769722515019793
 30
0.0
  0
SPLINE
  5
400A
330
1F
100
AcDbEntity
  8
AM_0
100
AcDbSpline
210
0.0
220
0.0
230
1.0
 70
     8
 71
     3
 72
     8
 73
     4
 74
     2
 42
0.0000000001
 43
0.0000000001
 44
0.0000000001
 12
0.2563440340107919
 22
-0.9665856072935671
 32
0.0
 13
-1.0
 23
0.0000000000000001
 33
0.0
 40
0.0
 40
0.0
 40
0.0
 40
0.0
 40
2.444689314169514
 40
2.444689314169514
 40
2.444689314169514
 40
2.444689314169514
 10
-0.4999999999940883
 20
5.0
 30
0.0
 10
-0.2911061597616584
 20
4.212332831539788
 30
0.0
 10
-0.7040413607634291
 20
2.777777777777714
 30
0.0
 10
-1.518937798819933
 20
2.777777777777714
 30
0.0
 11
-0.4999999999940883
 21
5.0
 31
0.0
 11
-1.518937798819933
 21
2.777777777777714
 31
0.0
  0
SPLINE
  5
400B
330
1F
100
AcDbEntity
  8
AM_0
100
AcDbSpline
210
0.0
220
0.0
230
1.0
 70
     8
 71
     3
 72
     8
 73
     4
 74
     0
 42
0.0000000001
 43
0.0000000001
 40
0.3982504941345976
 40
0.3982504941345976
 40
0.3982504941345976
 40
0.3982504941345976
 40
6.452065446090842
 40
6.452065446090842
 40
6.452065446090842
 40
6.452065446090842
 10
-10.57301251727449
 20
4.597878622516191
 30
0.0
 10
-8.664638185593048
 20
4.338359926429234
 30
0.0
 10
-7.56248746245501
 20
2.169179963214901
 30
0.0
 10
-6.460336739316517
 20
0.0000000000006821
 30
0.0
  0
SPLINE
  5
400C
330
1F
100
AcDbEntity
  8
AM_0
100
AcDbSpline
210
0.0
220
0.0
230
1.0
 70
     8
 71
     3
 72
     8
 73
     4
 74
     0
 42
0.0000000001
 43
0.0000000001
 40
0.157854605497133
 40
0.157854605497133
 40
0.157854605497133
 40
0.157854605497133
 40
6.616360992657454
 40
6.616360992657454
 40
6.616360992657454
 40
6.616360992657454
 10
-11.58094772533786
 20
4.846276377443018
 30
0.0
 10
-9.476812246894496
 20
4.734663253270696
 30
0.0
 10
-8.356910976262497
 20
2.367331626635518
 30
0.0
 10
-7.237009705630043
 20
0.0000000000004547
 30
0.0
  0
SPLINE
  5
400D
330
1F
100
AcDbEntity
  8
AM_0
100
AcDbSpline
210
0.0
220
0.0
230
1.0
 70
     8
 71
     3
 72
     8
 73
     4
 74
     2
 42
0.0000000001
 43
0.0000000001
 44
0.0000000001
 12
1.0
 22
-0.0000000000000002
 32
0.0
 40
0.0
 40
0.0
 40
0.0
 40
0.0
 40
6.726812023536853
 40
6.726812023536853
 40
6.726812023536853
 40
6.726812023536853
 10
-12.50000000000136
 20
5.000000000000568
 30
0.0
 10
-10.25772932548907
 20
5.000000000000567
 30
0.0
 10
-9.12886466274522
 20
2.500000000000567
 30
0.0
 10
-8.000000000001364
 20
0.0000000000005684
 30
0.0
 11
-12.50000000000136
 21
5.000000000000568
 31
0.0
 11
-8.000000000001364
 21
0.0000000000005684
 31
0.0
  0
SPLINE
  5
400E
330
1F
100
AcDbEntity
  8
AM_0
100
AcDbSpline
210
0.0
220
0.0
230
1.0
 70
     8
 71
     3
 72
     8
 73
     4
 74
     2
 42
0.0000000001
 43
0.0000000001
 44
0.0000000001
 12
1.0
 22
-0.0000000000000002
 32
0.0
 40
0.0
 40
0.0
 40
0.0
 40
0.0
 40
6.726812023537463
 40
6.726812023537463
 40
6.726812023537463
 40
6.726812023537463
 10
-6.499999999999545
 20
5.000000000000682
 30
0.0
 10
-4.257729325487057
 20
5.000000000000681
 30
0.0
 10
-3.128864662742846
 20
2.500000000000682
 30
0.0
 10
-1.999999999998635
 20
0.0000000000006821
 30
0.0
 11
-6.499999999999545
 21
5.000000000000682
 31
0.0
 11
-1.999999999998635
 21
0.0000000000006821
 31
0.0
  0
SPLINE
  5
400F
330
1F
100
AcDbEntity
  8
AM_0
100
AcDbSpline
210
0.0
220
0.0
230
1.0
 70
     8
 71
     3
 72
     8
 73
     4
 74
     0
 42
0.0000000001
 43
0.0000000001
 40
0.157854605497133
 40
0.157854605497133
 40
0.157854605497133
 40
0.157854605497133
 40
6.616360992657454
 40
6.616360992657454
 40
6.616360992657454
 40
6.616360992657454
 10
-5.58094772533559
 20
4.846276377443246
 30
0.0
 10
-3.476812246892222
 20
4.734663253270809
 30
0.0
 10
-2.356910976259769
 20
2.367331626635632
 30
0.0
 10
-1.23700970562777
 20
0.0000000000004547
 30
0.0
  0
SPLINE
  5
4010
330
1F
100
AcDbEntity
  8
AM_0
100
AcDbSpline
210
0.0
220
0.0
230
1.0
 70
     8
 71
     3
 72
     8
 73
     4
 74
     0
 42
0.0000000001
 43
0.0000000001
 40
0.3982504941345976
 40
0.3982504941345976
 40
0.3982504941345976
 40
0.3982504941345976
 40
6.01848148651983
 40
6.01848148651983
 40
6.01848148651983
 40
6.01848148651983
 10
-4.573012517272672
 20
4.597878622516418
 30
0.0
 10
-2.801319023317319
 20
4.356947072671005
 30
0.0
 10
-1.724498724602199
 20
2.470104373048457
 30
0.0
 10
-0.6974463612773434
 20
0.4653788707491913
 30
0.0
  0
SPLINE
  5
4011
330
1F
100
AcDbEntity
  8
AM_0
100
AcDbSpline
210
0.0
220
0.0
230
1.0
 70
     8
 71
     3
 72
     8
 73
     4
 74
     0
 42
0.0000000001
 43
0.0000000001
 40
0.0
 40
0.0
 40
0.0
 40
0.0
 40
2.420483029949796
 40
2.420483029949796
 40
2.420483029949796
 40
2.420483029949796
 10
-25.96033673929832
 20
-4.623759133067778
 30
0.0
 10
-25.15350906264847
 20
-4.623759133067778
 30
0.0
 10
-24.48404475524512
 20
-4.298393436760989
 30
0.0
 10
-23.90041214758275
 20
-3.769722515017974
 30
0.0
  0
SPLINE
  5
4012
330
1F
100
AcDbEntity
  8
AM_0
100
AcDbSpline
210
0.0
220
0.0
230
1.0
 70
     8
 71
     3
 72
     8
 73
     4
 74
     2
 42
0.0000000001
 43
0.0000000001
 44
0.0000000001
 12
-1.0
 22
0.0000000000000001
 32
0.0
 40
0.0
 40
0.0
 40
0.0
 40
0.0
 40
6.726812023536854
 40
6.726812023536854
 40
6.726812023536854
 40
6.726812023536854
 10
-21.4999999999868
 20
-4.999999999999317
 30
0.0
 10
-23.74227067449909
 20
-4.999999999999317
 30
0.0
 10
-24.87113533724294
 20
-2.499999999999317
 30
0.0
 10
-25.99999999998681
 20
0.0000000000006821
 30
0.0
 11
-21.4999999999868
 21
-4.999999999999317
 31
0.0
 11
-25.99999999998681
 21
0.0000000000006821
 31
0.0
  0
SPLINE
  5
4013
330
1F
100
AcDbEntity
  8
AM_0
100
AcDbSpline
210
0.0
220
0.0
230
1.0
 70
     8
 71
     3
 72
     8
 73
     4
 74
     2
 42
0.0000000001
 43
0.0000000001
 44
0.0000000001
 12
-1.0
 22
0.0000000000000001
 32
0.0
 40
0.0
 40
0.0
 40
0.0
 40
0.0
 40
6.616360992657451
 40
6.616360992657451
 40
6.616360992657451
 40
6.616360992657451
 10
-20.73700970561549
 20
-4.850384807945488
 30
0.0
 10
-22.94246336983464
 20
-4.850384807945488
 30
0.0
 10
-24.08973653772529
 20
-2.425192403972403
 30
0.0
 10
-25.23700970561594
 20
0.0000000000006821
 30
0.0
 11
-20.73700970561549
 21
-4.850384807945488
 31
0.0
 11
-25.23700970561594
 21
0.0000000000006821
 31
0.0
  0
SPLINE
  5
4014
330
1F
100
AcDbEntity
  8
AM_0
100
AcDbSpline
210
0.0
220
0.0
230
1.0
 70
     8
 71
     3
 72
     8
 73
     4
 74
     0
 42
0.0000000001
 43
0.0000000001
 40
0.0
 40
0.0
 40
0.0
 40
0.0
 40
0.9875149967633806
 40
0.9875149967633806
 40
0.9875149967633806
 40
0.9875149967633806
 10
-21.49999999998772
 20
-4.99999999999909
 30
0.0
 10
-21.17082833440008
 20
-4.99999999999909
 30
0.0
 10
-20.86565175851273
 20
-4.946122327687817
 30
0.0
 10
-20.58094772541289
 20
-4.846276377472804
 30
0.0
  0
SPLINE
  5
4015
330
1F
100
AcDbEntity
  8
AM_0
100
AcDbSpline
210
0.0
220
0.0
230
1.0
 70
     8
 71
     3
 72
     8
 73
     4
 74
     0
 42
0.0000000001
 43
0.0000000001
 40
0.0
 40
0.0
 40
0.0
 40
0.0
 40
2.420483029949796
 40
2.420483029949796
 40
2.420483029949796
 40
2.420483029949796
 10
-19.96033673930333
 20
-4.623759133067778
 30
0.0
 10
-19.15350906265303
 20
-4.623759133067778
 30
0.0
 10
-18.48404475525012
 20
-4.298393436760989
 30
0.0
 10
-17.90041214758775
 20
-3.769722515018088
 30
0.0
  0
SPLINE
  5
4016
330
1F
100
AcDbEntity
  8
AM_0
100
AcDbSpline
210
0.0
220
0.0
230
1.0
 70
     8
 71
     3
 72
     8
 73
     4
 74
     2
 42
0.0000000001
 43
0.0000000001
 44
0.0000000001
 12
-1.0
 22
0.0000000000000001
 32
0.0
 40
0.0
 40
0.0
 40
0.0
 40
0.0
 40
6.61636099265722
 40
6.61636099265722
 40
6.61636099265722
 40
6.61636099265722
 10
-14.73700970562049
 20
-4.850384807945602
 30
0.0
 10
-16.94246336983957
 20
-4.850384807945602
 30
0.0
 10
-18.08973653773003
 20
-2.42519240397246
 30
0.0
 10
-19.23700970562049
 20
0.0000000000006821
 30
0.0
 11
-14.73700970562049
 21
-4.850384807945602
 31
0.0
 11
-19.23700970562049
 21
0.0000000000006821
 31
0.0
  0
SPLINE
  5
4017
330
1F
100
AcDbEntity
  8
AM_0
100
AcDbSpline
210
0.0
220
0.0
230
1.0
 70
     8
 71
     3
 72
     8
 73
     4
 74
     2
 42
0.0000000001
 43
0.0000000001
 44
0.0000000001
 12
-1.0
 22
0.0000000000000001
 32
0.0
 40
0.0
 40
0.0
 40
0.0
 40
0.0
 40
6.452065446090897
 40
6.452065446090897
 40
6.452065446090897
 40
6.452065446090897
 10
-19.96033673930196
 20
-4.623759133067778
 30
0.0
 10
-22.11102522133227
 20
-4.623759133067778
 30
0.0
 10
-23.28568098031734
 20
-2.311879566533434
 30
0.0
 10
-24.46033673930241
 20
0.0000000000009095
 30
0.0
 11
-19.96033673930196
 21
-4.623759133067778
 31
0.0
 11
-24.46033673930241
 21
0.0000000000009095
 31
0.0
  0
SPLINE
  5
4018
330
1F
100
AcDbEntity
  8
AM_0
100
AcDbSpline
210
0.0
220
0.0
230
1.0
 70
     8
 71
     3
 72
     8
 73
     4
 74
     0
 42
0.0000000001
 43
0.0000000001
 40
0.0
 40
0.0
 40
0.0
 40
0.0
 40
1.274172826456642
 40
1.274172826456642
 40
1.274172826456642
 40
1.274172826456642
 10
-20.73700970561685
 20
-4.850384807945147
 30
0.0
 10
-20.31228543013139
 20
-4.850384807945147
 30
0.0
 10
-19.92680558642632
 20
-4.760442403806564
 30
0.0
 10
-19.57301251726085
 20
-4.597878622514826
 30
0.0
  0
SPLINE
  5
4019
330
1F
100
AcDbEntity
  8
AM_0
100
AcDbSpline
210
0.0
220
0.0
230
1.0
 70
     8
 71
     3
 72
     8
 73
     4
 74
     2
 42
0.0000000001
 43
0.0000000001
 44
0.0000000001
 12
-1.0
 22
0.0000000000000001
 32
0.0
 40
0.0
 40
0.0
 40
0.0
 40
0.0
 40
6.726812023537154
 40
6.726812023537154
 40
6.726812023537154
 40
6.726812023537154
 10
-15.49999999999136
 20
-4.999999999999317
 30
0.0
 10
-17.74227067450374
 20
-4.999999999999317
 30
0.0
 10
-18.87113533724777
 20
-2.499999999999317
 30
0.0
 10
-19.99999999999181
 20
0.0000000000006821
 30
0.0
 11
-15.49999999999136
 21
-4.999999999999317
 31
0.0
 11
-19.99999999999181
 21
0.0000000000006821
 31
0.0
  0
SPLINE
  5
401A
330
1F
100
AcDbEntity
  8
AM_0
100
AcDbSpline
210
0.0
220
0.0
230
1.0
 70
     8
 71
     3
 72
     8
 73
     4
 74
     0
 42
0.0000000001
 43
0.0000000001
 40
0.0
 40
0.0
 40
0.0
 40
0.0
 40
2.948331486770748
 40
2.948331486770748
 40
2.948331486770748
 40
2.948331486770748
 10
-24.49999999998499
 20
5.000000000000795
 30
0.0
 10
-25.48277716224174
 20
5.000000000001364
 30
0.0
 10
-26.251665743408
 20
4.519742621223599
 30
0.0
 10
-26.9004121475873
 20
3.769722515019793
 30
0.0
  0
SPLINE
  5
401B
330
1F
100
AcDbEntity
  8
AM_0
100
AcDbSpline
210
0.0
220
0.0
230
1.0
 70
     8
 71
     3
 72
     8
 73
     4
 74
     0
 42
0.0000000001
 43
0.0000000001
 40
0.0
 40
0.0
 40
0.0
 40
0.0
 40
2.948331486770748
 40
2.948331486770748
 40
2.948331486770748
 40
2.948331486770748
 10
-18.49999999998953
 20
5.000000000000795
 30
0.0
 10
-19.48277716224674
 20
5.00000000000125
 30
0.0
 10
-20.25166574341301
 20
4.519742621223485
 30
0.0
 10
-20.9004121475923
 20
3.769722515019793
 30
0.0
  0
SPLINE
  5
401C
330
1F
100
AcDbEntity
  8
AM_0
100
AcDbSpline
210
0.0
220
0.0
230
1.0
 70
     8
 71
     3
 72
     8
 73
     4
 74
     2
 42
0.0000000001
 43
0.0000000001
 44
0.0000000001
 12
1.0
 22
-0.0000000000000002
 32
0.0
 40
0.0
 40
0.0
 40
0.0
 40
0.0
 40
6.726812023537159
 40
6.726812023537159
 40
6.726812023537159
 40
6.726812023537159
 10
-24.49999999999226
 20
5.000000000000682
 30
0.0
 10
-22.25772932547987
 20
5.000000000000681
 30
0.0
 10
-21.12886466273584
 20
2.500000000000681
 30
0.0
 10
-19.99999999999181
 20
0.0000000000006821
 30
0.0
 11
-24.49999999999226
 21
5.000000000000682
 31
0.0
 11
-19.99999999999181
 21
0.0000000000006821
 31
0.0
  0
SPLINE
  5
401D
330
1F
100
AcDbEntity
  8
AM_0
100
AcDbSpline
210
0.0
220
0.0
230
1.0
 70
     8
 71
     3
 72
     8
 73
     4
 74
     0
 42
0.0000000001
 43
0.0000000001
 40
0.157854605497133
 40
0.157854605497133
 40
0.157854605497133
 40
0.157854605497133
 40
6.616360992657454
 40
6.616360992657454
 40
6.616360992657454
 40
6.616360992657454
 10
-23.58094772532831
 20
4.846276377443246
 30
0.0
 10
-21.47681224688539
 20
4.734663253270809
 30
0.0
 10
-20.35691097625294
 20
2.367331626635632
 30
0.0
 10
-19.23700970562049
 20
0.0000000000004547
 30
0.0
  0
SPLINE
  5
401E
330
1F
100
AcDbEntity
  8
AM_0
100
AcDbSpline
210
0.0
220
0.0
230
1.0
 70
     8
 71
     3
 72
     8
 73
     4
 74
     0
 42
0.0000000001
 43
0.0000000001
 40
0.3982504941345976
 40
0.3982504941345976
 40
0.3982504941345976
 40
0.3982504941345976
 40
6.452065446090842
 40
6.452065446090842
 40
6.452065446090842
 40
6.452065446090842
 10
-22.57301251726539
 20
4.597878622516418
 30
0.0
 10
-20.66463818558395
 20
4.338359926429347
 30
0.0
 10
-19.56248746244545
 20
2.169179963215015
 30
0.0
 10
-18.46033673930696
 20
0.0000000000006821
 30
0.0
  0
SPLINE
  5
401F
330
1F
100
AcDbEntity
  8
AM_0
100
AcDbSpline
210
0.0
220
0.0
230
1.0
 70
     8
 71
     3
 72
     8
 73
     4
 74
     2
 42
0.0000000001
 43
0.0000000001
 44
0.0000000001
 12
-1.0
 22
0.0000000000000001
 32
0.0
 40
0.0
 40
0.0
 40
0.0
 40
0.0
 40
6.45206544609058
 40
6.45206544609058
 40
6.45206544609058
 40
6.45206544609058
 10
-13.96033673930697
 20
-4.623759133067892
 30
0.0
 10
-16.11102522133716
 20
-4.623759133067892
 30
0.0
 10
-17.28568098032206
 20
-2.311879566533548
 30
0.0
 10
-18.46033673930696
 20
0.0000000000007958
 30
0.0
 11
-13.96033673930697
 21
-4.623759133067892
 31
0.0
 11
-18.46033673930696
 21
0.0000000000007958
 31
0.0
  0
SPLINE
  5
4020
330
1F
100
AcDbEntity
  8
AM_0
100
AcDbSpline
210
0.0
220
0.0
230
1.0
 70
     8
 71
     3
 72
     8
 73
     4
 74
     0
 42
0.0000000001
 43
0.0000000001
 40
0.0
 40
0.0
 40
0.0
 40
0.0
 40
0.9875149967633806
 40
0.9875149967633806
 40
0.9875149967633806
 40
0.9875149967633806
 10
-15.49999999999227
 20
-4.99999999999909
 30
0.0
 10
-15.17082833440463
 20
-4.99999999999909
 30
0.0
 10
-14.86565175851729
 20
-4.94612232768793
 30
0.0
 10
-14.5809477254179
 20
-4.846276377472804
 30
0.0
  0
SPLINE
  5
4021
330
1F
100
AcDbEntity
  8
AM_0
100
AcDbSpline
210
0.0
220
0.0
230
1.0
 70
     8
 71
     3
 72
     8
 73
     4
 74
     0
 42
0.0000000001
 43
0.0000000001
 40
0.0
 40
0.0
 40
0.0
 40
0.0
 40
1.274172826456642
 40
1.274172826456642
 40
1.274172826456642
 40
1.274172826456642
 10
-14.7370097056214
 20
-4.850384807945147
 30
0.0
 10
-14.31228543013594
 20
-4.850384807945147
 30
0.0
 10
-13.92680558643087
 20
-4.760442403806564
 30
0.0
 10
-13.5730125172654
 20
-4.597878622514826
 30
0.0
  0
SPLINE
  5
4022
330
1F
100
AcDbEntity
  8
AM_0
100
AcDbSpline
210
0.0
220
0.0
230
1.0
 70
     8
 71
     3
 72
     8
 73
     4
 74
     2
 42
0.0000000001
 43
0.0000000001
 44
0.0000000001
 12
-1.0
 22
0.0000000000000001
 32
0.0
 40
0.0
 40
0.0
 40
0.0
 40
0.0
 40
6.726812023537156
 40
6.726812023537156
 40
6.726812023537156
 40
6.726812023537156
 10
-9.499999999995907
 20
-4.999999999999431
 30
0.0
 10
-11.74227067450829
 20
-4.999999999999431
 30
0.0
 10
-12.87113533725232
 20
-2.499999999999431
 30
0.0
 10
-13.99999999999635
 20
0.0000000000005684
 30
0.0
 11
-9.499999999995907
 21
-4.999999999999431
 31
0.0
 11
-13.99999999999635
 21
0.0000000000005684
 31
0.0
  0
SPLINE
  5
4023
330
1F
100
AcDbEntity
  8
AM_0
100
AcDbSpline
210
0.0
220
0.0
230
1.0
 70
     8
 71
     3
 72
     8
 73
     4
 74
     0
 42
0.0000000001
 43
0.0000000001
 40
0.0
 40
0.0
 40
0.0
 40
0.0
 40
2.948331486770748
 40
2.948331486770748
 40
2.948331486770748
 40
2.948331486770748
 10
-12.49999999999453
 20
5.000000000000682
 30
0.0
 10
-13.48277716225129
 20
5.000000000001136
 30
0.0
 10
-14.25166574341755
 20
4.519742621223485
 30
0.0
 10
-14.90041214759685
 20
3.769722515019793
 30
0.0
  0
SPLINE
  5
4024
330
1F
100
AcDbEntity
  8
AM_0
100
AcDbSpline
210
0.0
220
0.0
230
1.0
 70
     8
 71
     3
 72
     8
 73
     4
 74
     2
 42
0.0000000001
 43
0.0000000001
 44
0.0000000001
 12
1.0
 22
-0.0000000000000002
 32
0.0
 40
0.0
 40
0.0
 40
0.0
 40
0.0
 40
6.726812023537159
 40
6.726812023537159
 40
6.726812023537159
 40
6.726812023537159
 10
-18.49999999999681
 20
5.000000000000568
 30
0.0
 10
-16.25772932548442
 20
5.000000000000567
 30
0.0
 10
-15.12886466274039
 20
2.500000000000567
 30
0.0
 10
-13.99999999999635
 20
0.0000000000005684
 30
0.0
 11
-18.49999999999681
 21
5.000000000000568
 31
0.0
 11
-13.99999999999635
 21
0.0000000000005684
 31
0.0
  0
SPLINE
  5
4025
330
1F
100
AcDbEntity
  8
AM_0
100
AcDbSpline
210
0.0
220
0.0
230
1.0
 70
     8
 71
     3
 72
     8
 73
     4
 74
     0
 42
0.0000000001
 43
0.0000000001
 40
0.157854605497133
 40
0.157854605497133
 40
0.157854605497133
 40
0.157854605497133
 40
6.616360992657454
 40
6.616360992657454
 40
6.616360992657454
 40
6.616360992657454
 10
-17.58094772533286
 20
4.846276377443132
 30
0.0
 10
-15.47681224688994
 20
4.734663253270696
 30
0.0
 10
-14.35691097625794
 20
2.367331626635632
 30
0.0
 10
-13.23700970562503
 20
0.0000000000004547
 30
0.0
  0
SPLINE
  5
4026
330
1F
100
AcDbEntity
  8
AM_0
100
AcDbSpline
210
0.0
220
0.0
230
1.0
 70
     8
 71
     3
 72
     8
 73
     4
 74
     0
 42
0.0000000001
 43
0.0000000001
 40
0.3982504941345976
 40
0.3982504941345976
 40
0.3982504941345976
 40
0.3982504941345976
 40
6.452065446090842
 40
6.452065446090842
 40
6.452065446090842
 40
6.452065446090842
 10
-16.57301251726994
 20
4.597878622516304
 30
0.0
 10
-14.66463818558849
 20
4.338359926429347
 30
0.0
 10
-13.56248746245046
 20
2.169179963215015
 30
0.0
 10
-12.46033673931151
 20
0.0000000000006821
 30
0.0
  0
SPLINE
  5
4027
330
1F
100
AcDbEntity
  8
AM_0
100
AcDbSpline
210
0.0
220
0.0
230
1.0
 70
     8
 71
     3
 72
     8
 73
     4
 74
     0
 42
0.0000000001
 43
0.0000000001
 40
0.157854605497133
 40
0.157854605497133
 40
0.157854605497133
 40
0.157854605497133
 40
6.616360992657454
 40
6.616360992657454
 40
6.616360992657454
 40
6.616360992657454
 10
-29.94737995102411
 20
5.000000000000007
 30
0.0
 10
-27.47681224688039
 20
4.734663253270809
 30
0.0
 10
-26.35691097624794
 20
2.367331626635632
 30
0.0
 10
-25.23700970561594
 20
0.0000000000005684
 30
0.0
  0
SPLINE
  5
4028
330
1F
100
AcDbEntity
  8
AM_0
100
AcDbSpline
210
0.0
220
0.0
230
1.0
 70
     8
 71
     3
 72
     8
 73
     4
 74
     0
 42
0.0000000001
 43
0.0000000001
 40
0.3982504941345976
 40
0.3982504941345976
 40
0.3982504941345976
 40
0.3982504941345976
 40
6.452065446090842
 40
6.452065446090842
 40
6.452065446090842
 40
6.452065446090842
 10
-28.72401015144999
 20
4.665776267871245
 30
0.0
 10
-26.6646381855794
 20
4.338359926429347
 30
0.0
 10
-25.56248746244045
 20
2.169179963215128
 30
0.0
 10
-24.46033673930241
 20
0.0000000000007958
 30
0.0
  0
SPLINE
  5
4029
330
1F
100
AcDbEntity
  8
AM_0
100
AcDbSpline
210
0.0
220
0.0
230
1.0
 70
     8
 71
     3
 72
     8
 73
     4
 74
     0
 42
0.0000000001
 43
0.0000000001
 40
0.0
 40
0.0
 40
0.0
 40
0.0
 40
1.274172826456642
 40
1.274172826456642
 40
1.274172826456642
 40
1.274172826456642
 10
-26.7370097056114
 20
-5.000000000000113
 30
0.0
 10
-26.31291492411697
 20
-4.872136250455164
 30
0.0
 10
-25.92680558642087
 20
-4.76044240380645
 30
0.0
 10
-25.57301251725585
 20
-4.597878622514713
 30
0.0
  0
LINE
  5
402A
330
1F
100
AcDbEntity
  8
AM_11
100
AcDbLine
 10
-25.0
 20
-4.999999999999992
 30
0.0
 11
0.0
 21
-4.999999999999992
 31
0.0
  0
LINE
  5
402B
330
1F
100
AcDbEntity
  8
AM_11
100
AcDbLine
 10
0.0
 20
5.000000000000007
 30
0.0
 11
-25.0
 21
5.000000000000007
 31
0.0
  0
LINE
  5
402C
330
1F
100
AcDbEntity
  8
AM_11
100
AcDbLine
 10
-25.0
 20
5.000000000000007
 30
0.0
 11
-25.0
 21
-4.999999999999992
 31
0.0
  0
LINE
  5
402D
330
1F
100
AcDbEntity
  8
AM_0
100
AcDbLine
 10
-25.0
 20
-2.096644734368354
 30
0.0
 11
-25.0
 21
1.047216052912034
 31
0.0
  0
LINE
  5
402E
330
1F
100
AcDbEntity
  8
AM_0
100
AcDbLine
 10
-26.7370097056114
 20
-5.000000000000113
 30
0.0
 11
-35.82051710008591
 21
-5.000000000000113
 31
0.0
  0
LINE
  5
402F
330
1F
100
AcDbEntity
  8
AM_0
100
AcDbLine
 10
-28.64638076783695
 20
0.9279416024190823
 30
0.0
 11
-26.86557374218319
 21
1.838925634546171
 31
0.0
  0
ARC
  5
4030
330
1F
100
AcDbEntity
  8
AM_0
100
AcDbCircle
 10
-27.73552943359983
 20
-0.8526060231498604
 30
0.0
 40
2.0
100
AcDbArc
 50
117.0923257436932
 51
211.247911487523
  0
DIMENSION
  5
4031
330
1F
100
AcDbEntity
  8
AM_5
100
AcDbDimension
  2
*D16
 10
11.55776903085518
 20
-4.999999999999996
 30
0.0
 11
10.00776903085518
 21
0.0000000000000057
 31
0.0
 70
    32
  1
%%c<>
  3
AM_JIS
100
AcDbAlignedDimension
 13
0.0
 23
5.000000000000007
 33
0.0
 14
0.0000000000000071
 24
-4.999999999999992
 34
0.0
 50
90.00000000000003
100
AcDbRotatedDimension
1001
GENIUS_GENDTOL_13
1000

1000
h7
1000

1040
0.0
  0
LINE
  5
4032
330
1F
100
AcDbEntity
  8
AM_11
100
AcDbLine
 10
0.0
 20
5.000000000000007
 30
0.0
 11
0.0
 21
-4.999999999999992
 31
0.0
  0
LINE
  5
4033
330
1F
100
AcDbEntity
  8
AM_0
100
AcDbLine
 10
0.0000000000004547
 20
-2.499999999997385
 30
0.0
 11
0.0
 21
-0.7778619134303426
 31
0.0
  0
LINE
  5
4034
330
1F
100
AcDbEntity
  8
AM_0
100
AcDbLine
 10
0.0000000000004547
 20
-2.499999999997385
 30
0.0
 11
-0.1999999999998181
 21
-1.507065027759381
 31
0.0
  0
LINE
  5
4035
330
1F
100
AcDbEntity
  8
AM_11
100
AcDbLine
 10
0.0000000000004547
 20
-5.0
 30
0.0
 11
0.0000000000004547
 21
-2.499999999997385
 31
0.0
  0
LINE
  5
4036
330
1F
100
AcDbEntity
  8
AM_0
100
AcDbLine
 10
-0.650000000000091
 20
-3.418076860276869
 30
0.0
 11
-0.4338136948695137
 21
-2.499999999981355
 31
0.0
  0
LINE
  5
4037
330
1F
100
AcDbEntity
  8
AM_0
100
AcDbLine
 10
0.0000000000004547
 20
-2.499999999997385
 30
0.0
 11
-0.1999999999998181
 21
-3.472298876617969
 31
0.0
  0
LINE
  5
4038
330
1F
100
AcDbEntity
  8
AM_0
100
AcDbLine
 10
-0.2000000000084583
 20
-3.472298876659806
 30
0.0
 11
-0.1999999999725332
 21
-2.499999999989995
 31
0.0
  0
LINE
  5
4039
330
1F
100
AcDbEntity
  8
AM_0
100
AcDbLine
 10
-0.7772087130038017
 20
-2.499999999968849
 30
0.0
 11
0.0000000000004547
 21
-2.499999999997385
 31
0.0
  0
LINE
  5
403A
330
1F
100
AcDbEntity
  8
AM_0
100
AcDbLine
 10
0.0
 20
0.0
 30
0.0
 11
-0.0000000000004547
 21
4.866025403786125
 31
0.0
  0
LINE
  5
403B
330
1F
100
AcDbEntity
  8
AM_0
100
AcDbLine
 10
-0.650000000000091
 20
1.686026052707347
 30
0.0
 11
-1.518937798819933
 21
2.777777777777714
 31
0.0
  0
ARC
  5
403C
330
1F
100
AcDbEntity
  8
AM_0
100
AcDbCircle
 10
5.006362300191085
 20
0.8549184450272377
 30
0.0
 40
5.717094920198938
100
AcDbArc
 50
171.6411574078214
 51
204.4024896870891
  0
LINE
  5
403D
330
1F
100
AcDbEntity
  8
AM_0
100
AcDbLine
 10
-0.2000000000002728
 20
0.0
 30
0.0
 11
-0.650000000000091
 21
1.686026052707347
 31
0.0
  0
LINE
  5
403E
330
1F
100
AcDbEntity
  8
AM_0
100
AcDbLine
 10
-0.1999999999998181
 20
-1.507065027759381
 30
0.0
 11
-0.2000000000002728
 21
0.0
 31
0.0
  0
LINE
  5
403F
330
1F
100
AcDbEntity
  8
AM_0
100
AcDbLine
 10
0.0
 20
-0.777861913430229
 30
0.0
 11
-0.2000000000002728
 21
0.0
 31
0.0
  0
LINE
  5
4040
330
1F
100
AcDbEntity
  8
AM_0
100
AcDbLine
 10
0.0
 20
0.0
 30
0.0
 11
-0.1020633948778595
 21
-0.3809057752764602
 31
0.0
  0
LINE
  5
4041
330
1F
100
AcDbEntity
  8
AM_0
100
AcDbLine
 10
-0.4999999999995453
 20
5.000000000001591
 30
0.0
 11
-0.0000000000004547
 21
4.866025403786125
 31
0.0
  0
VIEWPORT
  5
110
330
101
100
AcDbEntity
 67
     1
  8
0
100
AcDbViewport
 10
420.5
 20
297.0
 30
0.0
 40
948.9782706766916
 41
628.452
 68
     1
 69
     1
1001
ACAD
1000
MVIEW
1002
{
1070
    16
1010
0.0
1020
0.0
1030
0.0
1010
0.0
1020
0.0
1030
1.0
1040
0.0
1040
628.452
1040
420.5
1040
297.0
1040
50.0
1040
0.0
1040
0.0
1070
     0
1070
   100
1070
     1
1070
     1
1070
     0
1070
     0
1070
     0
1070
     0
1040
0.0
1040
0.0
1040
0.0
1040
10.0
1040
10.0
1040
10.0
1040
10.0
1070
     0
1002
{
1002
}
1002
}
  0
ENDSEC
  0
SECTION
  2
OBJECTS
  0
DICTIONARY
  5
C
330
0
100
AcDbDictionary
  3
ACAD_GROUP
350
D
  3
ACAD_LAYOUT
350
1A
  3
ACAD_MLINESTYLE
350
17
  3
ACAD_PLOTSETTINGS
350
19
  3
ACAD_PLOTSTYLENAME
350
E
  3
ACDBVARIABLEDICTIONARY
350
34
  3
ACMDICTIONARY
350
43
  3
AMG
350
2B
  3
AMGSNAPSETTINGS
350
6E
  3
ASE_INDEX_DICTIONARY
350
151A
  3
DWGPROPS
350
40A6
  3
ACDBHEADERROUNDTRIPXREC
350
40B2
  0
DICTIONARY
  5
74
330
1F
100
AcDbDictionary
280
     1
  3
ACAD_INDEX
360
40A8
  3
ACAD_LAYOUTSELFREF
360
40D5
  0
DICTIONARY
  5
40DA
330
101
100
AcDbDictionary
280
     1
  3
ACAD_LAYOUTSELFREF
360
40DB
  0
DICTIONARY
  5
D
102
{ACAD_REACTORS
330
C
102
}
330
C
100
AcDbDictionary
  0
DICTIONARY
  5
1A
102
{ACAD_REACTORS
330
C
102
}
330
C
100
AcDbDictionary
  0
DICTIONARY
  5
17
102
{ACAD_REACTORS
330
C
102
}
330
C
100
AcDbDictionary
  3
STANDARD
350
18
  0
DICTIONARY
  5
19
102
{ACAD_REACTORS
330
C
102
}
330
C
100
AcDbDictionary
  0
ACDBDICTIONARYWDFLT
  5
E
102
{ACAD_REACTORS
330
C
102
}
330
C
100
AcDbDictionary
281
     1
  3
Normal
350
F
100
AcDbDictionaryWithDefault
340
F
  0
DICTIONARY
  5
34
102
{ACAD_REACTORS
330
C
102
}
330
C
100
AcDbDictionary
  3
INDEXCTL
350
35
  3
SORTENTS
350
B5E
  0
DICTIONARY
  5
43
102
{ACAD_REACTORS
330
C
102
}
330
C
100
AcDbDictionary
  3
ACMSTDDICTIONARY
350
260
  0
DICTIONARY
  5
2B
102
{ACAD_REACTORS
330
C
102
}
330
C
100
AcDbDictionary
  3
ACMGSETTINGS
350
2C
  0
DICTIONARY
  5
6E
102
{ACAD_REACTORS
330
C
102
}
330
C
100
AcDbDictionary
  0
DICTIONARY
  5
151A
102
{ACAD_REACTORS
330
C
102
}
330
C
100
AcDbDictionary
  3
ASEBLOCKHIERARCHYINDEXRECORD
350
151C
1001
DCO15
1040
1471862535.906
  0
XRECORD
  5
40A6
102
{ACAD_REACTORS
330
C
102
}
330
C
100
AcDbXrecord
  1
DWGPROPS COOKIE
  2

  3

  4

  6

  7

  8

  9

300
AmdtFileType=82
301
=
302
=
303
=
304
=
305
=
306
=
307
=
308
=
309
=
 40
0.1409001273148148
 41
2452838.430434386
 42
2453045.766399629
  1

 90
        1
  0
DICTIONARY
  5
40B2
102
{ACAD_REACTORS
330
C
102
}
330
C
100
AcDbDictionary
  3
TSTACKALIGN
350
40B3
  3
TSTACKSIZE
350
40B4
  3
HYPERLINKBASE
350
40B5
  3
STYLESHEET
350
40B6
  3
LAYOUTDICT
350
40B7
  3
PLOTSETDICT
350
40B8
  3
PLOTSTYLNAMDICT
350
40B9
  3
LWETCUNION
350
40BA
  3
INSUNITS
350
40BB
  3
CEPSNTYPE
350
40BC
  3
FINGERPRINTGUID
350
40BD
  3
VERSIONGUID
350
40BE
  3
PSVPSCALE
350
40BF
  3
DIMSTYLEDATA
350
40C0
  3
PUCSORTHOREF
350
40C1
  3
PUCSORTHOVIEW
350
40C2
  3
PUCSBASE
350
40C3
  3
PUCSORGTOP
350
40C4
  3
PUCSORGBOTTOM
350
40C5
  3
PUCSORGLEFT
350
40C6
  3
PUCSORGRIGHT
350
40C7
  3
PUCSORGFRONT
350
40C8
  3
PUCSORGBACK
350
40C9
  3
UCSORTHOREF
350
40CA
  3
UCSORTHOVIEW
350
40CB
  3
UCSBASE
350
40CC
  3
UCSORGTOP
350
40CD
  3
UCSORGBOTTOM
350
40CE
  3
UCSORGLEFT
350
40CF
  3
UCSORGRIGHT
350
40D0
  3
UCSORGFRONT
350
40D1
  3
UCSORGBACK
350
40D2
  0
DICTIONARY
  5
40A8
102
{ACAD_REACTORS
330
74
102
}
330
74
100
AcDbDictionary
  3
*A1
350
40A9
  0
XRECORD
  5
40D5
102
{ACAD_REACTORS
330
74
102
}
330
74
100
AcDbXrecord
340
1F
  0
XRECORD
  5
40DB
102
{ACAD_REACTORS
330
40DA
102
}
330
40DA
100
AcDbXrecord
340
101
  0
MLINESTYLE
  5
18
102
{ACAD_REACTORS
330
17
102
}
330
17
100
AcDbMlineStyle
  2
STANDARD
 70
     0
  3

 62
   256
 51
90.0
 52
90.0
 71
     2
 49
0.5
 62
   256
  6
BYLAYER
 49
-0.5
 62
   256
  6
BYLAYER
  0
ACDBPLACEHOLDER
  5
F
102
{ACAD_REACTORS
330
E
102
}
330
E
100
AcDbPlaceHolder
280
     0
  0
DICTIONARYVAR
  5
35
102
{ACAD_REACTORS
330
34
102
}
330
34
100
DictionaryVariables
280
     0
  1
1
  0
DICTIONARYVAR
  5
B5E
102
{ACAD_REACTORS
330
34
102
}
330
34
100
DictionaryVariables
280
     0
  1
96
  0
DICTIONARY
  5
260
102
{ACAD_REACTORS
330
43
102
}
330
43
100
AcDbDictionary
  0
DICTIONARY
  5
2C
102
{ACAD_REACTORS
330
2B
102
}
330
2B
100
AcDbDictionary
  3
DWGSETTINGS
350
2D
  0
XRECORD
  5
151C
102
{ACAD_REACTORS
330
151A
102
}
330
151A
100
AcDbXrecord
330
0
330
0
330
0
330
0
330
0
330
0
330
0
330
0
  0
XRECORD
  5
40B3
102
{ACAD_REACTORS
330
40B2
102
}
330
40B2
100
AcDbXrecord
 90
        1
  0
XRECORD
  5
40B4
102
{ACAD_REACTORS
330
40B2
102
}
330
40B2
100
AcDbXrecord
 90
       70
  0
XRECORD
  5
40B5
102
{ACAD_REACTORS
330
40B2
102
}
330
40B2
100
AcDbXrecord
  1

  0
XRECORD
  5
40B6
102
{ACAD_REACTORS
330
40B2
102
}
330
40B2
100
AcDbXrecord
  1
ASAMI.ctb
  0
XRECORD
  5
40B7
102
{ACAD_REACTORS
330
40B2
102
}
330
40B2
100
AcDbXrecord
340
1A
  0
XRECORD
  5
40B8
102
{ACAD_REACTORS
330
40B2
102
}
330
40B2
100
AcDbXrecord
340
19
  0
XRECORD
  5
40B9
102
{ACAD_REACTORS
330
40B2
102
}
330
40B2
100
AcDbXrecord
340
E
  0
XRECORD
  5
40BA
102
{ACAD_REACTORS
330
40B2
102
}
330
40B2
100
AcDbXrecord
 90
    10781
  0
XRECORD
  5
40BB
102
{ACAD_REACTORS
330
40B2
102
}
330
40B2
100
AcDbXrecord
 90
        4
  0
XRECORD
  5
40BC
102
{ACAD_REACTORS
330
40B2
102
}
330
40B2
100
AcDbXrecord
 90
        0
  0
XRECORD
  5
40BD
102
{ACAD_REACTORS
330
40B2
102
}
330
40B2
100
AcDbXrecord
  1
{AFB28963-8C59-40AE-9337-C84526B81ACE}
  0
XRECORD
  5
40BE
102
{ACAD_REACTORS
330
40B2
102
}
330
40B2
100
AcDbXrecord
  1
{B7E321E9-6831-4972-B256-483ACD1FAB0E}
  0
XRECORD
  5
40BF
102
{ACAD_REACTORS
330
40B2
102
}
330
40B2
100
AcDbXrecord
 40
0.0
  0
XRECORD
  5
40C0
102
{ACAD_REACTORS
330
40B2
102
}
330
40B2
100
AcDbXrecord
1000
DSTYLE
1002
{
1070
    79
 70
     2
1070
   341
340
59
1070
   342
340
59
1070
   371
 70
    -1
1070
   372
 70
    -1
1002
}
  0
XRECORD
  5
40C1
102
{ACAD_REACTORS
330
40B2
102
}
330
40B2
100
AcDbXrecord
340
0
  0
XRECORD
  5
40C2
102
{ACAD_REACTORS
330
40B2
102
}
330
40B2
100
AcDbXrecord
 70
     0
  0
XRECORD
  5
40C3
102
{ACAD_REACTORS
330
40B2
102
}
330
40B2
100
AcDbXrecord
340
0
  0
XRECORD
  5
40C4
102
{ACAD_REACTORS
330
40B2
102
}
330
40B2
100
AcDbXrecord
 10
0.0
 20
0.0
 30
0.0
  0
XRECORD
  5
40C5
102
{ACAD_REACTORS
330
40B2
102
}
330
40B2
100
AcDbXrecord
 10
0.0
 20
0.0
 30
0.0
  0
XRECORD
  5
40C6
102
{ACAD_REACTORS
330
40B2
102
}
330
40B2
100
AcDbXrecord
 10
0.0
 20
0.0
 30
0.0
  0
XRECORD
  5
40C7
102
{ACAD_REACTORS
330
40B2
102
}
330
40B2
100
AcDbXrecord
 10
0.0
 20
0.0
 30
0.0
  0
XRECORD
  5
40C8
102
{ACAD_REACTORS
330
40B2
102
}
330
40B2
100
AcDbXrecord
 10
0.0
 20
0.0
 30
0.0
  0
XRECORD
  5
40C9
102
{ACAD_REACTORS
330
40B2
102
}
330
40B2
100
AcDbXrecord
 10
0.0
 20
0.0
 30
0.0
  0
XRECORD
  5
40CA
102
{ACAD_REACTORS
330
40B2
102
}
330
40B2
100
AcDbXrecord
340
0
  0
XRECORD
  5
40CB
102
{ACAD_REACTORS
330
40B2
102
}
330
40B2
100
AcDbXrecord
 70
     0
  0
XRECORD
  5
40CC
102
{ACAD_REACTORS
330
40B2
102
}
330
40B2
100
AcDbXrecord
340
0
  0
XRECORD
  5
40CD
102
{ACAD_REACTORS
330
40B2
102
}
330
40B2
100
AcDbXrecord
 10
0.0
 20
0.0
 30
0.0
  0
XRECORD
  5
40CE
102
{ACAD_REACTORS
330
40B2
102
}
330
40B2
100
AcDbXrecord
 10
0.0
 20
0.0
 30
0.0
  0
XRECORD
  5
40CF
102
{ACAD_REACTORS
330
40B2
102
}
330
40B2
100
AcDbXrecord
 10
0.0
 20
0.0
 30
0.0
  0
XRECORD
  5
40D0
102
{ACAD_REACTORS
330
40B2
102
}
330
40B2
100
AcDbXrecord
 10
0.0
 20
0.0
 30
0.0
  0
XRECORD
  5
40D1
102
{ACAD_REACTORS
330
40B2
102
}
330
40B2
100
AcDbXrecord
 10
0.0
 20
0.0
 30
0.0
  0
XRECORD
  5
40D2
102
{ACAD_REACTORS
330
40B2
102
}
330
40B2
100
AcDbXrecord
 10
0.0
 20
0.0
 30
0.0
  0
LAYER_INDEX
  5
40A9
102
{ACAD_REACTORS
330
40A8
102
}
330
40A8
100
AcDbIndex
 40
2453152.471739282
100
AcDbLayerIndex
  8
0
360
40AA
 90
        0
  8
AM_0
360
40AB
 90
       77
  8
AM_11
360
40AC
 90
        5
  8
AM_7
360
40AD
 90
        1
  8
AM_5
360
40AE
 90
        4
  8
Defpoints
360
40AF
 90
        0
  8
AM_6
360
40B0
 90
        1
  0
XRECORD
  5
2D
102
{ACAD_REACTORS
330
2C
102
}
330
2C
100
AcDbXrecord
  1
VERSION
140
15.0
  1
PRODUCT
  2
AutoCAD Mechanical 2000
  0
IDBUFFER
  5
40AA
330
0
100
AcDbIdBuffer
  0
IDBUFFER
  5
40AB
330
0
100
AcDbIdBuffer
330
401F
330
4020
330
4021
330
4022
330
4023
330
4024
330
4025
330
4026
330
4027
330
4028
330
4029
330
402D
330
402E
330
402F
330
4030
330
4033
330
4034
330
4036
330
4037
330
4038
330
4039
330
403A
330
403B
330
403C
330
403D
330
403E
330
403F
330
4040
330
4041
330
3FEC
330
3FED
330
3FEF
330
3FF0
330
3FF2
330
3FF3
330
3FF5
330
3FF6
330
3FF7
330
3FF8
330
3FF9
330
3FFA
330
3FFB
330
3FFC
330
3FFD
330
3FFE
330
3FFF
330
4000
330
4001
330
4002
330
4003
330
4004
330
4005
330
4006
330
4007
330
4008
330
4009
330
400A
330
400B
330
400C
330
400D
330
400E
330
400F
330
4010
330
4011
330
4012
330
4013
330
4014
330
4015
330
4016
330
4017
330
4018
330
4019
330
401A
330
401B
330
401C
330
401D
330
401E
  0
IDBUFFER
  5
40AC
330
0
100
AcDbIdBuffer
330
402A
330
402B
330
402C
330
4032
330
4035
  0
IDBUFFER
  5
40AD
330
0
100
AcDbIdBuffer
330
3FEE
  0
IDBUFFER
  5
40AE
330
0
100
AcDbIdBuffer
330
3FEB
330
3FF1
330
3FF4
330
4031
  0
IDBUFFER
  5
40AF
330
0
100
AcDbIdBuffer
  0
IDBUFFER
  5
40B0
330
0
100
AcDbIdBuffer
330
1500
  0
ENDSEC
  0
EOF
