  0
SECTION
  2
HEADER
  9
$ACADVER
  1
AC1014
  9
$ACADMAINTVER
 70
     9
  9
$DWGCODEPAGE
  3
ANSI_932
  9
$INSBASE
 10
0.0
 20
0.0
 30
0.0
  9
$EXTMIN
 10
-143.9689260745062
 20
-61.00000100999997
 30
-0.00000001
  9
$EXTMAX
 10
16.32953088907466
 20
14.46981604290131
 30
0.00000001
  9
$LIMMIN
 10
-151.5048958151758
 20
-73.47322980792771
  9
$LIMMAX
 10
33.70358529123882
 20
36.53708887923397
  9
$ORTHOMODE
 70
     0
  9
$REGENMODE
 70
     1
  9
$FILLMODE
 70
     1
  9
$QTEXTMODE
 70
     0
  9
$MIRRTEXT
 70
     0
  9
$DRAGMODE
 70
     2
  9
$LTSCALE
 40
1.0
  9
$OSMODE
 70
    55
  9
$ATTMODE
 70
     1
  9
$TEXTSIZE
 40
2.5
  9
$TRACEWID
 40
1.0
  9
$TEXTSTYLE
  7
STANDARD
  9
$CLAYER
  8
AM_0
  9
$CELTYPE
  6
BYLAYER
  9
$CECOLOR
 62
   256
  9
$CELTSCALE
 40
1.0
  9
$DELOBJ
 70
     1
  9
$DISPSILH
 70
     0
  9
$DIMSCALE
 40
0.5
  9
$DIMASZ
 40
2.5
  9
$DIMEXO
 40
1.0
  9
$DIMDLI
 40
12.0
  9
$DIMRND
 40
0.0
  9
$DIMDLE
 40
0.0
  9
$DIMEXE
 40
1.0
  9
$DIMTP
 40
0.1
  9
$DIMTM
 40
0.1
  9
$DIMTXT
 40
3.2
  9
$DIMCEN
 40
0.0
  9
$DIMTSZ
 40
0.0
  9
$DIMTOL
 70
     0
  9
$DIMLIM
 70
     0
  9
$DIMTIH
 70
     0
  9
$DIMTOH
 70
     0
  9
$DIMSE1
 70
     0
  9
$DIMSE2
 70
     0
  9
$DIMTAD
 70
     3
  9
$DIMZIN
 70
     8
  9
$DIMBLK
  1
OPEN30
  9
$DIMASO
 70
     1
  9
$DIMSHO
 70
     1
  9
$DIMPOST
  1

  9
$DIMAPOST
  1
"
  9
$DIMALT
 70
     0
  9
$DIMALTD
 70
     2
  9
$DIMALTF
 40
0.0393701
  9
$DIMLFAC
 40
1.0
  9
$DIMTOFL
 70
     1
  9
$DIMTVP
 40
0.0
  9
$DIMTIX
 70
     0
  9
$DIMSOXD
 70
     0
  9
$DIMSAH
 70
     0
  9
$DIMBLK1
  1

  9
$DIMBLK2
  1

  9
$DIMSTYLE
  2
AM_JIS
  9
$DIMCLRD
 70
   256
  9
$DIMCLRE
 70
   256
  9
$DIMCLRT
 70
     2
  9
$DIMTFAC
 40
0.71
  9
$DIMGAP
 40
1.5
  9
$DIMJUST
 70
     0
  9
$DIMSD1
 70
     0
  9
$DIMSD2
 70
     0
  9
$DIMTOLJ
 70
     0
  9
$DIMTZIN
 70
     0
  9
$DIMALTZ
 70
     0
  9
$DIMALTTZ
 70
     0
  9
$DIMFIT
 70
     3
  9
$DIMUPT
 70
     0
  9
$DIMUNIT
 70
     2
  9
$DIMDEC
 70
     3
  9
$DIMTDEC
 70
     3
  9
$DIMALTU
 70
     2
  9
$DIMALTTD
 70
     2
  9
$DIMTXSTY
  7
ASAMI
  9
$DIMAUNIT
 70
     0
  9
$LUNITS
 70
     2
  9
$LUPREC
 70
     2
  9
$SKETCHINC
 40
1.0
  9
$FILLETRAD
 40
2.5
  9
$AUNITS
 70
     0
  9
$AUPREC
 70
     0
  9
$MENU
  1
.
  9
$ELEVATION
 40
0.0
  9
$PELEVATION
 40
0.0
  9
$THICKNESS
 40
0.0
  9
$LIMCHECK
 70
     0
  9
$BLIPMODE
 70
     0
  9
$CHAMFERA
 40
1.25
  9
$CHAMFERB
 40
1.25
  9
$CHAMFERC
 40
20.0
  9
$CHAMFERD
 40
0.0
  9
$SKPOLY
 70
     0
  9
$TDCREATE
 40
2452838.430434386
  9
$TDUPDATE
 40
2453152.468152500
  9
$TDINDWG
 40
0.1900434259
  9
$TDUSRTIMER
 40
0.1900434259
  9
$USRTIMER
 70
     1
  9
$ANGBASE
 50
0.0
  9
$ANGDIR
 70
     0
  9
$PDMODE
 70
     0
  9
$PDSIZE
 40
0.0
  9
$PLINEWID
 40
0.0
  9
$COORDS
 70
     1
  9
$SPLFRAME
 70
     0
  9
$SPLINETYPE
 70
     6
  9
$SPLINESEGS
 70
     8
  9
$ATTDIA
 70
     1
  9
$ATTREQ
 70
     1
  9
$HANDLING
 70
 12289
  9
$HANDSEED
  5
4723
  9
$SURFTAB1
 70
     6
  9
$SURFTAB2
 70
     6
  9
$SURFTYPE
 70
     6
  9
$SURFU
 70
     6
  9
$SURFV
 70
     6
  9
$UCSNAME
  2

  9
$UCSORG
 10
0.0
 20
0.0
 30
0.0
  9
$UCSXDIR
 10
1.0
 20
0.0
 30
0.0
  9
$UCSYDIR
 10
0.0
 20
1.0
 30
0.0
  9
$PUCSNAME
  2

  9
$PUCSORG
 10
0.0
 20
0.0
 30
0.0
  9
$PUCSXDIR
 10
1.0
 20
0.0
 30
0.0
  9
$PUCSYDIR
 10
0.0
 20
1.0
 30
0.0
  9
$USERI1
 70
     0
  9
$USERI2
 70
     0
  9
$USERI3
 70
     0
  9
$USERI4
 70
     0
  9
$USERI5
 70
     0
  9
$USERR1
 40
0.0
  9
$USERR2
 40
0.0
  9
$USERR3
 40
0.0
  9
$USERR4
 40
0.0
  9
$USERR5
 40
0.0
  9
$WORLDVIEW
 70
     1
  9
$SHADEDGE
 70
     3
  9
$SHADEDIF
 70
    70
  9
$TILEMODE
 70
     1
  9
$MAXACTVP
 70
    64
  9
$PINSBASE
 10
0.0
 20
0.0
 30
0.0
  9
$PLIMCHECK
 70
     0
  9
$PEXTMIN
 10
1.000000000000000E+20
 20
1.000000000000000E+20
 30
1.000000000000000E+20
  9
$PEXTMAX
 10
-1.000000000000000E+20
 20
-1.000000000000000E+20
 30
-1.000000000000000E+20
  9
$PLIMMIN
 10
0.0
 20
0.0
  9
$PLIMMAX
 10
841.0
 20
594.0
  9
$UNITMODE
 70
     0
  9
$VISRETAIN
 70
     1
  9
$PLINEGEN
 70
     0
  9
$PSLTSCALE
 70
     0
  9
$TREEDEPTH
 70
  3020
  9
$PICKSTYLE
 70
     0
  9
$CMLSTYLE
  2
STANDARD
  9
$CMLJUST
 70
     0
  9
$CMLSCALE
 40
20.0
  9
$PROXYGRAPHICS
 70
     1
  9
$MEASUREMENT
 70
     1
  0
ENDSEC
  0
SECTION
  2
CLASSES
  0
CLASS
  1
ACDBDICTIONARYWDFLT
  2
AcDbDictionaryWithDefault
  3
AutoCAD 2000
 90
        0
280
     0
281
     0
  0
CLASS
  1
ACDBPLACEHOLDER
  2
AcDbPlaceHolder
  3
AutoCAD 2000
 90
        0
280
     0
281
     0
  0
CLASS
  1
LAYOUT
  2
AcDbLayout
  3
AutoCAD 2000
 90
        0
280
     0
281
     0
  0
CLASS
  1
AMGSETTINGSOBJ
  2
AmgSettingsObj
  3
"AcadM|Product Description: AutoCAD Mechanical 2000|Company: Autodesk"
 90
        0
280
     0
281
     0
  0
CLASS
  1
ACME_DOCUMENT
  2
AcMeDbDoc
  3
AcMeServices
 90
        0
280
     0
281
     0
  0
CLASS
  1
ACMESCOPE
  2
AcMeScope
  3
AcMeServices
 90
        0
280
     0
281
     0
  0
CLASS
  1
ACMECOMMANDHISTORY
  2
AcMeCommandHistory
  3
AcMeServices
 90
        0
280
     0
281
     0
  0
CLASS
  1
DICTIONARYVAR
  2
AcDbDictionaryVar
  3
AutoCAD 2000
 90
        0
280
     0
281
     0
  0
CLASS
  1
ACIMSYSVARMAN
  2
AcImSysVarManager
  3
AcMeServices
 90
        0
280
     0
281
     0
  0
CLASS
  1
ACIMREALSYSVAR
  2
AcImRealSysVar
  3
AcMeServices
 90
        0
280
     0
281
     0
  0
CLASS
  1
ACIMINTSYSVAR
  2
AcImIntSysVar
  3
AcMeServices
 90
        0
280
     0
281
     0
  0
CLASS
  1
ACMEDRAWINGMAN
  2
AcMeDrawingMan
  3
AcMeServices
 90
        0
280
     0
281
     0
  0
CLASS
  1
ACMEVIEW
  2
AcMeView
  3
AcMeServices
 90
        0
280
     0
281
     0
  0
CLASS
  1
ACDBENTITYCACHE
  2
AcMeEntityCache
  3
AcMeServices
 90
        0
280
     0
281
     0
  0
CLASS
  1
GSMANAGER
  2
AcMeGSManager
  3
AcMeServices
 90
        0
280
     0
281
     0
  0
CLASS
  1
AmdtInternalReactor
  2
AmdtInternalReactor
  3
AcMeServices
 90
        0
280
     0
281
     0
  0
CLASS
  1
ACMESTATEMGR
  2
AcMeStateMgr
  3
AcMeServices
 90
        0
280
     0
281
     0
  0
CLASS
  1
ACME_DATABASE
  2
AcMeDbDatabase
  3
AcMeServices
 90
        0
280
     0
281
     0
  0
CLASS
  1
ACRFINSADJUSTERMGR
  2
AcRfInsAdjusterMgr
  3
AcMeServices
 90
        0
280
     0
281
     0
  0
CLASS
  1
ACMDATADICTIONARY
  2
AcmDataDictionary
  3
"AcmSymBB|Product Description: AutoCAD Mechanical 2000|Company: Autodesk"
 90
        0
280
     0
281
     0
  0
CLASS
  1
ACMDATAENTRYBLOCK
  2
AcmDataEntryBlock
  3
"AcmSymBB|Product Description: AutoCAD Mechanical 2000|Company: Autodesk"
 90
        0
280
     0
281
     0
  0
CLASS
  1
AMGOBJPROPCFG
  2
AmgObjPropCfg
  3
"AmgLay|Product Description: AutoCAD Mechanical 2000|Company: Autodesk"
 90
        1
280
     0
281
     0
  0
CLASS
  1
ACAMGFILTERDAT
  2
AcAmgFilterDat
  3
"AcadM|Product Description: AutoCAD Mechanical 2000|Company: Autodesk"
 90
        0
280
     0
281
     0
  0
CLASS
  1
LAYER_INDEX
  2
AcDbLayerIndex
  3
AutoCAD 2000
 90
        0
280
     0
281
     0
  0
CLASS
  1
IDBUFFER
  2
AcDbIdBuffer
  3
AutoCAD 2000
 90
        0
280
     0
281
     0
  0
CLASS
  1
ACIMSTRSYSVAR
  2
AcImStrSysVar
  3
AcMeServices
 90
        0
280
     0
281
     0
  0
CLASS
  1
ACMSTANDARDJIS
  2
AcmStandardJIS
  3
"AcmSymBB|Product Description: AutoCAD Mechanical 2000|Company: Autodesk"
 90
        0
280
     0
281
     0
  0
CLASS
  1
ACMSURFSTANDARDJIS
  2
AcmSurfTextStdJIS
  3
"AcmSymBB|Product Description: AutoCAD Mechanical 2000|Company: Autodesk"
 90
        0
280
     0
281
     0
  0
CLASS
  1
ACMFCFSTANDARDJIS
  2
AcmFCFStdJIS
  3
"AcmSymBB|Product Description: AutoCAD Mechanical 2000|Company: Autodesk"
 90
        0
280
     0
281
     0
  0
CLASS
  1
ACMWELDSTANDARDJIS
  2
AcmWeldingStdJIS
  3
"AcmSymBB|Product Description: AutoCAD Mechanical 2000|Company: Autodesk"
 90
        0
280
     0
281
     0
  0
CLASS
  1
ACMIDSTANDARDJIS
  2
AcmIdStdJIS
  3
"AcmSymBB|Product Description: AutoCAD Mechanical 2000|Company: Autodesk"
 90
        0
280
     0
281
     0
  0
CLASS
  1
ACMDATUMSTANDARDJIS
  2
AcmDatumStdJIS
  3
"AcmSymBB|Product Description: AutoCAD Mechanical 2000|Company: Autodesk"
 90
        0
280
     0
281
     0
  0
CLASS
  1
ACMBOMSTANDARDJIS
  2
AcmBOMStdJIS
  3
"AcmSymBB|Product Description: AutoCAD Mechanical 2000|Company: Autodesk"
 90
        0
280
     0
281
     0
  0
CLASS
  1
ACMSTANDARDANSI
  2
AcmStandardANSI
  3
"AcmSymBB|Product Description: AutoCAD Mechanical 2000|Company: Autodesk"
 90
        0
280
     0
281
     0
  0
CLASS
  1
ACMSURFSTANDARDANSI
  2
AcmSurfTextStdANSI
  3
"AcmSymBB|Product Description: AutoCAD Mechanical 2000|Company: Autodesk"
 90
        0
280
     0
281
     0
  0
CLASS
  1
ACMFCFSTANDARDANSI
  2
AcmFCFStdANSI
  3
"AcmSymBB|Product Description: AutoCAD Mechanical 2000|Company: Autodesk"
 90
        0
280
     0
281
     0
  0
CLASS
  1
ACMWELDSTANDARDANSI
  2
AcmWeldingStdANSI
  3
"AcmSymBB|Product Description: AutoCAD Mechanical 2000|Company: Autodesk"
 90
        0
280
     0
281
     0
  0
CLASS
  1
ACMIDSTANDARDANSI
  2
AcmIdStdANSI
  3
"AcmSymBB|Product Description: AutoCAD Mechanical 2000|Company: Autodesk"
 90
        0
280
     0
281
     0
  0
CLASS
  1
ACMDATUMSTANDARDANSI
  2
AcmDatumStdANSI
  3
"AcmSymBB|Product Description: AutoCAD Mechanical 2000|Company: Autodesk"
 90
        0
280
     0
281
     0
  0
CLASS
  1
ACMBOMSTANDARDANSI
  2
AcmBOMStdANSI
  3
"AcmSymBB|Product Description: AutoCAD Mechanical 2000|Company: Autodesk"
 90
        0
280
     0
281
     0
  0
CLASS
  1
ACMSTANDARDBSI
  2
AcmStandardBSI
  3
"AcmSymBB|Product Description: AutoCAD Mechanical 2000|Company: Autodesk"
 90
        0
280
     0
281
     0
  0
CLASS
  1
ACMSURFSTANDARDBSI
  2
AcmSurfTextStdBSI
  3
"AcmSymBB|Product Description: AutoCAD Mechanical 2000|Company: Autodesk"
 90
        0
280
     0
281
     0
  0
CLASS
  1
ACMFCFSTANDARDBSI
  2
AcmFCFStdBSI
  3
"AcmSymBB|Product Description: AutoCAD Mechanical 2000|Company: Autodesk"
 90
        0
280
     0
281
     0
  0
CLASS
  1
ACMWELDSTANDARDBSI
  2
AcmWeldingStdBSI
  3
"AcmSymBB|Product Description: AutoCAD Mechanical 2000|Company: Autodesk"
 90
        0
280
     0
281
     0
  0
CLASS
  1
ACMIDSTANDARDBSI
  2
AcmIdStdBSI
  3
"AcmSymBB|Product Description: AutoCAD Mechanical 2000|Company: Autodesk"
 90
        0
280
     0
281
     0
  0
CLASS
  1
ACMDATUMSTANDARDBSI
  2
AcmDatumStdBSI
  3
"AcmSymBB|Product Description: AutoCAD Mechanical 2000|Company: Autodesk"
 90
        0
280
     0
281
     0
  0
CLASS
  1
ACMBOMSTANDARDBSI
  2
AcmBOMStdBSI
  3
"AcmSymBB|Product Description: AutoCAD Mechanical 2000|Company: Autodesk"
 90
        0
280
     0
281
     0
  0
CLASS
  1
LONG_TRANSACTION
  2
AcDbLongTransaction
  3
AutoCAD 2000
 90
        0
280
     0
281
     0
  0
CLASS
  1
LWPOLYLINE
  2
AcDbPolyline
  3
AutoCAD 2000
 90
        0
280
     0
281
     1
  0
CLASS
  1
HATCH
  2
AcDbHatch
  3
AutoCAD 2000
 90
        0
280
     0
281
     1
  0
CLASS
  1
XRECORD
  2
AcDbXrecord
  3
AutoCAD 2000
 90
        0
280
     0
281
     0
  0
ENDSEC
  0
SECTION
  2
TABLES
  0
TABLE
  2
VPORT
  5
8
330
0
100
AcDbSymbolTable
 70
     3
  0
VPORT
  5
46F8
330
8
100
AcDbSymbolTableRecord
100
AcDbViewportTableRecord
  2
*ACTIVE
 70
     0
 10
0.0
 20
0.0
 11
1.0
 21
1.0
 12
-33.25204536678333
 22
-25.0197116283213
 13
0.0
 23
0.0
 14
2.5
 24
2.5
 15
10.0
 25
10.0
 16
0.0
 26
0.0
 36
1.0
 17
0.0
 27
0.0
 37
0.0
 40
210.4851251138336
 41
1.56570841889117
 42
50.0
 43
0.0
 44
0.0
 50
0.0
 51
0.0
 71
     0
 72
   100
 73
     1
 74
     3
 75
     0
 76
     0
 77
     0
 78
     0
  0
ENDTAB
  0
TABLE
  2
LTYPE
  5
5
330
0
100
AcDbSymbolTable
 70
    10
  0
LTYPE
  5
14
330
5
100
AcDbSymbolTableRecord
100
AcDbLinetypeTableRecord
  2
BYBLOCK
 70
     0
  3

 72
    65
 73
     0
 40
0.0
  0
LTYPE
  5
15
330
5
100
AcDbSymbolTableRecord
100
AcDbLinetypeTableRecord
  2
BYLAYER
 70
     0
  3

 72
    65
 73
     0
 40
0.0
  0
LTYPE
  5
16
330
5
100
AcDbSymbolTableRecord
100
AcDbLinetypeTableRecord
  2
CONTINUOUS
 70
     0
  3
Solid line
 72
    65
 73
     0
 40
0.0
  0
LTYPE
  5
4B
330
5
100
AcDbSymbolTableRecord
100
AcDbLinetypeTableRecord
  2
AM_ISO02W050
 70
     0
  3
__ __ __ __ __ __ __ __ __ __ __ __ __ __ __
 72
    65
 73
     2
 40
7.5
 49
6.0
 74
     0
 49
-1.5
 74
     0
  0
LTYPE
  5
4C
330
5
100
AcDbSymbolTableRecord
100
AcDbLinetypeTableRecord
  2
AM_ISO08W050
 70
     0
  3
____ . ____ . ____ . ____ . ____ . ____ . ____
 72
    65
 73
     4
 40
18.0
 49
12.0
 74
     0
 49
-1.5
 74
     0
 49
3.0
 74
     0
 49
-1.5
 74
     0
  0
LTYPE
  5
4D
330
5
100
AcDbSymbolTableRecord
100
AcDbLinetypeTableRecord
  2
AM_ISO09W050
 70
     0
  3
_____ . . _____ . . _____ . . ____ .. ____
 72
    65
 73
     6
 40
22.5
 49
12.0
 74
     0
 49
-1.5
 74
     0
 49
3.0
 74
     0
 49
-1.5
 74
     0
 49
3.0
 74
     0
 49
-1.5
 74
     0
  0
LTYPE
  5
4E
330
5
100
AcDbSymbolTableRecord
100
AcDbLinetypeTableRecord
  2
AMCONSTR
 70
     0
  3
_______________________
 72
    65
 73
     2
 40
9999.0
 49
9999.0
 74
     0
 49
0.0
 74
     0
  0
LTYPE
  5
4F
330
5
100
AcDbSymbolTableRecord
100
AcDbLinetypeTableRecord
  2
AM_ISO02W050X2
 70
     0
  3
 _ _ _ _ _ _ _ _ _ _ _ _
 72
    65
 73
     2
 40
3.75
 49
3.0
 74
     0
 49
-0.75
 74
     0
  0
LTYPE
  5
50
330
5
100
AcDbSymbolTableRecord
100
AcDbLinetypeTableRecord
  2
AM_ISO08W050X2
 70
     0
  3
__ . __ . __ . __ . __ . __
 72
    65
 73
     4
 40
9.0
 49
6.0
 74
     0
 49
-0.75
 74
     0
 49
1.5
 74
     0
 49
-0.75
 74
     0
  0
LTYPE
  5
53
330
5
100
AcDbSymbolTableRecord
100
AcDbLinetypeTableRecord
  2
AMZIGZAG
 70
     0
  3
/\/-/\/-/\/-/\/-/\/-/\/
 72
    65
 73
     2
 40
11.00009999999999
 49
0.0001
 74
     4
 75
   135
340
52
 46
0.04
 50
0.0
 44
0.0
 45
0.0
 49
-11.0
 74
     0
  0
LTYPE
  5
166
330
5
100
AcDbSymbolTableRecord
100
AcDbLinetypeTableRecord
  2
ACJISTGL
 70
     0
  3
_ _ _ _ _
 72
    65
 73
     2
 40
3.0
 49
2.0
 74
     0
 49
-1.0
 74
     0
  0
LTYPE
  5
26A
330
5
100
AcDbSymbolTableRecord
100
AcDbLinetypeTableRecord
  2
ACJISTGB
 70
     0
  3
__ . . __ . .
 72
    65
 73
     6
 40
9.0
 49
4.0
 74
     0
 49
-1.0
 74
     0
 49
1.0
 74
     0
 49
-1.0
 74
     0
 49
1.0
 74
     0
 49
-1.0
 74
     0
  0
ENDTAB
  0
TABLE
  2
LAYER
  5
2
330
0
100
AcDbSymbolTable
 70
     7
  0
LAYER
  5
10
330
2
100
AcDbSymbolTableRecord
100
AcDbLayerTableRecord
  2
0
 70
     0
 62
     7
  6
CONTINUOUS
  0
LAYER
  5
3F9
330
2
100
AcDbSymbolTableRecord
100
AcDbLayerTableRecord
  2
AM_0
 70
     0
 62
     7
  6
CONTINUOUS
  0
LAYER
  5
BDD
330
2
100
AcDbSymbolTableRecord
100
AcDbLayerTableRecord
  2
AM_11
 70
     0
 62
     3
  6
AM_ISO09W050
  0
LAYER
  5
BDE
330
2
100
AcDbSymbolTableRecord
100
AcDbLayerTableRecord
  2
AM_7
 70
     0
 62
     4
  6
AM_ISO08W050
  0
LAYER
  5
BDF
330
2
100
AcDbSymbolTableRecord
100
AcDbLayerTableRecord
  2
AM_5
 70
     0
 62
     3
  6
CONTINUOUS
  0
LAYER
  5
BE0
330
2
100
AcDbSymbolTableRecord
100
AcDbLayerTableRecord
  2
DEFPOINTS
 70
     0
 62
     7
  6
CONTINUOUS
  0
LAYER
  5
14FF
330
2
100
AcDbSymbolTableRecord
100
AcDbLayerTableRecord
  2
AM_6
 70
     0
 62
     2
  6
CONTINUOUS
  0
ENDTAB
  0
TABLE
  2
STYLE
  5
3
330
0
100
AcDbSymbolTable
 70
     5
  0
STYLE
  5
11
330
3
100
AcDbSymbolTableRecord
100
AcDbTextStyleTableRecord
  2
STANDARD
 70
     0
 40
0.0
 41
1.0
 50
0.0
 71
     0
 42
2.5
  3
simplex.shx
  4
EXTFONT.SHX
  0
STYLE
  5
52
330
3
100
AcDbSymbolTableRecord
100
AcDbTextStyleTableRecord
  2

 70
     1
 40
0.0
 41
1.0
 50
0.0
 71
     0
 42
2.5
  3
ltypeshp.shx
  4

  0
STYLE
  5
6B
330
3
100
AcDbSymbolTableRecord
100
AcDbTextStyleTableRecord
  2
ASAMI
 70
     0
 40
0.0
 41
1.0
 50
0.0
 71
     0
 42
2.5
  3
simplex.shx
  4
EXTFONT.SHX
  0
STYLE
  5
262
330
3
100
AcDbSymbolTableRecord
100
AcDbTextStyleTableRecord
  2
ACJISTS
 70
     0
 40
1.0
 41
1.0
 50
0.0
 71
     0
 42
2.5
  3
simplex.shx
  4
bigfont.shx
  0
STYLE
  5
269
330
3
100
AcDbSymbolTableRecord
100
AcDbTextStyleTableRecord
  2
ACJISGDT
 70
     0
 40
0.0
 41
1.0
 50
0.0
 71
     0
 42
2.5
  3
amgdtans.shx
  4

  0
ENDTAB
  0
TABLE
  2
VIEW
  5
6
330
0
100
AcDbSymbolTable
 70
     0
  0
ENDTAB
  0
TABLE
  2
UCS
  5
7
330
0
100
AcDbSymbolTable
 70
     0
  0
ENDTAB
  0
TABLE
  2
APPID
  5
9
330
0
100
AcDbSymbolTable
 70
    14
  0
APPID
  5
12
330
9
100
AcDbSymbolTableRecord
100
AcDbRegAppTableRecord
  2
ACAD
 70
     0
  0
APPID
  5
30
330
9
100
AcDbSymbolTableRecord
100
AcDbRegAppTableRecord
  2
MCAD_NO_VIS
 70
     0
  0
APPID
  5
31
330
9
100
AcDbSymbolTableRecord
100
AcDbRegAppTableRecord
  2
ACAD_TEMP_GRAPHIC
 70
     0
  0
APPID
  5
2C2
330
9
100
AcDbSymbolTableRecord
100
AcDbRegAppTableRecord
  2
GENIUS_GENDTOL_13
 70
     0
  0
APPID
  5
339
330
9
100
AcDbSymbolTableRecord
100
AcDbRegAppTableRecord
  2
GENIUS_GENODEF_13
 70
     0
  0
APPID
  5
33A
330
9
100
AcDbSymbolTableRecord
100
AcDbRegAppTableRecord
  2
GENIUS_GENOBJ-N-RSBK_13
 70
     0
  0
APPID
  5
33B
330
9
100
AcDbSymbolTableRecord
100
AcDbRegAppTableRecord
  2
GENIUS_GENOBJ-N-LIB_13
 70
     0
  0
APPID
  5
33C
330
9
100
AcDbSymbolTableRecord
100
AcDbRegAppTableRecord
  2
GENIUS_GENSCALE_13
 70
     0
  0
APPID
  5
378
330
9
100
AcDbSymbolTableRecord
100
AcDbRegAppTableRecord
  2
GENIUS_GENDIMSH_14
 70
     0
  0
APPID
  5
BE1
330
9
100
AcDbSymbolTableRecord
100
AcDbRegAppTableRecord
  2
GENIUS_GENFIL_13
 70
     0
  0
APPID
  5
BE2
330
9
100
AcDbSymbolTableRecord
100
AcDbRegAppTableRecord
  2
GENIUS_GENOBJ-N-CHA_13
 70
     0
  0
APPID
  5
151B
330
9
100
AcDbSymbolTableRecord
100
AcDbRegAppTableRecord
  2
DCO15
 70
     0
  0
APPID
  5
1860
330
9
100
AcDbSymbolTableRecord
100
AcDbRegAppTableRecord
  2
GENIUS_GENOBJ-N-CEN_13
 70
     0
  0
APPID
  5
359C
330
9
100
AcDbSymbolTableRecord
100
AcDbRegAppTableRecord
  2
GENIUS_GENOBJ-N-FIL_13
 70
     0
  0
ENDTAB
  0
TABLE
  2
DIMSTYLE
  5
A
330
0
100
AcDbSymbolTable
 70
     8
  0
DIMSTYLE
105
58
102
{ACAD_REACTORS
330
4614
330
4617
330
461B
330
464D
102
}
330
A
100
AcDbSymbolTableRecord
100
AcDbDimStyleTableRecord
  2
AM_JIS
 70
     0
  3

  4
"
  5
OPEN30
  6

  7

 40
1.0
 41
2.5
 42
1.0
 43
12.0
 44
1.0
 45
0.0
 46
0.0
 47
0.1
 48
0.1
140
3.2
141
0.0
142
0.0
143
0.0393701
144
1.0
145
0.0
146
0.71
147
1.5
 71
     0
 72
     0
 73
     0
 74
     0
 75
     0
 76
     0
 77
     3
 78
     8
170
     0
171
     2
172
     1
173
     0
174
     0
175
     0
176
   256
177
   256
178
     2
270
     2
271
     3
272
     3
273
     2
274
     2
340
6B
275
     0
280
     0
281
     0
282
     0
283
     0
284
     0
285
     0
286
     0
287
     3
288
     0
  0
DIMSTYLE
105
5F
330
A
100
AcDbSymbolTableRecord
100
AcDbDimStyleTableRecord
  2
AM_JIS$3
 70
     0
  3

  4
"
  5
OPEN30
  6

  7

 40
1.0
 41
2.5
 42
1.0
 43
10.0
 44
1.0
 45
0.0
 46
0.0
 47
0.1
 48
0.1
140
3.2
141
0.0
142
0.0
143
0.0393701
144
1.0
145
0.0
146
0.71
147
1.5
 71
     0
 72
     0
 73
     0
 74
     1
 75
     0
 76
     0
 77
     3
 78
     8
170
     0
171
     2
172
     0
173
     0
174
     0
175
     0
176
   256
177
   256
178
     2
270
     2
271
     2
272
     3
273
     2
274
     2
340
6B
275
     0
280
     0
281
     0
282
     0
283
     0
284
     0
285
     0
286
     0
287
     0
288
     1
  0
DIMSTYLE
105
60
330
A
100
AcDbSymbolTableRecord
100
AcDbDimStyleTableRecord
  2
AM_JIS$4
 70
     0
  3

  4
"
  5
OPEN30
  6

  7

 40
1.0
 41
2.5
 42
1.0
 43
10.0
 44
1.0
 45
0.0
 46
0.0
 47
0.1
 48
0.1
140
3.2
141
0.0
142
0.0
143
0.0393701
144
1.0
145
0.0
146
0.71
147
1.5
 71
     0
 72
     0
 73
     0
 74
     1
 75
     0
 76
     0
 77
     3
 78
     8
170
     0
171
     2
172
     0
173
     0
174
     0
175
     0
176
   256
177
   256
178
     2
270
     2
271
     2
272
     3
273
     2
274
     2
340
6B
275
     0
280
     0
281
     0
282
     0
283
     0
284
     0
285
     0
286
     0
287
     0
288
     1
  0
DIMSTYLE
105
61
330
A
100
AcDbSymbolTableRecord
100
AcDbDimStyleTableRecord
  2
AM_JIS$6
 70
     0
  3

  4
"
  5
OPEN30
  6

  7

 40
1.0
 41
2.5
 42
1.0
 43
10.0
 44
1.0
 45
0.0
 46
0.0
 47
0.1
 48
0.1
140
3.2
141
0.0
142
0.0
143
0.0393701
144
1.0
145
0.0
146
0.71
147
1.5
 71
     0
 72
     0
 73
     0
 74
     0
 75
     0
 76
     0
 77
     0
 78
     8
170
     0
171
     2
172
     1
173
     0
174
     0
175
     0
176
   256
177
   256
178
     2
270
     2
271
     2
272
     2
273
     2
274
     2
340
6B
275
     0
280
     0
281
     0
282
     0
283
     0
284
     0
285
     0
286
     0
287
     3
288
     0
  0
DIMSTYLE
105
62
330
A
100
AcDbSymbolTableRecord
100
AcDbDimStyleTableRecord
  2
AM_JIS$7
 70
     0
  3

  4
"
  5
OPEN30
  6

  7

 40
1.0
 41
2.5
 42
1.0
 43
10.0
 44
1.0
 45
0.0
 46
0.0
 47
0.1
 48
0.1
140
3.2
141
0.0
142
0.0
143
0.0393701
144
1.0
145
0.0
146
0.71
147
1.5
 71
     0
 72
     0
 73
     0
 74
     0
 75
     0
 76
     0
 77
     3
 78
     8
170
     0
171
     2
172
     1
173
     0
174
     0
175
     0
176
   256
177
   256
178
     2
270
     2
271
     2
272
     3
273
     2
274
     2
340
6B
275
     0
280
     0
281
     0
282
     0
283
     0
284
     0
285
     0
286
     0
287
     3
288
     0
  0
DIMSTYLE
105
63
330
A
100
AcDbSymbolTableRecord
100
AcDbDimStyleTableRecord
  2
AM_JIS$SF
 70
     0
  3

  4
"
  5
OPEN30
  6

  7

 40
1.0
 41
2.5
 42
1.0
 43
10.0
 44
1.0
 45
0.0
 46
0.0
 47
0.1
 48
0.1
140
3.2
141
0.0
142
0.0
143
0.0393701
144
1.0
145
0.0
146
0.71
147
1.5
 71
     0
 72
     0
 73
     0
 74
     0
 75
     1
 76
     1
 77
     3
 78
     8
170
     0
171
     2
172
     1
173
     0
174
     0
175
     0
176
   256
177
   256
178
     2
270
     2
271
     2
272
     2
273
     2
274
     2
340
6B
275
     0
280
     0
281
     0
282
     0
283
     0
284
     0
285
     0
286
     0
287
     3
288
     0
  0
DIMSTYLE
105
68
330
A
100
AcDbSymbolTableRecord
100
AcDbDimStyleTableRecord
  2
AM_JIS$SH
 70
     0
  3

  4
"
  5

  6
GENAXEH
  7
OPEN30
 40
1.0
 41
2.5
 42
1.0
 43
10.0
 44
1.0
 45
0.0
 46
0.0
 47
0.1
 48
0.1
140
3.2
141
0.0
142
0.0
143
0.0393701
144
2.0
145
0.0
146
0.71
147
1.5
 71
     0
 72
     0
 73
     0
 74
     0
 75
     1
 76
     1
 77
     3
 78
     8
170
     0
171
     2
172
     1
173
     1
174
     0
175
     0
176
   256
177
   256
178
     2
270
     2
271
     2
272
     2
273
     2
274
     2
340
6B
275
     0
280
     0
281
     0
282
     0
283
     0
284
     0
285
     0
286
     0
287
     3
288
     0
  0
DIMSTYLE
105
B34
330
A
100
AcDbSymbolTableRecord
100
AcDbDimStyleTableRecord
  2
AM_JIS$2
 70
     0
  3

  4
"
  5
OPEN30
  6

  7

 40
1.0
 41
2.5
 42
1.0
 43
12.0
 44
1.0
 45
0.0
 46
0.0
 47
0.1
 48
0.1
140
3.2
141
0.0
142
0.0
143
0.0393701
144
1.0
145
0.0
146
0.71
147
1.5
 71
     0
 72
     0
 73
     0
 74
     0
 75
     0
 76
     0
 77
     3
 78
     8
170
     0
171
     2
172
     1
173
     0
174
     0
175
     0
176
   256
177
   256
178
     2
270
     2
271
     3
272
     3
273
     2
274
     2
340
6B
275
     0
280
     0
281
     0
282
     0
283
     0
284
     0
285
     0
286
     0
287
     3
288
     0
  0
ENDTAB
  0
TABLE
  2
BLOCK_RECORD
  5
1
330
0
100
AcDbSymbolTable
 70
     9
  0
BLOCK_RECORD
  5
1F
102
{ACAD_XDICTIONARY
360
74
102
}
330
1
100
AcDbSymbolTableRecord
100
AcDbBlockTableRecord
  2
*MODEL_SPACE
  0
BLOCK_RECORD
  5
101
102
{ACAD_XDICTIONARY
360
4721
102
}
330
1
100
AcDbSymbolTableRecord
100
AcDbBlockTableRecord
  2
*PAPER_SPACE
  0
BLOCK_RECORD
  5
59
330
1
100
AcDbSymbolTableRecord
100
AcDbBlockTableRecord
  2
_OPEN30
  0
BLOCK_RECORD
  5
64
330
1
100
AcDbSymbolTableRecord
100
AcDbBlockTableRecord
  2
GENAXEH
  0
BLOCK_RECORD
  5
4681
330
1
100
AcDbSymbolTableRecord
100
AcDbBlockTableRecord
  2
*D5
  0
BLOCK_RECORD
  5
468D
330
1
100
AcDbSymbolTableRecord
100
AcDbBlockTableRecord
  2
*D6
  0
BLOCK_RECORD
  5
4699
330
1
100
AcDbSymbolTableRecord
100
AcDbBlockTableRecord
  2
*D7
  0
BLOCK_RECORD
  5
46A5
330
1
100
AcDbSymbolTableRecord
100
AcDbBlockTableRecord
  2
*D8
  0
ENDTAB
  0
ENDSEC
  0
SECTION
  2
BLOCKS
  0
BLOCK
  5
20
330
1F
100
AcDbEntity
  8
0
100
AcDbBlockBegin
  2
*MODEL_SPACE
 70
     0
 10
0.0
 20
0.0
 30
0.0
  3
*MODEL_SPACE
  1

  0
ENDBLK
  5
21
330
1F
100
AcDbEntity
  8
0
100
AcDbBlockEnd
  0
BLOCK
  5
103
330
101
100
AcDbEntity
 67
     1
  8
0
100
AcDbBlockBegin
  2
*PAPER_SPACE
 70
     0
 10
0.0
 20
0.0
 30
0.0
  3
*PAPER_SPACE
  1

  0
ENDBLK
  5
104
330
101
100
AcDbEntity
 67
     1
  8
0
100
AcDbBlockEnd
  0
BLOCK
  5
5D
330
59
100
AcDbEntity
  8
0
100
AcDbBlockBegin
  2
_OPEN30
 70
     0
 10
0.0
 20
0.0
 30
0.0
  3
_OPEN30
  1

  0
LINE
  5
5A
330
59
100
AcDbEntity
  8
0
 62
     0
100
AcDbLine
 10
-1.0
 20
0.26794919
 30
0.0
 11
0.0
 21
0.0
 31
0.0
  0
LINE
  5
5B
330
59
100
AcDbEntity
  8
0
 62
     0
100
AcDbLine
 10
0.0
 20
0.0
 30
0.0
 11
-1.0
 21
-0.26794919
 31
0.0
  0
LINE
  5
5C
330
59
100
AcDbEntity
  8
0
 62
     0
100
AcDbLine
 10
0.0
 20
0.0
 30
0.0
 11
-1.0
 21
0.0
 31
0.0
  0
ENDBLK
  5
5E
330
59
100
AcDbEntity
  8
0
100
AcDbBlockEnd
  0
BLOCK
  5
66
330
64
100
AcDbEntity
  8
0
100
AcDbBlockBegin
  2
GENAXEH
 70
     0
 10
0.0
 20
0.0
 30
0.0
  3
GENAXEH
  1

  0
LINE
  5
65
330
64
100
AcDbEntity
  8
0
100
AcDbLine
 10
-1.0
 20
0.0
 30
0.0
 11
1.0
 21
0.0
 31
0.0
  0
ENDBLK
  5
67
330
64
100
AcDbEntity
  8
0
100
AcDbBlockEnd
  0
BLOCK
  5
468B
330
4681
100
AcDbEntity
  8
0
100
AcDbBlockBegin
  2
*D5
 70
     1
 10
0.0
 20
0.0
 30
0.0
  3
*D5
  1

  0
LINE
  5
46B1
330
4681
100
AcDbEntity
  8
AM_5
100
AcDbLine
 10
-120.0
 20
-10.375
 30
0.0
 11
-120.0
 21
-39.50000100999893
 31
0.0
  0
LINE
  5
46B2
330
4681
100
AcDbEntity
  8
AM_5
100
AcDbLine
 10
-0.0000000000000445
 20
-13.50000000000011
 30
0.0
 11
-0.0000000000000461
 21
-39.50000100999893
 31
0.0
  0
LINE
  5
46B3
330
4681
100
AcDbEntity
  8
AM_5
100
AcDbLine
 10
-117.5
 20
-38.50000100999894
 30
0.0
 11
-2.500000000000046
 21
-38.50000100999894
 31
0.0
  0
INSERT
  5
46B4
330
4681
100
AcDbEntity
  8
AM_5
100
AcDbBlockReference
  2
_OPEN30
 10
-120.0
 20
-38.50000100999894
 30
0.0
 41
2.5
 42
2.5
 43
2.5
 50
180.0
  0
INSERT
  5
46B5
330
4681
100
AcDbEntity
  8
AM_5
100
AcDbBlockReference
  2
_OPEN30
 10
-0.000000000000046
 20
-38.50000100999894
 30
0.0
 41
2.5
 42
2.5
 43
2.5
  0
MTEXT
  5
46B6
330
4681
100
AcDbEntity
  8
AM_5
 62
     2
100
AcDbMText
 10
-60.00000000000005
 20
-35.40000100999893
 30
0.0
 40
3.2
 41
0.0
 71
     5
 72
     1
  1
120
  7
ASAMI
1001
ACAD
1000
MTEXTBEGIN
1070
    73
1070
     1
1070
    44
1040
1.0
1070
    74
1070
     0
1000
MTEXTEND
  0
POINT
  5
46B7
330
4681
100
AcDbEntity
  8
DEFPOINTS
 62
     0
100
AcDbPoint
 10
-120.0
 20
-9.375
 30
0.0
  0
POINT
  5
46B8
330
4681
100
AcDbEntity
  8
DEFPOINTS
 62
     0
100
AcDbPoint
 10
-0.0000000000000444
 20
-12.50000000000011
 30
0.0
  0
POINT
  5
46B9
330
4681
100
AcDbEntity
  8
DEFPOINTS
 62
     0
100
AcDbPoint
 10
-0.000000000000046
 20
-38.50000100999894
 30
0.0
  0
ENDBLK
  5
468C
330
4681
100
AcDbEntity
  8
0
100
AcDbBlockEnd
  0
BLOCK
  5
4697
330
468D
100
AcDbEntity
  8
0
100
AcDbBlockBegin
  2
*D6
 70
     1
 10
0.0
 20
0.0
 30
0.0
  3
*D6
  1

  0
LINE
  5
46BA
330
468D
100
AcDbEntity
  8
AM_5
100
AcDbLine
 10
-119.3333333333333
 20
-12.5
 30
0.0
 11
-140.2689260745062
 21
-12.49999999999999
 31
0.0
  0
LINE
  5
46BB
330
468D
100
AcDbEntity
  8
AM_5
100
AcDbLine
 10
-119.3333333333333
 20
12.5
 30
0.0
 11
-140.2689260745062
 21
12.5
 31
0.0
  0
LINE
  5
46BC
330
468D
100
AcDbEntity
  8
AM_5
100
AcDbLine
 10
-139.2689260745062
 20
-9.999999999999996
 30
0.0
 11
-139.2689260745062
 21
10.0
 31
0.0
  0
INSERT
  5
46BD
330
468D
100
AcDbEntity
  8
AM_5
100
AcDbBlockReference
  2
_OPEN30
 10
-139.2689260745062
 20
-12.49999999999999
 30
0.0
 41
2.5
 42
2.5
 43
2.5
 50
270.0
  0
INSERT
  5
46BE
330
468D
100
AcDbEntity
  8
AM_5
100
AcDbBlockReference
  2
_OPEN30
 10
-139.2689260745062
 20
12.5
 30
0.0
 41
2.5
 42
2.5
 43
2.5
 50
90.0
  0
MTEXT
  5
46BF
330
468D
100
AcDbEntity
  8
AM_5
 62
     2
100
AcDbMText
 10
-142.3689260745062
 20
-0.0000000000000566
 30
0.0
 40
3.2
 41
0.0
 71
     5
 72
     1
  1
%%c25
  7
ASAMI
 11
0.0000000000000001
 21
1.0
 31
0.0
1001
ACAD
1000
MTEXTBEGIN
1070
    73
1070
     1
1070
    44
1040
1.0
1070
    74
1070
     0
1000
MTEXTEND
  0
POINT
  5
46C0
330
468D
100
AcDbEntity
  8
DEFPOINTS
 62
     0
100
AcDbPoint
 10
-118.3333333333333
 20
-12.5
 30
0.0
  0
POINT
  5
46C1
330
468D
100
AcDbEntity
  8
DEFPOINTS
 62
     0
100
AcDbPoint
 10
-118.3333333333333
 20
12.5
 30
0.0
  0
POINT
  5
46C2
330
468D
100
AcDbEntity
  8
DEFPOINTS
 62
     0
100
AcDbPoint
 10
-139.2689260745062
 20
12.5
 30
0.0
  0
ENDBLK
  5
4698
330
468D
100
AcDbEntity
  8
0
100
AcDbBlockEnd
  0
BLOCK
  5
46A3
330
4699
100
AcDbEntity
  8
0
100
AcDbBlockBegin
  2
*D7
 70
     1
 10
0.0
 20
0.0
 30
0.0
  3
*D7
  1

  0
LINE
  5
46C3
330
4699
100
AcDbEntity
  8
AM_5
100
AcDbLine
 10
-50.00000000000006
 20
-13.50000000000018
 30
0.0
 11
-50.00000000000006
 21
-27.50000101000078
 31
0.0
  0
LINE
  5
46C4
330
4699
100
AcDbEntity
  8
AM_5
100
AcDbLine
 10
-0.0000000000000426
 20
-13.50000000000011
 30
0.0
 11
-0.0000000000000435
 21
-27.50000101000078
 31
0.0
  0
LINE
  5
46C5
330
4699
100
AcDbEntity
  8
AM_5
100
AcDbLine
 10
-47.50000000000006
 20
-26.50000101000077
 30
0.0
 11
-2.500000000000043
 21
-26.50000101000077
 31
0.0
  0
INSERT
  5
46C6
330
4699
100
AcDbEntity
  8
AM_5
100
AcDbBlockReference
  2
_OPEN30
 10
-50.00000000000006
 20
-26.50000101000077
 30
0.0
 41
2.5
 42
2.5
 43
2.5
 50
180.0
  0
INSERT
  5
46C7
330
4699
100
AcDbEntity
  8
AM_5
100
AcDbBlockReference
  2
_OPEN30
 10
-0.0000000000000434
 20
-26.50000101000077
 30
0.0
 41
2.5
 42
2.5
 43
2.5
  0
MTEXT
  5
46C8
330
4699
100
AcDbEntity
  8
AM_5
 62
     2
100
AcDbMText
 10
-25.00000000000005
 20
-23.40000101000077
 30
0.0
 40
3.2
 41
0.0
 71
     5
 72
     1
  1
50
  7
ASAMI
1001
ACAD
1000
MTEXTBEGIN
1070
    73
1070
     1
1070
    44
1040
1.0
1070
    74
1070
     0
1000
MTEXTEND
  0
POINT
  5
46C9
330
4699
100
AcDbEntity
  8
DEFPOINTS
 62
     0
100
AcDbPoint
 10
-50.00000000000006
 20
-12.50000000000018
 30
0.0
  0
POINT
  5
46CA
330
4699
100
AcDbEntity
  8
DEFPOINTS
 62
     0
100
AcDbPoint
 10
-0.0000000000000426
 20
-12.50000000000011
 30
0.0
  0
POINT
  5
46CB
330
4699
100
AcDbEntity
  8
DEFPOINTS
 62
     0
100
AcDbPoint
 10
-0.0000000000000434
 20
-26.50000101000077
 30
0.0
  0
ENDBLK
  5
46A4
330
4699
100
AcDbEntity
  8
0
100
AcDbBlockEnd
  0
BLOCK
  5
46AF
330
46A5
100
AcDbEntity
  8
0
100
AcDbBlockBegin
  2
*D8
 70
     1
 10
0.0
 20
0.0
 30
0.0
  3
*D8
  1

  0
LINE
  5
46CC
330
46A5
100
AcDbEntity
  8
AM_5
100
AcDbLine
 10
0.9999999999999571
 20
-12.50000000000011
 30
0.0
 11
16.32953088907466
 21
-12.50000000000012
 31
0.0
  0
LINE
  5
46CD
330
46A5
100
AcDbEntity
  8
AM_5
100
AcDbLine
 10
0.999999999999941
 20
12.49999999999988
 30
0.0
 11
16.32953088907466
 21
12.49999999999987
 31
0.0
  0
LINE
  5
46CE
330
46A5
100
AcDbEntity
  8
AM_5
100
AcDbLine
 10
15.32953088907466
 20
-10.00000000000012
 30
0.0
 11
15.32953088907466
 21
9.999999999999877
 31
0.0
  0
INSERT
  5
46CF
330
46A5
100
AcDbEntity
  8
AM_5
100
AcDbBlockReference
  2
_OPEN30
 10
15.32953088907466
 20
-12.50000000000012
 30
0.0
 41
2.5
 42
2.5
 43
2.5
 50
270.0
  0
INSERT
  5
46D0
330
46A5
100
AcDbEntity
  8
AM_5
100
AcDbBlockReference
  2
_OPEN30
 10
15.32953088907466
 20
12.49999999999987
 30
0.0
 41
2.5
 42
2.5
 43
2.5
 50
90.0
  0
MTEXT
  5
46D1
330
46A5
100
AcDbEntity
  8
AM_5
 62
     2
100
AcDbMText
 10
12.22953088907466
 20
-0.0000000000001187
 30
0.0
 40
3.2
 41
0.0
 71
     5
 72
     1
  1
%%c25
  7
ASAMI
 11
0.0000000000000001
 21
1.0
 31
0.0
1001
ACAD
1000
MTEXTBEGIN
1070
    73
1070
     1
1070
    44
1040
1.0
1070
    74
1070
     0
1000
MTEXTEND
  0
POINT
  5
46D2
330
46A5
100
AcDbEntity
  8
DEFPOINTS
 62
     0
100
AcDbPoint
 10
-0.0000000000000428
 20
-12.50000000000011
 30
0.0
  0
POINT
  5
46D3
330
46A5
100
AcDbEntity
  8
DEFPOINTS
 62
     0
100
AcDbPoint
 10
-0.0000000000000591
 20
12.49999999999988
 30
0.0
  0
POINT
  5
46D4
330
46A5
100
AcDbEntity
  8
DEFPOINTS
 62
     0
100
AcDbPoint
 10
15.32953088907466
 20
12.49999999999987
 30
0.0
  0
ENDBLK
  5
46B0
330
46A5
100
AcDbEntity
  8
0
100
AcDbBlockEnd
  0
ENDSEC
  0
SECTION
  2
ENTITIES
  0
TEXT
  5
1500
330
1F
100
AcDbEntity
  8
AM_6
100
AcDbText
 10
-76.66666666666658
 20
-61.00000100999996
 30
0.0
 40
5.0
  1
HSM4250
 72
     4
 11
-59.99999999999992
 21
-58.50000100999996
 31
0.0
100
AcDbText
  0
LINE
  5
460F
330
1F
100
AcDbEntity
  8
AM_0
100
AcDbLine
 10
-118.3333333333333
 20
-12.5
 30
0.0
 11
-53.63884371617214
 21
-12.5
 31
0.0
1001
GENIUS_GENODEF_13
1002
{
1000
HIER
1070
     0
1002
}
1002
{
1000
MANEDIT
1070
     0
1002
}
1002
{
1000
NOSEL
1070
     0
1002
}
1002
{
1000
BEHIND
1070
     0
1002
}
1002
{
1000
REACTOR
1002
}
1001
GENIUS_GENOBJ-N-CEN_13
1002
{
1000
OWNER
1000
GEN
1002
}
  0
ARC
  5
4610
330
1F
100
AcDbEntity
  8
AM_0
100
AcDbCircle
 10
-36.4152419934376
 20
1.65119223413999
 30
0.0
 40
18.47075270422139
100
AcDbArc
 50
154.3427485787786
 51
192.7664743502497
  0
SPLINE
  5
4611
330
1F
100
AcDbEntity
  8
AM_0
100
AcDbSpline
210
0.0
220
0.0
230
1.0
 70
     8
 71
     3
 72
     8
 73
     4
 74
     0
 42
0.0000000001
 43
0.0000000001
 40
0.0
 40
0.0
 40
0.0
 40
0.0
 40
5.726914414331478
 40
5.726914414331478
 40
5.726914414331478
 40
5.726914414331478
 10
-44.34252426407082
 20
-12.12596201986553
 30
0.0
 10
-49.11495294268119
 20
-12.12596201986553
 30
0.0
 10
-51.9053856749022
 20
-7.583521925228742
 30
0.0
 10
-54.42937594506274
 20
-2.430435312980384
 30
0.0
  0
SPLINE
  5
4612
330
1F
100
AcDbEntity
  8
AM_0
100
AcDbSpline
210
0.0
220
0.0
230
1.0
 70
     8
 71
     3
 72
     8
 73
     4
 74
     0
 42
0.0000000001
 43
0.0000000001
 40
0.157854605497133
 40
0.157854605497133
 40
0.157854605497133
 40
0.157854605497133
 40
6.616360992657454
 40
6.616360992657454
 40
6.616360992657454
 40
6.616360992657454
 10
-55.20236931334248
 20
12.50000000000002
 30
0.0
 10
-49.94203061723406
 20
11.83665813317662
 30
0.0
 10
-47.14227744065293
 20
5.918329066588826
 30
0.0
 10
-44.34252426407293
 20
0.0000000000010253
 30
0.0
  0
LINE
  5
4613
330
1F
100
AcDbEntity
  8
AM_7
100
AcDbLine
 10
-125.2689250745061
 20
-0.0000000000000036
 30
0.0
 11
4.009413102045073
 21
-0.0000000000000036
 31
0.0
1001
GENIUS_GENODEF_13
1002
{
1000
HIER
1070
     0
1002
}
1002
{
1000
MANEDIT
1070
     0
1002
}
1002
{
1000
NOSEL
1070
     0
1002
}
1002
{
1000
BEHIND
1070
     0
1002
}
1002
{
1000
REACTOR
1002
}
1001
GENIUS_GENOBJ-N-CEN_13
1002
{
1000
OWNER
1000
GEN
1002
}
  0
DIMENSION
  5
4614
330
1F
100
AcDbEntity
  8
AM_5
100
AcDbDimension
  2
*D5
 10
-0.000000000000046
 20
-38.50000100999894
 30
0.0
 11
-60.00000000000005
 21
-35.40000100999893
 31
0.0
 70
    32
  1
<>
  3
AM_JIS
100
AcDbAlignedDimension
 13
-120.0
 23
-9.375
 33
0.0
 14
-0.0000000000000444
 24
-12.50000000000011
 34
0.0
 50
0.0000000000002036
100
AcDbRotatedDimension
1001
GENIUS_GENDTOL_13
1000

1000
H7
1000

1040
0.0
  0
LINE
  5
4615
330
1F
100
AcDbEntity
  8
AM_0
100
AcDbLine
 10
-120.0
 20
-9.375
 30
0.0
 11
-118.3333333333333
 21
-12.5
 31
0.0
1001
GENIUS_GENFIL_13
1070
     0
1040
0.5
1040
0.5
1040
0.4999999999999716
1040
45.00000000000036
1002
{
1002
}
  0
LINE
  5
4616
330
1F
100
AcDbEntity
  8
AM_0
100
AcDbLine
 10
-120.0
 20
9.375
 30
0.0
 11
-118.3333333333333
 21
12.5
 31
0.0
1001
GENIUS_GENFIL_13
1070
     0
1040
0.5
1040
0.5
1040
0.4999999999999716
1040
45.0
1002
{
1002
}
  0
DIMENSION
  5
4617
330
1F
100
AcDbEntity
  8
AM_5
100
AcDbDimension
  2
*D6
 10
-139.2689260745062
 20
12.5
 30
0.0
 11
-139.2689260745062
 21
-0.000000000000057
 31
0.0
 70
   160
  1
%%c<>
  3
AM_JIS
100
AcDbAlignedDimension
 13
-118.3333333333333
 23
-12.5
 33
0.0
 14
-118.3333333333333
 24
12.5
 34
0.0
 50
270.0
100
AcDbRotatedDimension
1001
ACAD
1000
DSTYLE
1002
{
1070
    48
1040
0.1
1070
    47
1040
0.1
1070
   274
1070
     2
1070
   272
1070
     3
1002
}
1001
GENIUS_GENDTOL_13
1000

1000
h6
1000

1040
0.0
  0
LINE
  5
4618
330
1F
100
AcDbEntity
  8
AM_0
100
AcDbLine
 10
-120.0
 20
-9.375
 30
0.0
 11
-120.0
 21
9.375
 31
0.0
  0
LINE
  5
4619
330
1F
100
AcDbEntity
  8
AM_0
100
AcDbLine
 10
-118.3333333333333
 20
12.5
 30
0.0
 11
-55.20236931334248
 21
12.5
 31
0.0
1001
GENIUS_GENODEF_13
1002
{
1000
HIER
1070
     0
1002
}
1002
{
1000
MANEDIT
1070
     0
1002
}
1002
{
1000
NOSEL
1070
     0
1002
}
1002
{
1000
BEHIND
1070
     0
1002
}
1002
{
1000
REACTOR
1002
}
1001
GENIUS_GENOBJ-N-CEN_13
1002
{
1000
OWNER
1000
GEN
1002
}
  0
LINE
  5
461A
330
1F
100
AcDbEntity
  8
0
100
AcDbLine
 10
-118.3333333333333
 20
-12.5
 30
0.0
 11
-118.3333333333333
 21
12.5
 31
0.0
  0
DIMENSION
  5
461B
330
1F
100
AcDbEntity
  8
AM_5
100
AcDbDimension
  2
*D7
 10
-0.0000000000000434
 20
-26.50000101000077
 30
0.0
 11
-25.00000000000005
 21
-23.40000101000077
 31
0.0
 70
    32
  1
<>
  3
AM_JIS
100
AcDbAlignedDimension
 13
-50.00000000000006
 23
-12.50000000000018
 33
0.0
 14
-0.0000000000000426
 24
-12.50000000000011
 34
0.0
 50
359.9999999999993
100
AcDbRotatedDimension
1001
GENIUS_GENDTOL_13
1000

1000
H7
1000

1040
0.0
  0
SPLINE
  5
461C
330
1F
100
AcDbEntity
  8
AM_0
100
AcDbSpline
210
0.0
220
0.0
230
1.0
 70
     8
 71
     3
 72
     8
 73
     4
 74
     0
 42
0.0000000001
 43
0.0000000001
 40
0.0
 40
0.0
 40
0.0
 40
0.0
 40
1.597243125086987
 40
1.597243125086987
 40
1.597243125086987
 40
1.597243125086987
 10
-1.249999999997814
 20
12.49999999999988
 30
0.0
 10
-0.8423556695277934
 20
11.23292353547784
 30
0.0
 10
-1.304061929241785
 20
9.19588696450506
 30
0.0
 10
-2.285048625193527
 20
8.156518571418612
 30
0.0
  0
SPLINE
  5
461D
330
1F
100
AcDbEntity
  8
AM_0
100
AcDbSpline
210
0.0
220
0.0
230
1.0
 70
     8
 71
     3
 72
     8
 73
     4
 74
     0
 42
0.0000000001
 43
0.0000000001
 40
2.420175635861271
 40
2.420175635861271
 40
2.420175635861271
 40
2.420175635861271
 40
6.726812023537463
 40
6.726812023537463
 40
6.726812023537463
 40
6.726812023537463
 10
-52.40084184828928
 20
10.36402954562906
 30
0.0
 10
-49.86360598179571
 20
8.002744042436127
 30
0.0
 10
-48.05680299089685
 20
4.001372021218012
 30
0.0
 10
-46.24999999999799
 20
-0.000000000000106
 30
0.0
  0
SPLINE
  5
461E
330
1F
100
AcDbEntity
  8
AM_0
100
AcDbSpline
210
0.0
220
0.0
230
1.0
 70
     8
 71
     3
 72
     8
 73
     4
 74
     0
 42
0.0000000001
 43
0.0000000001
 40
0.0
 40
0.0
 40
0.0
 40
0.0
 40
3.032279494220809
 40
3.032279494220809
 40
3.032279494220809
 40
3.032279494220809
 10
-46.24999999999912
 20
-12.50000000000011
 30
0.0
 10
-48.77689957851684
 20
-12.5000000000001
 30
0.0
 10
-50.73819388994051
 20
-11.23001119736595
 30
0.0
 10
-52.38884371617499
 20
-9.262512946454926
 30
0.0
  0
SPLINE
  5
461F
330
1F
100
AcDbEntity
  8
AM_0
100
AcDbSpline
210
0.0
220
0.0
230
1.0
 70
     8
 71
     3
 72
     8
 73
     4
 74
     0
 42
0.0000000001
 43
0.0000000001
 40
0.0
 40
0.0
 40
0.0
 40
0.0
 40
1.287323294939932
 40
1.287323294939932
 40
1.287323294939932
 40
1.287323294939932
 10
-42.40084184829042
 20
-11.5593978326714
 30
0.0
 10
-41.32807243584037
 20
-11.5593978326714
 30
0.0
 10
-40.3524394483159
 20
-11.32931567389885
 30
0.0
 10
-39.45456211786135
 20
-10.91505760532396
 30
0.0
  0
SPLINE
  5
4620
330
1F
100
AcDbEntity
  8
AM_0
100
AcDbSpline
210
0.0
220
0.0
230
1.0
 70
     8
 71
     3
 72
     8
 73
     4
 74
     0
 42
0.0000000001
 43
0.0000000001
 40
0.0
 40
0.0
 40
0.0
 40
0.0
 40
5.54163154095646
 40
5.54163154095646
 40
5.54163154095646
 40
5.54163154095646
 10
-42.40084184828701
 20
-11.5593978326714
 30
0.0
 10
-47.01886813241825
 20
-11.55939783267139
 30
0.0
 10
-49.83685443303469
 20
-7.295733758124319
 30
0.0
 10
-52.40084184828928
 20
-2.430435313001274
 30
0.0
  0
SPLINE
  5
4621
330
1F
100
AcDbEntity
  8
AM_0
100
AcDbSpline
210
0.0
220
0.0
230
1.0
 70
     8
 71
     3
 72
     8
 73
     4
 74
     0
 42
0.0000000001
 43
0.0000000001
 40
0.0
 40
0.0
 40
0.0
 40
0.0
 40
1.274172826456642
 40
1.274172826456642
 40
1.274172826456642
 40
1.274172826456642
 10
-44.34252426407423
 20
-12.12596201986468
 30
0.0
 10
-43.28071357536058
 20
-12.12596201986468
 30
0.0
 10
-42.31701396609791
 20
-11.90110600951822
 30
0.0
 10
-41.43253129318422
 20
-11.49469655628888
 30
0.0
  0
SPLINE
  5
4622
330
1F
100
AcDbEntity
  8
AM_0
100
AcDbSpline
210
0.0
220
0.0
230
1.0
 70
     8
 71
     3
 72
     8
 73
     4
 74
     0
 42
0.0000000001
 43
0.0000000001
 40
0.0
 40
0.0
 40
0.0
 40
0.0
 40
0.9875149967633806
 40
0.9875149967633806
 40
0.9875149967633806
 40
0.9875149967633806
 10
-46.25000000000254
 20
-12.49999999999954
 30
0.0
 10
-45.42707083603344
 20
-12.49999999999954
 30
0.0
 10
-44.66412939631508
 20
-12.36530581922164
 30
0.0
 10
-43.95236931356548
 20
-12.11569094368382
 30
0.0
  0
SPLINE
  5
4623
330
1F
100
AcDbEntity
  8
AM_0
100
AcDbSpline
210
0.0
220
0.0
230
1.0
 70
     8
 71
     3
 72
     8
 73
     4
 74
     0
 42
0.0000000001
 43
0.0000000001
 40
0.3982504941345976
 40
0.3982504941345976
 40
0.3982504941345976
 40
0.3982504941345976
 40
6.452065446090842
 40
6.452065446090842
 40
6.452065446090842
 40
6.452065446090842
 10
-52.59180750528592
 20
11.66444066967789
 30
0.0
 10
-47.91159546398044
 20
10.84589981607311
 30
0.0
 10
-45.15621865613421
 20
5.422949908037425
 30
0.0
 10
-42.40084184828911
 20
0.0000000000015932
 30
0.0
  0
SPLINE
  5
4624
330
1F
100
AcDbEntity
  8
AM_0
100
AcDbSpline
210
0.0
220
0.0
230
1.0
 70
     8
 71
     3
 72
     8
 73
     4
 74
     0
 42
0.0000000001
 43
0.0000000001
 40
0.0
 40
0.0
 40
0.0
 40
0.0
 40
2.064174349630627
 40
2.064174349630627
 40
2.064174349630627
 40
2.064174349630627
 10
-46.24999999999782
 20
12.5000000000013
 30
0.0
 10
-47.97014529135604
 20
12.50000000000187
 30
0.0
 10
-49.42819014811457
 20
11.91148953789269
 30
0.0
 10
-50.59940839430373
 20
10.99590943066405
 30
0.0
  0
SPLINE
  5
4625
330
1F
100
AcDbEntity
  8
AM_0
100
AcDbSpline
210
0.0
220
0.0
230
1.0
 70
     8
 71
     3
 72
     8
 73
     4
 74
     0
 42
0.0000000001
 43
0.0000000001
 40
0.0
 40
0.0
 40
0.0
 40
0.0
 40
1.287323294939932
 40
1.287323294939932
 40
1.287323294939932
 40
1.287323294939932
 10
-42.40084184829139
 20
-11.55939783266984
 30
0.0
 10
-41.32807243584248
 20
-11.55939783266984
 30
0.0
 10
-40.352439448318
 20
-11.32931567389743
 30
0.0
 10
-39.45456211786344
 20
-10.9150576053224
 30
0.0
  0
SPLINE
  5
4626
330
1F
100
AcDbEntity
  8
AM_0
100
AcDbSpline
210
0.0
220
0.0
230
1.0
 70
     8
 71
     3
 72
     8
 73
     4
 74
     0
 42
0.0000000001
 43
0.0000000001
 40
0.0
 40
0.0
 40
0.0
 40
0.0
 40
1.274172826456642
 40
1.274172826456642
 40
1.274172826456642
 40
1.274172826456642
 10
-44.3425242640752
 20
-12.12596201986326
 30
0.0
 10
-43.28071357536155
 20
-12.12596201986326
 30
0.0
 10
-42.31701396609888
 20
-11.90110600951666
 30
0.0
 10
-41.43253129318632
 20
-11.49469655628732
 30
0.0
  0
SPLINE
  5
4627
330
1F
100
AcDbEntity
  8
AM_0
100
AcDbSpline
210
0.0
220
0.0
230
1.0
 70
     8
 71
     3
 72
     8
 73
     4
 74
     0
 42
0.0000000001
 43
0.0000000001
 40
0.0
 40
0.0
 40
0.0
 40
0.0
 40
0.9875149967633806
 40
0.9875149967633806
 40
0.9875149967633806
 40
0.9875149967633806
 10
-46.25000000000464
 20
-12.49999999999812
 30
0.0
 10
-45.42707083603441
 20
-12.49999999999812
 30
0.0
 10
-44.66412939631605
 20
-12.36530581922008
 30
0.0
 10
-43.95236931356758
 20
-12.11569094368241
 30
0.0
  0
SPLINE
  5
4628
330
1F
100
AcDbEntity
  8
AM_0
100
AcDbSpline
210
0.0
220
0.0
230
1.0
 70
     8
 71
     3
 72
     8
 73
     4
 74
     0
 42
0.0000000001
 43
0.0000000001
 40
0.3982504941345976
 40
0.3982504941345976
 40
0.3982504941345976
 40
0.3982504941345976
 40
6.452065446090842
 40
6.452065446090842
 40
6.452065446090842
 40
6.452065446090842
 10
-41.43253129318291
 20
11.49469655629064
 30
0.0
 10
-36.66159546397929
 20
10.84589981607311
 30
0.0
 10
-33.90621865613306
 20
5.422949908037423
 30
0.0
 10
-31.15084184828683
 20
0.0000000000015921
 30
0.0
  0
SPLINE
  5
4629
330
1F
100
AcDbEntity
  8
AM_0
100
AcDbSpline
210
0.0
220
0.0
230
1.0
 70
     8
 71
     3
 72
     8
 73
     4
 74
     0
 42
0.0000000001
 43
0.0000000001
 40
0.157854605497133
 40
0.157854605497133
 40
0.157854605497133
 40
0.157854605497133
 40
6.616360992657454
 40
6.616360992657454
 40
6.616360992657454
 40
6.616360992657454
 10
-43.95236931334021
 20
12.11569094360771
 30
0.0
 10
-38.69203061723291
 20
11.83665813317662
 30
0.0
 10
-35.89227744065178
 20
5.918329066588825
 30
0.0
 10
-33.09252426407065
 20
0.0000000000010236
 30
0.0
  0
SPLINE
  5
462A
330
1F
100
AcDbEntity
  8
AM_0
100
AcDbSpline
210
0.0
220
0.0
230
1.0
 70
     8
 71
     3
 72
     8
 73
     4
 74
     2
 42
0.0000000001
 43
0.0000000001
 44
0.0000000001
 12
1.0
 22
-0.0000000000000002
 32
0.0
 40
0.0
 40
0.0
 40
0.0
 40
0.0
 40
16.8170300588429
 40
16.8170300588429
 40
16.8170300588429
 40
16.8170300588429
 10
-46.25000000000009
 20
12.5000000000013
 30
0.0
 10
-40.64432331371913
 20
12.5000000000013
 30
0.0
 10
-37.82216165685904
 20
6.250000000001306
 30
0.0
 10
-34.99999999999895
 20
0.0000000000013084
 30
0.0
 11
-46.25000000000009
 21
12.5000000000013
 31
0.0
 11
-34.99999999999895
 21
0.0000000000013084
 31
0.0
  0
SPLINE
  5
462B
330
1F
100
AcDbEntity
  8
AM_0
100
AcDbSpline
210
0.0
220
0.0
230
1.0
 70
     8
 71
     3
 72
     8
 73
     4
 74
     0
 42
0.0000000001
 43
0.0000000001
 40
0.0
 40
0.0
 40
0.0
 40
0.0
 40
2.064174349630627
 40
2.064174349630627
 40
2.064174349630627
 40
2.064174349630627
 10
-34.99999999999554
 20
12.5000000000013
 30
0.0
 10
-36.72014529135376
 20
12.50000000000187
 30
0.0
 10
-38.17819014811229
 20
11.91148953789269
 30
0.0
 10
-39.45456211785776
 20
10.915057605328
 30
0.0
  0
SPLINE
  5
462C
330
1F
100
AcDbEntity
  8
AM_0
100
AcDbSpline
210
0.0
220
0.0
230
1.0
 70
     8
 71
     3
 72
     8
 73
     4
 74
     2
 42
0.0000000001
 43
0.0000000001
 44
0.0000000001
 12
-1.0
 22
0.0000000000000001
 32
0.0
 40
0.0
 40
0.0
 40
0.0
 40
0.0
 40
16.81703005884214
 40
16.81703005884214
 40
16.81703005884214
 40
16.81703005884214
 10
-35.00000000000008
 20
-12.49999999999869
 30
0.0
 10
-40.6056766862808
 20
-12.49999999999869
 30
0.0
 10
-43.42783834314045
 20
-6.249999999998691
 30
0.0
 10
-46.25000000000009
 20
0.0000000000013095
 30
0.0
 11
-35.00000000000008
 21
-12.49999999999869
 31
0.0
 11
-46.25000000000009
 21
0.0000000000013095
 31
0.0
  0
SPLINE
  5
462D
330
1F
100
AcDbEntity
  8
AM_0
100
AcDbSpline
210
0.0
220
0.0
230
1.0
 70
     8
 71
     3
 72
     8
 73
     4
 74
     2
 42
0.0000000001
 43
0.0000000001
 44
0.0000000001
 12
-1.0
 22
0.0000000000000001
 32
0.0
 40
0.0
 40
0.0
 40
0.0
 40
0.0
 40
16.54090248164374
 40
16.54090248164374
 40
16.54090248164374
 40
16.54090248164374
 10
-33.09252426407178
 20
-12.12596201986412
 30
0.0
 10
-38.6061584246197
 20
-12.12596201986412
 30
0.0
 10
-41.47434134434631
 20
-6.062981009931332
 30
0.0
 10
-44.34252426407293
 20
0.0000000000014516
 30
0.0
 11
-33.09252426407178
 21
-12.12596201986412
 31
0.0
 11
-44.34252426407293
 21
0.0000000000014516
 31
0.0
  0
SPLINE
  5
462E
330
1F
100
AcDbEntity
  8
AM_0
100
AcDbSpline
210
0.0
220
0.0
230
1.0
 70
     8
 71
     3
 72
     8
 73
     4
 74
     0
 42
0.0000000001
 43
0.0000000001
 40
0.0
 40
0.0
 40
0.0
 40
0.0
 40
1.287323294939932
 40
1.287323294939932
 40
1.287323294939932
 40
1.287323294939932
 10
-31.15084184829138
 20
-11.55939783266984
 30
0.0
 10
-30.0780724358402
 20
-11.55939783266984
 30
0.0
 10
-29.10243944831572
 20
-11.32931567389743
 30
0.0
 10
-28.20456211786231
 20
-10.9150576053224
 30
0.0
  0
SPLINE
  5
462F
330
1F
100
AcDbEntity
  8
AM_0
100
AcDbSpline
210
0.0
220
0.0
230
1.0
 70
     8
 71
     3
 72
     8
 73
     4
 74
     2
 42
0.0000000001
 43
0.0000000001
 44
0.0000000001
 12
-1.0
 22
0.0000000000000001
 32
0.0
 40
0.0
 40
0.0
 40
0.0
 40
0.0
 40
16.13016361522716
 40
16.13016361522716
 40
16.13016361522716
 40
16.13016361522716
 10
-31.15084184828797
 20
-11.55939783266984
 30
0.0
 10
-36.52756305336369
 20
-11.55939783266984
 30
0.0
 10
-39.4642024508264
 20
-5.779698916334054
 30
0.0
 10
-42.40084184828911
 20
0.0000000000017353
 30
0.0
 11
-31.15084184828797
 21
-11.55939783266984
 31
0.0
 11
-42.40084184828911
 21
0.0000000000017353
 31
0.0
  0
SPLINE
  5
4630
330
1F
100
AcDbEntity
  8
AM_0
100
AcDbSpline
210
0.0
220
0.0
230
1.0
 70
     8
 71
     3
 72
     8
 73
     4
 74
     0
 42
0.0000000001
 43
0.0000000001
 40
0.0
 40
0.0
 40
0.0
 40
0.0
 40
1.274172826456642
 40
1.274172826456642
 40
1.274172826456642
 40
1.274172826456642
 10
-33.09252426407519
 20
-12.12596201986326
 30
0.0
 10
-32.03071357536041
 20
-12.12596201986326
 30
0.0
 10
-31.06701396609887
 20
-11.90110600951666
 30
0.0
 10
-30.18253129318518
 20
-11.49469655628732
 30
0.0
  0
SPLINE
  5
4631
330
1F
100
AcDbEntity
  8
AM_0
100
AcDbSpline
210
0.0
220
0.0
230
1.0
 70
     8
 71
     3
 72
     8
 73
     4
 74
     0
 42
0.0000000001
 43
0.0000000001
 40
0.0
 40
0.0
 40
0.0
 40
0.0
 40
0.9875149967633806
 40
0.9875149967633806
 40
0.9875149967633806
 40
0.9875149967633806
 10
-35.00000000000236
 20
-12.49999999999812
 30
0.0
 10
-34.17707083603326
 20
-12.49999999999812
 30
0.0
 10
-33.4141293963149
 20
-12.36530581922008
 30
0.0
 10
-32.7023693135653
 20
-12.11569094368241
 30
0.0
  0
SPLINE
  5
4632
330
1F
100
AcDbEntity
  8
AM_0
100
AcDbSpline
210
0.0
220
0.0
230
1.0
 70
     8
 71
     3
 72
     8
 73
     4
 74
     0
 42
0.0000000001
 43
0.0000000001
 40
0.3982504941345976
 40
0.3982504941345976
 40
0.3982504941345976
 40
0.3982504941345976
 40
6.452065446090842
 40
6.452065446090842
 40
6.452065446090842
 40
6.452065446090842
 10
-30.18253129318177
 20
11.49469655629064
 30
0.0
 10
-25.41159546397702
 20
10.84589981607311
 30
0.0
 10
-22.65621865613193
 20
5.422949908037423
 30
0.0
 10
-19.90084184828569
 20
0.0000000000015904
 30
0.0
  0
SPLINE
  5
4633
330
1F
100
AcDbEntity
  8
AM_0
100
AcDbSpline
210
0.0
220
0.0
230
1.0
 70
     8
 71
     3
 72
     8
 73
     4
 74
     0
 42
0.0000000001
 43
0.0000000001
 40
0.157854605497133
 40
0.157854605497133
 40
0.157854605497133
 40
0.157854605497133
 40
6.616360992657454
 40
6.616360992657454
 40
6.616360992657454
 40
6.616360992657454
 10
-32.70236931333906
 20
12.11569094360771
 30
0.0
 10
-27.44203061723064
 20
11.83665813317662
 30
0.0
 10
-24.64227744065064
 20
5.918329066588825
 30
0.0
 10
-21.84252426406951
 20
0.0000000000010225
 30
0.0
  0
SPLINE
  5
4634
330
1F
100
AcDbEntity
  8
AM_0
100
AcDbSpline
210
0.0
220
0.0
230
1.0
 70
     8
 71
     3
 72
     8
 73
     4
 74
     2
 42
0.0000000001
 43
0.0000000001
 44
0.0000000001
 12
1.0
 22
-0.0000000000000002
 32
0.0
 40
0.0
 40
0.0
 40
0.0
 40
0.0
 40
16.81703005884213
 40
16.81703005884213
 40
16.81703005884213
 40
16.81703005884213
 10
-34.99999999999781
 20
12.5000000000013
 30
0.0
 10
-29.3943233137171
 20
12.5000000000013
 30
0.0
 10
-26.57216165685746
 20
6.250000000001306
 30
0.0
 10
-23.74999999999781
 20
0.0000000000013067
 30
0.0
 11
-34.99999999999781
 21
12.5000000000013
 31
0.0
 11
-23.74999999999781
 21
0.0000000000013067
 31
0.0
  0
SPLINE
  5
4635
330
1F
100
AcDbEntity
  8
AM_0
100
AcDbSpline
210
0.0
220
0.0
230
1.0
 70
     8
 71
     3
 72
     8
 73
     4
 74
     0
 42
0.0000000001
 43
0.0000000001
 40
0.0
 40
0.0
 40
0.0
 40
0.0
 40
2.064174349630627
 40
2.064174349630627
 40
2.064174349630627
 40
2.064174349630627
 10
-23.7499999999944
 20
12.5000000000013
 30
0.0
 10
-25.47014529135376
 20
12.50000000000187
 30
0.0
 10
-26.92819014811229
 20
11.91148953789269
 30
0.0
 10
-28.20456211785662
 20
10.915057605328
 30
0.0
  0
SPLINE
  5
4636
330
1F
100
AcDbEntity
  8
AM_0
100
AcDbSpline
210
0.0
220
0.0
230
1.0
 70
     8
 71
     3
 72
     8
 73
     4
 74
     2
 42
0.0000000001
 43
0.0000000001
 44
0.0000000001
 12
-1.0
 22
0.0000000000000001
 32
0.0
 40
0.0
 40
0.0
 40
0.0
 40
0.0
 40
16.8170300588429
 40
16.8170300588429
 40
16.8170300588429
 40
16.8170300588429
 10
-23.74999999999781
 20
-12.49999999999869
 30
0.0
 10
-29.35567668627878
 20
-12.49999999999869
 30
0.0
 10
-32.17783834313886
 20
-6.249999999998691
 30
0.0
 10
-34.99999999999895
 20
0.0000000000013084
 30
0.0
 11
-23.74999999999781
 21
-12.49999999999869
 31
0.0
 11
-34.99999999999895
 21
0.0000000000013084
 31
0.0
  0
SPLINE
  5
4637
330
1F
100
AcDbEntity
  8
AM_0
100
AcDbSpline
210
0.0
220
0.0
230
1.0
 70
     8
 71
     3
 72
     8
 73
     4
 74
     2
 42
0.0000000001
 43
0.0000000001
 44
0.0000000001
 12
-1.0
 22
0.0000000000000001
 32
0.0
 40
0.0
 40
0.0
 40
0.0
 40
0.0
 40
16.54090248164296
 40
16.54090248164296
 40
16.54090248164296
 40
16.54090248164296
 10
-21.84252426407065
 20
-12.12596201986412
 30
0.0
 10
-27.3561584246183
 20
-12.12596201986412
 30
0.0
 10
-30.22434134434448
 20
-6.062981009931334
 30
0.0
 10
-33.09252426407065
 20
0.00000000000145
 30
0.0
 11
-21.84252426407065
 21
-12.12596201986412
 31
0.0
 11
-33.09252426407065
 21
0.00000000000145
 31
0.0
  0
SPLINE
  5
4638
330
1F
100
AcDbEntity
  8
AM_0
100
AcDbSpline
210
0.0
220
0.0
230
1.0
 70
     8
 71
     3
 72
     8
 73
     4
 74
     0
 42
0.0000000001
 43
0.0000000001
 40
0.0
 40
0.0
 40
0.0
 40
0.0
 40
1.287323294939932
 40
1.287323294939932
 40
1.287323294939932
 40
1.287323294939932
 10
-19.9008418482891
 20
-11.55939783266984
 30
0.0
 10
-18.82807243583906
 20
-11.55939783266984
 30
0.0
 10
-17.85243944831458
 20
-11.32931567389744
 30
0.0
 10
-16.95456211786003
 20
-10.9150576053224
 30
0.0
  0
SPLINE
  5
4639
330
1F
100
AcDbEntity
  8
AM_0
100
AcDbSpline
210
0.0
220
0.0
230
1.0
 70
     8
 71
     3
 72
     8
 73
     4
 74
     2
 42
0.0000000001
 43
0.0000000001
 44
0.0000000001
 12
-1.0
 22
0.0000000000000001
 32
0.0
 40
0.0
 40
0.0
 40
0.0
 40
0.0
 40
16.13016361522636
 40
16.13016361522636
 40
16.13016361522636
 40
16.13016361522636
 10
-19.90084184828683
 20
-11.55939783266984
 30
0.0
 10
-25.27756305336228
 20
-11.55939783266984
 30
0.0
 10
-28.21420245082455
 20
-5.779698916334055
 30
0.0
 10
-31.15084184828683
 20
0.0000000000017342
 30
0.0
 11
-19.90084184828683
 21
-11.55939783266984
 31
0.0
 11
-31.15084184828683
 21
0.0000000000017342
 31
0.0
  0
SPLINE
  5
463A
330
1F
100
AcDbEntity
  8
AM_0
100
AcDbSpline
210
0.0
220
0.0
230
1.0
 70
     8
 71
     3
 72
     8
 73
     4
 74
     0
 42
0.0000000001
 43
0.0000000001
 40
0.0
 40
0.0
 40
0.0
 40
0.0
 40
1.274172826456642
 40
1.274172826456642
 40
1.274172826456642
 40
1.274172826456642
 10
-21.84252426407292
 20
-12.12596201986326
 30
0.0
 10
-20.78071357535927
 20
-12.12596201986326
 30
0.0
 10
-19.81701396609659
 20
-11.90110600951666
 30
0.0
 10
-18.9325312931829
 20
-11.49469655628732
 30
0.0
  0
SPLINE
  5
463B
330
1F
100
AcDbEntity
  8
AM_0
100
AcDbSpline
210
0.0
220
0.0
230
1.0
 70
     8
 71
     3
 72
     8
 73
     4
 74
     0
 42
0.0000000001
 43
0.0000000001
 40
0.0
 40
0.0
 40
0.0
 40
0.0
 40
0.9875149967633806
 40
0.9875149967633806
 40
0.9875149967633806
 40
0.9875149967633806
 10
-23.75000000000122
 20
-12.49999999999812
 30
0.0
 10
-22.92707083603099
 20
-12.49999999999812
 30
0.0
 10
-22.16412939631263
 20
-12.36530581922008
 30
0.0
 10
-21.45236931356416
 20
-12.11569094368241
 30
0.0
  0
SPLINE
  5
463C
330
1F
100
AcDbEntity
  8
AM_0
100
AcDbSpline
210
0.0
220
0.0
230
1.0
 70
     8
 71
     3
 72
     8
 73
     4
 74
     0
 42
0.0000000001
 43
0.0000000001
 40
0.0
 40
0.0
 40
0.0
 40
0.0
 40
2.064174349630627
 40
2.064174349630627
 40
2.064174349630627
 40
2.064174349630627
 10
-12.49999999999326
 20
12.5000000000013
 30
0.0
 10
-14.22014529135148
 20
12.50000000000187
 30
0.0
 10
-15.67819014811002
 20
11.91148953789269
 30
0.0
 10
-16.95456211785549
 20
10.915057605328
 30
0.0
  0
SPLINE
  5
463D
330
1F
100
AcDbEntity
  8
AM_0
100
AcDbSpline
210
0.0
220
0.0
230
1.0
 70
     8
 71
     3
 72
     8
 73
     4
 74
     0
 42
0.0000000001
 43
0.0000000001
 40
0.0
 40
0.0
 40
0.0
 40
0.0
 40
2.064174349630627
 40
2.064174349630627
 40
2.064174349630627
 40
2.064174349630627
 10
-1.249999999990992
 20
12.49999999999846
 30
0.0
 10
-2.970145291351487
 20
12.49999999999874
 30
0.0
 10
-4.428190148110021
 20
11.9114895378897
 30
0.0
 10
-5.704562117853217
 20
10.91505760532487
 30
0.0
  0
SPLINE
  5
463E
330
1F
100
AcDbEntity
  8
AM_0
100
AcDbSpline
210
0.0
220
0.0
230
1.0
 70
     8
 71
     3
 72
     8
 73
     4
 74
     2
 42
0.0000000001
 43
0.0000000001
 44
0.0000000001
 12
-1.0
 22
0.0000000000000001
 32
0.0
 40
0.0
 40
0.0
 40
0.0
 40
0.0
 40
16.8170300588429
 40
16.8170300588429
 40
16.8170300588429
 40
16.8170300588429
 10
-12.49999999999667
 20
-12.49999999999869
 30
0.0
 10
-18.10567668627764
 20
-12.49999999999869
 30
0.0
 10
-20.92783834313773
 20
-6.249999999998695
 30
0.0
 10
-23.74999999999781
 20
0.0000000000013067
 30
0.0
 11
-12.49999999999667
 21
-12.49999999999869
 31
0.0
 11
-23.74999999999781
 21
0.0000000000013067
 31
0.0
  0
SPLINE
  5
463F
330
1F
100
AcDbEntity
  8
AM_0
100
AcDbSpline
210
0.0
220
0.0
230
1.0
 70
     8
 71
     3
 72
     8
 73
     4
 74
     2
 42
0.0000000001
 43
0.0000000001
 44
0.0000000001
 12
-1.0
 22
0.0000000000000001
 32
0.0
 40
0.0
 40
0.0
 40
0.0
 40
0.0
 40
16.54090248164373
 40
16.54090248164373
 40
16.54090248164373
 40
16.54090248164373
 10
-10.59252426406837
 20
-12.12596201986412
 30
0.0
 10
-16.10615842461629
 20
-12.12596201986412
 30
0.0
 10
-18.97434134434289
 20
-6.062981009931337
 30
0.0
 10
-21.84252426406951
 20
0.0000000000014488
 30
0.0
 11
-10.59252426406837
 21
-12.12596201986412
 31
0.0
 11
-21.84252426406951
 21
0.0000000000014488
 31
0.0
  0
SPLINE
  5
4640
330
1F
100
AcDbEntity
  8
AM_0
100
AcDbSpline
210
0.0
220
0.0
230
1.0
 70
     8
 71
     3
 72
     8
 73
     4
 74
     2
 42
0.0000000001
 43
0.0000000001
 44
0.0000000001
 12
-1.0
 22
0.0000000000000001
 32
0.0
 40
0.0
 40
0.0
 40
0.0
 40
0.0
 40
16.13016361522715
 40
16.13016361522715
 40
16.13016361522715
 40
16.13016361522715
 10
-8.65084184828456
 20
-11.55939783266984
 30
0.0
 10
-14.02756305336027
 20
-11.55939783266984
 30
0.0
 10
-16.96420245082299
 20
-5.779698916334058
 30
0.0
 10
-19.90084184828569
 20
0.0000000000017325
 30
0.0
 11
-8.65084184828456
 21
-11.55939783266984
 31
0.0
 11
-19.90084184828569
 21
0.0000000000017325
 31
0.0
  0
SPLINE
  5
4641
330
1F
100
AcDbEntity
  8
AM_0
100
AcDbSpline
210
0.0
220
0.0
230
1.0
 70
     8
 71
     3
 72
     8
 73
     4
 74
     0
 42
0.0000000001
 43
0.0000000001
 40
0.0
 40
0.0
 40
0.0
 40
0.0
 40
1.287323294939932
 40
1.287323294939932
 40
1.287323294939932
 40
1.287323294939932
 10
-8.650841848287971
 20
-11.55939783266984
 30
0.0
 10
-7.578072435837927
 20
-11.55939783266984
 30
0.0
 10
-6.602439448313449
 20
-11.32931567389744
 30
0.0
 10
-5.704562117858901
 20
-10.9150576053224
 30
0.0
  0
SPLINE
  5
4642
330
1F
100
AcDbEntity
  8
AM_0
100
AcDbSpline
210
0.0
220
0.0
230
1.0
 70
     8
 71
     3
 72
     8
 73
     4
 74
     0
 42
0.0000000001
 43
0.0000000001
 40
0.0
 40
0.0
 40
0.0
 40
0.0
 40
0.9875149967633806
 40
0.9875149967633806
 40
0.9875149967633806
 40
0.9875149967633806
 10
-12.50000000000008
 20
-12.49999999999812
 30
0.0
 10
-11.67707083602985
 20
-12.49999999999812
 30
0.0
 10
-10.91412939631263
 20
-12.36530581922008
 30
0.0
 10
-10.20236931356302
 20
-12.11569094368241
 30
0.0
  0
SPLINE
  5
4643
330
1F
100
AcDbEntity
  8
AM_0
100
AcDbSpline
210
0.0
220
0.0
230
1.0
 70
     8
 71
     3
 72
     8
 73
     4
 74
     0
 42
0.0000000001
 43
0.0000000001
 40
0.0
 40
0.0
 40
0.0
 40
0.0
 40
1.274172826456642
 40
1.274172826456642
 40
1.274172826456642
 40
1.274172826456642
 10
-10.59252426407178
 20
-12.12596201986327
 30
0.0
 10
-9.530713575357001
 20
-12.12596201986327
 30
0.0
 10
-8.567013966095462
 20
-11.90110600951667
 30
0.0
 10
-7.68253129318177
 20
-11.49469655628732
 30
0.0
  0
SPLINE
  5
4644
330
1F
100
AcDbEntity
  8
AM_0
100
AcDbSpline
210
0.0
220
0.0
230
1.0
 70
     8
 71
     3
 72
     8
 73
     4
 74
     0
 42
0.0000000001
 43
0.0000000001
 40
0.3982504941345976
 40
0.3982504941345976
 40
0.3982504941345976
 40
0.3982504941345976
 40
3.593152844925358
 40
3.593152844925358
 40
3.593152844925358
 40
3.593152844925358
 10
-7.682531293178359
 20
11.49469655629064
 30
0.0
 10
-5.164668719386415
 20
11.1522939148229
 30
0.0
 10
-3.208180300800992
 20
9.480192577851507
 30
0.0
 10
-1.5168006869977
 20
7.180141363571717
 30
0.0
  0
SPLINE
  5
4645
330
1F
100
AcDbEntity
  8
AM_0
100
AcDbSpline
210
0.0
220
0.0
230
1.0
 70
     8
 71
     3
 72
     8
 73
     4
 74
     0
 42
0.0000000001
 43
0.0000000001
 40
0.157854605497133
 40
0.157854605497133
 40
0.157854605497133
 40
0.157854605497133
 40
5.969429285227189
 40
5.969429285227189
 40
5.969429285227189
 40
5.969429285227189
 10
-10.20236931333565
 20
12.11569094360771
 30
0.0
 10
-5.468944998098183
 20
11.86460812062892
 30
0.0
 10
-2.727853657454576
 20
7.047394270913283
 30
0.0
 10
-0.1863291045129668
 20
1.772803008465071
 30
0.0
  0
SPLINE
  5
4646
330
1F
100
AcDbEntity
  8
AM_0
100
AcDbSpline
210
0.0
220
0.0
230
1.0
 70
     8
 71
     3
 72
     8
 73
     4
 74
     2
 42
0.0000000001
 43
0.0000000001
 44
0.0000000001
 12
1.0
 22
-0.0000000000000002
 32
0.0
 40
0.0
 40
0.0
 40
0.0
 40
0.0
 40
16.81703005884213
 40
16.81703005884213
 40
16.81703005884213
 40
16.81703005884213
 10
-12.49999999999554
 20
12.5000000000013
 30
0.0
 10
-6.894323313714828
 20
12.5000000000013
 30
0.0
 10
-4.072161656855183
 20
6.250000000001303
 30
0.0
 10
-1.24999999999554
 20
0.000000000001304
 30
0.0
 11
-12.49999999999554
 21
12.5000000000013
 31
0.0
 11
-1.24999999999554
 21
0.000000000001304
 31
0.0
  0
SPLINE
  5
4647
330
1F
100
AcDbEntity
  8
AM_0
100
AcDbSpline
210
0.0
220
0.0
230
1.0
 70
     8
 71
     3
 72
     8
 73
     4
 74
     0
 42
0.0000000001
 43
0.0000000001
 40
0.3982504941345976
 40
0.3982504941345976
 40
0.3982504941345976
 40
0.3982504941345976
 40
6.452065446090842
 40
6.452065446090842
 40
6.452065446090842
 40
6.452065446090842
 10
-18.93253129318063
 20
11.49469655629064
 30
0.0
 10
-14.16159546397702
 20
10.84589981607311
 30
0.0
 10
-11.40621865612965
 20
5.422949908037422
 30
0.0
 10
-8.65084184828456
 20
0.0000000000015893
 30
0.0
  0
SPLINE
  5
4648
330
1F
100
AcDbEntity
  8
AM_0
100
AcDbSpline
210
0.0
220
0.0
230
1.0
 70
     8
 71
     3
 72
     8
 73
     4
 74
     0
 42
0.0000000001
 43
0.0000000001
 40
0.157854605497133
 40
0.157854605497133
 40
0.157854605497133
 40
0.157854605497133
 40
6.616360992657454
 40
6.616360992657454
 40
6.616360992657454
 40
6.616360992657454
 10
-21.45236931333792
 20
12.11569094360771
 30
0.0
 10
-16.19203061723064
 20
11.83665813317662
 30
0.0
 10
-13.39227744064837
 20
5.918329066588823
 30
0.0
 10
-10.59252426406837
 20
0.0000000000010209
 30
0.0
  0
SPLINE
  5
4649
330
1F
100
AcDbEntity
  8
AM_0
100
AcDbSpline
210
0.0
220
0.0
230
1.0
 70
     8
 71
     3
 72
     8
 73
     4
 74
     2
 42
0.0000000001
 43
0.0000000001
 44
0.0000000001
 12
1.0
 22
-0.0000000000000002
 32
0.0
 40
0.0
 40
0.0
 40
0.0
 40
0.0
 40
16.81703005884366
 40
16.81703005884366
 40
16.81703005884366
 40
16.81703005884366
 10
-23.74999999999781
 20
12.5000000000013
 30
0.0
 10
-18.14432331371659
 20
12.5000000000013
 30
0.0
 10
-15.32216165685607
 20
6.250000000001306
 30
0.0
 10
-12.49999999999554
 20
0.0000000000013056
 30
0.0
 11
-23.74999999999781
 21
12.5000000000013
 31
0.0
 11
-12.49999999999554
 21
0.0000000000013056
 31
0.0
  0
SPLINE
  5
464A
330
1F
100
AcDbEntity
  8
AM_0
100
AcDbSpline
210
0.0
220
0.0
230
1.0
 70
     8
 71
     3
 72
     8
 73
     4
 74
     2
 42
0.0000000001
 43
0.0000000001
 44
0.0000000001
 12
-1.0
 22
0.0000000000000001
 32
0.0
 40
0.0
 40
0.0
 40
0.0
 40
0.0
 40
16.81703005884213
 40
16.81703005884213
 40
16.81703005884213
 40
16.81703005884213
 10
-1.24999999999554
 20
-12.49999999999869
 30
0.0
 10
-6.855676686276253
 20
-12.49999999999869
 30
0.0
 10
-9.677838343135897
 20
-6.249999999998694
 30
0.0
 10
-12.49999999999554
 20
0.0000000000013056
 30
0.0
 11
-1.24999999999554
 21
-12.49999999999869
 31
0.0
 11
-12.49999999999554
 21
0.0000000000013056
 31
0.0
  0
SPLINE
  5
464B
330
1F
100
AcDbEntity
  8
AM_0
100
AcDbSpline
210
0.0
220
0.0
230
1.0
 70
     8
 71
     3
 72
     8
 73
     4
 74
     0
 42
0.0000000001
 43
0.0000000001
 40
0.2792346998959001
 40
0.2792346998959001
 40
0.2792346998959001
 40
0.2792346998959001
 40
6.616360992657454
 40
6.616360992657454
 40
6.616360992657454
 40
6.616360992657454
 10
-0.026674042221745
 20
-12.09402055265809
 30
0.0
 10
-5.098254101597009
 20
-11.61420194974039
 30
0.0
 10
-7.845389182832692
 20
-5.807100974869403
 30
0.0
 10
-10.59252426406837
 20
0.0000000000014472
 30
0.0
  0
SPLINE
  5
464C
330
1F
100
AcDbEntity
  8
AM_0
100
AcDbSpline
210
0.0
220
0.0
230
1.0
 70
     8
 71
     3
 72
     8
 73
     4
 74
     0
 42
0.0000000001
 43
0.0000000001
 40
1.335037241116488
 40
1.335037241116488
 40
1.335037241116488
 40
1.335037241116488
 40
6.452065446090842
 40
6.452065446090842
 40
6.452065446090842
 40
6.452065446090842
 10
-0.4466401316768465
 20
-10.86823813621788
 30
0.0
 10
-3.992839926199936
 20
-9.167570483669866
 30
0.0
 10
-6.321840887242248
 20
-4.583785241833997
 30
0.0
 10
-8.65084184828456
 20
0.0000000000017314
 30
0.0
  0
DIMENSION
  5
464D
330
1F
100
AcDbEntity
  8
AM_5
100
AcDbDimension
  2
*D8
 10
15.32953088907466
 20
12.49999999999987
 30
0.0
 11
12.22953088907466
 21
-0.0000000000001187
 31
0.0
 70
    32
  1
%%c<>
  3
AM_JIS
100
AcDbAlignedDimension
 13
-0.0000000000000428
 23
-12.50000000000011
 33
0.0
 14
-0.0000000000000591
 24
12.49999999999988
 34
0.0
 50
90.00000000000005
100
AcDbRotatedDimension
1001
ACAD
1000
DSTYLE
1002
{
1070
    48
1040
0.05
1070
    47
1040
0.0
1070
   274
1070
     1
1070
   272
1070
     2
1002
}
1001
GENIUS_GENDTOL_13
1000

1000
H7
1000

1040
0.0
  0
LINE
  5
464E
330
1F
100
AcDbEntity
  8
AM_11
100
AcDbLine
 10
-50.00000000000006
 20
-12.50000000000018
 30
0.0
 11
-0.000000000000065
 21
-12.50000000000011
 31
0.0
  0
LINE
  5
464F
330
1F
100
AcDbEntity
  8
AM_11
100
AcDbLine
 10
-0.0000000000000591
 20
12.49999999999988
 30
0.0
 11
-50.00000000000006
 21
12.49999999999988
 31
0.0
  0
LINE
  5
4650
330
1F
100
AcDbEntity
  8
AM_11
100
AcDbLine
 10
-50.00000000000006
 20
12.49999999999988
 30
0.0
 11
-50.00000000000006
 21
-12.50000000000018
 31
0.0
  0
LINE
  5
4651
330
1F
100
AcDbEntity
  8
AM_0
100
AcDbLine
 10
-50.00000000000006
 20
-6.522899589877972
 30
0.0
 11
-50.00000000000006
 21
-11.41066557720473
 31
0.0
  0
ARC
  5
4652
330
1F
100
AcDbEntity
  8
AM_0
100
AcDbCircle
 10
-54.15734162403763
 20
-8.031418466745739
 30
0.0
 40
4.498562103584124
100
AcDbArc
 50
276.6185401226247
 51
320.132563126058
  0
POLYLINE
  5
4653
330
1F
100
AcDbEntity
  8
AM_0
100
AcDb2dPolyline
 66
     1
 10
0.0
 20
0.0
 30
0.0
 70
     2
  0
VERTEX
  5
4654
330
4653
100
AcDbEntity
  8
AM_0
100
AcDbVertex
100
AcDb2dVertex
 10
-52.38884371617272
 20
-9.262512946457766
 30
0.0
 42
0.0225616673275365
  0
VERTEX
  5
4655
330
4653
100
AcDbEntity
  8
AM_0
100
AcDbVertex
100
AcDb2dVertex
 10
-52.70775677595365
 20
-9.537688735355336
 30
0.0
 42
0.0423125101835395
 70
     1
  0
VERTEX
  5
4656
330
4653
100
AcDbEntity
  8
AM_0
100
AcDbVertex
100
AcDb2dVertex
 10
-52.85759371617272
 20
-9.705390842284876
 30
0.0
 42
0.0217109162744619
  0
VERTEX
  5
4657
330
4653
100
AcDbEntity
  8
AM_0
100
AcDbVertex
100
AcDb2dVertex
 10
-53.26241935825718
 20
-10.29559356733567
 30
0.0
 42
0.0333094259893894
 70
     1
  0
VERTEX
  5
4658
330
4653
100
AcDbEntity
  8
AM_0
100
AcDbVertex
100
AcDb2dVertex
 10
-53.48259371617272
 20
-10.70719056965497
 30
0.0
 42
0.0380198083069077
  0
VERTEX
  5
4659
330
4653
100
AcDbEntity
  8
AM_0
100
AcDbVertex
100
AcDb2dVertex
 10
-53.60558209011541
 20
-11.04558873842176
 30
0.0
 42
0.0615250772855249
 70
     1
  0
VERTEX
  5
465A
330
4653
100
AcDbEntity
  8
AM_0
100
AcDbVertex
100
AcDb2dVertex
 10
-53.63884371617272
 20
-11.26611240119796
 30
0.0
 42
0.0958038443148593
  0
VERTEX
  5
465B
330
4653
100
AcDbEntity
  8
AM_0
100
AcDbVertex
100
AcDb2dVertex
 10
-53.61092684578038
 20
-11.43458018089528
 30
0.0
 42
0.057384580605143
 70
     1
  0
VERTEX
  5
465C
330
4653
100
AcDbEntity
  8
AM_0
100
AcDbVertex
100
AcDb2dVertex
 10
-53.48259371617272
 20
-11.68729259082407
 30
0.0
 42
0.0905881314495874
  0
VERTEX
  5
465D
330
4653
100
AcDbEntity
  8
AM_0
100
AcDbVertex
100
AcDb2dVertex
 10
-53.25225020016004
 20
-11.92712813327613
 30
0.0
 42
0.06706495725993
 70
     1
  0
VERTEX
  5
465E
330
4653
100
AcDbEntity
  8
AM_0
100
AcDbVertex
100
AcDb2dVertex
 10
-52.85759371617272
 20
-12.13812575052596
 30
0.0
 42
0.0735990152040616
  0
VERTEX
  5
465F
330
4653
100
AcDbEntity
  8
AM_0
100
AcDbVertex
100
AcDb2dVertex
 10
-52.6639301668345
 20
-12.17942566006183
 30
0.0
 42
0.0527936728642789
 70
     1
  0
VERTEX
  5
4660
330
4653
100
AcDbEntity
  8
AM_0
100
AcDbVertex
100
AcDb2dVertex
 10
-52.38884371617272
 20
-12.16777872060188
 30
0.0
  0
SEQEND
  5
4661
330
4653
100
AcDbEntity
  8
AM_0
  0
POLYLINE
  5
4662
330
1F
100
AcDbEntity
  8
AM_0
100
AcDb2dPolyline
 66
     1
 10
0.0
 20
0.0
 30
0.0
 70
     2
  0
VERTEX
  5
4663
330
4662
100
AcDbEntity
  8
AM_0
100
AcDbVertex
100
AcDb2dVertex
 10
-52.40084184828928
 20
-2.430435313001273
 30
0.0
 42
-0.0093592997281701
  0
VERTEX
  5
4664
330
4662
100
AcDbEntity
  8
AM_0
100
AcDbVertex
100
AcDb2dVertex
 10
-52.76952420719934
 20
-1.239745059261954
 30
0.0
 42
-0.0264443010942447
 70
     1
  0
VERTEX
  5
4665
330
4662
100
AcDbEntity
  8
AM_0
100
AcDbVertex
100
AcDb2dVertex
 10
-52.86959184828928
 20
-0.8098126822494201
 30
0.0
 42
-0.0056919647829364
  0
VERTEX
  5
4666
330
4662
100
AcDbEntity
  8
AM_0
100
AcDbVertex
100
AcDb2dVertex
 10
-53.340838922509
 20
2.030422001774817
 30
0.0
 42
-0.0134174959760068
 70
     1
  0
VERTEX
  5
4667
330
4662
100
AcDbEntity
  8
AM_0
100
AcDbVertex
100
AcDb2dVertex
 10
-53.49459184828928
 20
3.242242527756682
 30
0.0
 42
-0.0087991397927587
  0
VERTEX
  5
4668
330
4662
100
AcDbEntity
  8
AM_0
100
AcDbVertex
100
AcDb2dVertex
 10
-53.61399116035753
 20
4.699133713532896
 30
0.0
 42
-0.0131902285363526
 70
     1
  0
VERTEX
  5
4669
330
4662
100
AcDbEntity
  8
AM_0
100
AcDbVertex
100
AcDb2dVertex
 10
-53.65084184828928
 20
5.67367510701093
 30
0.0
 42
-0.0223038229887529
  0
VERTEX
  5
466A
330
4662
100
AcDbEntity
  8
AM_0
100
AcDbVertex
100
AcDb2dVertex
 10
-53.63465982985216
 20
6.161143916200338
 30
0.0
 42
-0.0071363004437145
 70
     1
  0
VERTEX
  5
466B
330
4662
100
AcDbEntity
  8
AM_0
100
AcDbVertex
100
AcDb2dVertex
 10
-53.49459184828928
 20
7.678388188596763
 30
0.0
 42
-0.0385495993333262
  0
VERTEX
  5
466C
330
4662
100
AcDbEntity
  8
AM_0
100
AcDbVertex
100
AcDb2dVertex
 10
-53.2031874845782
 20
9.249523250995148
 30
0.0
 42
-0.0733676270270131
 70
     1
  0
VERTEX
  5
466D
330
4662
100
AcDbEntity
  8
AM_0
100
AcDbVertex
100
AcDb2dVertex
 10
-52.86959184828928
 20
10.0235654079059
 30
0.0
 42
-0.0976144470008981
  0
VERTEX
  5
466E
330
4662
100
AcDbEntity
  8
AM_0
100
AcDbVertex
100
AcDb2dVertex
 10
-52.77203899943769
 20
10.12870014165731
 30
0.0
 42
-0.0315847571227467
 70
     1
  0
VERTEX
  5
466F
330
4662
100
AcDbEntity
  8
AM_0
100
AcDbVertex
100
AcDb2dVertex
 10
-52.40084184828928
 20
10.36402954562906
 30
0.0
  0
SEQEND
  5
4670
330
4662
100
AcDbEntity
  8
AM_0
  0
LINE
  5
4671
330
1F
100
AcDbEntity
  8
AM_0
100
AcDbLine
 10
-50.00000000000006
 20
10.65808070209751
 30
0.0
 11
-50.00000000000006
 21
7.393055238221016
 31
0.0
  0
LINE
  5
4672
330
1F
100
AcDbEntity
  8
AM_0
100
AcDbLine
 10
-0.2627605881640161
 20
-3.31724463640808
 30
0.0
 11
-0.2627605881640161
 21
-11.43221995310111
 31
0.0
  0
ARC
  5
4673
330
1F
100
AcDbEntity
  8
AM_0
100
AcDbCircle
 10
22.05240709366526
 20
-3.844658959499844
 30
0.0
 40
23.56984918279669
100
AcDbArc
 50
179.5773066515289
 51
200.6715624847572
  0
LINE
  5
4674
330
1F
100
AcDbEntity
  8
AM_0
100
AcDbLine
 10
-0.0000000000000878
 20
-12.16506350946258
 30
0.0
 11
-0.0000000000000878
 21
12.16506350946306
 31
0.0
  0
LINE
  5
4675
330
1F
100
AcDbEntity
  8
AM_11
100
AcDbLine
 10
-0.0000000000000591
 20
12.49999999999988
 30
0.0
 11
-0.0000000000000607
 21
-12.50000000000011
 31
0.0
  0
LINE
  5
4676
330
1F
100
AcDbEntity
  8
AM_0
100
AcDbLine
 10
-1.249999999997814
 20
-12.49999999999812
 30
0.0
 11
-0.0000000000000878
 21
-12.16506350946258
 31
0.0
  0
LINE
  5
4677
330
1F
100
AcDbEntity
  8
AM_0
100
AcDbLine
 10
-0.2627605881640161
 20
2.500000000000166
 30
0.0
 11
-1.5168006869977
 21
7.18014136357186
 31
0.0
  0
LINE
  5
4678
330
1F
100
AcDbEntity
  8
AM_0
100
AcDbLine
 10
-3.584023154527445
 20
0.0000000000001676
 30
0.0
 11
-3.584023154527445
 21
-2.000000000000144
 31
0.0
  0
LINE
  5
4679
330
1F
100
AcDbEntity
  8
AM_0
100
AcDbLine
 10
-0.0000000000000878
 20
-2.500000000000116
 30
0.0
 11
-0.9099255856654931
 21
-0.0000000000001171
 31
0.0
  0
LINE
  5
467A
330
1F
100
AcDbEntity
  8
AM_0
100
AcDbLine
 10
-3.584023154527445
 20
-2.000000000000144
 30
0.0
 11
-1.5168006869977
 21
-3.670776551643487
 31
0.0
  0
LINE
  5
467B
330
1F
100
AcDbEntity
  8
AM_0
100
AcDbLine
 10
-3.584023154527445
 20
-2.000000000000144
 30
0.0
 11
-0.1819851171331689
 21
-2.000000000000144
 31
0.0
  0
LINE
  5
467C
330
1F
100
AcDbEntity
  8
AM_0
100
AcDbLine
 10
-1.5168006869977
 20
-3.670776551643487
 30
0.0
 11
-0.2627605881640161
 21
-3.31724463640808
 31
0.0
  0
LINE
  5
467D
330
1F
100
AcDbEntity
  8
AM_0
100
AcDbLine
 10
-0.2627605881640161
 20
-3.31724463640808
 30
0.0
 11
-0.0000000000000878
 21
-2.500000000000116
 31
0.0
  0
LINE
  5
467E
330
1F
100
AcDbEntity
  8
AM_0
100
AcDbLine
 10
-0.0000000000000878
 20
0.0000000000001671
 30
0.0
 11
-3.584023154527445
 21
0.0000000000001676
 31
0.0
  0
LINE
  5
467F
330
1F
100
AcDbEntity
  8
AM_0
100
AcDbLine
 10
-0.0000000000000878
 20
0.0000000000001671
 30
0.0
 11
-0.2627605881640161
 21
2.500000000000166
 31
0.0
  0
LINE
  5
4680
330
1F
100
AcDbEntity
  8
AM_0
100
AcDbLine
 10
-1.249999999986445
 20
12.49999999999846
 30
0.0
 11
-0.0000000000000878
 21
12.16506350946306
 31
0.0
  0
VIEWPORT
  5
110
330
101
100
AcDbEntity
 67
     1
  8
0
100
AcDbViewport
 10
420.5
 20
297.0
 30
0.0
 40
948.9782706766916
 41
628.452
 68
     1
 69
     1
1001
ACAD
1000
MVIEW
1002
{
1070
    16
1010
0.0
1020
0.0
1030
0.0
1010
0.0
1020
0.0
1030
1.0
1040
0.0
1040
628.452
1040
420.5
1040
297.0
1040
50.0
1040
0.0
1040
0.0
1070
     0
1070
   100
1070
     1
1070
     1
1070
     0
1070
     0
1070
     0
1070
     0
1040
0.0
1040
0.0
1040
0.0
1040
10.0
1040
10.0
1040
10.0
1040
10.0
1070
     0
1002
{
1002
}
1002
}
  0
ENDSEC
  0
SECTION
  2
OBJECTS
  0
DICTIONARY
  5
C
330
0
100
AcDbDictionary
  3
ACAD_GROUP
350
D
  3
ACAD_LAYOUT
350
1A
  3
ACAD_MLINESTYLE
350
17
  3
ACAD_PLOTSETTINGS
350
19
  3
ACAD_PLOTSTYLENAME
350
E
  3
ACDBVARIABLEDICTIONARY
350
34
  3
ACMDICTIONARY
350
43
  3
AMG
350
2B
  3
AMGSNAPSETTINGS
350
6E
  3
ASE_INDEX_DICTIONARY
350
151A
  3
DWGPROPS
350
46ED
  3
ACDBHEADERROUNDTRIPXREC
350
46F9
  0
DICTIONARY
  5
74
330
1F
100
AcDbDictionary
280
     1
  3
ACAD_INDEX
360
46EF
  3
ACAD_LAYOUTSELFREF
360
471C
  0
DICTIONARY
  5
4721
330
101
100
AcDbDictionary
280
     1
  3
ACAD_LAYOUTSELFREF
360
4722
  0
DICTIONARY
  5
D
102
{ACAD_REACTORS
330
C
102
}
330
C
100
AcDbDictionary
  0
DICTIONARY
  5
1A
102
{ACAD_REACTORS
330
C
102
}
330
C
100
AcDbDictionary
  0
DICTIONARY
  5
17
102
{ACAD_REACTORS
330
C
102
}
330
C
100
AcDbDictionary
  3
STANDARD
350
18
  0
DICTIONARY
  5
19
102
{ACAD_REACTORS
330
C
102
}
330
C
100
AcDbDictionary
  0
ACDBDICTIONARYWDFLT
  5
E
102
{ACAD_REACTORS
330
C
102
}
330
C
100
AcDbDictionary
281
     1
  3
Normal
350
F
100
AcDbDictionaryWithDefault
340
F
  0
DICTIONARY
  5
34
102
{ACAD_REACTORS
330
C
102
}
330
C
100
AcDbDictionary
  3
INDEXCTL
350
35
  3
SORTENTS
350
B5E
  0
DICTIONARY
  5
43
102
{ACAD_REACTORS
330
C
102
}
330
C
100
AcDbDictionary
  3
ACMSTDDICTIONARY
350
260
  0
DICTIONARY
  5
2B
102
{ACAD_REACTORS
330
C
102
}
330
C
100
AcDbDictionary
  3
ACMGSETTINGS
350
2C
  0
DICTIONARY
  5
6E
102
{ACAD_REACTORS
330
C
102
}
330
C
100
AcDbDictionary
  0
DICTIONARY
  5
151A
102
{ACAD_REACTORS
330
C
102
}
330
C
100
AcDbDictionary
  3
ASEBLOCKHIERARCHYINDEXRECORD
350
151C
1001
DCO15
1040
1471862535.906
  0
XRECORD
  5
46ED
102
{ACAD_REACTORS
330
C
102
}
330
C
100
AcDbXrecord
  1
DWGPROPS COOKIE
  2

  3

  4

  6

  7

  8

  9

300
AmdtFileType=82
301
=
302
=
303
=
304
=
305
=
306
=
307
=
308
=
309
=
 40
0.1899067013888889
 41
2452838.430434386
 42
2453045.480885382
  1

 90
        1
  0
DICTIONARY
  5
46F9
102
{ACAD_REACTORS
330
C
102
}
330
C
100
AcDbDictionary
  3
TSTACKALIGN
350
46FA
  3
TSTACKSIZE
350
46FB
  3
HYPERLINKBASE
350
46FC
  3
STYLESHEET
350
46FD
  3
LAYOUTDICT
350
46FE
  3
PLOTSETDICT
350
46FF
  3
PLOTSTYLNAMDICT
350
4700
  3
LWETCUNION
350
4701
  3
INSUNITS
350
4702
  3
CEPSNTYPE
350
4703
  3
FINGERPRINTGUID
350
4704
  3
VERSIONGUID
350
4705
  3
PSVPSCALE
350
4706
  3
DIMSTYLEDATA
350
4707
  3
PUCSORTHOREF
350
4708
  3
PUCSORTHOVIEW
350
4709
  3
PUCSBASE
350
470A
  3
PUCSORGTOP
350
470B
  3
PUCSORGBOTTOM
350
470C
  3
PUCSORGLEFT
350
470D
  3
PUCSORGRIGHT
350
470E
  3
PUCSORGFRONT
350
470F
  3
PUCSORGBACK
350
4710
  3
UCSORTHOREF
350
4711
  3
UCSORTHOVIEW
350
4712
  3
UCSBASE
350
4713
  3
UCSORGTOP
350
4714
  3
UCSORGBOTTOM
350
4715
  3
UCSORGLEFT
350
4716
  3
UCSORGRIGHT
350
4717
  3
UCSORGFRONT
350
4718
  3
UCSORGBACK
350
4719
  0
DICTIONARY
  5
46EF
102
{ACAD_REACTORS
330
74
102
}
330
74
100
AcDbDictionary
  3
*A1
350
46F0
  0
XRECORD
  5
471C
102
{ACAD_REACTORS
330
74
102
}
330
74
100
AcDbXrecord
340
1F
  0
XRECORD
  5
4722
102
{ACAD_REACTORS
330
4721
102
}
330
4721
100
AcDbXrecord
340
101
  0
MLINESTYLE
  5
18
102
{ACAD_REACTORS
330
17
102
}
330
17
100
AcDbMlineStyle
  2
STANDARD
 70
     0
  3

 62
   256
 51
90.0
 52
90.0
 71
     2
 49
0.5
 62
   256
  6
BYLAYER
 49
-0.5
 62
   256
  6
BYLAYER
  0
ACDBPLACEHOLDER
  5
F
102
{ACAD_REACTORS
330
E
102
}
330
E
100
AcDbPlaceHolder
280
     0
  0
DICTIONARYVAR
  5
35
102
{ACAD_REACTORS
330
34
102
}
330
34
100
DictionaryVariables
280
     0
  1
1
  0
DICTIONARYVAR
  5
B5E
102
{ACAD_REACTORS
330
34
102
}
330
34
100
DictionaryVariables
280
     0
  1
96
  0
DICTIONARY
  5
260
102
{ACAD_REACTORS
330
43
102
}
330
43
100
AcDbDictionary
  0
DICTIONARY
  5
2C
102
{ACAD_REACTORS
330
2B
102
}
330
2B
100
AcDbDictionary
  3
DWGSETTINGS
350
2D
  0
XRECORD
  5
151C
102
{ACAD_REACTORS
330
151A
102
}
330
151A
100
AcDbXrecord
330
0
330
0
330
0
330
0
330
0
330
0
330
0
330
0
  0
XRECORD
  5
46FA
102
{ACAD_REACTORS
330
46F9
102
}
330
46F9
100
AcDbXrecord
 90
        1
  0
XRECORD
  5
46FB
102
{ACAD_REACTORS
330
46F9
102
}
330
46F9
100
AcDbXrecord
 90
       70
  0
XRECORD
  5
46FC
102
{ACAD_REACTORS
330
46F9
102
}
330
46F9
100
AcDbXrecord
  1

  0
XRECORD
  5
46FD
102
{ACAD_REACTORS
330
46F9
102
}
330
46F9
100
AcDbXrecord
  1
ASAMI.ctb
  0
XRECORD
  5
46FE
102
{ACAD_REACTORS
330
46F9
102
}
330
46F9
100
AcDbXrecord
340
1A
  0
XRECORD
  5
46FF
102
{ACAD_REACTORS
330
46F9
102
}
330
46F9
100
AcDbXrecord
340
19
  0
XRECORD
  5
4700
102
{ACAD_REACTORS
330
46F9
102
}
330
46F9
100
AcDbXrecord
340
E
  0
XRECORD
  5
4701
102
{ACAD_REACTORS
330
46F9
102
}
330
46F9
100
AcDbXrecord
 90
    10781
  0
XRECORD
  5
4702
102
{ACAD_REACTORS
330
46F9
102
}
330
46F9
100
AcDbXrecord
 90
        4
  0
XRECORD
  5
4703
102
{ACAD_REACTORS
330
46F9
102
}
330
46F9
100
AcDbXrecord
 90
        0
  0
XRECORD
  5
4704
102
{ACAD_REACTORS
330
46F9
102
}
330
46F9
100
AcDbXrecord
  1
{AFB28963-8C59-40AE-9337-C84526B81ACE}
  0
XRECORD
  5
4705
102
{ACAD_REACTORS
330
46F9
102
}
330
46F9
100
AcDbXrecord
  1
{0B057B06-7A34-4A75-8301-EA10D859E2C9}
  0
XRECORD
  5
4706
102
{ACAD_REACTORS
330
46F9
102
}
330
46F9
100
AcDbXrecord
 40
0.0
  0
XRECORD
  5
4707
102
{ACAD_REACTORS
330
46F9
102
}
330
46F9
100
AcDbXrecord
1000
DSTYLE
1002
{
1070
    79
 70
     2
1070
   341
340
59
1070
   342
340
59
1070
   371
 70
    -1
1070
   372
 70
    -1
1002
}
  0
XRECORD
  5
4708
102
{ACAD_REACTORS
330
46F9
102
}
330
46F9
100
AcDbXrecord
340
0
  0
XRECORD
  5
4709
102
{ACAD_REACTORS
330
46F9
102
}
330
46F9
100
AcDbXrecord
 70
     0
  0
XRECORD
  5
470A
102
{ACAD_REACTORS
330
46F9
102
}
330
46F9
100
AcDbXrecord
340
0
  0
XRECORD
  5
470B
102
{ACAD_REACTORS
330
46F9
102
}
330
46F9
100
AcDbXrecord
 10
0.0
 20
0.0
 30
0.0
  0
XRECORD
  5
470C
102
{ACAD_REACTORS
330
46F9
102
}
330
46F9
100
AcDbXrecord
 10
0.0
 20
0.0
 30
0.0
  0
XRECORD
  5
470D
102
{ACAD_REACTORS
330
46F9
102
}
330
46F9
100
AcDbXrecord
 10
0.0
 20
0.0
 30
0.0
  0
XRECORD
  5
470E
102
{ACAD_REACTORS
330
46F9
102
}
330
46F9
100
AcDbXrecord
 10
0.0
 20
0.0
 30
0.0
  0
XRECORD
  5
470F
102
{ACAD_REACTORS
330
46F9
102
}
330
46F9
100
AcDbXrecord
 10
0.0
 20
0.0
 30
0.0
  0
XRECORD
  5
4710
102
{ACAD_REACTORS
330
46F9
102
}
330
46F9
100
AcDbXrecord
 10
0.0
 20
0.0
 30
0.0
  0
XRECORD
  5
4711
102
{ACAD_REACTORS
330
46F9
102
}
330
46F9
100
AcDbXrecord
340
0
  0
XRECORD
  5
4712
102
{ACAD_REACTORS
330
46F9
102
}
330
46F9
100
AcDbXrecord
 70
     0
  0
XRECORD
  5
4713
102
{ACAD_REACTORS
330
46F9
102
}
330
46F9
100
AcDbXrecord
340
0
  0
XRECORD
  5
4714
102
{ACAD_REACTORS
330
46F9
102
}
330
46F9
100
AcDbXrecord
 10
0.0
 20
0.0
 30
0.0
  0
XRECORD
  5
4715
102
{ACAD_REACTORS
330
46F9
102
}
330
46F9
100
AcDbXrecord
 10
0.0
 20
0.0
 30
0.0
  0
XRECORD
  5
4716
102
{ACAD_REACTORS
330
46F9
102
}
330
46F9
100
AcDbXrecord
 10
0.0
 20
0.0
 30
0.0
  0
XRECORD
  5
4717
102
{ACAD_REACTORS
330
46F9
102
}
330
46F9
100
AcDbXrecord
 10
0.0
 20
0.0
 30
0.0
  0
XRECORD
  5
4718
102
{ACAD_REACTORS
330
46F9
102
}
330
46F9
100
AcDbXrecord
 10
0.0
 20
0.0
 30
0.0
  0
XRECORD
  5
4719
102
{ACAD_REACTORS
330
46F9
102
}
330
46F9
100
AcDbXrecord
 10
0.0
 20
0.0
 30
0.0
  0
LAYER_INDEX
  5
46F0
102
{ACAD_REACTORS
330
46EF
102
}
330
46EF
100
AcDbIndex
 40
2453152.4681525
100
AcDbLayerIndex
  8
0
360
46F1
 90
        1
  8
AM_0
360
46F2
 90
       76
  8
AM_11
360
46F3
 90
        4
  8
AM_7
360
46F4
 90
        1
  8
AM_5
360
46F5
 90
        4
  8
Defpoints
360
46F6
 90
        0
  8
AM_6
360
46F7
 90
        1
  0
XRECORD
  5
2D
102
{ACAD_REACTORS
330
2C
102
}
330
2C
100
AcDbXrecord
  1
VERSION
140
15.0
  1
PRODUCT
  2
AutoCAD Mechanical 2000
  0
IDBUFFER
  5
46F1
330
0
100
AcDbIdBuffer
330
461A
  0
IDBUFFER
  5
46F2
330
0
100
AcDbIdBuffer
330
4644
330
4645
330
4646
330
4647
330
4648
330
4649
330
464A
330
464B
330
464C
330
4651
330
4652
330
4653
330
4662
330
4671
330
4672
330
4673
330
4674
330
4676
330
4677
330
4678
330
4679
330
467A
330
467B
330
467C
330
467D
330
467E
330
467F
330
4680
330
460F
330
4610
330
4611
330
4612
330
4615
330
4616
330
4618
330
4619
330
461C
330
461D
330
461E
330
461F
330
4620
330
4621
330
4622
330
4623
330
4624
330
4625
330
4626
330
4627
330
4628
330
4629
330
462A
330
462B
330
462C
330
462D
330
462E
330
462F
330
4630
330
4631
330
4632
330
4633
330
4634
330
4635
330
4636
330
4637
330
4638
330
4639
330
463A
330
463B
330
463C
330
463D
330
463E
330
463F
330
4640
330
4641
330
4642
330
4643
  0
IDBUFFER
  5
46F3
330
0
100
AcDbIdBuffer
330
464E
330
464F
330
4650
330
4675
  0
IDBUFFER
  5
46F4
330
0
100
AcDbIdBuffer
330
4613
  0
IDBUFFER
  5
46F5
330
0
100
AcDbIdBuffer
330
4614
330
4617
330
461B
330
464D
  0
IDBUFFER
  5
46F6
330
0
100
AcDbIdBuffer
  0
IDBUFFER
  5
46F7
330
0
100
AcDbIdBuffer
330
1500
  0
ENDSEC
  0
EOF
