  0
SECTION
  2
HEADER
  9
$ACADVER
  1
AC1014
  9
$ACADMAINTVER
 70
     9
  9
$DWGCODEPAGE
  3
ANSI_932
  9
$INSBASE
 10
0.0
 20
0.0
 30
0.0
  9
$EXTMIN
 10
-72.13823125971979
 20
-28.2500009999989
 30
-0.00000001
  9
$EXTMAX
 10
12.05776903085495
 20
4.312219485286942
 30
0.00000001
  9
$LIMMIN
 10
-74.73550943785733
 20
-33.67560242596081
  9
$LIMMAX
 10
14.28258824945504
 20
14.08448824525757
  9
$ORTHOMODE
 70
     0
  9
$REGENMODE
 70
     1
  9
$FILLMODE
 70
     1
  9
$QTEXTMODE
 70
     0
  9
$MIRRTEXT
 70
     0
  9
$DRAGMODE
 70
     2
  9
$LTSCALE
 40
1.0
  9
$OSMODE
 70
    55
  9
$ATTMODE
 70
     1
  9
$TEXTSIZE
 40
2.5
  9
$TRACEWID
 40
1.0
  9
$TEXTSTYLE
  7
STANDARD
  9
$CLAYER
  8
AM_0
  9
$CELTYPE
  6
BYLAYER
  9
$CECOLOR
 62
   256
  9
$CELTSCALE
 40
1.0
  9
$DELOBJ
 70
     1
  9
$DISPSILH
 70
     0
  9
$DIMSCALE
 40
0.5
  9
$DIMASZ
 40
2.5
  9
$DIMEXO
 40
1.0
  9
$DIMDLI
 40
12.0
  9
$DIMRND
 40
0.0
  9
$DIMDLE
 40
0.0
  9
$DIMEXE
 40
1.0
  9
$DIMTP
 40
0.1
  9
$DIMTM
 40
0.1
  9
$DIMTXT
 40
3.2
  9
$DIMCEN
 40
0.0
  9
$DIMTSZ
 40
0.0
  9
$DIMTOL
 70
     0
  9
$DIMLIM
 70
     0
  9
$DIMTIH
 70
     0
  9
$DIMTOH
 70
     0
  9
$DIMSE1
 70
     0
  9
$DIMSE2
 70
     0
  9
$DIMTAD
 70
     3
  9
$DIMZIN
 70
     8
  9
$DIMBLK
  1
OPEN30
  9
$DIMASO
 70
     1
  9
$DIMSHO
 70
     1
  9
$DIMPOST
  1

  9
$DIMAPOST
  1
"
  9
$DIMALT
 70
     0
  9
$DIMALTD
 70
     2
  9
$DIMALTF
 40
0.0393701
  9
$DIMLFAC
 40
1.0
  9
$DIMTOFL
 70
     1
  9
$DIMTVP
 40
0.0
  9
$DIMTIX
 70
     0
  9
$DIMSOXD
 70
     0
  9
$DIMSAH
 70
     0
  9
$DIMBLK1
  1

  9
$DIMBLK2
  1

  9
$DIMSTYLE
  2
AM_JIS
  9
$DIMCLRD
 70
   256
  9
$DIMCLRE
 70
   256
  9
$DIMCLRT
 70
     2
  9
$DIMTFAC
 40
0.71
  9
$DIMGAP
 40
1.5
  9
$DIMJUST
 70
     0
  9
$DIMSD1
 70
     0
  9
$DIMSD2
 70
     0
  9
$DIMTOLJ
 70
     0
  9
$DIMTZIN
 70
     0
  9
$DIMALTZ
 70
     0
  9
$DIMALTTZ
 70
     0
  9
$DIMFIT
 70
     3
  9
$DIMUPT
 70
     0
  9
$DIMUNIT
 70
     2
  9
$DIMDEC
 70
     3
  9
$DIMTDEC
 70
     3
  9
$DIMALTU
 70
     2
  9
$DIMALTTD
 70
     2
  9
$DIMTXSTY
  7
ASAMI
  9
$DIMAUNIT
 70
     0
  9
$LUNITS
 70
     2
  9
$LUPREC
 70
     2
  9
$SKETCHINC
 40
1.0
  9
$FILLETRAD
 40
2.5
  9
$AUNITS
 70
     0
  9
$AUPREC
 70
     0
  9
$MENU
  1
.
  9
$ELEVATION
 40
0.0
  9
$PELEVATION
 40
0.0
  9
$THICKNESS
 40
0.0
  9
$LIMCHECK
 70
     0
  9
$BLIPMODE
 70
     0
  9
$CHAMFERA
 40
0.75
  9
$CHAMFERB
 40
0.75
  9
$CHAMFERC
 40
20.0
  9
$CHAMFERD
 40
0.0
  9
$SKPOLY
 70
     0
  9
$TDCREATE
 40
2452836.771637361
  9
$TDUPDATE
 40
2453152.462273981
  9
$TDINDWG
 40
0.0683412731
  9
$TDUSRTIMER
 40
0.0683412731
  9
$USRTIMER
 70
     1
  9
$ANGBASE
 50
0.0
  9
$ANGDIR
 70
     0
  9
$PDMODE
 70
     0
  9
$PDSIZE
 40
0.0
  9
$PLINEWID
 40
0.0
  9
$COORDS
 70
     1
  9
$SPLFRAME
 70
     0
  9
$SPLINETYPE
 70
     6
  9
$SPLINESEGS
 70
     8
  9
$ATTDIA
 70
     1
  9
$ATTREQ
 70
     1
  9
$HANDLING
 70
 12289
  9
$HANDSEED
  5
1C99
  9
$SURFTAB1
 70
     6
  9
$SURFTAB2
 70
     6
  9
$SURFTYPE
 70
     6
  9
$SURFU
 70
     6
  9
$SURFV
 70
     6
  9
$UCSNAME
  2

  9
$UCSORG
 10
0.0
 20
0.0
 30
0.0
  9
$UCSXDIR
 10
1.0
 20
0.0
 30
0.0
  9
$UCSYDIR
 10
0.0
 20
1.0
 30
0.0
  9
$PUCSNAME
  2

  9
$PUCSORG
 10
0.0
 20
0.0
 30
0.0
  9
$PUCSXDIR
 10
1.0
 20
0.0
 30
0.0
  9
$PUCSYDIR
 10
0.0
 20
1.0
 30
0.0
  9
$USERI1
 70
     0
  9
$USERI2
 70
     0
  9
$USERI3
 70
     0
  9
$USERI4
 70
     0
  9
$USERI5
 70
     0
  9
$USERR1
 40
0.0
  9
$USERR2
 40
0.0
  9
$USERR3
 40
0.0
  9
$USERR4
 40
0.0
  9
$USERR5
 40
0.0
  9
$WORLDVIEW
 70
     1
  9
$SHADEDGE
 70
     3
  9
$SHADEDIF
 70
    70
  9
$TILEMODE
 70
     1
  9
$MAXACTVP
 70
    64
  9
$PINSBASE
 10
0.0
 20
0.0
 30
0.0
  9
$PLIMCHECK
 70
     0
  9
$PEXTMIN
 10
1.000000000000000E+20
 20
1.000000000000000E+20
 30
1.000000000000000E+20
  9
$PEXTMAX
 10
-1.000000000000000E+20
 20
-1.000000000000000E+20
 30
-1.000000000000000E+20
  9
$PLIMMIN
 10
0.0
 20
0.0
  9
$PLIMMAX
 10
841.0
 20
594.0
  9
$UNITMODE
 70
     0
  9
$VISRETAIN
 70
     1
  9
$PLINEGEN
 70
     0
  9
$PSLTSCALE
 70
     0
  9
$TREEDEPTH
 70
  3020
  9
$PICKSTYLE
 70
     0
  9
$CMLSTYLE
  2
STANDARD
  9
$CMLJUST
 70
     0
  9
$CMLSCALE
 40
20.0
  9
$PROXYGRAPHICS
 70
     1
  9
$MEASUREMENT
 70
     1
  0
ENDSEC
  0
SECTION
  2
CLASSES
  0
CLASS
  1
ACDBDICTIONARYWDFLT
  2
AcDbDictionaryWithDefault
  3
AutoCAD 2000
 90
        0
280
     0
281
     0
  0
CLASS
  1
ACDBPLACEHOLDER
  2
AcDbPlaceHolder
  3
AutoCAD 2000
 90
        0
280
     0
281
     0
  0
CLASS
  1
LAYOUT
  2
AcDbLayout
  3
AutoCAD 2000
 90
        0
280
     0
281
     0
  0
CLASS
  1
AMGSETTINGSOBJ
  2
AmgSettingsObj
  3
"AcadM|Product Description: AutoCAD Mechanical 2000|Company: Autodesk"
 90
        0
280
     0
281
     0
  0
CLASS
  1
ACME_DOCUMENT
  2
AcMeDbDoc
  3
AcMeServices
 90
        0
280
     0
281
     0
  0
CLASS
  1
ACMESCOPE
  2
AcMeScope
  3
AcMeServices
 90
        0
280
     0
281
     0
  0
CLASS
  1
ACMECOMMANDHISTORY
  2
AcMeCommandHistory
  3
AcMeServices
 90
        0
280
     0
281
     0
  0
CLASS
  1
DICTIONARYVAR
  2
AcDbDictionaryVar
  3
AutoCAD 2000
 90
        0
280
     0
281
     0
  0
CLASS
  1
ACIMSYSVARMAN
  2
AcImSysVarManager
  3
AcMeServices
 90
        0
280
     0
281
     0
  0
CLASS
  1
ACIMREALSYSVAR
  2
AcImRealSysVar
  3
AcMeServices
 90
        0
280
     0
281
     0
  0
CLASS
  1
ACIMINTSYSVAR
  2
AcImIntSysVar
  3
AcMeServices
 90
        0
280
     0
281
     0
  0
CLASS
  1
ACMEDRAWINGMAN
  2
AcMeDrawingMan
  3
AcMeServices
 90
        0
280
     0
281
     0
  0
CLASS
  1
ACMEVIEW
  2
AcMeView
  3
AcMeServices
 90
        0
280
     0
281
     0
  0
CLASS
  1
ACDBENTITYCACHE
  2
AcMeEntityCache
  3
AcMeServices
 90
        0
280
     0
281
     0
  0
CLASS
  1
GSMANAGER
  2
AcMeGSManager
  3
AcMeServices
 90
        0
280
     0
281
     0
  0
CLASS
  1
AmdtInternalReactor
  2
AmdtInternalReactor
  3
AcMeServices
 90
        0
280
     0
281
     0
  0
CLASS
  1
ACMESTATEMGR
  2
AcMeStateMgr
  3
AcMeServices
 90
        0
280
     0
281
     0
  0
CLASS
  1
ACME_DATABASE
  2
AcMeDbDatabase
  3
AcMeServices
 90
        0
280
     0
281
     0
  0
CLASS
  1
ACRFINSADJUSTERMGR
  2
AcRfInsAdjusterMgr
  3
AcMeServices
 90
        0
280
     0
281
     0
  0
CLASS
  1
ACMDATADICTIONARY
  2
AcmDataDictionary
  3
"AcmSymBB|Product Description: AutoCAD Mechanical 2000|Company: Autodesk"
 90
        0
280
     0
281
     0
  0
CLASS
  1
ACMDATAENTRYBLOCK
  2
AcmDataEntryBlock
  3
"AcmSymBB|Product Description: AutoCAD Mechanical 2000|Company: Autodesk"
 90
        0
280
     0
281
     0
  0
CLASS
  1
AMGOBJPROPCFG
  2
AmgObjPropCfg
  3
"AmgLay|Product Description: AutoCAD Mechanical 2000|Company: Autodesk"
 90
        1
280
     0
281
     0
  0
CLASS
  1
ACAMGFILTERDAT
  2
AcAmgFilterDat
  3
"AcadM|Product Description: AutoCAD Mechanical 2000|Company: Autodesk"
 90
        0
280
     0
281
     0
  0
CLASS
  1
LAYER_INDEX
  2
AcDbLayerIndex
  3
AutoCAD 2000
 90
        0
280
     0
281
     0
  0
CLASS
  1
IDBUFFER
  2
AcDbIdBuffer
  3
AutoCAD 2000
 90
        0
280
     0
281
     0
  0
CLASS
  1
ACIMSTRSYSVAR
  2
AcImStrSysVar
  3
AcMeServices
 90
        0
280
     0
281
     0
  0
CLASS
  1
ACMSTANDARDJIS
  2
AcmStandardJIS
  3
"AcmSymBB|Product Description: AutoCAD Mechanical 2000|Company: Autodesk"
 90
        0
280
     0
281
     0
  0
CLASS
  1
ACMSURFSTANDARDJIS
  2
AcmSurfTextStdJIS
  3
"AcmSymBB|Product Description: AutoCAD Mechanical 2000|Company: Autodesk"
 90
        0
280
     0
281
     0
  0
CLASS
  1
ACMFCFSTANDARDJIS
  2
AcmFCFStdJIS
  3
"AcmSymBB|Product Description: AutoCAD Mechanical 2000|Company: Autodesk"
 90
        0
280
     0
281
     0
  0
CLASS
  1
ACMWELDSTANDARDJIS
  2
AcmWeldingStdJIS
  3
"AcmSymBB|Product Description: AutoCAD Mechanical 2000|Company: Autodesk"
 90
        0
280
     0
281
     0
  0
CLASS
  1
ACMIDSTANDARDJIS
  2
AcmIdStdJIS
  3
"AcmSymBB|Product Description: AutoCAD Mechanical 2000|Company: Autodesk"
 90
        0
280
     0
281
     0
  0
CLASS
  1
ACMDATUMSTANDARDJIS
  2
AcmDatumStdJIS
  3
"AcmSymBB|Product Description: AutoCAD Mechanical 2000|Company: Autodesk"
 90
        0
280
     0
281
     0
  0
CLASS
  1
ACMBOMSTANDARDJIS
  2
AcmBOMStdJIS
  3
"AcmSymBB|Product Description: AutoCAD Mechanical 2000|Company: Autodesk"
 90
        0
280
     0
281
     0
  0
CLASS
  1
ACMSTANDARDANSI
  2
AcmStandardANSI
  3
"AcmSymBB|Product Description: AutoCAD Mechanical 2000|Company: Autodesk"
 90
        0
280
     0
281
     0
  0
CLASS
  1
ACMSURFSTANDARDANSI
  2
AcmSurfTextStdANSI
  3
"AcmSymBB|Product Description: AutoCAD Mechanical 2000|Company: Autodesk"
 90
        0
280
     0
281
     0
  0
CLASS
  1
ACMFCFSTANDARDANSI
  2
AcmFCFStdANSI
  3
"AcmSymBB|Product Description: AutoCAD Mechanical 2000|Company: Autodesk"
 90
        0
280
     0
281
     0
  0
CLASS
  1
ACMWELDSTANDARDANSI
  2
AcmWeldingStdANSI
  3
"AcmSymBB|Product Description: AutoCAD Mechanical 2000|Company: Autodesk"
 90
        0
280
     0
281
     0
  0
CLASS
  1
ACMIDSTANDARDANSI
  2
AcmIdStdANSI
  3
"AcmSymBB|Product Description: AutoCAD Mechanical 2000|Company: Autodesk"
 90
        0
280
     0
281
     0
  0
CLASS
  1
ACMDATUMSTANDARDANSI
  2
AcmDatumStdANSI
  3
"AcmSymBB|Product Description: AutoCAD Mechanical 2000|Company: Autodesk"
 90
        0
280
     0
281
     0
  0
CLASS
  1
ACMBOMSTANDARDANSI
  2
AcmBOMStdANSI
  3
"AcmSymBB|Product Description: AutoCAD Mechanical 2000|Company: Autodesk"
 90
        0
280
     0
281
     0
  0
CLASS
  1
ACMSTANDARDBSI
  2
AcmStandardBSI
  3
"AcmSymBB|Product Description: AutoCAD Mechanical 2000|Company: Autodesk"
 90
        0
280
     0
281
     0
  0
CLASS
  1
ACMSURFSTANDARDBSI
  2
AcmSurfTextStdBSI
  3
"AcmSymBB|Product Description: AutoCAD Mechanical 2000|Company: Autodesk"
 90
        0
280
     0
281
     0
  0
CLASS
  1
ACMFCFSTANDARDBSI
  2
AcmFCFStdBSI
  3
"AcmSymBB|Product Description: AutoCAD Mechanical 2000|Company: Autodesk"
 90
        0
280
     0
281
     0
  0
CLASS
  1
ACMWELDSTANDARDBSI
  2
AcmWeldingStdBSI
  3
"AcmSymBB|Product Description: AutoCAD Mechanical 2000|Company: Autodesk"
 90
        0
280
     0
281
     0
  0
CLASS
  1
ACMIDSTANDARDBSI
  2
AcmIdStdBSI
  3
"AcmSymBB|Product Description: AutoCAD Mechanical 2000|Company: Autodesk"
 90
        0
280
     0
281
     0
  0
CLASS
  1
ACMDATUMSTANDARDBSI
  2
AcmDatumStdBSI
  3
"AcmSymBB|Product Description: AutoCAD Mechanical 2000|Company: Autodesk"
 90
        0
280
     0
281
     0
  0
CLASS
  1
ACMBOMSTANDARDBSI
  2
AcmBOMStdBSI
  3
"AcmSymBB|Product Description: AutoCAD Mechanical 2000|Company: Autodesk"
 90
        0
280
     0
281
     0
  0
CLASS
  1
LONG_TRANSACTION
  2
AcDbLongTransaction
  3
AutoCAD 2000
 90
        0
280
     0
281
     0
  0
CLASS
  1
LWPOLYLINE
  2
AcDbPolyline
  3
AutoCAD 2000
 90
        0
280
     0
281
     1
  0
CLASS
  1
HATCH
  2
AcDbHatch
  3
AutoCAD 2000
 90
        0
280
     0
281
     1
  0
CLASS
  1
XRECORD
  2
AcDbXrecord
  3
AutoCAD 2000
 90
        0
280
     0
281
     0
  0
ENDSEC
  0
SECTION
  2
TABLES
  0
TABLE
  2
VPORT
  5
8
330
0
100
AcDbSymbolTable
 70
     3
  0
VPORT
  5
1C6E
330
8
100
AcDbSymbolTableRecord
100
AcDbViewportTableRecord
  2
*ACTIVE
 70
     0
 10
0.0
 20
0.0
 11
1.0
 21
1.0
 12
-23.32542888823307
 22
-5.527046856608244
 13
0.0
 23
0.0
 14
2.5
 24
2.5
 15
10.0
 25
10.0
 16
0.0
 26
0.0
 36
1.0
 17
0.0
 27
0.0
 37
0.0
 40
68.33180653372237
 41
1.56570841889117
 42
50.0
 43
0.0
 44
0.0
 50
0.0
 51
0.0
 71
     0
 72
   100
 73
     1
 74
     3
 75
     0
 76
     0
 77
     0
 78
     0
  0
ENDTAB
  0
TABLE
  2
LTYPE
  5
5
330
0
100
AcDbSymbolTable
 70
    10
  0
LTYPE
  5
14
330
5
100
AcDbSymbolTableRecord
100
AcDbLinetypeTableRecord
  2
BYBLOCK
 70
     0
  3

 72
    65
 73
     0
 40
0.0
  0
LTYPE
  5
15
330
5
100
AcDbSymbolTableRecord
100
AcDbLinetypeTableRecord
  2
BYLAYER
 70
     0
  3

 72
    65
 73
     0
 40
0.0
  0
LTYPE
  5
16
330
5
100
AcDbSymbolTableRecord
100
AcDbLinetypeTableRecord
  2
CONTINUOUS
 70
     0
  3
Solid line
 72
    65
 73
     0
 40
0.0
  0
LTYPE
  5
4B
330
5
100
AcDbSymbolTableRecord
100
AcDbLinetypeTableRecord
  2
AM_ISO02W050
 70
     0
  3
__ __ __ __ __ __ __ __ __ __ __ __ __ __ __
 72
    65
 73
     2
 40
7.5
 49
6.0
 74
     0
 49
-1.5
 74
     0
  0
LTYPE
  5
4C
330
5
100
AcDbSymbolTableRecord
100
AcDbLinetypeTableRecord
  2
AM_ISO08W050
 70
     0
  3
____ . ____ . ____ . ____ . ____ . ____ . ____
 72
    65
 73
     4
 40
18.0
 49
12.0
 74
     0
 49
-1.5
 74
     0
 49
3.0
 74
     0
 49
-1.5
 74
     0
  0
LTYPE
  5
4D
330
5
100
AcDbSymbolTableRecord
100
AcDbLinetypeTableRecord
  2
AM_ISO09W050
 70
     0
  3
_____ . . _____ . . _____ . . ____ .. ____
 72
    65
 73
     6
 40
22.5
 49
12.0
 74
     0
 49
-1.5
 74
     0
 49
3.0
 74
     0
 49
-1.5
 74
     0
 49
3.0
 74
     0
 49
-1.5
 74
     0
  0
LTYPE
  5
4E
330
5
100
AcDbSymbolTableRecord
100
AcDbLinetypeTableRecord
  2
AMCONSTR
 70
     0
  3
_______________________
 72
    65
 73
     2
 40
9999.0
 49
9999.0
 74
     0
 49
0.0
 74
     0
  0
LTYPE
  5
4F
330
5
100
AcDbSymbolTableRecord
100
AcDbLinetypeTableRecord
  2
AM_ISO02W050X2
 70
     0
  3
 _ _ _ _ _ _ _ _ _ _ _ _
 72
    65
 73
     2
 40
3.75
 49
3.0
 74
     0
 49
-0.75
 74
     0
  0
LTYPE
  5
50
330
5
100
AcDbSymbolTableRecord
100
AcDbLinetypeTableRecord
  2
AM_ISO08W050X2
 70
     0
  3
__ . __ . __ . __ . __ . __
 72
    65
 73
     4
 40
9.0
 49
6.0
 74
     0
 49
-0.75
 74
     0
 49
1.5
 74
     0
 49
-0.75
 74
     0
  0
LTYPE
  5
53
330
5
100
AcDbSymbolTableRecord
100
AcDbLinetypeTableRecord
  2
AMZIGZAG
 70
     0
  3
/\/-/\/-/\/-/\/-/\/-/\/
 72
    65
 73
     2
 40
11.00009999999999
 49
0.0001
 74
     4
 75
   135
340
52
 46
0.04
 50
0.0
 44
0.0
 45
0.0
 49
-11.0
 74
     0
  0
LTYPE
  5
166
330
5
100
AcDbSymbolTableRecord
100
AcDbLinetypeTableRecord
  2
ACJISTGL
 70
     0
  3
_ _ _ _ _
 72
    65
 73
     2
 40
3.0
 49
2.0
 74
     0
 49
-1.0
 74
     0
  0
LTYPE
  5
26A
330
5
100
AcDbSymbolTableRecord
100
AcDbLinetypeTableRecord
  2
ACJISTGB
 70
     0
  3
__ . . __ . .
 72
    65
 73
     6
 40
9.0
 49
4.0
 74
     0
 49
-1.0
 74
     0
 49
1.0
 74
     0
 49
-1.0
 74
     0
 49
1.0
 74
     0
 49
-1.0
 74
     0
  0
ENDTAB
  0
TABLE
  2
LAYER
  5
2
330
0
100
AcDbSymbolTable
 70
     7
  0
LAYER
  5
10
330
2
100
AcDbSymbolTableRecord
100
AcDbLayerTableRecord
  2
0
 70
     0
 62
     7
  6
CONTINUOUS
  0
LAYER
  5
3F9
330
2
100
AcDbSymbolTableRecord
100
AcDbLayerTableRecord
  2
AM_0
 70
     0
 62
     7
  6
CONTINUOUS
  0
LAYER
  5
BD4
330
2
100
AcDbSymbolTableRecord
100
AcDbLayerTableRecord
  2
AM_11
 70
     0
 62
     3
  6
AM_ISO09W050
  0
LAYER
  5
BD5
330
2
100
AcDbSymbolTableRecord
100
AcDbLayerTableRecord
  2
AM_7
 70
     0
 62
     4
  6
AM_ISO08W050
  0
LAYER
  5
BD6
330
2
100
AcDbSymbolTableRecord
100
AcDbLayerTableRecord
  2
AM_5
 70
     0
 62
     3
  6
CONTINUOUS
  0
LAYER
  5
BD7
330
2
100
AcDbSymbolTableRecord
100
AcDbLayerTableRecord
  2
DEFPOINTS
 70
     0
 62
     7
  6
CONTINUOUS
  0
LAYER
  5
E59
330
2
100
AcDbSymbolTableRecord
100
AcDbLayerTableRecord
  2
AM_6
 70
     0
 62
     2
  6
CONTINUOUS
  0
ENDTAB
  0
TABLE
  2
STYLE
  5
3
330
0
100
AcDbSymbolTable
 70
     5
  0
STYLE
  5
11
330
3
100
AcDbSymbolTableRecord
100
AcDbTextStyleTableRecord
  2
STANDARD
 70
     0
 40
0.0
 41
1.0
 50
0.0
 71
     0
 42
2.5
  3
simplex.shx
  4
EXTFONT.SHX
  0
STYLE
  5
52
330
3
100
AcDbSymbolTableRecord
100
AcDbTextStyleTableRecord
  2

 70
     1
 40
0.0
 41
1.0
 50
0.0
 71
     0
 42
2.5
  3
ltypeshp.shx
  4

  0
STYLE
  5
6B
330
3
100
AcDbSymbolTableRecord
100
AcDbTextStyleTableRecord
  2
ASAMI
 70
     0
 40
0.0
 41
1.0
 50
0.0
 71
     0
 42
2.5
  3
simplex.shx
  4
EXTFONT.SHX
  0
STYLE
  5
262
330
3
100
AcDbSymbolTableRecord
100
AcDbTextStyleTableRecord
  2
ACJISTS
 70
     0
 40
1.0
 41
1.0
 50
0.0
 71
     0
 42
2.5
  3
simplex.shx
  4
bigfont.shx
  0
STYLE
  5
269
330
3
100
AcDbSymbolTableRecord
100
AcDbTextStyleTableRecord
  2
ACJISGDT
 70
     0
 40
0.0
 41
1.0
 50
0.0
 71
     0
 42
2.5
  3
amgdtans.shx
  4

  0
ENDTAB
  0
TABLE
  2
VIEW
  5
6
330
0
100
AcDbSymbolTable
 70
     0
  0
ENDTAB
  0
TABLE
  2
UCS
  5
7
330
0
100
AcDbSymbolTable
 70
     0
  0
ENDTAB
  0
TABLE
  2
APPID
  5
9
330
0
100
AcDbSymbolTable
 70
    12
  0
APPID
  5
12
330
9
100
AcDbSymbolTableRecord
100
AcDbRegAppTableRecord
  2
ACAD
 70
     0
  0
APPID
  5
30
330
9
100
AcDbSymbolTableRecord
100
AcDbRegAppTableRecord
  2
MCAD_NO_VIS
 70
     0
  0
APPID
  5
31
330
9
100
AcDbSymbolTableRecord
100
AcDbRegAppTableRecord
  2
ACAD_TEMP_GRAPHIC
 70
     0
  0
APPID
  5
2C2
330
9
100
AcDbSymbolTableRecord
100
AcDbRegAppTableRecord
  2
GENIUS_GENDTOL_13
 70
     0
  0
APPID
  5
339
330
9
100
AcDbSymbolTableRecord
100
AcDbRegAppTableRecord
  2
GENIUS_GENODEF_13
 70
     0
  0
APPID
  5
33A
330
9
100
AcDbSymbolTableRecord
100
AcDbRegAppTableRecord
  2
GENIUS_GENOBJ-N-RSBK_13
 70
     0
  0
APPID
  5
33B
330
9
100
AcDbSymbolTableRecord
100
AcDbRegAppTableRecord
  2
GENIUS_GENOBJ-N-LIB_13
 70
     0
  0
APPID
  5
33C
330
9
100
AcDbSymbolTableRecord
100
AcDbRegAppTableRecord
  2
GENIUS_GENSCALE_13
 70
     0
  0
APPID
  5
378
330
9
100
AcDbSymbolTableRecord
100
AcDbRegAppTableRecord
  2
GENIUS_GENDIMSH_14
 70
     0
  0
APPID
  5
BD8
330
9
100
AcDbSymbolTableRecord
100
AcDbRegAppTableRecord
  2
GENIUS_GENOBJ-N-CEN_13
 70
     0
  0
APPID
  5
BD9
330
9
100
AcDbSymbolTableRecord
100
AcDbRegAppTableRecord
  2
GENIUS_GENFIL_13
 70
     0
  0
APPID
  5
BDA
330
9
100
AcDbSymbolTableRecord
100
AcDbRegAppTableRecord
  2
GENIUS_GENOBJ-N-CHA_13
 70
     0
  0
ENDTAB
  0
TABLE
  2
DIMSTYLE
  5
A
330
0
100
AcDbSymbolTable
 70
     8
  0
DIMSTYLE
105
58
102
{ACAD_REACTORS
330
105F
330
10EF
330
17DE
330
1315
102
}
330
A
100
AcDbSymbolTableRecord
100
AcDbDimStyleTableRecord
  2
AM_JIS
 70
     0
  3

  4
"
  5
OPEN30
  6

  7

 40
0.5
 41
2.5
 42
1.0
 43
12.0
 44
1.0
 45
0.0
 46
0.0
 47
0.1
 48
0.1
140
3.2
141
0.0
142
0.0
143
0.0393701
144
1.0
145
0.0
146
0.71
147
1.5
 71
     0
 72
     0
 73
     0
 74
     0
 75
     0
 76
     0
 77
     3
 78
     8
170
     0
171
     2
172
     1
173
     0
174
     0
175
     0
176
   256
177
   256
178
     2
270
     2
271
     3
272
     3
273
     2
274
     2
340
6B
275
     0
280
     0
281
     0
282
     0
283
     0
284
     0
285
     0
286
     0
287
     3
288
     0
  0
DIMSTYLE
105
5F
330
A
100
AcDbSymbolTableRecord
100
AcDbDimStyleTableRecord
  2
AM_JIS$3
 70
     0
  3

  4
"
  5
OPEN30
  6

  7

 40
0.5
 41
2.5
 42
1.0
 43
10.0
 44
1.0
 45
0.0
 46
0.0
 47
0.1
 48
0.1
140
3.2
141
0.0
142
0.0
143
0.0393701
144
1.0
145
0.0
146
0.71
147
1.5
 71
     0
 72
     0
 73
     0
 74
     1
 75
     0
 76
     0
 77
     3
 78
     8
170
     0
171
     2
172
     0
173
     0
174
     0
175
     0
176
   256
177
   256
178
     2
270
     2
271
     2
272
     3
273
     2
274
     2
340
6B
275
     0
280
     0
281
     0
282
     0
283
     0
284
     0
285
     0
286
     0
287
     0
288
     1
  0
DIMSTYLE
105
60
330
A
100
AcDbSymbolTableRecord
100
AcDbDimStyleTableRecord
  2
AM_JIS$4
 70
     0
  3

  4
"
  5
OPEN30
  6

  7

 40
0.5
 41
2.5
 42
1.0
 43
10.0
 44
1.0
 45
0.0
 46
0.0
 47
0.1
 48
0.1
140
3.2
141
0.0
142
0.0
143
0.0393701
144
1.0
145
0.0
146
0.71
147
1.5
 71
     0
 72
     0
 73
     0
 74
     1
 75
     0
 76
     0
 77
     3
 78
     8
170
     0
171
     2
172
     0
173
     0
174
     0
175
     0
176
   256
177
   256
178
     2
270
     2
271
     2
272
     3
273
     2
274
     2
340
6B
275
     0
280
     0
281
     0
282
     0
283
     0
284
     0
285
     0
286
     0
287
     0
288
     1
  0
DIMSTYLE
105
61
330
A
100
AcDbSymbolTableRecord
100
AcDbDimStyleTableRecord
  2
AM_JIS$6
 70
     0
  3

  4
"
  5
OPEN30
  6

  7

 40
0.5
 41
2.5
 42
1.0
 43
10.0
 44
1.0
 45
0.0
 46
0.0
 47
0.1
 48
0.1
140
3.2
141
0.0
142
0.0
143
0.0393701
144
1.0
145
0.0
146
0.71
147
1.5
 71
     0
 72
     0
 73
     0
 74
     0
 75
     0
 76
     0
 77
     0
 78
     8
170
     0
171
     2
172
     1
173
     0
174
     0
175
     0
176
   256
177
   256
178
     2
270
     2
271
     2
272
     2
273
     2
274
     2
340
6B
275
     0
280
     0
281
     0
282
     0
283
     0
284
     0
285
     0
286
     0
287
     3
288
     0
  0
DIMSTYLE
105
62
330
A
100
AcDbSymbolTableRecord
100
AcDbDimStyleTableRecord
  2
AM_JIS$7
 70
     0
  3

  4
"
  5
OPEN30
  6

  7

 40
0.5
 41
2.5
 42
1.0
 43
10.0
 44
1.0
 45
0.0
 46
0.0
 47
0.1
 48
0.1
140
3.2
141
0.0
142
0.0
143
0.0393701
144
1.0
145
0.0
146
0.71
147
1.5
 71
     0
 72
     0
 73
     0
 74
     0
 75
     0
 76
     0
 77
     3
 78
     8
170
     0
171
     2
172
     1
173
     0
174
     0
175
     0
176
   256
177
   256
178
     2
270
     2
271
     2
272
     3
273
     2
274
     2
340
6B
275
     0
280
     0
281
     0
282
     0
283
     0
284
     0
285
     0
286
     0
287
     3
288
     0
  0
DIMSTYLE
105
63
330
A
100
AcDbSymbolTableRecord
100
AcDbDimStyleTableRecord
  2
AM_JIS$SF
 70
     0
  3

  4
"
  5
OPEN30
  6

  7

 40
0.5
 41
2.5
 42
1.0
 43
10.0
 44
1.0
 45
0.0
 46
0.0
 47
0.1
 48
0.1
140
3.2
141
0.0
142
0.0
143
0.0393701
144
1.0
145
0.0
146
0.71
147
1.5
 71
     0
 72
     0
 73
     0
 74
     0
 75
     1
 76
     1
 77
     3
 78
     8
170
     0
171
     2
172
     1
173
     0
174
     0
175
     0
176
   256
177
   256
178
     2
270
     2
271
     2
272
     2
273
     2
274
     2
340
6B
275
     0
280
     0
281
     0
282
     0
283
     0
284
     0
285
     0
286
     0
287
     3
288
     0
  0
DIMSTYLE
105
68
330
A
100
AcDbSymbolTableRecord
100
AcDbDimStyleTableRecord
  2
AM_JIS$SH
 70
     0
  3

  4
"
  5

  6
GENAXEH
  7
OPEN30
 40
0.5
 41
2.5
 42
1.0
 43
10.0
 44
1.0
 45
0.0
 46
0.0
 47
0.1
 48
0.1
140
3.2
141
0.0
142
0.0
143
0.0393701
144
2.0
145
0.0
146
0.71
147
1.5
 71
     0
 72
     0
 73
     0
 74
     0
 75
     1
 76
     1
 77
     3
 78
     8
170
     0
171
     2
172
     1
173
     1
174
     0
175
     0
176
   256
177
   256
178
     2
270
     2
271
     2
272
     2
273
     2
274
     2
340
6B
275
     0
280
     0
281
     0
282
     0
283
     0
284
     0
285
     0
286
     0
287
     3
288
     0
  0
DIMSTYLE
105
B34
330
A
100
AcDbSymbolTableRecord
100
AcDbDimStyleTableRecord
  2
AM_JIS$2
 70
     0
  3

  4
"
  5
OPEN30
  6

  7

 40
0.5
 41
2.5
 42
1.0
 43
12.0
 44
1.0
 45
0.0
 46
0.0
 47
0.1
 48
0.1
140
3.2
141
0.0
142
0.0
143
0.0393701
144
1.0
145
0.0
146
0.71
147
1.5
 71
     0
 72
     0
 73
     0
 74
     0
 75
     0
 76
     0
 77
     3
 78
     8
170
     0
171
     2
172
     1
173
     0
174
     0
175
     0
176
   256
177
   256
178
     2
270
     2
271
     3
272
     3
273
     2
274
     2
340
6B
275
     0
280
     0
281
     0
282
     0
283
     0
284
     0
285
     0
286
     0
287
     3
288
     0
  0
ENDTAB
  0
TABLE
  2
BLOCK_RECORD
  5
1
330
0
100
AcDbSymbolTable
 70
     9
  0
BLOCK_RECORD
  5
1F
102
{ACAD_XDICTIONARY
360
74
102
}
330
1
100
AcDbSymbolTableRecord
100
AcDbBlockTableRecord
  2
*MODEL_SPACE
  0
BLOCK_RECORD
  5
101
102
{ACAD_XDICTIONARY
360
1C97
102
}
330
1
100
AcDbSymbolTableRecord
100
AcDbBlockTableRecord
  2
*PAPER_SPACE
  0
BLOCK_RECORD
  5
59
330
1
100
AcDbSymbolTableRecord
100
AcDbBlockTableRecord
  2
_OPEN30
  0
BLOCK_RECORD
  5
64
330
1
100
AcDbSymbolTableRecord
100
AcDbBlockTableRecord
  2
GENAXEH
  0
BLOCK_RECORD
  5
1060
330
1
100
AcDbSymbolTableRecord
100
AcDbBlockTableRecord
  2
*D5
  0
BLOCK_RECORD
  5
10F0
330
1
100
AcDbSymbolTableRecord
100
AcDbBlockTableRecord
  2
*D6
  0
BLOCK_RECORD
  5
1316
330
1
100
AcDbSymbolTableRecord
100
AcDbBlockTableRecord
  2
*D7
  0
BLOCK_RECORD
  5
17DF
330
1
100
AcDbSymbolTableRecord
100
AcDbBlockTableRecord
  2
*D8
  0
ENDTAB
  0
ENDSEC
  0
SECTION
  2
BLOCKS
  0
BLOCK
  5
20
330
1F
100
AcDbEntity
  8
0
100
AcDbBlockBegin
  2
*MODEL_SPACE
 70
     0
 10
0.0
 20
0.0
 30
0.0
  3
*MODEL_SPACE
  1

  0
ENDBLK
  5
21
330
1F
100
AcDbEntity
  8
0
100
AcDbBlockEnd
  0
BLOCK
  5
103
330
101
100
AcDbEntity
 67
     1
  8
0
100
AcDbBlockBegin
  2
*PAPER_SPACE
 70
     0
 10
0.0
 20
0.0
 30
0.0
  3
*PAPER_SPACE
  1

  0
ENDBLK
  5
104
330
101
100
AcDbEntity
 67
     1
  8
0
100
AcDbBlockEnd
  0
BLOCK
  5
5D
330
59
100
AcDbEntity
  8
0
100
AcDbBlockBegin
  2
_OPEN30
 70
     0
 10
0.0
 20
0.0
 30
0.0
  3
_OPEN30
  1

  0
LINE
  5
5A
330
59
100
AcDbEntity
  8
0
 62
     0
100
AcDbLine
 10
-1.0
 20
0.26794919
 30
0.0
 11
0.0
 21
0.0
 31
0.0
  0
LINE
  5
5B
330
59
100
AcDbEntity
  8
0
 62
     0
100
AcDbLine
 10
0.0
 20
0.0
 30
0.0
 11
-1.0
 21
-0.26794919
 31
0.0
  0
LINE
  5
5C
330
59
100
AcDbEntity
  8
0
 62
     0
100
AcDbLine
 10
0.0
 20
0.0
 30
0.0
 11
-1.0
 21
0.0
 31
0.0
  0
ENDBLK
  5
5E
330
59
100
AcDbEntity
  8
0
100
AcDbBlockEnd
  0
BLOCK
  5
66
330
64
100
AcDbEntity
  8
0
100
AcDbBlockBegin
  2
GENAXEH
 70
     0
 10
0.0
 20
0.0
 30
0.0
  3
GENAXEH
  1

  0
LINE
  5
65
330
64
100
AcDbEntity
  8
0
100
AcDbLine
 10
-1.0
 20
0.0
 30
0.0
 11
1.0
 21
0.0
 31
0.0
  0
ENDBLK
  5
67
330
64
100
AcDbEntity
  8
0
100
AcDbBlockEnd
  0
BLOCK
  5
106A
330
1060
100
AcDbEntity
  8
0
100
AcDbBlockBegin
  2
*D5
 70
     1
 10
0.0
 20
0.0
 30
0.0
  3
*D5
  1

  0
LINE
  5
1A56
330
1060
100
AcDbEntity
  8
AM_5
100
AcDbLine
 10
-18.0
 20
-4.000000000001643
 30
0.0
 11
-18.0
 21
-11.5000009999989
 31
0.0
  0
LINE
  5
1A57
330
1060
100
AcDbEntity
  8
AM_5
100
AcDbLine
 10
0.0
 20
-3.999999999999996
 30
0.0
 11
-0.0000000000000005
 21
-11.5000009999989
 31
0.0
  0
LINE
  5
1A58
330
1060
100
AcDbEntity
  8
AM_5
100
AcDbLine
 10
-16.75
 20
-11.0000009999989
 30
0.0
 11
-1.25
 21
-11.0000009999989
 31
0.0
  0
INSERT
  5
1A59
330
1060
100
AcDbEntity
  8
AM_5
100
AcDbBlockReference
  2
_OPEN30
 10
-18.0
 20
-11.0000009999989
 30
0.0
 41
1.25
 42
1.25
 43
1.25
 50
180.0
  0
INSERT
  5
1A5A
330
1060
100
AcDbEntity
  8
AM_5
100
AcDbBlockReference
  2
_OPEN30
 10
-0.0000000000000005
 20
-11.0000009999989
 30
0.0
 41
1.25
 42
1.25
 43
1.25
  0
MTEXT
  5
1A5B
330
1060
100
AcDbEntity
  8
AM_5
 62
     2
100
AcDbMText
 10
-9.000000000000001
 20
-9.450000999998902
 30
0.0
 40
1.6
 41
0.0
 71
     5
 72
     1
  1
18
  7
ASAMI
1001
ACAD
1000
MTEXTBEGIN
1070
    73
1070
     1
1070
    44
1040
1.0
1070
    74
1070
     0
1000
MTEXTEND
  0
POINT
  5
1A5C
330
1060
100
AcDbEntity
  8
DEFPOINTS
 62
     0
100
AcDbPoint
 10
-18.0
 20
-3.500000000001643
 30
0.0
  0
POINT
  5
1A5D
330
1060
100
AcDbEntity
  8
DEFPOINTS
 62
     0
100
AcDbPoint
 10
0.0
 20
-3.499999999999996
 30
0.0
  0
POINT
  5
1A5E
330
1060
100
AcDbEntity
  8
DEFPOINTS
 62
     0
100
AcDbPoint
 10
-0.0000000000000005
 20
-11.0000009999989
 30
0.0
  0
ENDBLK
  5
106B
330
1060
100
AcDbEntity
  8
0
100
AcDbBlockEnd
  0
BLOCK
  5
10FA
330
10F0
100
AcDbEntity
  8
0
100
AcDbBlockBegin
  2
*D6
 70
     1
 10
0.0
 20
0.0
 30
0.0
  3
*D6
  1

  0
LINE
  5
1A4D
330
10F0
100
AcDbEntity
  8
AM_5
100
AcDbLine
 10
-60.00000000000001
 20
-3.899999999999021
 30
0.0
 11
-60.00000000000001
 21
-17.5000009999989
 31
0.0
  0
LINE
  5
1A4E
330
10F0
100
AcDbEntity
  8
AM_5
100
AcDbLine
 10
0.000000000000778
 20
-3.999999999999996
 30
0.0
 11
0.0000000000007772
 21
-17.5000009999989
 31
0.0
  0
LINE
  5
1A4F
330
10F0
100
AcDbEntity
  8
AM_5
100
AcDbLine
 10
-58.75000000000001
 20
-17.0000009999989
 30
0.0
 11
-1.249999999999222
 21
-17.0000009999989
 31
0.0
  0
INSERT
  5
1A50
330
10F0
100
AcDbEntity
  8
AM_5
100
AcDbBlockReference
  2
_OPEN30
 10
-60.00000000000001
 20
-17.0000009999989
 30
0.0
 41
1.25
 42
1.25
 43
1.25
 50
180.0
  0
INSERT
  5
1A51
330
10F0
100
AcDbEntity
  8
AM_5
100
AcDbBlockReference
  2
_OPEN30
 10
0.0000000000007772
 20
-17.0000009999989
 30
0.0
 41
1.25
 42
1.25
 43
1.25
  0
MTEXT
  5
1A52
330
10F0
100
AcDbEntity
  8
AM_5
 62
     2
100
AcDbMText
 10
-29.99999999999962
 20
-15.4500009999989
 30
0.0
 40
1.6
 41
0.0
 71
     5
 72
     1
  1
60
  7
ASAMI
1001
ACAD
1000
MTEXTBEGIN
1070
    73
1070
     1
1070
    44
1040
1.0
1070
    74
1070
     0
1000
MTEXTEND
  0
POINT
  5
1A53
330
10F0
100
AcDbEntity
  8
DEFPOINTS
 62
     0
100
AcDbPoint
 10
-60.00000000000001
 20
-3.399999999999021
 30
0.0
  0
POINT
  5
1A54
330
10F0
100
AcDbEntity
  8
DEFPOINTS
 62
     0
100
AcDbPoint
 10
0.000000000000778
 20
-3.499999999999996
 30
0.0
  0
POINT
  5
1A55
330
10F0
100
AcDbEntity
  8
DEFPOINTS
 62
     0
100
AcDbPoint
 10
0.0000000000007772
 20
-17.0000009999989
 30
0.0
  0
ENDBLK
  5
10FB
330
10F0
100
AcDbEntity
  8
0
100
AcDbBlockEnd
  0
BLOCK
  5
1320
330
1316
100
AcDbEntity
  8
0
100
AcDbBlockBegin
  2
*D7
 70
     1
 10
0.0
 20
0.0
 30
0.0
  3
*D7
  1

  0
LINE
  5
1A60
330
1316
100
AcDbEntity
  8
AM_5
100
AcDbLine
 10
0.4999999999986271
 20
3.5
 30
0.0
 11
12.05776903085495
 21
3.499999999999996
 31
0.0
  0
LINE
  5
1A61
330
1316
100
AcDbEntity
  8
AM_5
100
AcDbLine
 10
0.5000000000000061
 20
-3.500000000000011
 30
0.0
 11
12.05776903085495
 21
-3.500000000000015
 31
0.0
  0
LINE
  5
1A62
330
1316
100
AcDbEntity
  8
AM_5
100
AcDbLine
 10
11.55776903085494
 20
2.249999999999996
 30
0.0
 11
11.55776903085494
 21
-2.250000000000015
 31
0.0
  0
INSERT
  5
1A63
330
1316
100
AcDbEntity
  8
AM_5
100
AcDbBlockReference
  2
_OPEN30
 10
11.55776903085494
 20
3.499999999999996
 30
0.0
 41
1.25
 42
1.25
 43
1.25
 50
90.0
  0
INSERT
  5
1A64
330
1316
100
AcDbEntity
  8
AM_5
100
AcDbBlockReference
  2
_OPEN30
 10
11.55776903085494
 20
-3.500000000000015
 30
0.0
 41
1.25
 42
1.25
 43
1.25
 50
270.0
  0
MTEXT
  5
1A65
330
1316
100
AcDbEntity
  8
AM_5
 62
     2
100
AcDbMText
 10
10.00776903085494
 20
-0.0000000000000072
 30
0.0
 40
1.6
 41
0.0
 71
     5
 72
     1
  1
%%c7
  7
ASAMI
 11
0.0000000000000001
 21
1.0
 31
0.0
1001
ACAD
1000
MTEXTBEGIN
1070
    73
1070
     1
1070
    44
1040
1.0
1070
    74
1070
     0
1000
MTEXTEND
  0
POINT
  5
1A66
330
1316
100
AcDbEntity
  8
DEFPOINTS
 62
     0
100
AcDbPoint
 10
-0.0000000000013729
 20
3.5
 30
0.0
  0
POINT
  5
1A67
330
1316
100
AcDbEntity
  8
DEFPOINTS
 62
     0
100
AcDbPoint
 10
0.000000000000006
 20
-3.500000000000011
 30
0.0
  0
POINT
  5
1A68
330
1316
100
AcDbEntity
  8
DEFPOINTS
 62
     0
100
AcDbPoint
 10
11.55776903085494
 20
-3.500000000000015
 30
0.0
  0
ENDBLK
  5
1321
330
1316
100
AcDbEntity
  8
0
100
AcDbBlockEnd
  0
BLOCK
  5
17E9
330
17DF
100
AcDbEntity
  8
0
100
AcDbBlockBegin
  2
*D8
 70
     1
 10
0.0
 20
0.0
 30
0.0
  3
*D8
  1

  0
LINE
  5
182D
330
17DF
100
AcDbEntity
  8
AM_5
100
AcDbLine
 10
-59.75
 20
3.999999999999968
 30
0.0
 11
-70.28823125971979
 21
3.999999999999971
 31
0.0
  0
LINE
  5
182E
330
17DF
100
AcDbEntity
  8
AM_5
100
AcDbLine
 10
-59.75
 20
-3.999999999999021
 30
0.0
 11
-70.28823125971979
 21
-3.999999999999018
 31
0.0
  0
LINE
  5
182F
330
17DF
100
AcDbEntity
  8
AM_5
100
AcDbLine
 10
-69.78823125971979
 20
2.74999999999997
 30
0.0
 11
-69.78823125971979
 21
-2.749999999999018
 31
0.0
  0
INSERT
  5
1830
330
17DF
100
AcDbEntity
  8
AM_5
100
AcDbBlockReference
  2
_OPEN30
 10
-69.78823125971979
 20
3.99999999999997
 30
0.0
 41
1.25
 42
1.25
 43
1.25
 50
90.0
  0
INSERT
  5
1831
330
17DF
100
AcDbEntity
  8
AM_5
100
AcDbBlockReference
  2
_OPEN30
 10
-69.78823125971979
 20
-3.999999999999018
 30
0.0
 41
1.25
 42
1.25
 43
1.25
 50
270.0
  0
MTEXT
  5
1832
330
17DF
100
AcDbEntity
  8
AM_5
 62
     2
100
AcDbMText
 10
-71.33823125971979
 20
0.000000000000465
 30
0.0
 40
1.6
 41
0.0
 71
     5
 72
     1
  1
%%c8
  7
ASAMI
 11
0.0000000000000001
 21
1.0
 31
0.0
1001
ACAD
1000
MTEXTBEGIN
1070
    73
1070
     1
1070
    44
1040
1.0
1070
    74
1070
     0
1000
MTEXTEND
  0
POINT
  5
1833
330
17DF
100
AcDbEntity
  8
DEFPOINTS
 62
     0
100
AcDbPoint
 10
-59.25
 20
3.999999999999968
 30
0.0
  0
POINT
  5
1834
330
17DF
100
AcDbEntity
  8
DEFPOINTS
 62
     0
100
AcDbPoint
 10
-59.25
 20
-3.999999999999021
 30
0.0
  0
POINT
  5
1835
330
17DF
100
AcDbEntity
  8
DEFPOINTS
 62
     0
100
AcDbPoint
 10
-69.78823125971979
 20
-3.999999999999018
 30
0.0
  0
ENDBLK
  5
17EA
330
17DF
100
AcDbEntity
  8
0
100
AcDbBlockEnd
  0
ENDSEC
  0
SECTION
  2
ENTITIES
  0
TEXT
  5
E5A
330
1F
100
AcDbEntity
  8
AM_6
100
AcDbText
 10
-40.35714285714246
 20
-28.2500009999989
 30
0.0
 40
2.5
  1
JSM2070ZX
 72
     4
 11
-29.9999999999996
 21
-27.0000009999989
 31
0.0
100
AcDbText
  0
LINE
  5
F47
330
1F
100
AcDbEntity
  8
AM_7
  6
AM_ISO08W050X2
100
AcDbLine
 10
4.557768030854958
 20
0.0
 30
0.0
 11
-62.7882302597198
 21
0.0000000000000111
 31
0.0
1001
GENIUS_GENODEF_13
1002
{
1000
HIER
1070
     0
1002
}
1002
{
1000
MANEDIT
1070
     0
1002
}
1002
{
1000
NOSEL
1070
     0
1002
}
1002
{
1000
BEHIND
1070
     0
1002
}
1002
{
1000
REACTOR
1002
}
1001
GENIUS_GENOBJ-N-CEN_13
1002
{
1000
OWNER
1000
GEN
1002
}
  0
DIMENSION
  5
105F
330
1F
100
AcDbEntity
  8
AM_5
100
AcDbDimension
  2
*D5
 10
-0.0000000000000005
 20
-11.0000009999989
 30
0.0
 11
-9.000000000000001
 21
-9.450000999998902
 31
0.0
 70
    32
  1
<>
  3
AM_JIS
100
AcDbAlignedDimension
 13
-18.0
 23
-3.500000000001643
 33
0.0
 14
0.0
 24
-3.499999999999996
 34
0.0
 50
0.0000000000001132
100
AcDbRotatedDimension
1001
GENIUS_GENDTOL_13
1000

1000
h7
1000

1040
0.0
  0
DIMENSION
  5
10EF
330
1F
100
AcDbEntity
  8
AM_5
100
AcDbDimension
  2
*D6
 10
0.0000000000007772
 20
-17.0000009999989
 30
0.0
 11
-29.99999999999962
 21
-15.4500009999989
 31
0.0
 70
    32
  1
<>
  3
AM_JIS
100
AcDbAlignedDimension
 13
-60.00000000000001
 23
-3.399999999999021
 33
0.0
 14
0.000000000000778
 24
-3.499999999999996
 34
0.0
 50
0.0000000000001132
100
AcDbRotatedDimension
1001
GENIUS_GENDTOL_13
1000

1000
h7
1000

1040
0.0
  0
DIMENSION
  5
1315
330
1F
100
AcDbEntity
  8
AM_5
100
AcDbDimension
  2
*D7
 10
11.55776903085494
 20
-3.500000000000015
 30
0.0
 11
10.00776903085494
 21
-0.0000000000000072
 31
0.0
 70
    32
  1
%%c<>
  3
AM_JIS
100
AcDbAlignedDimension
 13
-0.0000000000013729
 23
3.5
 33
0.0
 14
0.000000000000006
 24
-3.500000000000011
 34
0.0
 50
90.0
100
AcDbRotatedDimension
1001
GENIUS_GENDTOL_13
1000

1000
h7
1000

1040
0.0
  0
LINE
  5
17A3
330
1F
100
AcDbEntity
  8
AM_0
100
AcDbLine
 10
-0.2402876216553285
 20
0.4199999999999755
 30
0.0
 11
0.0
 21
0.7000000000000007
 31
0.0
  0
LINE
  5
17A4
330
1F
100
AcDbEntity
  8
AM_0
100
AcDbLine
 10
-0.2684659090909105
 20
-2.854754129159286
 30
0.0
 11
-0.2684659090909105
 21
-2.817048801792831
 31
0.0
  0
ELLIPSE
  5
17A5
330
1F
100
AcDbEntity
  8
AM_0
100
AcDbEllipse
 10
10.17075468034214
 20
0.0147261181958571
 30
0.0
 11
10.83350891550507
 21
0.0000000000000127
 31
0.0
210
0.0
220
0.0
230
1.0
 40
0.9777777777777748
 41
3.060670780078407
 42
3.412214872769691
  0
LINE
  5
17A6
330
1F
100
AcDbEntity
  8
AM_0
100
AcDbLine
 10
0.0
 20
0.7000000000000007
 30
0.0
 11
0.0
 21
3.5
 31
0.0
  0
LINE
  5
17A7
330
1F
100
AcDbEntity
  8
AM_0
100
AcDbLine
 10
0.0
 20
0.1399999999999908
 30
0.0
 11
-1.687091483572506
 21
2.105917395769653
 31
0.0
  0
LINE
  5
17A8
330
1F
100
AcDbEntity
  8
AM_0
100
AcDbLine
 10
0.0
 20
-3.499999999999996
 30
0.0
 11
-0.075170454545467
 21
-3.313408810335277
 31
0.0
  0
LINE
  5
17A9
330
1F
100
AcDbEntity
  8
AM_0
100
AcDbLine
 10
0.0
 20
-3.499999999999996
 30
0.0
 11
0.0
 21
0.1399999999999908
 31
0.0
  0
LINE
  5
17AA
330
1F
100
AcDbEntity
  8
AM_0
100
AcDbLine
 10
-0.075170454545467
 20
-3.313408810335277
 30
0.0
 11
-0.075170454545467
 21
0.2275938890556688
 31
0.0
  0
LINE
  5
17AB
330
1F
100
AcDbEntity
  8
AM_0
100
AcDbLine
 10
-0.075170454545467
 20
-3.313408810335277
 30
0.0
 11
-0.2684659090909105
 21
-2.854754129159286
 31
0.0
  0
SPLINE
  5
17AC
330
1F
100
AcDbEntity
  8
AM_0
100
AcDbSpline
210
0.0
220
0.0
230
1.0
 70
     8
 71
     3
 72
     8
 73
     4
 74
     0
 42
0.0000000001
 43
0.0000000001
 40
0.0
 40
0.0
 40
0.0
 40
0.0
 40
2.586565323616739
 40
2.586565323616739
 40
2.586565323616739
 40
2.586565323616739
 10
0.0
 20
2.852291880678775
 30
0.0
 10
-0.3960891474055237
 20
2.3894102373057
 30
0.0
 10
-1.075953736330784
 20
2.190631657847045
 30
0.0
 10
-1.687091483572506
 20
2.105917395769653
 30
0.0
  0
LINE
  5
17AD
330
1F
100
AcDbEntity
  8
AM_0
100
AcDbLine
 10
-18.0
 20
-1.193761318005853
 30
0.0
 11
-18.0
 21
-0.2179693803699423
 31
0.0
  0
LINE
  5
17AE
330
1F
100
AcDbEntity
  8
AM_0
100
AcDbLine
 10
-8.25409784844153
 20
-2.685686821110953
 30
0.0
 11
-18.00000000000001
 21
-3.19447020555853
 31
0.0
  0
ELLIPSE
  5
17AF
330
1F
100
AcDbEntity
  8
AM_0
100
AcDbEllipse
 10
-18.29946047695393
 20
0.1590388996591371
 30
0.0
 11
-3.743322278785769
 21
0.0000000000000435
 31
0.0
210
0.0
220
0.0
230
1.0
 40
0.977777777777781
 41
1.546296373347993
 42
2.028922317253702
  0
ELLIPSE
  5
17B1
330
1F
100
AcDbEntity
  8
AM_0
100
AcDbEllipse
 10
9.991419690376138
 20
56.34451579234913
 30
0.0
 11
29.94162200572225
 21
55.64826877735075
 31
0.0
210
0.0
220
0.0
230
1.0
 40
0.4699340075590389
 41
3.018190767957166
 42
3.197221650896189
  0
ELLIPSE
  5
17B2
330
1F
100
AcDbEntity
  8
AM_0
100
AcDbEllipse
 10
-9.279096027512707
 20
-14.72802224347597
 30
0.0
 11
-11.53678333912418
 21
15.75165183517176
 31
0.0
210
0.0
220
0.0
230
1.0
 40
0.5829910057259762
 41
-0.0144379486953605
 42
0.3060159458491545
  0
ELLIPSE
  5
17B3
330
1F
100
AcDbEntity
  8
AM_0
100
AcDbEllipse
 10
-17.73367701825574
 20
4.90756649063599
 30
0.0
 11
8.623747841385197
 21
0.0000000000003031
 31
0.0
210
0.0
220
0.0
230
1.0
 40
0.9777777777777791
 41
4.048660333193797
 42
4.636073652744022
  0
ELLIPSE
  5
17B4
330
1F
100
AcDbEntity
  8
AM_0
100
AcDbEllipse
 10
-18.13030470010735
 20
5.636420495325237
 30
0.0
 11
3.79684041596608
 21
8.008840629809807
 31
0.0
210
0.0
220
0.0
230
0.9999999999999998
 40
0.9822178254701331
 41
2.993484068767
 42
3.606193943663318
  0
SPLINE
  5
17B5
330
1F
100
AcDbEntity
  8
AM_0
100
AcDbSpline
210
0.0
220
0.0
230
1.0
 70
     8
 71
     3
 72
     8
 73
     4
 74
     0
 42
0.0000000001
 43
0.0000000001
 40
0.0
 40
0.0
 40
0.0
 40
0.0
 40
14.48999654934396
 40
14.48999654934396
 40
14.48999654934396
 40
14.48999654934396
 10
-19.99353583872238
 20
3.500000000000001
 30
0.0
 10
-16.01488718708836
 20
3.500000000000083
 30
0.0
 10
-12.87562541172599
 20
1.75000000000008
 30
0.0
 10
-9.736363636363631
 20
0.0000000000000808
 30
0.0
  0
SPLINE
  5
17B6
330
1F
100
AcDbEntity
  8
AM_0
100
AcDbSpline
210
0.0
220
0.0
230
1.0
 70
     8
 71
     3
 72
     8
 73
     4
 74
     0
 42
0.0000000001
 43
0.0000000001
 40
0.8193285956365375
 40
0.8193285956365375
 40
0.8193285956365375
 40
0.8193285956365375
 40
14.43901837670146
 40
14.43901837670146
 40
14.43901837670146
 40
14.43901837670146
 10
-17.98683304618367
 20
3.350020368788045
 30
0.0
 10
-14.42051052885122
 20
3.202541201326282
 30
0.0
 10
-11.45364575723434
 20
1.601270600663161
 30
0.0
 10
-8.486780985617489
 20
0.0000000000000435
 30
0.0
  0
SPLINE
  5
17B7
330
1F
100
AcDbEntity
  8
AM_0
100
AcDbSpline
210
0.0
220
0.0
230
1.0
 70
     8
 71
     3
 72
     8
 73
     4
 74
     0
 42
0.0000000001
 43
0.0000000001
 40
0.7142832446738512
 40
0.7142832446738512
 40
0.7142832446738512
 40
0.7142832446738512
 40
14.36247867694493
 40
14.36247867694493
 40
14.36247867694493
 40
14.36247867694493
 10
-16.61433894315866
 20
3.220418452877006
 30
0.0
 10
-13.04309162531168
 20
3.071464924832874
 30
0.0
 10
-10.04549495526127
 20
1.535732462416457
 30
0.0
 10
-7.047898285210866
 20
0.0000000000000435
 30
0.0
  0
SPLINE
  5
17B8
330
1F
100
AcDbEntity
  8
AM_0
100
AcDbSpline
210
0.0
220
0.0
230
1.0
 70
     8
 71
     3
 72
     8
 73
     4
 74
     0
 42
0.0000000001
 43
0.0000000001
 40
0.0
 40
0.0
 40
0.0
 40
0.0
 40
5.192508374738713
 40
5.192508374738713
 40
5.192508374738713
 40
5.192508374738713
 10
-19.99353583872238
 20
3.500000000000001
 30
0.0
 10
-21.04518192275957
 20
3.500000000000002
 30
0.0
 10
-22.24339280876221
 20
3.275272667946144
 30
0.0
 10
-22.94141589439035
 20
2.851349648023746
 30
0.0
  0
SPLINE
  5
17B9
330
1F
100
AcDbEntity
  8
AM_0
100
AcDbSpline
210
0.0
220
0.0
230
1.0
 70
     8
 71
     3
 72
     8
 73
     4
 74
     0
 42
0.0000000001
 43
0.0000000001
 40
0.0
 40
0.0
 40
0.0
 40
0.0
 40
2.238610194515266
 40
2.238610194515266
 40
2.238610194515266
 40
2.238610194515266
 10
-8.254097848441528
 20
-2.685686821110953
 30
0.0
 10
-7.206619816102032
 20
-2.685686821110953
 30
0.0
 10
-6.178121746618634
 20
-2.554012634105497
 30
0.0
 10
-5.162717953724458
 20
-2.331496423992921
 30
0.0
  0
SPLINE
  5
17BA
330
1F
100
AcDbEntity
  8
AM_0
100
AcDbSpline
210
0.0
220
0.0
230
1.0
 70
     8
 71
     3
 72
     8
 73
     4
 74
     0
 42
0.0000000001
 43
0.0000000001
 40
0.0
 40
0.0
 40
0.0
 40
0.0
 40
13.97258598406841
 40
13.97258598406841
 40
13.97258598406841
 40
13.97258598406841
 10
-8.254097848441528
 20
-2.685686821110953
 30
0.0
 10
-11.58846495827606
 20
-2.685686821110953
 30
0.0
 10
-14.99059347454434
 20
-1.706548714427952
 30
0.0
 10
-18.44988131872096
 20
0.0000000000000038
 30
0.0
  0
SPLINE
  5
17BB
330
1F
100
AcDbEntity
  8
AM_0
100
AcDbSpline
210
0.0
220
0.0
230
1.0
 70
     8
 71
     3
 72
     8
 73
     4
 74
     0
 42
0.0000000001
 43
0.0000000001
 40
0.0
 40
0.0
 40
0.0
 40
0.0
 40
7.57842115059705
 40
7.57842115059705
 40
7.57842115059705
 40
7.57842115059705
 10
0.0
 20
3.5
 30
0.0
 10
-1.808486865483388
 20
3.5
 30
0.0
 10
-3.529829806718629
 20
3.021304927187673
 30
0.0
 10
-5.209606015972061
 20
2.314277357712244
 30
0.0
  0
SPLINE
  5
17BC
330
1F
100
AcDbEntity
  8
AM_0
100
AcDbSpline
210
0.0
220
0.0
230
1.0
 70
     8
 71
     3
 72
     8
 73
     4
 74
     0
 42
0.0000000001
 43
0.0000000001
 40
0.0
 40
0.0
 40
0.0
 40
0.0
 40
14.48999654934395
 40
14.48999654934395
 40
14.48999654934395
 40
14.48999654934395
 10
0.0
 20
-3.499999999999996
 30
0.0
 10
-3.457840085638897
 20
-3.499999999999996
 30
0.0
 10
-6.597101861001261
 20
-1.749999999999996
 30
0.0
 10
-9.736363636363631
 20
0.0000000000000031
 30
0.0
  0
SPLINE
  5
17BD
330
1F
100
AcDbEntity
  8
AM_0
100
AcDbSpline
210
0.0
220
0.0
230
1.0
 70
     8
 71
     3
 72
     8
 73
     4
 74
     0
 42
0.0000000001
 43
0.0000000001
 40
1.870660592686466
 40
1.870660592686466
 40
1.870660592686466
 40
1.870660592686466
 40
14.43901837670146
 40
14.43901837670146
 40
14.43901837670146
 40
14.43901837670146
 10
-0.0751704545454484
 20
-3.313408810335237
 30
0.0
 10
-3.011088286902451
 20
-2.955330428471033
 30
0.0
 10
-5.748934636259976
 20
-1.477665214235495
 30
0.0
 10
-8.486780985617489
 20
0.0000000000000435
 30
0.0
  0
SPLINE
  5
17BE
330
1F
100
AcDbEntity
  8
AM_0
100
AcDbSpline
210
0.0
220
0.0
230
1.0
 70
     8
 71
     3
 72
     8
 73
     4
 74
     0
 42
0.0000000001
 43
0.0000000001
 40
4.219358800530717
 40
4.219358800530717
 40
4.219358800530717
 40
4.219358800530717
 40
14.36247867694493
 40
14.36247867694493
 40
14.36247867694493
 40
14.36247867694493
 10
-0.268465909090867
 20
-2.854754129159127
 30
0.0
 10
-2.592366780500905
 20
-2.282663454182163
 30
0.0
 10
-4.820132532855888
 20
-1.141331727091061
 30
0.0
 10
-7.047898285210866
 20
0.0000000000000435
 30
0.0
  0
LINE
  5
17BF
330
1F
100
AcDbEntity
  8
AM_11
100
AcDbLine
 10
-18.0
 20
-3.499999999999124
 30
0.0
 11
0.0
 21
-3.499999999999996
 31
0.0
  0
LINE
  5
17C0
330
1F
100
AcDbEntity
  8
AM_11
100
AcDbLine
 10
-0.0000000000005502
 20
3.5
 30
0.0
 11
-18.0
 21
3.500000000000003
 31
0.0
  0
LINE
  5
17C1
330
1F
100
AcDbEntity
  8
AM_0
100
AcDbLine
 10
-13.79794877285178
 20
2.814596784246511
 30
0.0
 11
-1.687091483572506
 21
2.105917395769653
 31
0.0
  0
LINE
  5
17D8
330
1F
100
AcDbEntity
  8
AM_0
100
AcDbLine
 10
-24.50000000000002
 20
-3.999999999994102
 30
0.0
 11
-59.25000000000001
 21
-3.999999999999021
 31
0.0
  0
LINE
  5
17D9
330
1F
100
AcDbEntity
  8
AM_0
100
AcDbLine
 10
-24.5
 20
4.000000000000004
 30
0.0
 11
-59.25
 21
3.999999999999968
 31
0.0
  0
LINE
  5
17DA
330
1F
100
AcDbEntity
  8
AM_0
100
AcDbLine
 10
-59.25
 20
3.999999999999968
 30
0.0
 11
-60.0
 21
3.399999999999967
 31
0.0
1001
GENIUS_GENFIL_13
1070
     0
1040
0.75
1040
0.75
1040
20.0
1040
0.0
1002
{
1002
}
1001
GENIUS_GENODEF_13
1002
{
1000
HIER
1070
     0
1002
}
1002
{
1000
MANEDIT
1070
     0
1002
}
1002
{
1000
NOSEL
1070
     0
1002
}
1002
{
1000
BEHIND
1070
     0
1002
}
1002
{
1000
REACTOR
1002
}
1001
GENIUS_GENOBJ-N-CHA_13
1002
{
1000
OWNER
1000
GEN
1002
}
  0
LINE
  5
17DB
330
1F
100
AcDbEntity
  8
AM_0
100
AcDbLine
 10
-60.00000000000001
 20
-3.399999999999021
 30
0.0
 11
-59.25000000000001
 21
-3.999999999999021
 31
0.0
1001
GENIUS_GENFIL_13
1070
     0
1040
0.75
1040
0.75
1040
20.0
1040
0.0
1002
{
1002
}
1001
GENIUS_GENODEF_13
1002
{
1000
HIER
1070
     0
1002
}
1002
{
1000
MANEDIT
1070
     0
1002
}
1002
{
1000
NOSEL
1070
     0
1002
}
1002
{
1000
BEHIND
1070
     0
1002
}
1002
{
1000
REACTOR
1002
}
1001
GENIUS_GENOBJ-N-CHA_13
1002
{
1000
OWNER
1000
GEN
1002
}
  0
LINE
  5
17DC
330
1F
100
AcDbEntity
  8
AM_0
100
AcDbLine
 10
-60.0
 20
3.399999999999967
 30
0.0
 11
-60.00000000000001
 21
-3.399999999999021
 31
0.0
  0
LINE
  5
17DD
330
1F
100
AcDbEntity
  8
AM_0
100
AcDbLine
 10
-59.25
 20
3.999999999999968
 30
0.0
 11
-59.25000000000001
 21
-3.999999999999021
 31
0.0
  0
DIMENSION
  5
17DE
330
1F
100
AcDbEntity
  8
AM_5
100
AcDbDimension
  2
*D8
 10
-69.78823125971979
 20
-3.999999999999018
 30
0.0
 11
-71.33823125971979
 21
0.000000000000465
 31
0.0
 70
    32
  1
%%c<>
  3
AM_JIS
100
AcDbAlignedDimension
 13
-59.25
 23
3.999999999999968
 33
0.0
 14
-59.25
 24
-3.999999999999021
 34
0.0
 50
270.0
100
AcDbRotatedDimension
1001
GENIUS_GENDTOL_13
1000

1000
h7
1000

1040
0.0
  0
LINE
  5
18D6
330
1F
100
AcDbEntity
  8
AM_0
100
AcDbLine
 10
-24.49999999999999
 20
4.000000000000005
 30
0.0
 11
-24.50000000000001
 21
-3.999999999994031
 31
0.0
  0
LINE
  5
1902
330
1F
100
AcDbEntity
  8
AM_0
100
AcDbLine
 10
-24.49999999999999
 20
4.000000000000006
 30
0.0
 11
-23.12626129027266
 21
3.500000000000001
 31
0.0
  0
LINE
  5
1904
330
1F
100
AcDbEntity
  8
AM_0
100
AcDbLine
 10
-23.12626129030479
 20
-3.500000000005709
 30
0.0
 11
-24.50000000000001
 21
-3.99999999999403
 31
0.0
  0
LINE
  5
1905
330
1F
100
AcDbEntity
  8
AM_0
100
AcDbLine
 10
-23.12626129027266
 20
-3.500000000005709
 30
0.0
 11
-18.36565270873649
 21
-3.500000000001933
 31
0.0
  0
LINE
  5
1906
330
1F
100
AcDbEntity
  8
AM_0
100
AcDbLine
 10
-23.12626129027266
 20
3.500000000000001
 30
0.0
 11
-19.99353583872595
 21
3.500000000000002
 31
0.0
  0
LINE
  5
1A1F
330
1F
100
AcDbEntity
  8
AM_0
100
AcDbLine
 10
-23.12626129027266
 20
3.500000000000001
 30
0.0
 11
-23.12626129027266
 21
-3.499999999994015
 31
0.0
  0
LINE
  5
1A3C
330
1F
100
AcDbEntity
  8
AM_11
100
AcDbLine
 10
-18.0
 20
-3.500000000001642
 30
0.0
 11
-18.0
 21
3.500000000000002
 31
0.0
  0
LINE
  5
1C4C
330
1F
100
AcDbEntity
  8
AM_0
100
AcDbLine
 10
-18.00000000000001
 20
-3.19447020555853
 30
0.0
 11
-18.0
 21
-3.489432419489661
 31
0.0
  0
VIEWPORT
  5
110
330
101
100
AcDbEntity
 67
     1
  8
0
100
AcDbViewport
 10
420.5
 20
297.0
 30
0.0
 40
948.9782706766916
 41
628.452
 68
     1
 69
     1
1001
ACAD
1000
MVIEW
1002
{
1070
    16
1010
0.0
1020
0.0
1030
0.0
1010
0.0
1020
0.0
1030
1.0
1040
0.0
1040
628.452
1040
420.5
1040
297.0
1040
50.0
1040
0.0
1040
0.0
1070
     0
1070
   100
1070
     1
1070
     1
1070
     0
1070
     0
1070
     0
1070
     0
1040
0.0
1040
0.0
1040
0.0
1040
10.0
1040
10.0
1040
10.0
1040
10.0
1070
     0
1002
{
1002
}
1002
}
  0
ENDSEC
  0
SECTION
  2
OBJECTS
  0
DICTIONARY
  5
C
330
0
100
AcDbDictionary
  3
ACAD_GROUP
350
D
  3
ACAD_LAYOUT
350
1A
  3
ACAD_MLINESTYLE
350
17
  3
ACAD_PLOTSETTINGS
350
19
  3
ACAD_PLOTSTYLENAME
350
E
  3
ACDBVARIABLEDICTIONARY
350
34
  3
ACMDICTIONARY
350
43
  3
AMG
350
2B
  3
AMGSNAPSETTINGS
350
6E
  3
DWGPROPS
350
1C63
  3
ACDBHEADERROUNDTRIPXREC
350
1C6F
  0
DICTIONARY
  5
74
330
1F
100
AcDbDictionary
280
     1
  3
ACAD_INDEX
360
1C65
  3
ACAD_LAYOUTSELFREF
360
1C92
  0
DICTIONARY
  5
1C97
330
101
100
AcDbDictionary
280
     1
  3
ACAD_LAYOUTSELFREF
360
1C98
  0
DICTIONARY
  5
D
102
{ACAD_REACTORS
330
C
102
}
330
C
100
AcDbDictionary
  0
DICTIONARY
  5
1A
102
{ACAD_REACTORS
330
C
102
}
330
C
100
AcDbDictionary
  0
DICTIONARY
  5
17
102
{ACAD_REACTORS
330
C
102
}
330
C
100
AcDbDictionary
  3
STANDARD
350
18
  0
DICTIONARY
  5
19
102
{ACAD_REACTORS
330
C
102
}
330
C
100
AcDbDictionary
  0
ACDBDICTIONARYWDFLT
  5
E
102
{ACAD_REACTORS
330
C
102
}
330
C
100
AcDbDictionary
281
     1
  3
Normal
350
F
100
AcDbDictionaryWithDefault
340
F
  0
DICTIONARY
  5
34
102
{ACAD_REACTORS
330
C
102
}
330
C
100
AcDbDictionary
  3
INDEXCTL
350
35
  3
SORTENTS
350
B5E
  0
DICTIONARY
  5
43
102
{ACAD_REACTORS
330
C
102
}
330
C
100
AcDbDictionary
  3
ACMSTDDICTIONARY
350
260
  0
DICTIONARY
  5
2B
102
{ACAD_REACTORS
330
C
102
}
330
C
100
AcDbDictionary
  3
ACMGSETTINGS
350
2C
  0
DICTIONARY
  5
6E
102
{ACAD_REACTORS
330
C
102
}
330
C
100
AcDbDictionary
  0
XRECORD
  5
1C63
102
{ACAD_REACTORS
330
C
102
}
330
C
100
AcDbXrecord
  1
DWGPROPS COOKIE
  2

  3

  4

  6

  7

  8

  9

300
AmdtFileType=82
301
=
302
=
303
=
304
=
305
=
306
=
307
=
308
=
309
=
 40
0.0682061805555556
 41
2452836.771637361
 42
2453045.497387697
  1

 90
        1
  0
DICTIONARY
  5
1C6F
102
{ACAD_REACTORS
330
C
102
}
330
C
100
AcDbDictionary
  3
TSTACKALIGN
350
1C70
  3
TSTACKSIZE
350
1C71
  3
HYPERLINKBASE
350
1C72
  3
STYLESHEET
350
1C73
  3
LAYOUTDICT
350
1C74
  3
PLOTSETDICT
350
1C75
  3
PLOTSTYLNAMDICT
350
1C76
  3
LWETCUNION
350
1C77
  3
INSUNITS
350
1C78
  3
CEPSNTYPE
350
1C79
  3
FINGERPRINTGUID
350
1C7A
  3
VERSIONGUID
350
1C7B
  3
PSVPSCALE
350
1C7C
  3
DIMSTYLEDATA
350
1C7D
  3
PUCSORTHOREF
350
1C7E
  3
PUCSORTHOVIEW
350
1C7F
  3
PUCSBASE
350
1C80
  3
PUCSORGTOP
350
1C81
  3
PUCSORGBOTTOM
350
1C82
  3
PUCSORGLEFT
350
1C83
  3
PUCSORGRIGHT
350
1C84
  3
PUCSORGFRONT
350
1C85
  3
PUCSORGBACK
350
1C86
  3
UCSORTHOREF
350
1C87
  3
UCSORTHOVIEW
350
1C88
  3
UCSBASE
350
1C89
  3
UCSORGTOP
350
1C8A
  3
UCSORGBOTTOM
350
1C8B
  3
UCSORGLEFT
350
1C8C
  3
UCSORGRIGHT
350
1C8D
  3
UCSORGFRONT
350
1C8E
  3
UCSORGBACK
350
1C8F
  0
DICTIONARY
  5
1C65
102
{ACAD_REACTORS
330
74
102
}
330
74
100
AcDbDictionary
  3
*A1
350
1C66
  0
XRECORD
  5
1C92
102
{ACAD_REACTORS
330
74
102
}
330
74
100
AcDbXrecord
340
1F
  0
XRECORD
  5
1C98
102
{ACAD_REACTORS
330
1C97
102
}
330
1C97
100
AcDbXrecord
340
101
  0
MLINESTYLE
  5
18
102
{ACAD_REACTORS
330
17
102
}
330
17
100
AcDbMlineStyle
  2
STANDARD
 70
     0
  3

 62
   256
 51
90.0
 52
90.0
 71
     2
 49
0.5
 62
   256
  6
BYLAYER
 49
-0.5
 62
   256
  6
BYLAYER
  0
ACDBPLACEHOLDER
  5
F
102
{ACAD_REACTORS
330
E
102
}
330
E
100
AcDbPlaceHolder
280
     0
  0
DICTIONARYVAR
  5
35
102
{ACAD_REACTORS
330
34
102
}
330
34
100
DictionaryVariables
280
     0
  1
1
  0
DICTIONARYVAR
  5
B5E
102
{ACAD_REACTORS
330
34
102
}
330
34
100
DictionaryVariables
280
     0
  1
96
  0
DICTIONARY
  5
260
102
{ACAD_REACTORS
330
43
102
}
330
43
100
AcDbDictionary
  0
DICTIONARY
  5
2C
102
{ACAD_REACTORS
330
2B
102
}
330
2B
100
AcDbDictionary
  3
DWGSETTINGS
350
2D
  0
XRECORD
  5
1C70
102
{ACAD_REACTORS
330
1C6F
102
}
330
1C6F
100
AcDbXrecord
 90
        1
  0
XRECORD
  5
1C71
102
{ACAD_REACTORS
330
1C6F
102
}
330
1C6F
100
AcDbXrecord
 90
       70
  0
XRECORD
  5
1C72
102
{ACAD_REACTORS
330
1C6F
102
}
330
1C6F
100
AcDbXrecord
  1

  0
XRECORD
  5
1C73
102
{ACAD_REACTORS
330
1C6F
102
}
330
1C6F
100
AcDbXrecord
  1
ASAMI.ctb
  0
XRECORD
  5
1C74
102
{ACAD_REACTORS
330
1C6F
102
}
330
1C6F
100
AcDbXrecord
340
1A
  0
XRECORD
  5
1C75
102
{ACAD_REACTORS
330
1C6F
102
}
330
1C6F
100
AcDbXrecord
340
19
  0
XRECORD
  5
1C76
102
{ACAD_REACTORS
330
1C6F
102
}
330
1C6F
100
AcDbXrecord
340
E
  0
XRECORD
  5
1C77
102
{ACAD_REACTORS
330
1C6F
102
}
330
1C6F
100
AcDbXrecord
 90
    10781
  0
XRECORD
  5
1C78
102
{ACAD_REACTORS
330
1C6F
102
}
330
1C6F
100
AcDbXrecord
 90
        4
  0
XRECORD
  5
1C79
102
{ACAD_REACTORS
330
1C6F
102
}
330
1C6F
100
AcDbXrecord
 90
        0
  0
XRECORD
  5
1C7A
102
{ACAD_REACTORS
330
1C6F
102
}
330
1C6F
100
AcDbXrecord
  1
{AFB28963-8C59-40AE-9337-C84526B81ACE}
  0
XRECORD
  5
1C7B
102
{ACAD_REACTORS
330
1C6F
102
}
330
1C6F
100
AcDbXrecord
  1
{8C08DDE7-DDDA-44AD-9C68-B76205C9DC2C}
  0
XRECORD
  5
1C7C
102
{ACAD_REACTORS
330
1C6F
102
}
330
1C6F
100
AcDbXrecord
 40
0.0
  0
XRECORD
  5
1C7D
102
{ACAD_REACTORS
330
1C6F
102
}
330
1C6F
100
AcDbXrecord
1000
DSTYLE
1002
{
1070
    79
 70
     2
1070
   341
340
59
1070
   342
340
59
1070
   371
 70
    -1
1070
   372
 70
    -1
1002
}
  0
XRECORD
  5
1C7E
102
{ACAD_REACTORS
330
1C6F
102
}
330
1C6F
100
AcDbXrecord
340
0
  0
XRECORD
  5
1C7F
102
{ACAD_REACTORS
330
1C6F
102
}
330
1C6F
100
AcDbXrecord
 70
     0
  0
XRECORD
  5
1C80
102
{ACAD_REACTORS
330
1C6F
102
}
330
1C6F
100
AcDbXrecord
340
0
  0
XRECORD
  5
1C81
102
{ACAD_REACTORS
330
1C6F
102
}
330
1C6F
100
AcDbXrecord
 10
0.0
 20
0.0
 30
0.0
  0
XRECORD
  5
1C82
102
{ACAD_REACTORS
330
1C6F
102
}
330
1C6F
100
AcDbXrecord
 10
0.0
 20
0.0
 30
0.0
  0
XRECORD
  5
1C83
102
{ACAD_REACTORS
330
1C6F
102
}
330
1C6F
100
AcDbXrecord
 10
0.0
 20
0.0
 30
0.0
  0
XRECORD
  5
1C84
102
{ACAD_REACTORS
330
1C6F
102
}
330
1C6F
100
AcDbXrecord
 10
0.0
 20
0.0
 30
0.0
  0
XRECORD
  5
1C85
102
{ACAD_REACTORS
330
1C6F
102
}
330
1C6F
100
AcDbXrecord
 10
0.0
 20
0.0
 30
0.0
  0
XRECORD
  5
1C86
102
{ACAD_REACTORS
330
1C6F
102
}
330
1C6F
100
AcDbXrecord
 10
0.0
 20
0.0
 30
0.0
  0
XRECORD
  5
1C87
102
{ACAD_REACTORS
330
1C6F
102
}
330
1C6F
100
AcDbXrecord
340
0
  0
XRECORD
  5
1C88
102
{ACAD_REACTORS
330
1C6F
102
}
330
1C6F
100
AcDbXrecord
 70
     0
  0
XRECORD
  5
1C89
102
{ACAD_REACTORS
330
1C6F
102
}
330
1C6F
100
AcDbXrecord
340
0
  0
XRECORD
  5
1C8A
102
{ACAD_REACTORS
330
1C6F
102
}
330
1C6F
100
AcDbXrecord
 10
0.0
 20
0.0
 30
0.0
  0
XRECORD
  5
1C8B
102
{ACAD_REACTORS
330
1C6F
102
}
330
1C6F
100
AcDbXrecord
 10
0.0
 20
0.0
 30
0.0
  0
XRECORD
  5
1C8C
102
{ACAD_REACTORS
330
1C6F
102
}
330
1C6F
100
AcDbXrecord
 10
0.0
 20
0.0
 30
0.0
  0
XRECORD
  5
1C8D
102
{ACAD_REACTORS
330
1C6F
102
}
330
1C6F
100
AcDbXrecord
 10
0.0
 20
0.0
 30
0.0
  0
XRECORD
  5
1C8E
102
{ACAD_REACTORS
330
1C6F
102
}
330
1C6F
100
AcDbXrecord
 10
0.0
 20
0.0
 30
0.0
  0
XRECORD
  5
1C8F
102
{ACAD_REACTORS
330
1C6F
102
}
330
1C6F
100
AcDbXrecord
 10
0.0
 20
0.0
 30
0.0
  0
LAYER_INDEX
  5
1C66
102
{ACAD_REACTORS
330
1C65
102
}
330
1C65
100
AcDbIndex
 40
2453152.462273981
100
AcDbLayerIndex
  8
0
360
1C67
 90
        0
  8
AM_0
360
1C68
 90
       41
  8
AM_11
360
1C69
 90
        3
  8
AM_7
360
1C6A
 90
        1
  8
AM_5
360
1C6B
 90
        4
  8
Defpoints
360
1C6C
 90
        0
  8
AM_6
360
1C6D
 90
        1
  0
XRECORD
  5
2D
102
{ACAD_REACTORS
330
2C
102
}
330
2C
100
AcDbXrecord
  1
VERSION
140
15.0
  1
PRODUCT
  2
AutoCAD Mechanical 2000
  0
IDBUFFER
  5
1C67
330
0
100
AcDbIdBuffer
  0
IDBUFFER
  5
1C68
330
0
100
AcDbIdBuffer
330
17B4
330
17B5
330
17B6
330
17B7
330
17B8
330
17B9
330
17BA
330
17BB
330
17BC
330
17BD
330
17BE
330
17C1
330
17D8
330
17D9
330
17DA
330
17DB
330
17DC
330
17DD
330
18D6
330
1902
330
1904
330
1905
330
1906
330
1A1F
330
1C4C
330
17A3
330
17A4
330
17A5
330
17A6
330
17A7
330
17A8
330
17A9
330
17AA
330
17AB
330
17AC
330
17AD
330
17AE
330
17AF
330
17B1
330
17B2
330
17B3
  0
IDBUFFER
  5
1C69
330
0
100
AcDbIdBuffer
330
17BF
330
17C0
330
1A3C
  0
IDBUFFER
  5
1C6A
330
0
100
AcDbIdBuffer
330
F47
  0
IDBUFFER
  5
1C6B
330
0
100
AcDbIdBuffer
330
105F
330
10EF
330
1315
330
17DE
  0
IDBUFFER
  5
1C6C
330
0
100
AcDbIdBuffer
  0
IDBUFFER
  5
1C6D
330
0
100
AcDbIdBuffer
330
E5A
  0
ENDSEC
  0
EOF
