  0
SECTION
  2
HEADER
  9
$ACADVER
  1
AC1014
  9
$ACADMAINTVER
 70
     9
  9
$DWGCODEPAGE
  3
ANSI_932
  9
$INSBASE
 10
0.0
 20
0.0
 30
0.0
  9
$EXTMIN
 10
-83.13823125971978
 20
-29.2500009999987
 30
-0.00000001
  9
$EXTMAX
 10
8.773299778506501
 20
5.456130414779527
 30
0.00000001
  9
$LIMMIN
 10
-85.6678156571886
 20
-37.13278074950631
  9
$LIMMAX
 10
14.7476169907967
 20
14.19342730623344
  9
$ORTHOMODE
 70
     0
  9
$REGENMODE
 70
     1
  9
$FILLMODE
 70
     1
  9
$QTEXTMODE
 70
     0
  9
$MIRRTEXT
 70
     0
  9
$DRAGMODE
 70
     2
  9
$LTSCALE
 40
1.0
  9
$OSMODE
 70
    55
  9
$ATTMODE
 70
     1
  9
$TEXTSIZE
 40
2.5
  9
$TRACEWID
 40
1.0
  9
$TEXTSTYLE
  7
STANDARD
  9
$CLAYER
  8
AM_0
  9
$CELTYPE
  6
BYLAYER
  9
$CECOLOR
 62
   256
  9
$CELTSCALE
 40
1.0
  9
$DELOBJ
 70
     1
  9
$DISPSILH
 70
     0
  9
$DIMSCALE
 40
0.5
  9
$DIMASZ
 40
2.5
  9
$DIMEXO
 40
1.0
  9
$DIMDLI
 40
12.0
  9
$DIMRND
 40
0.0
  9
$DIMDLE
 40
0.0
  9
$DIMEXE
 40
1.0
  9
$DIMTP
 40
0.1
  9
$DIMTM
 40
0.1
  9
$DIMTXT
 40
3.2
  9
$DIMCEN
 40
0.0
  9
$DIMTSZ
 40
0.0
  9
$DIMTOL
 70
     0
  9
$DIMLIM
 70
     0
  9
$DIMTIH
 70
     0
  9
$DIMTOH
 70
     0
  9
$DIMSE1
 70
     0
  9
$DIMSE2
 70
     0
  9
$DIMTAD
 70
     3
  9
$DIMZIN
 70
     8
  9
$DIMBLK
  1
OPEN30
  9
$DIMASO
 70
     1
  9
$DIMSHO
 70
     1
  9
$DIMPOST
  1

  9
$DIMAPOST
  1
"
  9
$DIMALT
 70
     0
  9
$DIMALTD
 70
     2
  9
$DIMALTF
 40
0.0393701
  9
$DIMLFAC
 40
1.0
  9
$DIMTOFL
 70
     1
  9
$DIMTVP
 40
0.0
  9
$DIMTIX
 70
     0
  9
$DIMSOXD
 70
     0
  9
$DIMSAH
 70
     0
  9
$DIMBLK1
  1

  9
$DIMBLK2
  1

  9
$DIMSTYLE
  2
AM_JIS
  9
$DIMCLRD
 70
   256
  9
$DIMCLRE
 70
   256
  9
$DIMCLRT
 70
     2
  9
$DIMTFAC
 40
0.71
  9
$DIMGAP
 40
1.5
  9
$DIMJUST
 70
     0
  9
$DIMSD1
 70
     0
  9
$DIMSD2
 70
     0
  9
$DIMTOLJ
 70
     0
  9
$DIMTZIN
 70
     0
  9
$DIMALTZ
 70
     0
  9
$DIMALTTZ
 70
     0
  9
$DIMFIT
 70
     3
  9
$DIMUPT
 70
     0
  9
$DIMUNIT
 70
     2
  9
$DIMDEC
 70
     3
  9
$DIMTDEC
 70
     3
  9
$DIMALTU
 70
     2
  9
$DIMALTTD
 70
     2
  9
$DIMTXSTY
  7
ASAMI
  9
$DIMAUNIT
 70
     0
  9
$LUNITS
 70
     2
  9
$LUPREC
 70
     2
  9
$SKETCHINC
 40
1.0
  9
$FILLETRAD
 40
2.5
  9
$AUNITS
 70
     0
  9
$AUPREC
 70
     0
  9
$MENU
  1
.
  9
$ELEVATION
 40
0.0
  9
$PELEVATION
 40
0.0
  9
$THICKNESS
 40
0.0
  9
$LIMCHECK
 70
     0
  9
$BLIPMODE
 70
     0
  9
$CHAMFERA
 40
0.75
  9
$CHAMFERB
 40
0.75
  9
$CHAMFERC
 40
20.0
  9
$CHAMFERD
 40
0.0
  9
$SKPOLY
 70
     0
  9
$TDCREATE
 40
2452836.771637361
  9
$TDUPDATE
 40
2453152.466295347
  9
$TDINDWG
 40
0.0450047685
  9
$TDUSRTIMER
 40
0.0450047685
  9
$USRTIMER
 70
     1
  9
$ANGBASE
 50
0.0
  9
$ANGDIR
 70
     0
  9
$PDMODE
 70
     0
  9
$PDSIZE
 40
0.0
  9
$PLINEWID
 40
0.0
  9
$COORDS
 70
     1
  9
$SPLFRAME
 70
     0
  9
$SPLINETYPE
 70
     6
  9
$SPLINESEGS
 70
     8
  9
$ATTDIA
 70
     1
  9
$ATTREQ
 70
     1
  9
$HANDLING
 70
 12289
  9
$HANDSEED
  5
1877
  9
$SURFTAB1
 70
     6
  9
$SURFTAB2
 70
     6
  9
$SURFTYPE
 70
     6
  9
$SURFU
 70
     6
  9
$SURFV
 70
     6
  9
$UCSNAME
  2

  9
$UCSORG
 10
0.0
 20
0.0
 30
0.0
  9
$UCSXDIR
 10
1.0
 20
0.0
 30
0.0
  9
$UCSYDIR
 10
0.0
 20
1.0
 30
0.0
  9
$PUCSNAME
  2

  9
$PUCSORG
 10
0.0
 20
0.0
 30
0.0
  9
$PUCSXDIR
 10
1.0
 20
0.0
 30
0.0
  9
$PUCSYDIR
 10
0.0
 20
1.0
 30
0.0
  9
$USERI1
 70
     0
  9
$USERI2
 70
     0
  9
$USERI3
 70
     0
  9
$USERI4
 70
     0
  9
$USERI5
 70
     0
  9
$USERR1
 40
0.0
  9
$USERR2
 40
0.0
  9
$USERR3
 40
0.0
  9
$USERR4
 40
0.0
  9
$USERR5
 40
0.0
  9
$WORLDVIEW
 70
     1
  9
$SHADEDGE
 70
     3
  9
$SHADEDIF
 70
    70
  9
$TILEMODE
 70
     1
  9
$MAXACTVP
 70
    64
  9
$PINSBASE
 10
0.0
 20
0.0
 30
0.0
  9
$PLIMCHECK
 70
     0
  9
$PEXTMIN
 10
1.000000000000000E+20
 20
1.000000000000000E+20
 30
1.000000000000000E+20
  9
$PEXTMAX
 10
-1.000000000000000E+20
 20
-1.000000000000000E+20
 30
-1.000000000000000E+20
  9
$PLIMMIN
 10
0.0
 20
0.0
  9
$PLIMMAX
 10
841.0
 20
594.0
  9
$UNITMODE
 70
     0
  9
$VISRETAIN
 70
     1
  9
$PLINEGEN
 70
     0
  9
$PSLTSCALE
 70
     0
  9
$TREEDEPTH
 70
  3020
  9
$PICKSTYLE
 70
     0
  9
$CMLSTYLE
  2
STANDARD
  9
$CMLJUST
 70
     0
  9
$CMLSCALE
 40
20.0
  9
$PROXYGRAPHICS
 70
     1
  9
$MEASUREMENT
 70
     1
  0
ENDSEC
  0
SECTION
  2
CLASSES
  0
CLASS
  1
ACDBDICTIONARYWDFLT
  2
AcDbDictionaryWithDefault
  3
AutoCAD 2000
 90
        0
280
     0
281
     0
  0
CLASS
  1
ACDBPLACEHOLDER
  2
AcDbPlaceHolder
  3
AutoCAD 2000
 90
        0
280
     0
281
     0
  0
CLASS
  1
LAYOUT
  2
AcDbLayout
  3
AutoCAD 2000
 90
        0
280
     0
281
     0
  0
CLASS
  1
AMGSETTINGSOBJ
  2
AmgSettingsObj
  3
"AcadM|Product Description: AutoCAD Mechanical 2000|Company: Autodesk"
 90
        0
280
     0
281
     0
  0
CLASS
  1
ACME_DOCUMENT
  2
AcMeDbDoc
  3
AcMeServices
 90
        0
280
     0
281
     0
  0
CLASS
  1
ACMESCOPE
  2
AcMeScope
  3
AcMeServices
 90
        0
280
     0
281
     0
  0
CLASS
  1
ACMECOMMANDHISTORY
  2
AcMeCommandHistory
  3
AcMeServices
 90
        0
280
     0
281
     0
  0
CLASS
  1
DICTIONARYVAR
  2
AcDbDictionaryVar
  3
AutoCAD 2000
 90
        0
280
     0
281
     0
  0
CLASS
  1
ACIMSYSVARMAN
  2
AcImSysVarManager
  3
AcMeServices
 90
        0
280
     0
281
     0
  0
CLASS
  1
ACIMREALSYSVAR
  2
AcImRealSysVar
  3
AcMeServices
 90
        0
280
     0
281
     0
  0
CLASS
  1
ACIMINTSYSVAR
  2
AcImIntSysVar
  3
AcMeServices
 90
        0
280
     0
281
     0
  0
CLASS
  1
ACMEDRAWINGMAN
  2
AcMeDrawingMan
  3
AcMeServices
 90
        0
280
     0
281
     0
  0
CLASS
  1
ACMEVIEW
  2
AcMeView
  3
AcMeServices
 90
        0
280
     0
281
     0
  0
CLASS
  1
ACDBENTITYCACHE
  2
AcMeEntityCache
  3
AcMeServices
 90
        0
280
     0
281
     0
  0
CLASS
  1
GSMANAGER
  2
AcMeGSManager
  3
AcMeServices
 90
        0
280
     0
281
     0
  0
CLASS
  1
AmdtInternalReactor
  2
AmdtInternalReactor
  3
AcMeServices
 90
        0
280
     0
281
     0
  0
CLASS
  1
ACMESTATEMGR
  2
AcMeStateMgr
  3
AcMeServices
 90
        0
280
     0
281
     0
  0
CLASS
  1
ACME_DATABASE
  2
AcMeDbDatabase
  3
AcMeServices
 90
        0
280
     0
281
     0
  0
CLASS
  1
ACRFINSADJUSTERMGR
  2
AcRfInsAdjusterMgr
  3
AcMeServices
 90
        0
280
     0
281
     0
  0
CLASS
  1
ACMDATADICTIONARY
  2
AcmDataDictionary
  3
"AcmSymBB|Product Description: AutoCAD Mechanical 2000|Company: Autodesk"
 90
        0
280
     0
281
     0
  0
CLASS
  1
ACMDATAENTRYBLOCK
  2
AcmDataEntryBlock
  3
"AcmSymBB|Product Description: AutoCAD Mechanical 2000|Company: Autodesk"
 90
        0
280
     0
281
     0
  0
CLASS
  1
AMGOBJPROPCFG
  2
AmgObjPropCfg
  3
"AmgLay|Product Description: AutoCAD Mechanical 2000|Company: Autodesk"
 90
        1
280
     0
281
     0
  0
CLASS
  1
ACAMGFILTERDAT
  2
AcAmgFilterDat
  3
"AcadM|Product Description: AutoCAD Mechanical 2000|Company: Autodesk"
 90
        0
280
     0
281
     0
  0
CLASS
  1
LAYER_INDEX
  2
AcDbLayerIndex
  3
AutoCAD 2000
 90
        0
280
     0
281
     0
  0
CLASS
  1
IDBUFFER
  2
AcDbIdBuffer
  3
AutoCAD 2000
 90
        0
280
     0
281
     0
  0
CLASS
  1
ACIMSTRSYSVAR
  2
AcImStrSysVar
  3
AcMeServices
 90
        0
280
     0
281
     0
  0
CLASS
  1
ACMSTANDARDJIS
  2
AcmStandardJIS
  3
"AcmSymBB|Product Description: AutoCAD Mechanical 2000|Company: Autodesk"
 90
        0
280
     0
281
     0
  0
CLASS
  1
ACMSURFSTANDARDJIS
  2
AcmSurfTextStdJIS
  3
"AcmSymBB|Product Description: AutoCAD Mechanical 2000|Company: Autodesk"
 90
        0
280
     0
281
     0
  0
CLASS
  1
ACMFCFSTANDARDJIS
  2
AcmFCFStdJIS
  3
"AcmSymBB|Product Description: AutoCAD Mechanical 2000|Company: Autodesk"
 90
        0
280
     0
281
     0
  0
CLASS
  1
ACMWELDSTANDARDJIS
  2
AcmWeldingStdJIS
  3
"AcmSymBB|Product Description: AutoCAD Mechanical 2000|Company: Autodesk"
 90
        0
280
     0
281
     0
  0
CLASS
  1
ACMIDSTANDARDJIS
  2
AcmIdStdJIS
  3
"AcmSymBB|Product Description: AutoCAD Mechanical 2000|Company: Autodesk"
 90
        0
280
     0
281
     0
  0
CLASS
  1
ACMDATUMSTANDARDJIS
  2
AcmDatumStdJIS
  3
"AcmSymBB|Product Description: AutoCAD Mechanical 2000|Company: Autodesk"
 90
        0
280
     0
281
     0
  0
CLASS
  1
ACMBOMSTANDARDJIS
  2
AcmBOMStdJIS
  3
"AcmSymBB|Product Description: AutoCAD Mechanical 2000|Company: Autodesk"
 90
        0
280
     0
281
     0
  0
CLASS
  1
ACMSTANDARDANSI
  2
AcmStandardANSI
  3
"AcmSymBB|Product Description: AutoCAD Mechanical 2000|Company: Autodesk"
 90
        0
280
     0
281
     0
  0
CLASS
  1
ACMSURFSTANDARDANSI
  2
AcmSurfTextStdANSI
  3
"AcmSymBB|Product Description: AutoCAD Mechanical 2000|Company: Autodesk"
 90
        0
280
     0
281
     0
  0
CLASS
  1
ACMFCFSTANDARDANSI
  2
AcmFCFStdANSI
  3
"AcmSymBB|Product Description: AutoCAD Mechanical 2000|Company: Autodesk"
 90
        0
280
     0
281
     0
  0
CLASS
  1
ACMWELDSTANDARDANSI
  2
AcmWeldingStdANSI
  3
"AcmSymBB|Product Description: AutoCAD Mechanical 2000|Company: Autodesk"
 90
        0
280
     0
281
     0
  0
CLASS
  1
ACMIDSTANDARDANSI
  2
AcmIdStdANSI
  3
"AcmSymBB|Product Description: AutoCAD Mechanical 2000|Company: Autodesk"
 90
        0
280
     0
281
     0
  0
CLASS
  1
ACMDATUMSTANDARDANSI
  2
AcmDatumStdANSI
  3
"AcmSymBB|Product Description: AutoCAD Mechanical 2000|Company: Autodesk"
 90
        0
280
     0
281
     0
  0
CLASS
  1
ACMBOMSTANDARDANSI
  2
AcmBOMStdANSI
  3
"AcmSymBB|Product Description: AutoCAD Mechanical 2000|Company: Autodesk"
 90
        0
280
     0
281
     0
  0
CLASS
  1
ACMSTANDARDBSI
  2
AcmStandardBSI
  3
"AcmSymBB|Product Description: AutoCAD Mechanical 2000|Company: Autodesk"
 90
        0
280
     0
281
     0
  0
CLASS
  1
ACMSURFSTANDARDBSI
  2
AcmSurfTextStdBSI
  3
"AcmSymBB|Product Description: AutoCAD Mechanical 2000|Company: Autodesk"
 90
        0
280
     0
281
     0
  0
CLASS
  1
ACMFCFSTANDARDBSI
  2
AcmFCFStdBSI
  3
"AcmSymBB|Product Description: AutoCAD Mechanical 2000|Company: Autodesk"
 90
        0
280
     0
281
     0
  0
CLASS
  1
ACMWELDSTANDARDBSI
  2
AcmWeldingStdBSI
  3
"AcmSymBB|Product Description: AutoCAD Mechanical 2000|Company: Autodesk"
 90
        0
280
     0
281
     0
  0
CLASS
  1
ACMIDSTANDARDBSI
  2
AcmIdStdBSI
  3
"AcmSymBB|Product Description: AutoCAD Mechanical 2000|Company: Autodesk"
 90
        0
280
     0
281
     0
  0
CLASS
  1
ACMDATUMSTANDARDBSI
  2
AcmDatumStdBSI
  3
"AcmSymBB|Product Description: AutoCAD Mechanical 2000|Company: Autodesk"
 90
        0
280
     0
281
     0
  0
CLASS
  1
ACMBOMSTANDARDBSI
  2
AcmBOMStdBSI
  3
"AcmSymBB|Product Description: AutoCAD Mechanical 2000|Company: Autodesk"
 90
        0
280
     0
281
     0
  0
CLASS
  1
LONG_TRANSACTION
  2
AcDbLongTransaction
  3
AutoCAD 2000
 90
        0
280
     0
281
     0
  0
CLASS
  1
LWPOLYLINE
  2
AcDbPolyline
  3
AutoCAD 2000
 90
        0
280
     0
281
     1
  0
CLASS
  1
HATCH
  2
AcDbHatch
  3
AutoCAD 2000
 90
        0
280
     0
281
     1
  0
CLASS
  1
XRECORD
  2
AcDbXrecord
  3
AutoCAD 2000
 90
        0
280
     0
281
     0
  0
ENDSEC
  0
SECTION
  2
TABLES
  0
TABLE
  2
VPORT
  5
8
330
0
100
AcDbSymbolTable
 70
     3
  0
VPORT
  5
184C
330
8
100
AcDbSymbolTableRecord
100
AcDbViewportTableRecord
  2
*ACTIVE
 70
     0
 10
0.0
 20
0.0
 11
1.0
 21
1.0
 12
-31.75036971111943
 22
2.194887789012078
 13
0.0
 23
0.0
 14
2.5
 24
2.5
 15
10.0
 25
10.0
 16
0.0
 26
0.0
 36
1.0
 17
0.0
 27
0.0
 37
0.0
 40
127.1636781351333
 41
1.56570841889117
 42
50.0
 43
0.0
 44
0.0
 50
0.0
 51
0.0
 71
     0
 72
   100
 73
     1
 74
     3
 75
     0
 76
     0
 77
     0
 78
     0
  0
ENDTAB
  0
TABLE
  2
LTYPE
  5
5
330
0
100
AcDbSymbolTable
 70
    10
  0
LTYPE
  5
14
330
5
100
AcDbSymbolTableRecord
100
AcDbLinetypeTableRecord
  2
BYBLOCK
 70
     0
  3

 72
    65
 73
     0
 40
0.0
  0
LTYPE
  5
15
330
5
100
AcDbSymbolTableRecord
100
AcDbLinetypeTableRecord
  2
BYLAYER
 70
     0
  3

 72
    65
 73
     0
 40
0.0
  0
LTYPE
  5
16
330
5
100
AcDbSymbolTableRecord
100
AcDbLinetypeTableRecord
  2
CONTINUOUS
 70
     0
  3
Solid line
 72
    65
 73
     0
 40
0.0
  0
LTYPE
  5
4B
330
5
100
AcDbSymbolTableRecord
100
AcDbLinetypeTableRecord
  2
AM_ISO02W050
 70
     0
  3
__ __ __ __ __ __ __ __ __ __ __ __ __ __ __
 72
    65
 73
     2
 40
7.5
 49
6.0
 74
     0
 49
-1.5
 74
     0
  0
LTYPE
  5
4C
330
5
100
AcDbSymbolTableRecord
100
AcDbLinetypeTableRecord
  2
AM_ISO08W050
 70
     0
  3
____ . ____ . ____ . ____ . ____ . ____ . ____
 72
    65
 73
     4
 40
18.0
 49
12.0
 74
     0
 49
-1.5
 74
     0
 49
3.0
 74
     0
 49
-1.5
 74
     0
  0
LTYPE
  5
4D
330
5
100
AcDbSymbolTableRecord
100
AcDbLinetypeTableRecord
  2
AM_ISO09W050
 70
     0
  3
_____ . . _____ . . _____ . . ____ .. ____
 72
    65
 73
     6
 40
22.5
 49
12.0
 74
     0
 49
-1.5
 74
     0
 49
3.0
 74
     0
 49
-1.5
 74
     0
 49
3.0
 74
     0
 49
-1.5
 74
     0
  0
LTYPE
  5
4E
330
5
100
AcDbSymbolTableRecord
100
AcDbLinetypeTableRecord
  2
AMCONSTR
 70
     0
  3
_______________________
 72
    65
 73
     2
 40
9999.0
 49
9999.0
 74
     0
 49
0.0
 74
     0
  0
LTYPE
  5
4F
330
5
100
AcDbSymbolTableRecord
100
AcDbLinetypeTableRecord
  2
AM_ISO02W050X2
 70
     0
  3
 _ _ _ _ _ _ _ _ _ _ _ _
 72
    65
 73
     2
 40
3.75
 49
3.0
 74
     0
 49
-0.75
 74
     0
  0
LTYPE
  5
50
330
5
100
AcDbSymbolTableRecord
100
AcDbLinetypeTableRecord
  2
AM_ISO08W050X2
 70
     0
  3
__ . __ . __ . __ . __ . __
 72
    65
 73
     4
 40
9.0
 49
6.0
 74
     0
 49
-0.75
 74
     0
 49
1.5
 74
     0
 49
-0.75
 74
     0
  0
LTYPE
  5
53
330
5
100
AcDbSymbolTableRecord
100
AcDbLinetypeTableRecord
  2
AMZIGZAG
 70
     0
  3
/\/-/\/-/\/-/\/-/\/-/\/
 72
    65
 73
     2
 40
11.00009999999999
 49
0.0001
 74
     4
 75
   135
340
52
 46
0.04
 50
0.0
 44
0.0
 45
0.0
 49
-11.0
 74
     0
  0
LTYPE
  5
166
330
5
100
AcDbSymbolTableRecord
100
AcDbLinetypeTableRecord
  2
ACJISTGL
 70
     0
  3
_ _ _ _ _
 72
    65
 73
     2
 40
3.0
 49
2.0
 74
     0
 49
-1.0
 74
     0
  0
LTYPE
  5
26A
330
5
100
AcDbSymbolTableRecord
100
AcDbLinetypeTableRecord
  2
ACJISTGB
 70
     0
  3
__ . . __ . .
 72
    65
 73
     6
 40
9.0
 49
4.0
 74
     0
 49
-1.0
 74
     0
 49
1.0
 74
     0
 49
-1.0
 74
     0
 49
1.0
 74
     0
 49
-1.0
 74
     0
  0
ENDTAB
  0
TABLE
  2
LAYER
  5
2
330
0
100
AcDbSymbolTable
 70
     7
  0
LAYER
  5
10
330
2
100
AcDbSymbolTableRecord
100
AcDbLayerTableRecord
  2
0
 70
     0
 62
     7
  6
CONTINUOUS
  0
LAYER
  5
3F9
330
2
100
AcDbSymbolTableRecord
100
AcDbLayerTableRecord
  2
AM_0
 70
     0
 62
     7
  6
CONTINUOUS
  0
LAYER
  5
BD4
330
2
100
AcDbSymbolTableRecord
100
AcDbLayerTableRecord
  2
AM_11
 70
     0
 62
     3
  6
AM_ISO09W050
  0
LAYER
  5
BD5
330
2
100
AcDbSymbolTableRecord
100
AcDbLayerTableRecord
  2
AM_7
 70
     0
 62
     4
  6
AM_ISO08W050
  0
LAYER
  5
BD6
330
2
100
AcDbSymbolTableRecord
100
AcDbLayerTableRecord
  2
AM_5
 70
     0
 62
     3
  6
CONTINUOUS
  0
LAYER
  5
BD7
330
2
100
AcDbSymbolTableRecord
100
AcDbLayerTableRecord
  2
DEFPOINTS
 70
     0
 62
     7
  6
CONTINUOUS
  0
LAYER
  5
E59
330
2
100
AcDbSymbolTableRecord
100
AcDbLayerTableRecord
  2
AM_6
 70
     0
 62
     2
  6
CONTINUOUS
  0
ENDTAB
  0
TABLE
  2
STYLE
  5
3
330
0
100
AcDbSymbolTable
 70
     5
  0
STYLE
  5
11
330
3
100
AcDbSymbolTableRecord
100
AcDbTextStyleTableRecord
  2
STANDARD
 70
     0
 40
0.0
 41
1.0
 50
0.0
 71
     0
 42
2.5
  3
simplex.shx
  4
EXTFONT.SHX
  0
STYLE
  5
52
330
3
100
AcDbSymbolTableRecord
100
AcDbTextStyleTableRecord
  2

 70
     1
 40
0.0
 41
1.0
 50
0.0
 71
     0
 42
2.5
  3
ltypeshp.shx
  4

  0
STYLE
  5
6B
330
3
100
AcDbSymbolTableRecord
100
AcDbTextStyleTableRecord
  2
ASAMI
 70
     0
 40
0.0
 41
1.0
 50
0.0
 71
     0
 42
2.5
  3
simplex.shx
  4
EXTFONT.SHX
  0
STYLE
  5
262
330
3
100
AcDbSymbolTableRecord
100
AcDbTextStyleTableRecord
  2
ACJISTS
 70
     0
 40
1.0
 41
1.0
 50
0.0
 71
     0
 42
2.5
  3
simplex.shx
  4
bigfont.shx
  0
STYLE
  5
269
330
3
100
AcDbSymbolTableRecord
100
AcDbTextStyleTableRecord
  2
ACJISGDT
 70
     0
 40
0.0
 41
1.0
 50
0.0
 71
     0
 42
2.5
  3
amgdtans.shx
  4

  0
ENDTAB
  0
TABLE
  2
VIEW
  5
6
330
0
100
AcDbSymbolTable
 70
     0
  0
ENDTAB
  0
TABLE
  2
UCS
  5
7
330
0
100
AcDbSymbolTable
 70
     0
  0
ENDTAB
  0
TABLE
  2
APPID
  5
9
330
0
100
AcDbSymbolTable
 70
    12
  0
APPID
  5
12
330
9
100
AcDbSymbolTableRecord
100
AcDbRegAppTableRecord
  2
ACAD
 70
     0
  0
APPID
  5
30
330
9
100
AcDbSymbolTableRecord
100
AcDbRegAppTableRecord
  2
MCAD_NO_VIS
 70
     0
  0
APPID
  5
31
330
9
100
AcDbSymbolTableRecord
100
AcDbRegAppTableRecord
  2
ACAD_TEMP_GRAPHIC
 70
     0
  0
APPID
  5
2C2
330
9
100
AcDbSymbolTableRecord
100
AcDbRegAppTableRecord
  2
GENIUS_GENDTOL_13
 70
     0
  0
APPID
  5
339
330
9
100
AcDbSymbolTableRecord
100
AcDbRegAppTableRecord
  2
GENIUS_GENODEF_13
 70
     0
  0
APPID
  5
33A
330
9
100
AcDbSymbolTableRecord
100
AcDbRegAppTableRecord
  2
GENIUS_GENOBJ-N-RSBK_13
 70
     0
  0
APPID
  5
33B
330
9
100
AcDbSymbolTableRecord
100
AcDbRegAppTableRecord
  2
GENIUS_GENOBJ-N-LIB_13
 70
     0
  0
APPID
  5
33C
330
9
100
AcDbSymbolTableRecord
100
AcDbRegAppTableRecord
  2
GENIUS_GENSCALE_13
 70
     0
  0
APPID
  5
378
330
9
100
AcDbSymbolTableRecord
100
AcDbRegAppTableRecord
  2
GENIUS_GENDIMSH_14
 70
     0
  0
APPID
  5
BD8
330
9
100
AcDbSymbolTableRecord
100
AcDbRegAppTableRecord
  2
GENIUS_GENOBJ-N-CEN_13
 70
     0
  0
APPID
  5
BD9
330
9
100
AcDbSymbolTableRecord
100
AcDbRegAppTableRecord
  2
GENIUS_GENFIL_13
 70
     0
  0
APPID
  5
BDA
330
9
100
AcDbSymbolTableRecord
100
AcDbRegAppTableRecord
  2
GENIUS_GENOBJ-N-CHA_13
 70
     0
  0
ENDTAB
  0
TABLE
  2
DIMSTYLE
  5
A
330
0
100
AcDbSymbolTable
 70
     8
  0
DIMSTYLE
105
58
102
{ACAD_REACTORS
330
FCE
330
105F
330
10EF
330
1315
102
}
330
A
100
AcDbSymbolTableRecord
100
AcDbDimStyleTableRecord
  2
AM_JIS
 70
     0
  3

  4
"
  5
OPEN30
  6

  7

 40
0.5
 41
2.5
 42
1.0
 43
12.0
 44
1.0
 45
0.0
 46
0.0
 47
0.1
 48
0.1
140
3.2
141
0.0
142
0.0
143
0.0393701
144
1.0
145
0.0
146
0.71
147
1.5
 71
     0
 72
     0
 73
     0
 74
     0
 75
     0
 76
     0
 77
     3
 78
     8
170
     0
171
     2
172
     1
173
     0
174
     0
175
     0
176
   256
177
   256
178
     2
270
     2
271
     3
272
     3
273
     2
274
     2
340
6B
275
     0
280
     0
281
     0
282
     0
283
     0
284
     0
285
     0
286
     0
287
     3
288
     0
  0
DIMSTYLE
105
5F
330
A
100
AcDbSymbolTableRecord
100
AcDbDimStyleTableRecord
  2
AM_JIS$3
 70
     0
  3

  4
"
  5
OPEN30
  6

  7

 40
0.5
 41
2.5
 42
1.0
 43
10.0
 44
1.0
 45
0.0
 46
0.0
 47
0.1
 48
0.1
140
3.2
141
0.0
142
0.0
143
0.0393701
144
1.0
145
0.0
146
0.71
147
1.5
 71
     0
 72
     0
 73
     0
 74
     1
 75
     0
 76
     0
 77
     3
 78
     8
170
     0
171
     2
172
     0
173
     0
174
     0
175
     0
176
   256
177
   256
178
     2
270
     2
271
     2
272
     3
273
     2
274
     2
340
6B
275
     0
280
     0
281
     0
282
     0
283
     0
284
     0
285
     0
286
     0
287
     0
288
     1
  0
DIMSTYLE
105
60
330
A
100
AcDbSymbolTableRecord
100
AcDbDimStyleTableRecord
  2
AM_JIS$4
 70
     0
  3

  4
"
  5
OPEN30
  6

  7

 40
0.5
 41
2.5
 42
1.0
 43
10.0
 44
1.0
 45
0.0
 46
0.0
 47
0.1
 48
0.1
140
3.2
141
0.0
142
0.0
143
0.0393701
144
1.0
145
0.0
146
0.71
147
1.5
 71
     0
 72
     0
 73
     0
 74
     1
 75
     0
 76
     0
 77
     3
 78
     8
170
     0
171
     2
172
     0
173
     0
174
     0
175
     0
176
   256
177
   256
178
     2
270
     2
271
     2
272
     3
273
     2
274
     2
340
6B
275
     0
280
     0
281
     0
282
     0
283
     0
284
     0
285
     0
286
     0
287
     0
288
     1
  0
DIMSTYLE
105
61
330
A
100
AcDbSymbolTableRecord
100
AcDbDimStyleTableRecord
  2
AM_JIS$6
 70
     0
  3

  4
"
  5
OPEN30
  6

  7

 40
0.5
 41
2.5
 42
1.0
 43
10.0
 44
1.0
 45
0.0
 46
0.0
 47
0.1
 48
0.1
140
3.2
141
0.0
142
0.0
143
0.0393701
144
1.0
145
0.0
146
0.71
147
1.5
 71
     0
 72
     0
 73
     0
 74
     0
 75
     0
 76
     0
 77
     0
 78
     8
170
     0
171
     2
172
     1
173
     0
174
     0
175
     0
176
   256
177
   256
178
     2
270
     2
271
     2
272
     2
273
     2
274
     2
340
6B
275
     0
280
     0
281
     0
282
     0
283
     0
284
     0
285
     0
286
     0
287
     3
288
     0
  0
DIMSTYLE
105
62
330
A
100
AcDbSymbolTableRecord
100
AcDbDimStyleTableRecord
  2
AM_JIS$7
 70
     0
  3

  4
"
  5
OPEN30
  6

  7

 40
0.5
 41
2.5
 42
1.0
 43
10.0
 44
1.0
 45
0.0
 46
0.0
 47
0.1
 48
0.1
140
3.2
141
0.0
142
0.0
143
0.0393701
144
1.0
145
0.0
146
0.71
147
1.5
 71
     0
 72
     0
 73
     0
 74
     0
 75
     0
 76
     0
 77
     3
 78
     8
170
     0
171
     2
172
     1
173
     0
174
     0
175
     0
176
   256
177
   256
178
     2
270
     2
271
     2
272
     3
273
     2
274
     2
340
6B
275
     0
280
     0
281
     0
282
     0
283
     0
284
     0
285
     0
286
     0
287
     3
288
     0
  0
DIMSTYLE
105
63
330
A
100
AcDbSymbolTableRecord
100
AcDbDimStyleTableRecord
  2
AM_JIS$SF
 70
     0
  3

  4
"
  5
OPEN30
  6

  7

 40
0.5
 41
2.5
 42
1.0
 43
10.0
 44
1.0
 45
0.0
 46
0.0
 47
0.1
 48
0.1
140
3.2
141
0.0
142
0.0
143
0.0393701
144
1.0
145
0.0
146
0.71
147
1.5
 71
     0
 72
     0
 73
     0
 74
     0
 75
     1
 76
     1
 77
     3
 78
     8
170
     0
171
     2
172
     1
173
     0
174
     0
175
     0
176
   256
177
   256
178
     2
270
     2
271
     2
272
     2
273
     2
274
     2
340
6B
275
     0
280
     0
281
     0
282
     0
283
     0
284
     0
285
     0
286
     0
287
     3
288
     0
  0
DIMSTYLE
105
68
330
A
100
AcDbSymbolTableRecord
100
AcDbDimStyleTableRecord
  2
AM_JIS$SH
 70
     0
  3

  4
"
  5

  6
GENAXEH
  7
OPEN30
 40
0.5
 41
2.5
 42
1.0
 43
10.0
 44
1.0
 45
0.0
 46
0.0
 47
0.1
 48
0.1
140
3.2
141
0.0
142
0.0
143
0.0393701
144
2.0
145
0.0
146
0.71
147
1.5
 71
     0
 72
     0
 73
     0
 74
     0
 75
     1
 76
     1
 77
     3
 78
     8
170
     0
171
     2
172
     1
173
     1
174
     0
175
     0
176
   256
177
   256
178
     2
270
     2
271
     2
272
     2
273
     2
274
     2
340
6B
275
     0
280
     0
281
     0
282
     0
283
     0
284
     0
285
     0
286
     0
287
     3
288
     0
  0
DIMSTYLE
105
B34
330
A
100
AcDbSymbolTableRecord
100
AcDbDimStyleTableRecord
  2
AM_JIS$2
 70
     0
  3

  4
"
  5
OPEN30
  6

  7

 40
0.5
 41
2.5
 42
1.0
 43
12.0
 44
1.0
 45
0.0
 46
0.0
 47
0.1
 48
0.1
140
3.2
141
0.0
142
0.0
143
0.0393701
144
1.0
145
0.0
146
0.71
147
1.5
 71
     0
 72
     0
 73
     0
 74
     0
 75
     0
 76
     0
 77
     3
 78
     8
170
     0
171
     2
172
     1
173
     0
174
     0
175
     0
176
   256
177
   256
178
     2
270
     2
271
     3
272
     3
273
     2
274
     2
340
6B
275
     0
280
     0
281
     0
282
     0
283
     0
284
     0
285
     0
286
     0
287
     3
288
     0
  0
ENDTAB
  0
TABLE
  2
BLOCK_RECORD
  5
1
330
0
100
AcDbSymbolTable
 70
     9
  0
BLOCK_RECORD
  5
1F
102
{ACAD_XDICTIONARY
360
74
102
}
330
1
100
AcDbSymbolTableRecord
100
AcDbBlockTableRecord
  2
*MODEL_SPACE
  0
BLOCK_RECORD
  5
101
102
{ACAD_XDICTIONARY
360
1875
102
}
330
1
100
AcDbSymbolTableRecord
100
AcDbBlockTableRecord
  2
*PAPER_SPACE
  0
BLOCK_RECORD
  5
59
330
1
100
AcDbSymbolTableRecord
100
AcDbBlockTableRecord
  2
_OPEN30
  0
BLOCK_RECORD
  5
64
330
1
100
AcDbSymbolTableRecord
100
AcDbBlockTableRecord
  2
GENAXEH
  0
BLOCK_RECORD
  5
FCF
330
1
100
AcDbSymbolTableRecord
100
AcDbBlockTableRecord
  2
*D5
  0
BLOCK_RECORD
  5
1060
330
1
100
AcDbSymbolTableRecord
100
AcDbBlockTableRecord
  2
*D6
  0
BLOCK_RECORD
  5
10F0
330
1
100
AcDbSymbolTableRecord
100
AcDbBlockTableRecord
  2
*D7
  0
BLOCK_RECORD
  5
1316
330
1
100
AcDbSymbolTableRecord
100
AcDbBlockTableRecord
  2
*D8
  0
ENDTAB
  0
ENDSEC
  0
SECTION
  2
BLOCKS
  0
BLOCK
  5
20
330
1F
100
AcDbEntity
  8
0
100
AcDbBlockBegin
  2
*MODEL_SPACE
 70
     0
 10
0.0
 20
0.0
 30
0.0
  3
*MODEL_SPACE
  1

  0
ENDBLK
  5
21
330
1F
100
AcDbEntity
  8
0
100
AcDbBlockEnd
  0
BLOCK
  5
103
330
101
100
AcDbEntity
 67
     1
  8
0
100
AcDbBlockBegin
  2
*PAPER_SPACE
 70
     0
 10
0.0
 20
0.0
 30
0.0
  3
*PAPER_SPACE
  1

  0
ENDBLK
  5
104
330
101
100
AcDbEntity
 67
     1
  8
0
100
AcDbBlockEnd
  0
BLOCK
  5
5D
330
59
100
AcDbEntity
  8
0
100
AcDbBlockBegin
  2
_OPEN30
 70
     0
 10
0.0
 20
0.0
 30
0.0
  3
_OPEN30
  1

  0
LINE
  5
5A
330
59
100
AcDbEntity
  8
0
 62
     0
100
AcDbLine
 10
-1.0
 20
0.26794919
 30
0.0
 11
0.0
 21
0.0
 31
0.0
  0
LINE
  5
5B
330
59
100
AcDbEntity
  8
0
 62
     0
100
AcDbLine
 10
0.0
 20
0.0
 30
0.0
 11
-1.0
 21
-0.26794919
 31
0.0
  0
LINE
  5
5C
330
59
100
AcDbEntity
  8
0
 62
     0
100
AcDbLine
 10
0.0
 20
0.0
 30
0.0
 11
-1.0
 21
0.0
 31
0.0
  0
ENDBLK
  5
5E
330
59
100
AcDbEntity
  8
0
100
AcDbBlockEnd
  0
BLOCK
  5
66
330
64
100
AcDbEntity
  8
0
100
AcDbBlockBegin
  2
GENAXEH
 70
     0
 10
0.0
 20
0.0
 30
0.0
  3
GENAXEH
  1

  0
LINE
  5
65
330
64
100
AcDbEntity
  8
0
100
AcDbLine
 10
-1.0
 20
0.0
 30
0.0
 11
1.0
 21
0.0
 31
0.0
  0
ENDBLK
  5
67
330
64
100
AcDbEntity
  8
0
100
AcDbBlockEnd
  0
BLOCK
  5
FD9
330
FCF
100
AcDbEntity
  8
0
100
AcDbBlockBegin
  2
*D5
 70
     1
 10
0.0
 20
0.0
 30
0.0
  3
*D5
  1

  0
LINE
  5
1244
330
FCF
100
AcDbEntity
  8
AM_5
100
AcDbLine
 10
-70.75
 20
4.999999999999957
 30
0.0
 11
-81.2882312597198
 21
4.99999999999996
 31
0.0
  0
LINE
  5
1245
330
FCF
100
AcDbEntity
  8
AM_5
100
AcDbLine
 10
-70.75
 20
-4.999999999998778
 30
0.0
 11
-81.2882312597198
 21
-4.999999999998776
 31
0.0
  0
LINE
  5
1246
330
FCF
100
AcDbEntity
  8
AM_5
100
AcDbLine
 10
-80.78823125971979
 20
3.74999999999996
 30
0.0
 11
-80.78823125971979
 21
-3.749999999998776
 31
0.0
  0
INSERT
  5
1247
330
FCF
100
AcDbEntity
  8
AM_5
100
AcDbBlockReference
  2
_OPEN30
 10
-80.78823125971979
 20
4.99999999999996
 30
0.0
 41
1.25
 42
1.25
 43
1.25
 50
90.0
  0
INSERT
  5
1248
330
FCF
100
AcDbEntity
  8
AM_5
100
AcDbBlockReference
  2
_OPEN30
 10
-80.78823125971979
 20
-4.999999999998776
 30
0.0
 41
1.25
 42
1.25
 43
1.25
 50
270.0
  0
MTEXT
  5
1249
330
FCF
100
AcDbEntity
  8
AM_5
 62
     2
100
AcDbMText
 10
-82.33823125971978
 20
0.0000000000005793
 30
0.0
 40
1.6
 41
0.0
 71
     5
 72
     1
  1
%%c10
  7
ASAMI
 11
0.0000000000000001
 21
1.0
 31
0.0
1001
ACAD
1000
MTEXTBEGIN
1070
    73
1070
     1
1070
    44
1040
1.0
1070
    74
1070
     0
1000
MTEXTEND
  0
POINT
  5
124A
330
FCF
100
AcDbEntity
  8
DEFPOINTS
 62
     0
100
AcDbPoint
 10
-70.25
 20
4.999999999999957
 30
0.0
  0
POINT
  5
124B
330
FCF
100
AcDbEntity
  8
DEFPOINTS
 62
     0
100
AcDbPoint
 10
-70.25
 20
-4.999999999998778
 30
0.0
  0
POINT
  5
124C
330
FCF
100
AcDbEntity
  8
DEFPOINTS
 62
     0
100
AcDbPoint
 10
-80.78823125971979
 20
-4.999999999998776
 30
0.0
  0
ENDBLK
  5
FDA
330
FCF
100
AcDbEntity
  8
0
100
AcDbBlockEnd
  0
BLOCK
  5
106A
330
1060
100
AcDbEntity
  8
0
100
AcDbBlockBegin
  2
*D6
 70
     1
 10
0.0
 20
0.0
 30
0.0
  3
*D6
  1

  0
LINE
  5
15D2
330
1060
100
AcDbEntity
  8
AM_5
100
AcDbLine
 10
-21.99999999999999
 20
-4.999999999998898
 30
0.0
 11
-21.99999999999999
 21
-12.50000099999869
 31
0.0
  0
LINE
  5
15D3
330
1060
100
AcDbEntity
  8
AM_5
100
AcDbLine
 10
-0.0000000000027356
 20
-5.000000000000007
 30
0.0
 11
-0.0000000000027361
 21
-12.50000099999869
 31
0.0
  0
LINE
  5
15D4
330
1060
100
AcDbEntity
  8
AM_5
100
AcDbLine
 10
-20.74999999999999
 20
-12.00000099999869
 30
0.0
 11
-1.250000000002736
 21
-12.00000099999869
 31
0.0
  0
INSERT
  5
15D5
330
1060
100
AcDbEntity
  8
AM_5
100
AcDbBlockReference
  2
_OPEN30
 10
-21.99999999999999
 20
-12.00000099999869
 30
0.0
 41
1.25
 42
1.25
 43
1.25
 50
180.0
  0
INSERT
  5
15D6
330
1060
100
AcDbEntity
  8
AM_5
100
AcDbBlockReference
  2
_OPEN30
 10
-0.000000000002736
 20
-12.00000099999869
 30
0.0
 41
1.25
 42
1.25
 43
1.25
  0
MTEXT
  5
15D7
330
1060
100
AcDbEntity
  8
AM_5
 62
     2
100
AcDbMText
 10
-11.00000000000136
 20
-10.45000099999869
 30
0.0
 40
1.6
 41
0.0
 71
     5
 72
     1
  1
22
  7
ASAMI
1001
ACAD
1000
MTEXTBEGIN
1070
    73
1070
     1
1070
    44
1040
1.0
1070
    74
1070
     0
1000
MTEXTEND
  0
POINT
  5
15D8
330
1060
100
AcDbEntity
  8
DEFPOINTS
 62
     0
100
AcDbPoint
 10
-21.99999999999999
 20
-4.499999999998898
 30
0.0
  0
POINT
  5
15D9
330
1060
100
AcDbEntity
  8
DEFPOINTS
 62
     0
100
AcDbPoint
 10
-0.0000000000027356
 20
-4.500000000000007
 30
0.0
  0
POINT
  5
15DA
330
1060
100
AcDbEntity
  8
DEFPOINTS
 62
     0
100
AcDbPoint
 10
-0.000000000002736
 20
-12.00000099999869
 30
0.0
  0
ENDBLK
  5
106B
330
1060
100
AcDbEntity
  8
0
100
AcDbBlockEnd
  0
BLOCK
  5
10FA
330
10F0
100
AcDbEntity
  8
0
100
AcDbBlockBegin
  2
*D7
 70
     1
 10
0.0
 20
0.0
 30
0.0
  3
*D7
  1

  0
LINE
  5
15C9
330
10F0
100
AcDbEntity
  8
AM_5
100
AcDbLine
 10
-71.00000000000001
 20
-4.749999999998778
 30
0.0
 11
-71.00000000000001
 21
-18.50000099999869
 31
0.0
  0
LINE
  5
15CA
330
10F0
100
AcDbEntity
  8
AM_5
100
AcDbLine
 10
-0.0000000000019576
 20
-5.000000000000007
 30
0.0
 11
-0.0000000000019584
 21
-18.50000099999869
 31
0.0
  0
LINE
  5
15CB
330
10F0
100
AcDbEntity
  8
AM_5
100
AcDbLine
 10
-69.75000000000001
 20
-18.00000099999869
 30
0.0
 11
-1.250000000001958
 21
-18.00000099999869
 31
0.0
  0
INSERT
  5
15CC
330
10F0
100
AcDbEntity
  8
AM_5
100
AcDbBlockReference
  2
_OPEN30
 10
-71.00000000000001
 20
-18.00000099999869
 30
0.0
 41
1.25
 42
1.25
 43
1.25
 50
180.0
  0
INSERT
  5
15CD
330
10F0
100
AcDbEntity
  8
AM_5
100
AcDbBlockReference
  2
_OPEN30
 10
-0.0000000000019584
 20
-18.00000099999869
 30
0.0
 41
1.25
 42
1.25
 43
1.25
  0
MTEXT
  5
15CE
330
10F0
100
AcDbEntity
  8
AM_5
 62
     2
100
AcDbMText
 10
-35.50000000000098
 20
-16.45000099999869
 30
0.0
 40
1.6
 41
0.0
 71
     5
 72
     1
  1
71
  7
ASAMI
1001
ACAD
1000
MTEXTBEGIN
1070
    73
1070
     1
1070
    44
1040
1.0
1070
    74
1070
     0
1000
MTEXTEND
  0
POINT
  5
15CF
330
10F0
100
AcDbEntity
  8
DEFPOINTS
 62
     0
100
AcDbPoint
 10
-71.00000000000001
 20
-4.249999999998778
 30
0.0
  0
POINT
  5
15D0
330
10F0
100
AcDbEntity
  8
DEFPOINTS
 62
     0
100
AcDbPoint
 10
-0.0000000000019575
 20
-4.500000000000007
 30
0.0
  0
POINT
  5
15D1
330
10F0
100
AcDbEntity
  8
DEFPOINTS
 62
     0
100
AcDbPoint
 10
-0.0000000000019584
 20
-18.00000099999869
 30
0.0
  0
ENDBLK
  5
10FB
330
10F0
100
AcDbEntity
  8
0
100
AcDbBlockEnd
  0
BLOCK
  5
1320
330
1316
100
AcDbEntity
  8
0
100
AcDbBlockBegin
  2
*D8
 70
     1
 10
0.0
 20
0.0
 30
0.0
  3
*D8
  1

  0
LINE
  5
1829
330
1316
100
AcDbEntity
  8
AM_5
100
AcDbLine
 10
0.5
 20
4.499999999999992
 30
0.0
 11
8.773299778506501
 21
4.49999999999999
 31
0.0
  0
LINE
  5
182A
330
1316
100
AcDbEntity
  8
AM_5
100
AcDbLine
 10
0.5000000000000071
 20
-4.500000000000007
 30
0.0
 11
8.773299778506498
 21
-4.500000000000009
 31
0.0
  0
LINE
  5
182B
330
1316
100
AcDbEntity
  8
AM_5
100
AcDbLine
 10
8.273299778506499
 20
3.24999999999999
 30
0.0
 11
8.273299778506499
 21
-3.250000000000009
 31
0.0
  0
INSERT
  5
182C
330
1316
100
AcDbEntity
  8
AM_5
100
AcDbBlockReference
  2
_OPEN30
 10
8.273299778506501
 20
4.49999999999999
 30
0.0
 41
1.25
 42
1.25
 43
1.25
 50
90.0
  0
INSERT
  5
182D
330
1316
100
AcDbEntity
  8
AM_5
100
AcDbBlockReference
  2
_OPEN30
 10
8.273299778506498
 20
-4.500000000000009
 30
0.0
 41
1.25
 42
1.25
 43
1.25
 50
270.0
  0
MTEXT
  5
182E
330
1316
100
AcDbEntity
  8
AM_5
 62
     2
100
AcDbMText
 10
6.723299778506499
 20
-0.0000000000000083
 30
0.0
 40
1.6
 41
0.0
 71
     5
 72
     1
  1
%%c9
  7
ASAMI
 11
0.0000000000000001
 21
1.0
 31
0.0
1001
ACAD
1000
MTEXTBEGIN
1070
    73
1070
     1
1070
    44
1040
1.0
1070
    74
1070
     0
1000
MTEXTEND
  0
POINT
  5
182F
330
1316
100
AcDbEntity
  8
DEFPOINTS
 62
     0
100
AcDbPoint
 10
0.0
 20
4.499999999999992
 30
0.0
  0
POINT
  5
1830
330
1316
100
AcDbEntity
  8
DEFPOINTS
 62
     0
100
AcDbPoint
 10
0.0000000000000071
 20
-4.500000000000007
 30
0.0
  0
POINT
  5
1831
330
1316
100
AcDbEntity
  8
DEFPOINTS
 62
     0
100
AcDbPoint
 10
8.273299778506498
 20
-4.500000000000009
 30
0.0
  0
ENDBLK
  5
1321
330
1316
100
AcDbEntity
  8
0
100
AcDbBlockEnd
  0
ENDSEC
  0
SECTION
  2
ENTITIES
  0
TEXT
  5
E5A
330
1F
100
AcDbEntity
  8
AM_6
100
AcDbText
 10
-43.47619047619047
 20
-29.2500009999987
 30
0.0
 40
2.5
  1
JSM2090
 72
     4
 11
-35.49999999999999
 21
-28.0000009999987
 31
0.0
100
AcDbText
  0
LINE
  5
F47
330
1F
100
AcDbEntity
  8
AM_7
  6
AM_ISO08W050X2
100
AcDbLine
 10
4.557768030854958
 20
0.0
 30
0.0
 11
-73.78823025971979
 21
0.0000000000000111
 31
0.0
1001
GENIUS_GENODEF_13
1002
{
1000
HIER
1070
     0
1002
}
1002
{
1000
MANEDIT
1070
     0
1002
}
1002
{
1000
NOSEL
1070
     0
1002
}
1002
{
1000
BEHIND
1070
     0
1002
}
1002
{
1000
REACTOR
1002
}
1001
GENIUS_GENOBJ-N-CEN_13
1002
{
1000
OWNER
1000
GEN
1002
}
  0
LINE
  5
F6A
330
1F
100
AcDbEntity
  8
AM_0
100
AcDbLine
 10
-31.00000000000002
 20
-4.999999999998755
 30
0.0
 11
-70.25000000000002
 21
-4.999999999998778
 31
0.0
  0
LINE
  5
F70
330
1F
100
AcDbEntity
  8
AM_0
100
AcDbLine
 10
-30.99999999999999
 20
4.999999999999995
 30
0.0
 11
-70.25
 21
4.999999999999957
 31
0.0
  0
LINE
  5
FAA
330
1F
100
AcDbEntity
  8
AM_0
100
AcDbLine
 10
-71.0
 20
4.249999999999956
 30
0.0
 11
-71.00000000000001
 21
-4.249999999998778
 31
0.0
  0
LINE
  5
FBF
330
1F
100
AcDbEntity
  8
AM_0
100
AcDbLine
 10
-70.25
 20
4.999999999999957
 30
0.0
 11
-71.0
 21
4.249999999999956
 31
0.0
1001
GENIUS_GENFIL_13
1070
     0
1040
0.75
1040
0.75
1040
20.0
1040
0.0
1002
{
1002
}
1001
GENIUS_GENODEF_13
1002
{
1000
HIER
1070
     0
1002
}
1002
{
1000
MANEDIT
1070
     0
1002
}
1002
{
1000
NOSEL
1070
     0
1002
}
1002
{
1000
BEHIND
1070
     0
1002
}
1002
{
1000
REACTOR
1002
}
1001
GENIUS_GENOBJ-N-CHA_13
1002
{
1000
OWNER
1000
GEN
1002
}
  0
LINE
  5
FC2
330
1F
100
AcDbEntity
  8
AM_0
100
AcDbLine
 10
-71.00000000000001
 20
-4.249999999998778
 30
0.0
 11
-70.25000000000002
 21
-4.999999999998778
 31
0.0
1001
GENIUS_GENFIL_13
1070
     0
1040
0.75
1040
0.75
1040
20.0
1040
0.0
1002
{
1002
}
1001
GENIUS_GENODEF_13
1002
{
1000
HIER
1070
     0
1002
}
1002
{
1000
MANEDIT
1070
     0
1002
}
1002
{
1000
NOSEL
1070
     0
1002
}
1002
{
1000
BEHIND
1070
     0
1002
}
1002
{
1000
REACTOR
1002
}
1001
GENIUS_GENOBJ-N-CHA_13
1002
{
1000
OWNER
1000
GEN
1002
}
  0
LINE
  5
FC6
330
1F
100
AcDbEntity
  8
AM_0
100
AcDbLine
 10
-70.25
 20
4.999999999999957
 30
0.0
 11
-70.25000000000002
 21
-4.999999999998778
 31
0.0
  0
DIMENSION
  5
FCE
330
1F
100
AcDbEntity
  8
AM_5
100
AcDbDimension
  2
*D5
 10
-80.78823125971979
 20
-4.999999999998776
 30
0.0
 11
-82.33823125971978
 21
0.0000000000005793
 31
0.0
 70
    32
  1
%%c<>
  3
AM_JIS
100
AcDbAlignedDimension
 13
-70.25
 23
4.999999999999957
 33
0.0
 14
-70.25
 24
-4.999999999998778
 34
0.0
 50
270.0000000000001
100
AcDbRotatedDimension
1001
GENIUS_GENDTOL_13
1000

1000
h7
1000

1040
0.0
  0
DIMENSION
  5
105F
330
1F
100
AcDbEntity
  8
AM_5
100
AcDbDimension
  2
*D6
 10
-0.000000000002736
 20
-12.00000099999869
 30
0.0
 11
-11.00000000000136
 21
-10.45000099999869
 31
0.0
 70
    32
  1
<>
  3
AM_JIS
100
AcDbAlignedDimension
 13
-21.99999999999999
 23
-4.499999999998898
 33
0.0
 14
-0.0000000000027356
 24
-4.500000000000007
 34
0.0
 50
0.0000000000001132
100
AcDbRotatedDimension
1001
GENIUS_GENDTOL_13
1000

1000
h7
1000

1040
0.0
  0
DIMENSION
  5
10EF
330
1F
100
AcDbEntity
  8
AM_5
100
AcDbDimension
  2
*D7
 10
-0.0000000000019584
 20
-18.00000099999869
 30
0.0
 11
-35.50000000000098
 21
-16.45000099999869
 31
0.0
 70
    32
  1
<>
  3
AM_JIS
100
AcDbAlignedDimension
 13
-71.00000000000001
 23
-4.249999999998778
 33
0.0
 14
-0.0000000000019575
 24
-4.500000000000007
 34
0.0
 50
0.0000000000001132
100
AcDbRotatedDimension
1001
GENIUS_GENDTOL_13
1000

1000
h7
1000

1040
0.0
  0
LINE
  5
128A
330
1F
100
AcDbEntity
  8
AM_0
100
AcDbLine
 10
-30.99999999999999
 20
4.999999999999997
 30
0.0
 11
-31.00000000000002
 21
-4.999999999998754
 31
0.0
  0
DIMENSION
  5
1315
330
1F
100
AcDbEntity
  8
AM_5
100
AcDbDimension
  2
*D8
 10
8.273299778506498
 20
-4.500000000000009
 30
0.0
 11
6.723299778506499
 21
-0.0000000000000083
 31
0.0
 70
    32
  1
%%c<>
  3
AM_JIS
100
AcDbAlignedDimension
 13
0.0
 23
4.499999999999992
 33
0.0
 14
0.0000000000000071
 24
-4.500000000000007
 34
0.0
 50
90.0
100
AcDbRotatedDimension
1001
GENIUS_GENDTOL_13
1000

1000
h7
1000

1040
0.0
  0
LINE
  5
138C
330
1F
100
AcDbEntity
  8
AM_0
100
AcDbLine
 10
-30.99999999999999
 20
4.999999999999997
 30
0.0
 11
-29.6262612902726
 21
4.499999999999968
 31
0.0
  0
LINE
  5
138E
330
1F
100
AcDbEntity
  8
AM_0
100
AcDbLine
 10
-29.62626129027309
 20
-4.499999999998895
 30
0.0
 11
-31.00000000000002
 21
-4.999999999998754
 31
0.0
  0
LINE
  5
138F
330
1F
100
AcDbEntity
  8
AM_0
100
AcDbLine
 10
-29.62626129026998
 20
4.499999999999968
 30
0.0
 11
-25.08267947558195
 21
4.499999999999969
 31
0.0
  0
LINE
  5
1390
330
1F
100
AcDbEntity
  8
AM_0
100
AcDbLine
 10
-29.62626129027309
 20
-4.499999999998895
 30
0.0
 11
-18.36000000005757
 21
-4.499999999999081
 31
0.0
  0
LINE
  5
1392
330
1F
100
AcDbEntity
  8
AM_0
100
AcDbLine
 10
-29.62626129026998
 20
4.499999999999015
 30
0.0
 11
-29.62626129027025
 21
3.694852920803112
 31
0.0
  0
SPLINE
  5
1520
330
1F
100
AcDbEntity
  8
AM_0
100
AcDbSpline
210
0.0
220
0.0
230
1.0
 70
     8
 71
     3
 72
     8
 73
     4
 74
     0
 42
0.0000000001
 43
0.0000000001
 40
0.0
 40
0.0
 40
0.0
 40
0.0
 40
13.97258598406841
 40
13.97258598406841
 40
13.97258598406841
 40
13.97258598406841
 10
-10.37658015232649
 20
-3.453025912856951
 30
0.0
 10
-14.56835594754704
 20
-3.453025912856951
 30
0.0
 10
-18.80314155214306
 20
-2.115928868983289
 30
0.0
 10
-23.34813367927681
 20
-0.0000000000000071
 30
0.0
  0
SPLINE
  5
1521
330
1F
100
AcDbEntity
  8
AM_0
100
AcDbSpline
210
0.0
220
0.0
230
1.0
 70
     8
 71
     3
 72
     8
 73
     4
 74
     0
 42
0.0000000001
 43
0.0000000001
 40
0.0
 40
0.0
 40
0.0
 40
0.0
 40
2.238610194515266
 40
2.238610194515266
 40
2.238610194515266
 40
2.238610194515266
 10
-10.37658015232649
 20
-3.453025912856951
 30
0.0
 10
-9.05975062595683
 20
-3.453025912856951
 30
0.0
 10
-7.766781624320564
 20
-3.283730529564223
 30
0.0
 10
-6.490273998967893
 20
-2.997638259419474
 30
0.0
  0
SPLINE
  5
1522
330
1F
100
AcDbEntity
  8
AM_0
100
AcDbSpline
210
0.0
220
0.0
230
1.0
 70
     8
 71
     3
 72
     8
 73
     4
 74
     0
 42
0.0000000001
 43
0.0000000001
 40
4.219358800530717
 40
4.219358800530717
 40
4.219358800530717
 40
4.219358800530717
 40
14.36247867694493
 40
14.36247867694493
 40
14.36247867694493
 40
14.36247867694493
 10
-0.3374999999999417
 20
-3.670398166061744
 30
0.0
 10
-3.258975381201132
 20
-2.93485301251993
 30
0.0
 10
-6.059595184161679
 20
-1.46742650625994
 30
0.0
 10
-8.86021498712224
 20
0.0000000000000426
 30
0.0
  0
SPLINE
  5
1523
330
1F
100
AcDbEntity
  8
AM_0
100
AcDbSpline
210
0.0
220
0.0
230
1.0
 70
     8
 71
     3
 72
     8
 73
     4
 74
     0
 42
0.0000000001
 43
0.0000000001
 40
1.870660592686466
 40
1.870660592686466
 40
1.870660592686466
 40
1.870660592686466
 40
14.43901837670146
 40
14.43901837670146
 40
14.43901837670146
 40
14.43901837670146
 10
-0.0944999999999823
 20
-4.260097041859602
 30
0.0
 10
-3.785368132105929
 20
-3.79971055089134
 30
0.0
 10
-7.227232114155405
 20
-1.899855275445652
 30
0.0
 10
-10.66909609620484
 20
0.0000000000000426
 30
0.0
  0
SPLINE
  5
1524
330
1F
100
AcDbEntity
  8
AM_0
100
AcDbSpline
210
0.0
220
0.0
230
1.0
 70
     8
 71
     3
 72
     8
 73
     4
 74
     2
 42
0.0000000001
 43
0.0000000001
 44
0.0000000001
 12
-1.0
 22
-0.0000000000000008
 32
0.0
 40
0.0
 40
0.0
 40
0.0
 40
0.0
 40
13.04099689440956
 40
13.04099689440956
 40
13.04099689440956
 40
13.04099689440956
 10
0.0000000000000071
 20
-4.500000000000007
 30
0.0
 10
-4.346998964803182
 20
-4.50000000000001
 30
0.0
 10
-8.293499482401589
 20
-2.250000000000012
 30
0.0
 10
-12.23999999999999
 20
-0.0000000000000142
 30
0.0
 11
0.0000000000000071
 21
-4.500000000000007
 31
0.0
 11
-12.23999999999999
 21
-0.0000000000000142
 31
0.0
  0
SPLINE
  5
1525
330
1F
100
AcDbEntity
  8
AM_0
100
AcDbSpline
210
0.0
220
0.0
230
1.0
 70
     8
 71
     3
 72
     8
 73
     4
 74
     0
 42
0.0000000001
 43
0.0000000001
 40
0.0
 40
0.0
 40
0.0
 40
0.0
 40
5.192508374738713
 40
5.192508374738713
 40
5.192508374738713
 40
5.192508374738713
 10
-25.08265771752998
 20
4.499999999999978
 30
0.0
 10
-26.03775251242155
 20
4.499999999999978
 30
0.0
 10
-27.54407476911058
 20
4.211064858787871
 30
0.0
 10
-29.74290032860178
 20
3.666020976030502
 30
0.0
  0
SPLINE
  5
1526
330
1F
100
AcDbEntity
  8
AM_0
100
AcDbSpline
210
0.0
220
0.0
230
1.0
 70
     8
 71
     3
 72
     8
 73
     4
 74
     0
 42
0.0000000001
 43
0.0000000001
 40
0.7142832446738512
 40
0.7142832446738512
 40
0.7142832446738512
 40
0.7142832446738512
 40
14.36247867694493
 40
14.36247867694493
 40
14.36247867694493
 40
14.36247867694493
 10
-20.75518478451747
 20
4.140538010841844
 30
0.0
 10
-16.39702947182039
 20
3.94902633192796
 30
0.0
 10
-12.62862222947132
 20
1.974513165964005
 30
0.0
 10
-8.86021498712224
 20
0.0000000000000426
 30
0.0
  0
SPLINE
  5
1527
330
1F
100
AcDbEntity
  8
AM_0
100
AcDbSpline
210
0.0
220
0.0
230
1.0
 70
     8
 71
     3
 72
     8
 73
     4
 74
     0
 42
0.0000000001
 43
0.0000000001
 40
0.0
 40
0.0
 40
0.0
 40
0.0
 40
7.57842115059705
 40
7.57842115059705
 40
7.57842115059705
 40
7.57842115059705
 10
-0.0000000000000071
 20
4.499999999999992
 30
0.0
 10
-2.273526345179121
 20
4.499999999999992
 30
0.0
 10
-4.437500328446283
 20
3.884534906384146
 30
0.0
 10
-6.549218991507736
 20
2.975499459915738
 30
0.0
  0
SPLINE
  5
1528
330
1F
100
AcDbEntity
  8
AM_0
100
AcDbSpline
210
0.0
220
0.0
230
1.0
 70
     8
 71
     3
 72
     8
 73
     4
 74
     2
 42
0.0000000001
 43
0.0000000001
 44
0.0000000001
 12
-0.6417012268563094
 22
-0.7669547153848832
 32
0.0
 13
-0.9900999427831042
 23
-0.140364180975397
 33
0.0
 40
0.0
 40
0.0
 40
0.0
 40
0.0
 40
2.327908791255056
 40
2.327908791255056
 40
2.327908791255056
 40
2.327908791255056
 10
-0.0000000000000071
 20
3.667232418015558
 30
0.0
 10
-0.4979406424526597
 20
3.072098876535895
 30
0.0
 10
-1.352627554244414
 20
2.816526417231911
 30
0.0
 10
-2.12091500791972
 20
2.707608080275264
 30
0.0
 11
-0.0000000000000071
 21
3.667232418015558
 31
0.0
 11
-2.12091500791972
 21
2.707608080275264
 31
0.0
  0
SPLINE
  5
1529
330
1F
100
AcDbEntity
  8
AM_0
100
AcDbSpline
210
0.0
220
0.0
230
1.0
 70
     8
 71
     3
 72
     8
 73
     4
 74
     0
 42
0.0000000001
 43
0.0000000001
 40
0.3581103616548037
 40
0.3581103616548037
 40
0.3581103616548037
 40
0.3581103616548037
 40
14.43901837670146
 40
14.43901837670146
 40
14.43901837670146
 40
14.43901837670146
 10
-23.10566242015684
 20
4.361260880567392
 30
0.0
 10
-18.38125244381935
 20
4.256990107247879
 30
0.0
 10
-14.5251742700121
 20
2.128495053623964
 30
0.0
 10
-10.66909609620484
 20
0.0000000000000426
 30
0.0
  0
SPLINE
  5
152A
330
1F
100
AcDbEntity
  8
AM_0
100
AcDbSpline
210
0.0
220
0.0
230
1.0
 70
     8
 71
     3
 72
     8
 73
     4
 74
     2
 42
0.0000000001
 43
0.0000000001
 44
0.0000000001
 12
1.0
 22
0.0000000000000006
 32
0.0
 40
0.0
 40
0.0
 40
0.0
 40
0.0
 40
13.60822755724023
 40
13.60822755724023
 40
13.60822755724023
 40
13.60822755724023
 10
-25.08265771752998
 20
4.500000000000078
 30
0.0
 10
-20.54658186511657
 20
4.50000000000008
 30
0.0
 10
-16.39329093255828
 20
2.250000000000086
 30
0.0
 10
-12.23999999999999
 20
0.0000000000000924
 30
0.0
 11
-25.08265771752998
 21
4.500000000000078
 31
0.0
 11
-12.23999999999999
 21
0.0000000000000924
 31
0.0
  0
LINE
  5
152B
330
1F
100
AcDbEntity
  8
AM_0
100
AcDbLine
 10
-17.29566948224043
 20
3.618767294031208
 30
0.0
 11
-2.12091500791972
 21
2.707608080275264
 31
0.0
  0
LINE
  5
152C
330
1F
100
AcDbEntity
  8
AM_11
100
AcDbLine
 10
-0.0000000000006963
 20
4.499999999999992
 30
0.0
 11
-22.0
 21
4.499999999999971
 31
0.0
  0
LINE
  5
152D
330
1F
100
AcDbEntity
  8
AM_11
100
AcDbLine
 10
-22.82440759831664
 20
-4.499999999998856
 30
0.0
 11
0.0000000000000071
 21
-4.500000000000007
 31
0.0
  0
LINE
  5
152F
330
1F
100
AcDbEntity
  8
AM_0
100
AcDbLine
 10
-0.0945000000000036
 20
-4.260097041859651
 30
0.0
 11
-0.0945000000000107
 21
0.2926207145001385
 31
0.0
  0
LINE
  5
1530
330
1F
100
AcDbEntity
  8
AM_0
100
AcDbLine
 10
0.0000000000000071
 20
-4.500000000000007
 30
0.0
 11
0.0
 21
0.1799999999999855
 31
0.0
  0
ARC
  5
1531
330
1F
100
AcDbEntity
  8
AM_0
100
AcDbCircle
 10
12.78609159814441
 20
0.018933580537535
 30
0.0
 40
13.61926835092066
100
AcDbArc
 50
175.3635181775061
 51
195.5055110014725
  0
LINE
  5
1532
330
1F
100
AcDbEntity
  8
AM_0
100
AcDbLine
 10
0.0
 20
0.8999999999999914
 30
0.0
 11
0.0
 21
4.499999999999992
 31
0.0
  0
LINE
  5
1533
330
1F
100
AcDbEntity
  8
AM_0
100
AcDbLine
 10
0.0
 20
0.1799999999999855
 30
0.0
 11
-2.12091500791972
 21
2.707608080275264
 31
0.0
  0
LINE
  5
1534
330
1F
100
AcDbEntity
  8
AM_0
100
AcDbLine
 10
-0.3020758672238344
 20
0.5399999999999637
 30
0.0
 11
0.0
 21
0.8999999999999914
 31
0.0
  0
LINE
  5
1535
330
1F
100
AcDbEntity
  8
AM_0
100
AcDbLine
 10
-0.3374999999999915
 20
-3.67039816606195
 30
0.0
 11
-0.3374999999999915
 21
-3.621919888019363
 31
0.0
  0
LINE
  5
1536
330
1F
100
AcDbEntity
  8
AM_0
100
AcDbLine
 10
0.0000000000000071
 20
-4.500000000000007
 30
0.0
 11
-0.0945000000000036
 21
-4.260097041859651
 31
0.0
  0
LINE
  5
1537
330
1F
100
AcDbEntity
  8
AM_0
100
AcDbLine
 10
-0.0945000000000036
 20
-4.260097041859651
 30
0.0
 11
-0.3374999999999915
 21
-3.67039816606195
 31
0.0
  0
ARC
  5
1538
330
1F
100
AcDbEntity
  8
AM_0
100
AcDbCircle
 10
-22.95362364456586
 20
5.179725482458413
 30
0.0
 40
9.28993928185139
100
AcDbArc
 50
232.9018048684969
 51
273.079344157347
  0
ARC
  5
1539
330
1F
100
AcDbEntity
  8
AM_0
100
AcDbCircle
 10
-22.83345645717787
 20
3.856228119375217
 30
0.0
 40
8.354782308014947
100
AcDbArc
 50
226.7580530114174
 51
270.8815574028528
  0
ARC
  5
153A
330
1F
100
AcDbEntity
  8
AM_0
100
AcDbCircle
 10
-20.96382512342568
 20
-4.371354476426378
 30
0.0
 40
7.889502699170299
100
AcDbArc
 50
132.2183823823341
 51
164.251003513461
  0
LINE
  5
153D
330
1F
100
AcDbEntity
  8
AM_11
100
AcDbLine
 10
-21.99999999999999
 20
-4.499999999999021
 30
0.0
 11
-22.0
 21
4.499999999999971
 31
0.0
  0
LINE
  5
153E
330
1F
100
AcDbEntity
  8
AM_0
100
AcDbLine
 10
-10.37658015232649
 20
-3.453025912856951
 30
0.0
 11
-22.46373878268752
 21
-4.097288297987748
 31
0.0
  0
ARC
  5
153F
330
1F
100
AcDbEntity
  8
AM_0
100
AcDbCircle
 10
-22.94236092629454
 20
4.222571832681036
 30
0.0
 40
8.723369324053736
100
AcDbArc
 50
270.7747503946127
 51
290.2444854579665
  0
ARC
  5
1540
330
1F
100
AcDbEntity
  8
AM_0
100
AcDbCircle
 10
-7.454928202682694
 20
35.13338202992541
 30
0.0
 40
38.56097137238542
100
AcDbArc
 50
234.6904944975246
 51
245.659542742358
  0
LINE
  5
15DD
330
1F
100
AcDbEntity
  8
AM_0
100
AcDbLine
 10
-29.6262612902703
 20
3.583730648314695
 30
0.0
 11
-29.62626129027309
 21
-4.499999999998895
 31
0.0
  0
LINE
  5
1820
330
1F
100
AcDbEntity
  8
AM_0
100
AcDbLine
 10
-21.99999999999999
 20
-4.072458411159958
 30
0.0
 11
-21.99999999999999
 21
-4.44974782519799
 31
0.0
  0
VIEWPORT
  5
110
330
101
100
AcDbEntity
 67
     1
  8
0
100
AcDbViewport
 10
420.5
 20
297.0
 30
0.0
 40
948.9782706766916
 41
628.452
 68
     1
 69
     1
1001
ACAD
1000
MVIEW
1002
{
1070
    16
1010
0.0
1020
0.0
1030
0.0
1010
0.0
1020
0.0
1030
1.0
1040
0.0
1040
628.452
1040
420.5
1040
297.0
1040
50.0
1040
0.0
1040
0.0
1070
     0
1070
   100
1070
     1
1070
     1
1070
     0
1070
     0
1070
     0
1070
     0
1040
0.0
1040
0.0
1040
0.0
1040
10.0
1040
10.0
1040
10.0
1040
10.0
1070
     0
1002
{
1002
}
1002
}
  0
ENDSEC
  0
SECTION
  2
OBJECTS
  0
DICTIONARY
  5
C
330
0
100
AcDbDictionary
  3
ACAD_GROUP
350
D
  3
ACAD_LAYOUT
350
1A
  3
ACAD_MLINESTYLE
350
17
  3
ACAD_PLOTSETTINGS
350
19
  3
ACAD_PLOTSTYLENAME
350
E
  3
ACDBVARIABLEDICTIONARY
350
34
  3
ACMDICTIONARY
350
43
  3
AMG
350
2B
  3
AMGSNAPSETTINGS
350
6E
  3
DWGPROPS
350
1841
  3
ACDBHEADERROUNDTRIPXREC
350
184D
  0
DICTIONARY
  5
74
330
1F
100
AcDbDictionary
280
     1
  3
ACAD_INDEX
360
1843
  3
ACAD_LAYOUTSELFREF
360
1870
  0
DICTIONARY
  5
1875
330
101
100
AcDbDictionary
280
     1
  3
ACAD_LAYOUTSELFREF
360
1876
  0
DICTIONARY
  5
D
102
{ACAD_REACTORS
330
C
102
}
330
C
100
AcDbDictionary
  0
DICTIONARY
  5
1A
102
{ACAD_REACTORS
330
C
102
}
330
C
100
AcDbDictionary
  0
DICTIONARY
  5
17
102
{ACAD_REACTORS
330
C
102
}
330
C
100
AcDbDictionary
  3
STANDARD
350
18
  0
DICTIONARY
  5
19
102
{ACAD_REACTORS
330
C
102
}
330
C
100
AcDbDictionary
  0
ACDBDICTIONARYWDFLT
  5
E
102
{ACAD_REACTORS
330
C
102
}
330
C
100
AcDbDictionary
281
     1
  3
Normal
350
F
100
AcDbDictionaryWithDefault
340
F
  0
DICTIONARY
  5
34
102
{ACAD_REACTORS
330
C
102
}
330
C
100
AcDbDictionary
  3
INDEXCTL
350
35
  3
SORTENTS
350
B5E
  0
DICTIONARY
  5
43
102
{ACAD_REACTORS
330
C
102
}
330
C
100
AcDbDictionary
  3
ACMSTDDICTIONARY
350
260
  0
DICTIONARY
  5
2B
102
{ACAD_REACTORS
330
C
102
}
330
C
100
AcDbDictionary
  3
ACMGSETTINGS
350
2C
  0
DICTIONARY
  5
6E
102
{ACAD_REACTORS
330
C
102
}
330
C
100
AcDbDictionary
  0
XRECORD
  5
1841
102
{ACAD_REACTORS
330
C
102
}
330
C
100
AcDbXrecord
  1
DWGPROPS COOKIE
  2

  3

  4

  6

  7

  8

  9

300
AmdtFileType=82
301
=
302
=
303
=
304
=
305
=
306
=
307
=
308
=
309
=
 40
0.0448678587962963
 41
2452836.771637361
 42
2453045.491070278
  1

 90
        1
  0
DICTIONARY
  5
184D
102
{ACAD_REACTORS
330
C
102
}
330
C
100
AcDbDictionary
  3
TSTACKALIGN
350
184E
  3
TSTACKSIZE
350
184F
  3
HYPERLINKBASE
350
1850
  3
STYLESHEET
350
1851
  3
LAYOUTDICT
350
1852
  3
PLOTSETDICT
350
1853
  3
PLOTSTYLNAMDICT
350
1854
  3
LWETCUNION
350
1855
  3
INSUNITS
350
1856
  3
CEPSNTYPE
350
1857
  3
FINGERPRINTGUID
350
1858
  3
VERSIONGUID
350
1859
  3
PSVPSCALE
350
185A
  3
DIMSTYLEDATA
350
185B
  3
PUCSORTHOREF
350
185C
  3
PUCSORTHOVIEW
350
185D
  3
PUCSBASE
350
185E
  3
PUCSORGTOP
350
185F
  3
PUCSORGBOTTOM
350
1860
  3
PUCSORGLEFT
350
1861
  3
PUCSORGRIGHT
350
1862
  3
PUCSORGFRONT
350
1863
  3
PUCSORGBACK
350
1864
  3
UCSORTHOREF
350
1865
  3
UCSORTHOVIEW
350
1866
  3
UCSBASE
350
1867
  3
UCSORGTOP
350
1868
  3
UCSORGBOTTOM
350
1869
  3
UCSORGLEFT
350
186A
  3
UCSORGRIGHT
350
186B
  3
UCSORGFRONT
350
186C
  3
UCSORGBACK
350
186D
  0
DICTIONARY
  5
1843
102
{ACAD_REACTORS
330
74
102
}
330
74
100
AcDbDictionary
  3
*A1
350
1844
  0
XRECORD
  5
1870
102
{ACAD_REACTORS
330
74
102
}
330
74
100
AcDbXrecord
340
1F
  0
XRECORD
  5
1876
102
{ACAD_REACTORS
330
1875
102
}
330
1875
100
AcDbXrecord
340
101
  0
MLINESTYLE
  5
18
102
{ACAD_REACTORS
330
17
102
}
330
17
100
AcDbMlineStyle
  2
STANDARD
 70
     0
  3

 62
   256
 51
90.0
 52
90.0
 71
     2
 49
0.5
 62
   256
  6
BYLAYER
 49
-0.5
 62
   256
  6
BYLAYER
  0
ACDBPLACEHOLDER
  5
F
102
{ACAD_REACTORS
330
E
102
}
330
E
100
AcDbPlaceHolder
280
     0
  0
DICTIONARYVAR
  5
35
102
{ACAD_REACTORS
330
34
102
}
330
34
100
DictionaryVariables
280
     0
  1
1
  0
DICTIONARYVAR
  5
B5E
102
{ACAD_REACTORS
330
34
102
}
330
34
100
DictionaryVariables
280
     0
  1
96
  0
DICTIONARY
  5
260
102
{ACAD_REACTORS
330
43
102
}
330
43
100
AcDbDictionary
  0
DICTIONARY
  5
2C
102
{ACAD_REACTORS
330
2B
102
}
330
2B
100
AcDbDictionary
  3
DWGSETTINGS
350
2D
  0
XRECORD
  5
184E
102
{ACAD_REACTORS
330
184D
102
}
330
184D
100
AcDbXrecord
 90
        1
  0
XRECORD
  5
184F
102
{ACAD_REACTORS
330
184D
102
}
330
184D
100
AcDbXrecord
 90
       70
  0
XRECORD
  5
1850
102
{ACAD_REACTORS
330
184D
102
}
330
184D
100
AcDbXrecord
  1

  0
XRECORD
  5
1851
102
{ACAD_REACTORS
330
184D
102
}
330
184D
100
AcDbXrecord
  1
ASAMI.ctb
  0
XRECORD
  5
1852
102
{ACAD_REACTORS
330
184D
102
}
330
184D
100
AcDbXrecord
340
1A
  0
XRECORD
  5
1853
102
{ACAD_REACTORS
330
184D
102
}
330
184D
100
AcDbXrecord
340
19
  0
XRECORD
  5
1854
102
{ACAD_REACTORS
330
184D
102
}
330
184D
100
AcDbXrecord
340
E
  0
XRECORD
  5
1855
102
{ACAD_REACTORS
330
184D
102
}
330
184D
100
AcDbXrecord
 90
    10781
  0
XRECORD
  5
1856
102
{ACAD_REACTORS
330
184D
102
}
330
184D
100
AcDbXrecord
 90
        4
  0
XRECORD
  5
1857
102
{ACAD_REACTORS
330
184D
102
}
330
184D
100
AcDbXrecord
 90
        0
  0
XRECORD
  5
1858
102
{ACAD_REACTORS
330
184D
102
}
330
184D
100
AcDbXrecord
  1
{AFB28963-8C59-40AE-9337-C84526B81ACE}
  0
XRECORD
  5
1859
102
{ACAD_REACTORS
330
184D
102
}
330
184D
100
AcDbXrecord
  1
{67E228CF-9EFF-4263-AC6B-174E46488F15}
  0
XRECORD
  5
185A
102
{ACAD_REACTORS
330
184D
102
}
330
184D
100
AcDbXrecord
 40
0.0
  0
XRECORD
  5
185B
102
{ACAD_REACTORS
330
184D
102
}
330
184D
100
AcDbXrecord
1000
DSTYLE
1002
{
1070
    79
 70
     2
1070
   341
340
59
1070
   342
340
59
1070
   371
 70
    -1
1070
   372
 70
    -1
1002
}
  0
XRECORD
  5
185C
102
{ACAD_REACTORS
330
184D
102
}
330
184D
100
AcDbXrecord
340
0
  0
XRECORD
  5
185D
102
{ACAD_REACTORS
330
184D
102
}
330
184D
100
AcDbXrecord
 70
     0
  0
XRECORD
  5
185E
102
{ACAD_REACTORS
330
184D
102
}
330
184D
100
AcDbXrecord
340
0
  0
XRECORD
  5
185F
102
{ACAD_REACTORS
330
184D
102
}
330
184D
100
AcDbXrecord
 10
0.0
 20
0.0
 30
0.0
  0
XRECORD
  5
1860
102
{ACAD_REACTORS
330
184D
102
}
330
184D
100
AcDbXrecord
 10
0.0
 20
0.0
 30
0.0
  0
XRECORD
  5
1861
102
{ACAD_REACTORS
330
184D
102
}
330
184D
100
AcDbXrecord
 10
0.0
 20
0.0
 30
0.0
  0
XRECORD
  5
1862
102
{ACAD_REACTORS
330
184D
102
}
330
184D
100
AcDbXrecord
 10
0.0
 20
0.0
 30
0.0
  0
XRECORD
  5
1863
102
{ACAD_REACTORS
330
184D
102
}
330
184D
100
AcDbXrecord
 10
0.0
 20
0.0
 30
0.0
  0
XRECORD
  5
1864
102
{ACAD_REACTORS
330
184D
102
}
330
184D
100
AcDbXrecord
 10
0.0
 20
0.0
 30
0.0
  0
XRECORD
  5
1865
102
{ACAD_REACTORS
330
184D
102
}
330
184D
100
AcDbXrecord
340
0
  0
XRECORD
  5
1866
102
{ACAD_REACTORS
330
184D
102
}
330
184D
100
AcDbXrecord
 70
     0
  0
XRECORD
  5
1867
102
{ACAD_REACTORS
330
184D
102
}
330
184D
100
AcDbXrecord
340
0
  0
XRECORD
  5
1868
102
{ACAD_REACTORS
330
184D
102
}
330
184D
100
AcDbXrecord
 10
0.0
 20
0.0
 30
0.0
  0
XRECORD
  5
1869
102
{ACAD_REACTORS
330
184D
102
}
330
184D
100
AcDbXrecord
 10
0.0
 20
0.0
 30
0.0
  0
XRECORD
  5
186A
102
{ACAD_REACTORS
330
184D
102
}
330
184D
100
AcDbXrecord
 10
0.0
 20
0.0
 30
0.0
  0
XRECORD
  5
186B
102
{ACAD_REACTORS
330
184D
102
}
330
184D
100
AcDbXrecord
 10
0.0
 20
0.0
 30
0.0
  0
XRECORD
  5
186C
102
{ACAD_REACTORS
330
184D
102
}
330
184D
100
AcDbXrecord
 10
0.0
 20
0.0
 30
0.0
  0
XRECORD
  5
186D
102
{ACAD_REACTORS
330
184D
102
}
330
184D
100
AcDbXrecord
 10
0.0
 20
0.0
 30
0.0
  0
LAYER_INDEX
  5
1844
102
{ACAD_REACTORS
330
1843
102
}
330
1843
100
AcDbIndex
 40
2453152.466295347
100
AcDbLayerIndex
  8
0
360
1845
 90
        0
  8
AM_0
360
1846
 90
       41
  8
AM_11
360
1847
 90
        3
  8
AM_7
360
1848
 90
        1
  8
AM_5
360
1849
 90
        4
  8
Defpoints
360
184A
 90
        0
  8
AM_6
360
184B
 90
        1
  0
XRECORD
  5
2D
102
{ACAD_REACTORS
330
2C
102
}
330
2C
100
AcDbXrecord
  1
VERSION
140
15.0
  1
PRODUCT
  2
AutoCAD Mechanical 2000
  0
IDBUFFER
  5
1845
330
0
100
AcDbIdBuffer
  0
IDBUFFER
  5
1846
330
0
100
AcDbIdBuffer
330
1524
330
1525
330
1526
330
1527
330
1528
330
1529
330
152A
330
152B
330
152F
330
1530
330
1531
330
1532
330
1533
330
1534
330
1535
330
1536
330
1537
330
1538
330
1539
330
153A
330
153E
330
153F
330
1540
330
15DD
330
1820
330
F6A
330
F70
330
FAA
330
FBF
330
FC2
330
FC6
330
128A
330
138C
330
138E
330
138F
330
1390
330
1392
330
1520
330
1521
330
1522
330
1523
  0
IDBUFFER
  5
1847
330
0
100
AcDbIdBuffer
330
152C
330
152D
330
153D
  0
IDBUFFER
  5
1848
330
0
100
AcDbIdBuffer
330
F47
  0
IDBUFFER
  5
1849
330
0
100
AcDbIdBuffer
330
FCE
330
105F
330
10EF
330
1315
  0
IDBUFFER
  5
184A
330
0
100
AcDbIdBuffer
  0
IDBUFFER
  5
184B
330
0
100
AcDbIdBuffer
330
E5A
  0
ENDSEC
  0
EOF
