  0
SECTION
  2
HEADER
  9
$ACADVER
  1
AC1014
  9
$ACADMAINTVER
 70
     9
  9
$DWGCODEPAGE
  3
ANSI_932
  9
$INSBASE
 10
0.0
 20
0.0
 30
0.0
  9
$EXTMIN
 10
-55.56831628338794
 20
-27.2500009999999
 30
-0.00000001
  9
$EXTMAX
 10
9.778885015427377
 20
3.999999999999998
 30
0.00000001
  9
$LIMMIN
 10
-58.52445464598639
 20
-33.31002694299596
  9
$LIMMAX
 10
13.94326308567656
 20
11.05692071610948
  9
$ORTHOMODE
 70
     0
  9
$REGENMODE
 70
     1
  9
$FILLMODE
 70
     1
  9
$QTEXTMODE
 70
     0
  9
$MIRRTEXT
 70
     0
  9
$DRAGMODE
 70
     2
  9
$LTSCALE
 40
1.0
  9
$OSMODE
 70
    55
  9
$ATTMODE
 70
     1
  9
$TEXTSIZE
 40
2.5
  9
$TRACEWID
 40
1.0
  9
$TEXTSTYLE
  7
STANDARD
  9
$CLAYER
  8
AM_0
  9
$CELTYPE
  6
BYLAYER
  9
$CECOLOR
 62
   256
  9
$CELTSCALE
 40
1.0
  9
$DELOBJ
 70
     1
  9
$DISPSILH
 70
     0
  9
$DIMSCALE
 40
0.5
  9
$DIMASZ
 40
2.5
  9
$DIMEXO
 40
1.0
  9
$DIMDLI
 40
12.0
  9
$DIMRND
 40
0.0
  9
$DIMDLE
 40
0.0
  9
$DIMEXE
 40
1.0
  9
$DIMTP
 40
0.1
  9
$DIMTM
 40
0.1
  9
$DIMTXT
 40
3.2
  9
$DIMCEN
 40
0.0
  9
$DIMTSZ
 40
0.0
  9
$DIMTOL
 70
     0
  9
$DIMLIM
 70
     0
  9
$DIMTIH
 70
     0
  9
$DIMTOH
 70
     0
  9
$DIMSE1
 70
     0
  9
$DIMSE2
 70
     0
  9
$DIMTAD
 70
     3
  9
$DIMZIN
 70
     8
  9
$DIMBLK
  1
OPEN30
  9
$DIMASO
 70
     1
  9
$DIMSHO
 70
     1
  9
$DIMPOST
  1

  9
$DIMAPOST
  1
"
  9
$DIMALT
 70
     0
  9
$DIMALTD
 70
     2
  9
$DIMALTF
 40
0.0393701
  9
$DIMLFAC
 40
1.0
  9
$DIMTOFL
 70
     1
  9
$DIMTVP
 40
0.0
  9
$DIMTIX
 70
     0
  9
$DIMSOXD
 70
     0
  9
$DIMSAH
 70
     0
  9
$DIMBLK1
  1

  9
$DIMBLK2
  1

  9
$DIMSTYLE
  2
AM_JIS
  9
$DIMCLRD
 70
   256
  9
$DIMCLRE
 70
   256
  9
$DIMCLRT
 70
     2
  9
$DIMTFAC
 40
0.71
  9
$DIMGAP
 40
1.5
  9
$DIMJUST
 70
     0
  9
$DIMSD1
 70
     0
  9
$DIMSD2
 70
     0
  9
$DIMTOLJ
 70
     0
  9
$DIMTZIN
 70
     0
  9
$DIMALTZ
 70
     0
  9
$DIMALTTZ
 70
     0
  9
$DIMFIT
 70
     3
  9
$DIMUPT
 70
     0
  9
$DIMUNIT
 70
     2
  9
$DIMDEC
 70
     3
  9
$DIMTDEC
 70
     3
  9
$DIMALTU
 70
     2
  9
$DIMALTTD
 70
     2
  9
$DIMTXSTY
  7
ASAMI
  9
$DIMAUNIT
 70
     0
  9
$LUNITS
 70
     2
  9
$LUPREC
 70
     2
  9
$SKETCHINC
 40
1.0
  9
$FILLETRAD
 40
2.5
  9
$AUNITS
 70
     0
  9
$AUPREC
 70
     0
  9
$MENU
  1
.
  9
$ELEVATION
 40
0.0
  9
$PELEVATION
 40
0.0
  9
$THICKNESS
 40
0.0
  9
$LIMCHECK
 70
     0
  9
$BLIPMODE
 70
     0
  9
$CHAMFERA
 40
0.5
  9
$CHAMFERB
 40
0.5
  9
$CHAMFERC
 40
20.0
  9
$CHAMFERD
 40
0.0
  9
$SKPOLY
 70
     0
  9
$TDCREATE
 40
2452836.771637361
  9
$TDUPDATE
 40
2453152.457484907
  9
$TDINDWG
 40
0.0734718750
  9
$TDUSRTIMER
 40
0.0734718750
  9
$USRTIMER
 70
     1
  9
$ANGBASE
 50
0.0
  9
$ANGDIR
 70
     0
  9
$PDMODE
 70
     0
  9
$PDSIZE
 40
0.0
  9
$PLINEWID
 40
0.0
  9
$COORDS
 70
     1
  9
$SPLFRAME
 70
     0
  9
$SPLINETYPE
 70
     6
  9
$SPLINESEGS
 70
     8
  9
$ATTDIA
 70
     1
  9
$ATTREQ
 70
     1
  9
$HANDLING
 70
 12289
  9
$HANDSEED
  5
2374
  9
$SURFTAB1
 70
     6
  9
$SURFTAB2
 70
     6
  9
$SURFTYPE
 70
     6
  9
$SURFU
 70
     6
  9
$SURFV
 70
     6
  9
$UCSNAME
  2

  9
$UCSORG
 10
0.0
 20
0.0
 30
0.0
  9
$UCSXDIR
 10
1.0
 20
0.0
 30
0.0
  9
$UCSYDIR
 10
0.0
 20
1.0
 30
0.0
  9
$PUCSNAME
  2

  9
$PUCSORG
 10
0.0
 20
0.0
 30
0.0
  9
$PUCSXDIR
 10
1.0
 20
0.0
 30
0.0
  9
$PUCSYDIR
 10
0.0
 20
1.0
 30
0.0
  9
$USERI1
 70
     0
  9
$USERI2
 70
     0
  9
$USERI3
 70
     0
  9
$USERI4
 70
     0
  9
$USERI5
 70
     0
  9
$USERR1
 40
0.0
  9
$USERR2
 40
0.0
  9
$USERR3
 40
0.0
  9
$USERR4
 40
0.0
  9
$USERR5
 40
0.0
  9
$WORLDVIEW
 70
     1
  9
$SHADEDGE
 70
     3
  9
$SHADEDIF
 70
    70
  9
$TILEMODE
 70
     1
  9
$MAXACTVP
 70
    64
  9
$PINSBASE
 10
0.0
 20
0.0
 30
0.0
  9
$PLIMCHECK
 70
     0
  9
$PEXTMIN
 10
1.000000000000000E+20
 20
1.000000000000000E+20
 30
1.000000000000000E+20
  9
$PEXTMAX
 10
-1.000000000000000E+20
 20
-1.000000000000000E+20
 30
-1.000000000000000E+20
  9
$PLIMMIN
 10
0.0
 20
0.0
  9
$PLIMMAX
 10
841.0
 20
594.0
  9
$UNITMODE
 70
     0
  9
$VISRETAIN
 70
     1
  9
$PLINEGEN
 70
     0
  9
$PSLTSCALE
 70
     0
  9
$TREEDEPTH
 70
  3020
  9
$PICKSTYLE
 70
     0
  9
$CMLSTYLE
  2
STANDARD
  9
$CMLJUST
 70
     0
  9
$CMLSCALE
 40
20.0
  9
$PROXYGRAPHICS
 70
     1
  9
$MEASUREMENT
 70
     1
  0
ENDSEC
  0
SECTION
  2
CLASSES
  0
CLASS
  1
ACDBDICTIONARYWDFLT
  2
AcDbDictionaryWithDefault
  3
AutoCAD 2000
 90
        0
280
     0
281
     0
  0
CLASS
  1
ACDBPLACEHOLDER
  2
AcDbPlaceHolder
  3
AutoCAD 2000
 90
        0
280
     0
281
     0
  0
CLASS
  1
LAYOUT
  2
AcDbLayout
  3
AutoCAD 2000
 90
        0
280
     0
281
     0
  0
CLASS
  1
AMGSETTINGSOBJ
  2
AmgSettingsObj
  3
"AcadM|Product Description: AutoCAD Mechanical 2000|Company: Autodesk"
 90
        0
280
     0
281
     0
  0
CLASS
  1
ACME_DOCUMENT
  2
AcMeDbDoc
  3
AcMeServices
 90
        0
280
     0
281
     0
  0
CLASS
  1
ACMESCOPE
  2
AcMeScope
  3
AcMeServices
 90
        0
280
     0
281
     0
  0
CLASS
  1
ACMECOMMANDHISTORY
  2
AcMeCommandHistory
  3
AcMeServices
 90
        0
280
     0
281
     0
  0
CLASS
  1
DICTIONARYVAR
  2
AcDbDictionaryVar
  3
AutoCAD 2000
 90
        0
280
     0
281
     0
  0
CLASS
  1
ACIMSYSVARMAN
  2
AcImSysVarManager
  3
AcMeServices
 90
        0
280
     0
281
     0
  0
CLASS
  1
ACIMREALSYSVAR
  2
AcImRealSysVar
  3
AcMeServices
 90
        0
280
     0
281
     0
  0
CLASS
  1
ACIMINTSYSVAR
  2
AcImIntSysVar
  3
AcMeServices
 90
        0
280
     0
281
     0
  0
CLASS
  1
ACMEDRAWINGMAN
  2
AcMeDrawingMan
  3
AcMeServices
 90
        0
280
     0
281
     0
  0
CLASS
  1
ACMEVIEW
  2
AcMeView
  3
AcMeServices
 90
        0
280
     0
281
     0
  0
CLASS
  1
ACDBENTITYCACHE
  2
AcMeEntityCache
  3
AcMeServices
 90
        0
280
     0
281
     0
  0
CLASS
  1
GSMANAGER
  2
AcMeGSManager
  3
AcMeServices
 90
        0
280
     0
281
     0
  0
CLASS
  1
AmdtInternalReactor
  2
AmdtInternalReactor
  3
AcMeServices
 90
        0
280
     0
281
     0
  0
CLASS
  1
ACMESTATEMGR
  2
AcMeStateMgr
  3
AcMeServices
 90
        0
280
     0
281
     0
  0
CLASS
  1
ACME_DATABASE
  2
AcMeDbDatabase
  3
AcMeServices
 90
        0
280
     0
281
     0
  0
CLASS
  1
ACRFINSADJUSTERMGR
  2
AcRfInsAdjusterMgr
  3
AcMeServices
 90
        0
280
     0
281
     0
  0
CLASS
  1
ACMDATADICTIONARY
  2
AcmDataDictionary
  3
"AcmSymBB|Product Description: AutoCAD Mechanical 2000|Company: Autodesk"
 90
        0
280
     0
281
     0
  0
CLASS
  1
ACMDATAENTRYBLOCK
  2
AcmDataEntryBlock
  3
"AcmSymBB|Product Description: AutoCAD Mechanical 2000|Company: Autodesk"
 90
        0
280
     0
281
     0
  0
CLASS
  1
AMGOBJPROPCFG
  2
AmgObjPropCfg
  3
"AmgLay|Product Description: AutoCAD Mechanical 2000|Company: Autodesk"
 90
        1
280
     0
281
     0
  0
CLASS
  1
ACAMGFILTERDAT
  2
AcAmgFilterDat
  3
"AcadM|Product Description: AutoCAD Mechanical 2000|Company: Autodesk"
 90
        0
280
     0
281
     0
  0
CLASS
  1
LAYER_INDEX
  2
AcDbLayerIndex
  3
AutoCAD 2000
 90
        0
280
     0
281
     0
  0
CLASS
  1
IDBUFFER
  2
AcDbIdBuffer
  3
AutoCAD 2000
 90
        0
280
     0
281
     0
  0
CLASS
  1
ACIMSTRSYSVAR
  2
AcImStrSysVar
  3
AcMeServices
 90
        0
280
     0
281
     0
  0
CLASS
  1
ACMSTANDARDJIS
  2
AcmStandardJIS
  3
"AcmSymBB|Product Description: AutoCAD Mechanical 2000|Company: Autodesk"
 90
        0
280
     0
281
     0
  0
CLASS
  1
ACMSURFSTANDARDJIS
  2
AcmSurfTextStdJIS
  3
"AcmSymBB|Product Description: AutoCAD Mechanical 2000|Company: Autodesk"
 90
        0
280
     0
281
     0
  0
CLASS
  1
ACMFCFSTANDARDJIS
  2
AcmFCFStdJIS
  3
"AcmSymBB|Product Description: AutoCAD Mechanical 2000|Company: Autodesk"
 90
        0
280
     0
281
     0
  0
CLASS
  1
ACMWELDSTANDARDJIS
  2
AcmWeldingStdJIS
  3
"AcmSymBB|Product Description: AutoCAD Mechanical 2000|Company: Autodesk"
 90
        0
280
     0
281
     0
  0
CLASS
  1
ACMIDSTANDARDJIS
  2
AcmIdStdJIS
  3
"AcmSymBB|Product Description: AutoCAD Mechanical 2000|Company: Autodesk"
 90
        0
280
     0
281
     0
  0
CLASS
  1
ACMDATUMSTANDARDJIS
  2
AcmDatumStdJIS
  3
"AcmSymBB|Product Description: AutoCAD Mechanical 2000|Company: Autodesk"
 90
        0
280
     0
281
     0
  0
CLASS
  1
ACMBOMSTANDARDJIS
  2
AcmBOMStdJIS
  3
"AcmSymBB|Product Description: AutoCAD Mechanical 2000|Company: Autodesk"
 90
        0
280
     0
281
     0
  0
CLASS
  1
ACMSTANDARDANSI
  2
AcmStandardANSI
  3
"AcmSymBB|Product Description: AutoCAD Mechanical 2000|Company: Autodesk"
 90
        0
280
     0
281
     0
  0
CLASS
  1
ACMSURFSTANDARDANSI
  2
AcmSurfTextStdANSI
  3
"AcmSymBB|Product Description: AutoCAD Mechanical 2000|Company: Autodesk"
 90
        0
280
     0
281
     0
  0
CLASS
  1
ACMFCFSTANDARDANSI
  2
AcmFCFStdANSI
  3
"AcmSymBB|Product Description: AutoCAD Mechanical 2000|Company: Autodesk"
 90
        0
280
     0
281
     0
  0
CLASS
  1
ACMWELDSTANDARDANSI
  2
AcmWeldingStdANSI
  3
"AcmSymBB|Product Description: AutoCAD Mechanical 2000|Company: Autodesk"
 90
        0
280
     0
281
     0
  0
CLASS
  1
ACMIDSTANDARDANSI
  2
AcmIdStdANSI
  3
"AcmSymBB|Product Description: AutoCAD Mechanical 2000|Company: Autodesk"
 90
        0
280
     0
281
     0
  0
CLASS
  1
ACMDATUMSTANDARDANSI
  2
AcmDatumStdANSI
  3
"AcmSymBB|Product Description: AutoCAD Mechanical 2000|Company: Autodesk"
 90
        0
280
     0
281
     0
  0
CLASS
  1
ACMBOMSTANDARDANSI
  2
AcmBOMStdANSI
  3
"AcmSymBB|Product Description: AutoCAD Mechanical 2000|Company: Autodesk"
 90
        0
280
     0
281
     0
  0
CLASS
  1
ACMSTANDARDBSI
  2
AcmStandardBSI
  3
"AcmSymBB|Product Description: AutoCAD Mechanical 2000|Company: Autodesk"
 90
        0
280
     0
281
     0
  0
CLASS
  1
ACMSURFSTANDARDBSI
  2
AcmSurfTextStdBSI
  3
"AcmSymBB|Product Description: AutoCAD Mechanical 2000|Company: Autodesk"
 90
        0
280
     0
281
     0
  0
CLASS
  1
ACMFCFSTANDARDBSI
  2
AcmFCFStdBSI
  3
"AcmSymBB|Product Description: AutoCAD Mechanical 2000|Company: Autodesk"
 90
        0
280
     0
281
     0
  0
CLASS
  1
ACMWELDSTANDARDBSI
  2
AcmWeldingStdBSI
  3
"AcmSymBB|Product Description: AutoCAD Mechanical 2000|Company: Autodesk"
 90
        0
280
     0
281
     0
  0
CLASS
  1
ACMIDSTANDARDBSI
  2
AcmIdStdBSI
  3
"AcmSymBB|Product Description: AutoCAD Mechanical 2000|Company: Autodesk"
 90
        0
280
     0
281
     0
  0
CLASS
  1
ACMDATUMSTANDARDBSI
  2
AcmDatumStdBSI
  3
"AcmSymBB|Product Description: AutoCAD Mechanical 2000|Company: Autodesk"
 90
        0
280
     0
281
     0
  0
CLASS
  1
ACMBOMSTANDARDBSI
  2
AcmBOMStdBSI
  3
"AcmSymBB|Product Description: AutoCAD Mechanical 2000|Company: Autodesk"
 90
        0
280
     0
281
     0
  0
CLASS
  1
LONG_TRANSACTION
  2
AcDbLongTransaction
  3
AutoCAD 2000
 90
        0
280
     0
281
     0
  0
CLASS
  1
LWPOLYLINE
  2
AcDbPolyline
  3
AutoCAD 2000
 90
        0
280
     0
281
     1
  0
CLASS
  1
HATCH
  2
AcDbHatch
  3
AutoCAD 2000
 90
        0
280
     0
281
     1
  0
CLASS
  1
XRECORD
  2
AcDbXrecord
  3
AutoCAD 2000
 90
        0
280
     0
281
     0
  0
ENDSEC
  0
SECTION
  2
TABLES
  0
TABLE
  2
VPORT
  5
8
330
0
100
AcDbSymbolTable
 70
     3
  0
VPORT
  5
2349
330
8
100
AcDbSymbolTableRecord
100
AcDbViewportTableRecord
  2
*ACTIVE
 70
     0
 10
0.0
 20
0.0
 11
1.0
 21
1.0
 12
-15.89346813854742
 22
-6.154510340120072
 13
0.0
 23
0.0
 14
2.5
 24
2.5
 15
10.0
 25
10.0
 16
0.0
 26
0.0
 36
1.0
 17
0.0
 27
0.0
 37
0.0
 40
62.56661551047872
 41
1.56570841889117
 42
50.0
 43
0.0
 44
0.0
 50
0.0
 51
0.0
 71
     0
 72
   100
 73
     1
 74
     3
 75
     0
 76
     0
 77
     0
 78
     0
  0
ENDTAB
  0
TABLE
  2
LTYPE
  5
5
330
0
100
AcDbSymbolTable
 70
    10
  0
LTYPE
  5
14
330
5
100
AcDbSymbolTableRecord
100
AcDbLinetypeTableRecord
  2
BYBLOCK
 70
     0
  3

 72
    65
 73
     0
 40
0.0
  0
LTYPE
  5
15
330
5
100
AcDbSymbolTableRecord
100
AcDbLinetypeTableRecord
  2
BYLAYER
 70
     0
  3

 72
    65
 73
     0
 40
0.0
  0
LTYPE
  5
16
330
5
100
AcDbSymbolTableRecord
100
AcDbLinetypeTableRecord
  2
CONTINUOUS
 70
     0
  3
Solid line
 72
    65
 73
     0
 40
0.0
  0
LTYPE
  5
4B
330
5
100
AcDbSymbolTableRecord
100
AcDbLinetypeTableRecord
  2
AM_ISO02W050
 70
     0
  3
__ __ __ __ __ __ __ __ __ __ __ __ __ __ __
 72
    65
 73
     2
 40
7.5
 49
6.0
 74
     0
 49
-1.5
 74
     0
  0
LTYPE
  5
4C
330
5
100
AcDbSymbolTableRecord
100
AcDbLinetypeTableRecord
  2
AM_ISO08W050
 70
     0
  3
____ . ____ . ____ . ____ . ____ . ____ . ____
 72
    65
 73
     4
 40
18.0
 49
12.0
 74
     0
 49
-1.5
 74
     0
 49
3.0
 74
     0
 49
-1.5
 74
     0
  0
LTYPE
  5
4D
330
5
100
AcDbSymbolTableRecord
100
AcDbLinetypeTableRecord
  2
AM_ISO09W050
 70
     0
  3
_____ . . _____ . . _____ . . ____ .. ____
 72
    65
 73
     6
 40
22.5
 49
12.0
 74
     0
 49
-1.5
 74
     0
 49
3.0
 74
     0
 49
-1.5
 74
     0
 49
3.0
 74
     0
 49
-1.5
 74
     0
  0
LTYPE
  5
4E
330
5
100
AcDbSymbolTableRecord
100
AcDbLinetypeTableRecord
  2
AMCONSTR
 70
     0
  3
_______________________
 72
    65
 73
     2
 40
9999.0
 49
9999.0
 74
     0
 49
0.0
 74
     0
  0
LTYPE
  5
4F
330
5
100
AcDbSymbolTableRecord
100
AcDbLinetypeTableRecord
  2
AM_ISO02W050X2
 70
     0
  3
 _ _ _ _ _ _ _ _ _ _ _ _
 72
    65
 73
     2
 40
3.75
 49
3.0
 74
     0
 49
-0.75
 74
     0
  0
LTYPE
  5
50
330
5
100
AcDbSymbolTableRecord
100
AcDbLinetypeTableRecord
  2
AM_ISO08W050X2
 70
     0
  3
__ . __ . __ . __ . __ . __
 72
    65
 73
     4
 40
9.0
 49
6.0
 74
     0
 49
-0.75
 74
     0
 49
1.5
 74
     0
 49
-0.75
 74
     0
  0
LTYPE
  5
53
330
5
100
AcDbSymbolTableRecord
100
AcDbLinetypeTableRecord
  2
AMZIGZAG
 70
     0
  3
/\/-/\/-/\/-/\/-/\/-/\/
 72
    65
 73
     2
 40
11.00009999999999
 49
0.0001
 74
     4
 75
   135
340
52
 46
0.04
 50
0.0
 44
0.0
 45
0.0
 49
-11.0
 74
     0
  0
LTYPE
  5
166
330
5
100
AcDbSymbolTableRecord
100
AcDbLinetypeTableRecord
  2
ACJISTGL
 70
     0
  3
_ _ _ _ _
 72
    65
 73
     2
 40
3.0
 49
2.0
 74
     0
 49
-1.0
 74
     0
  0
LTYPE
  5
26A
330
5
100
AcDbSymbolTableRecord
100
AcDbLinetypeTableRecord
  2
ACJISTGB
 70
     0
  3
__ . . __ . .
 72
    65
 73
     6
 40
9.0
 49
4.0
 74
     0
 49
-1.0
 74
     0
 49
1.0
 74
     0
 49
-1.0
 74
     0
 49
1.0
 74
     0
 49
-1.0
 74
     0
  0
ENDTAB
  0
TABLE
  2
LAYER
  5
2
330
0
100
AcDbSymbolTable
 70
     8
  0
LAYER
  5
10
330
2
100
AcDbSymbolTableRecord
100
AcDbLayerTableRecord
  2
0
 70
     0
 62
     7
  6
CONTINUOUS
  0
LAYER
  5
3F9
330
2
100
AcDbSymbolTableRecord
100
AcDbLayerTableRecord
  2
AM_0
 70
     0
 62
     7
  6
CONTINUOUS
  0
LAYER
  5
BD4
330
2
100
AcDbSymbolTableRecord
100
AcDbLayerTableRecord
  2
AM_11
 70
     0
 62
     3
  6
AM_ISO09W050
  0
LAYER
  5
BD5
330
2
100
AcDbSymbolTableRecord
100
AcDbLayerTableRecord
  2
AM_7
 70
     0
 62
     4
  6
AM_ISO08W050
  0
LAYER
  5
BD6
330
2
100
AcDbSymbolTableRecord
100
AcDbLayerTableRecord
  2
AM_5
 70
     0
 62
     3
  6
CONTINUOUS
  0
LAYER
  5
BD7
330
2
100
AcDbSymbolTableRecord
100
AcDbLayerTableRecord
  2
DEFPOINTS
 70
     0
 62
     7
  6
CONTINUOUS
  0
LAYER
  5
E59
330
2
100
AcDbSymbolTableRecord
100
AcDbLayerTableRecord
  2
AM_6
 70
     0
 62
     2
  6
CONTINUOUS
  0
LAYER
  5
22D7
330
2
100
AcDbSymbolTableRecord
100
AcDbLayerTableRecord
  2
AM_CL
 70
     0
 62
     1
  6
AMCONSTR
  0
ENDTAB
  0
TABLE
  2
STYLE
  5
3
330
0
100
AcDbSymbolTable
 70
     5
  0
STYLE
  5
11
330
3
100
AcDbSymbolTableRecord
100
AcDbTextStyleTableRecord
  2
STANDARD
 70
     0
 40
0.0
 41
1.0
 50
0.0
 71
     0
 42
2.5
  3
simplex.shx
  4
EXTFONT.SHX
  0
STYLE
  5
52
330
3
100
AcDbSymbolTableRecord
100
AcDbTextStyleTableRecord
  2

 70
     1
 40
0.0
 41
1.0
 50
0.0
 71
     0
 42
2.5
  3
ltypeshp.shx
  4

  0
STYLE
  5
6B
330
3
100
AcDbSymbolTableRecord
100
AcDbTextStyleTableRecord
  2
ASAMI
 70
     0
 40
0.0
 41
1.0
 50
0.0
 71
     0
 42
2.5
  3
simplex.shx
  4
EXTFONT.SHX
  0
STYLE
  5
262
330
3
100
AcDbSymbolTableRecord
100
AcDbTextStyleTableRecord
  2
ACJISTS
 70
     0
 40
1.0
 41
1.0
 50
0.0
 71
     0
 42
2.5
  3
simplex.shx
  4
bigfont.shx
  0
STYLE
  5
269
330
3
100
AcDbSymbolTableRecord
100
AcDbTextStyleTableRecord
  2
ACJISGDT
 70
     0
 40
0.0
 41
1.0
 50
0.0
 71
     0
 42
2.5
  3
amgdtans.shx
  4

  0
ENDTAB
  0
TABLE
  2
VIEW
  5
6
330
0
100
AcDbSymbolTable
 70
     0
  0
ENDTAB
  0
TABLE
  2
UCS
  5
7
330
0
100
AcDbSymbolTable
 70
     0
  0
ENDTAB
  0
TABLE
  2
APPID
  5
9
330
0
100
AcDbSymbolTable
 70
    12
  0
APPID
  5
12
330
9
100
AcDbSymbolTableRecord
100
AcDbRegAppTableRecord
  2
ACAD
 70
     0
  0
APPID
  5
30
330
9
100
AcDbSymbolTableRecord
100
AcDbRegAppTableRecord
  2
MCAD_NO_VIS
 70
     0
  0
APPID
  5
31
330
9
100
AcDbSymbolTableRecord
100
AcDbRegAppTableRecord
  2
ACAD_TEMP_GRAPHIC
 70
     0
  0
APPID
  5
2C2
330
9
100
AcDbSymbolTableRecord
100
AcDbRegAppTableRecord
  2
GENIUS_GENDTOL_13
 70
     0
  0
APPID
  5
339
330
9
100
AcDbSymbolTableRecord
100
AcDbRegAppTableRecord
  2
GENIUS_GENODEF_13
 70
     0
  0
APPID
  5
33A
330
9
100
AcDbSymbolTableRecord
100
AcDbRegAppTableRecord
  2
GENIUS_GENOBJ-N-RSBK_13
 70
     0
  0
APPID
  5
33B
330
9
100
AcDbSymbolTableRecord
100
AcDbRegAppTableRecord
  2
GENIUS_GENOBJ-N-LIB_13
 70
     0
  0
APPID
  5
33C
330
9
100
AcDbSymbolTableRecord
100
AcDbRegAppTableRecord
  2
GENIUS_GENSCALE_13
 70
     0
  0
APPID
  5
378
330
9
100
AcDbSymbolTableRecord
100
AcDbRegAppTableRecord
  2
GENIUS_GENDIMSH_14
 70
     0
  0
APPID
  5
BD8
330
9
100
AcDbSymbolTableRecord
100
AcDbRegAppTableRecord
  2
GENIUS_GENOBJ-N-CEN_13
 70
     0
  0
APPID
  5
BD9
330
9
100
AcDbSymbolTableRecord
100
AcDbRegAppTableRecord
  2
GENIUS_GENFIL_13
 70
     0
  0
APPID
  5
BDA
330
9
100
AcDbSymbolTableRecord
100
AcDbRegAppTableRecord
  2
GENIUS_GENOBJ-N-CHA_13
 70
     0
  0
ENDTAB
  0
TABLE
  2
DIMSTYLE
  5
A
330
0
100
AcDbSymbolTable
 70
     8
  0
DIMSTYLE
105
58
102
{ACAD_REACTORS
330
1818
330
18AB
330
193F
330
19E5
102
}
330
A
100
AcDbSymbolTableRecord
100
AcDbDimStyleTableRecord
  2
AM_JIS
 70
     0
  3

  4
"
  5
OPEN30
  6

  7

 40
0.5
 41
2.5
 42
1.0
 43
12.0
 44
1.0
 45
0.0
 46
0.0
 47
0.1
 48
0.1
140
3.2
141
0.0
142
0.0
143
0.0393701
144
1.0
145
0.0
146
0.71
147
1.5
 71
     0
 72
     0
 73
     0
 74
     0
 75
     0
 76
     0
 77
     3
 78
     8
170
     0
171
     2
172
     1
173
     0
174
     0
175
     0
176
   256
177
   256
178
     2
270
     2
271
     3
272
     3
273
     2
274
     2
340
6B
275
     0
280
     0
281
     0
282
     0
283
     0
284
     0
285
     0
286
     0
287
     3
288
     0
  0
DIMSTYLE
105
5F
330
A
100
AcDbSymbolTableRecord
100
AcDbDimStyleTableRecord
  2
AM_JIS$3
 70
     0
  3

  4
"
  5
OPEN30
  6

  7

 40
0.5
 41
2.5
 42
1.0
 43
10.0
 44
1.0
 45
0.0
 46
0.0
 47
0.1
 48
0.1
140
3.2
141
0.0
142
0.0
143
0.0393701
144
1.0
145
0.0
146
0.71
147
1.5
 71
     0
 72
     0
 73
     0
 74
     1
 75
     0
 76
     0
 77
     3
 78
     8
170
     0
171
     2
172
     0
173
     0
174
     0
175
     0
176
   256
177
   256
178
     2
270
     2
271
     2
272
     3
273
     2
274
     2
340
6B
275
     0
280
     0
281
     0
282
     0
283
     0
284
     0
285
     0
286
     0
287
     0
288
     1
  0
DIMSTYLE
105
60
330
A
100
AcDbSymbolTableRecord
100
AcDbDimStyleTableRecord
  2
AM_JIS$4
 70
     0
  3

  4
"
  5
OPEN30
  6

  7

 40
0.5
 41
2.5
 42
1.0
 43
10.0
 44
1.0
 45
0.0
 46
0.0
 47
0.1
 48
0.1
140
3.2
141
0.0
142
0.0
143
0.0393701
144
1.0
145
0.0
146
0.71
147
1.5
 71
     0
 72
     0
 73
     0
 74
     1
 75
     0
 76
     0
 77
     3
 78
     8
170
     0
171
     2
172
     0
173
     0
174
     0
175
     0
176
   256
177
   256
178
     2
270
     2
271
     2
272
     3
273
     2
274
     2
340
6B
275
     0
280
     0
281
     0
282
     0
283
     0
284
     0
285
     0
286
     0
287
     0
288
     1
  0
DIMSTYLE
105
61
330
A
100
AcDbSymbolTableRecord
100
AcDbDimStyleTableRecord
  2
AM_JIS$6
 70
     0
  3

  4
"
  5
OPEN30
  6

  7

 40
0.5
 41
2.5
 42
1.0
 43
10.0
 44
1.0
 45
0.0
 46
0.0
 47
0.1
 48
0.1
140
3.2
141
0.0
142
0.0
143
0.0393701
144
1.0
145
0.0
146
0.71
147
1.5
 71
     0
 72
     0
 73
     0
 74
     0
 75
     0
 76
     0
 77
     0
 78
     8
170
     0
171
     2
172
     1
173
     0
174
     0
175
     0
176
   256
177
   256
178
     2
270
     2
271
     2
272
     2
273
     2
274
     2
340
6B
275
     0
280
     0
281
     0
282
     0
283
     0
284
     0
285
     0
286
     0
287
     3
288
     0
  0
DIMSTYLE
105
62
330
A
100
AcDbSymbolTableRecord
100
AcDbDimStyleTableRecord
  2
AM_JIS$7
 70
     0
  3

  4
"
  5
OPEN30
  6

  7

 40
0.5
 41
2.5
 42
1.0
 43
10.0
 44
1.0
 45
0.0
 46
0.0
 47
0.1
 48
0.1
140
3.2
141
0.0
142
0.0
143
0.0393701
144
1.0
145
0.0
146
0.71
147
1.5
 71
     0
 72
     0
 73
     0
 74
     0
 75
     0
 76
     0
 77
     3
 78
     8
170
     0
171
     2
172
     1
173
     0
174
     0
175
     0
176
   256
177
   256
178
     2
270
     2
271
     2
272
     3
273
     2
274
     2
340
6B
275
     0
280
     0
281
     0
282
     0
283
     0
284
     0
285
     0
286
     0
287
     3
288
     0
  0
DIMSTYLE
105
63
330
A
100
AcDbSymbolTableRecord
100
AcDbDimStyleTableRecord
  2
AM_JIS$SF
 70
     0
  3

  4
"
  5
OPEN30
  6

  7

 40
0.5
 41
2.5
 42
1.0
 43
10.0
 44
1.0
 45
0.0
 46
0.0
 47
0.1
 48
0.1
140
3.2
141
0.0
142
0.0
143
0.0393701
144
1.0
145
0.0
146
0.71
147
1.5
 71
     0
 72
     0
 73
     0
 74
     0
 75
     1
 76
     1
 77
     3
 78
     8
170
     0
171
     2
172
     1
173
     0
174
     0
175
     0
176
   256
177
   256
178
     2
270
     2
271
     2
272
     2
273
     2
274
     2
340
6B
275
     0
280
     0
281
     0
282
     0
283
     0
284
     0
285
     0
286
     0
287
     3
288
     0
  0
DIMSTYLE
105
68
330
A
100
AcDbSymbolTableRecord
100
AcDbDimStyleTableRecord
  2
AM_JIS$SH
 70
     0
  3

  4
"
  5

  6
GENAXEH
  7
OPEN30
 40
0.5
 41
2.5
 42
1.0
 43
10.0
 44
1.0
 45
0.0
 46
0.0
 47
0.1
 48
0.1
140
3.2
141
0.0
142
0.0
143
0.0393701
144
2.0
145
0.0
146
0.71
147
1.5
 71
     0
 72
     0
 73
     0
 74
     0
 75
     1
 76
     1
 77
     3
 78
     8
170
     0
171
     2
172
     1
173
     1
174
     0
175
     0
176
   256
177
   256
178
     2
270
     2
271
     2
272
     2
273
     2
274
     2
340
6B
275
     0
280
     0
281
     0
282
     0
283
     0
284
     0
285
     0
286
     0
287
     3
288
     0
  0
DIMSTYLE
105
B34
330
A
100
AcDbSymbolTableRecord
100
AcDbDimStyleTableRecord
  2
AM_JIS$2
 70
     0
  3

  4
"
  5
OPEN30
  6

  7

 40
0.5
 41
2.5
 42
1.0
 43
12.0
 44
1.0
 45
0.0
 46
0.0
 47
0.1
 48
0.1
140
3.2
141
0.0
142
0.0
143
0.0393701
144
1.0
145
0.0
146
0.71
147
1.5
 71
     0
 72
     0
 73
     0
 74
     0
 75
     0
 76
     0
 77
     3
 78
     8
170
     0
171
     2
172
     1
173
     0
174
     0
175
     0
176
   256
177
   256
178
     2
270
     2
271
     3
272
     3
273
     2
274
     2
340
6B
275
     0
280
     0
281
     0
282
     0
283
     0
284
     0
285
     0
286
     0
287
     3
288
     0
  0
ENDTAB
  0
TABLE
  2
BLOCK_RECORD
  5
1
330
0
100
AcDbSymbolTable
 70
     9
  0
BLOCK_RECORD
  5
1F
102
{ACAD_XDICTIONARY
360
74
102
}
330
1
100
AcDbSymbolTableRecord
100
AcDbBlockTableRecord
  2
*MODEL_SPACE
  0
BLOCK_RECORD
  5
101
102
{ACAD_XDICTIONARY
360
2372
102
}
330
1
100
AcDbSymbolTableRecord
100
AcDbBlockTableRecord
  2
*PAPER_SPACE
  0
BLOCK_RECORD
  5
59
330
1
100
AcDbSymbolTableRecord
100
AcDbBlockTableRecord
  2
_OPEN30
  0
BLOCK_RECORD
  5
64
330
1
100
AcDbSymbolTableRecord
100
AcDbBlockTableRecord
  2
GENAXEH
  0
BLOCK_RECORD
  5
1819
330
1
100
AcDbSymbolTableRecord
100
AcDbBlockTableRecord
  2
*D5
  0
BLOCK_RECORD
  5
18AC
330
1
100
AcDbSymbolTableRecord
100
AcDbBlockTableRecord
  2
*D6
  0
BLOCK_RECORD
  5
1940
330
1
100
AcDbSymbolTableRecord
100
AcDbBlockTableRecord
  2
*D7
  0
BLOCK_RECORD
  5
19E6
330
1
100
AcDbSymbolTableRecord
100
AcDbBlockTableRecord
  2
*D8
  0
ENDTAB
  0
ENDSEC
  0
SECTION
  2
BLOCKS
  0
BLOCK
  5
20
330
1F
100
AcDbEntity
  8
0
100
AcDbBlockBegin
  2
*MODEL_SPACE
 70
     0
 10
0.0
 20
0.0
 30
0.0
  3
*MODEL_SPACE
  1

  0
ENDBLK
  5
21
330
1F
100
AcDbEntity
  8
0
100
AcDbBlockEnd
  0
BLOCK
  5
103
330
101
100
AcDbEntity
 67
     1
  8
0
100
AcDbBlockBegin
  2
*PAPER_SPACE
 70
     0
 10
0.0
 20
0.0
 30
0.0
  3
*PAPER_SPACE
  1

  0
ENDBLK
  5
104
330
101
100
AcDbEntity
 67
     1
  8
0
100
AcDbBlockEnd
  0
BLOCK
  5
5D
330
59
100
AcDbEntity
  8
0
100
AcDbBlockBegin
  2
_OPEN30
 70
     0
 10
0.0
 20
0.0
 30
0.0
  3
_OPEN30
  1

  0
LINE
  5
5A
330
59
100
AcDbEntity
  8
0
 62
     0
100
AcDbLine
 10
-1.0
 20
0.26794919
 30
0.0
 11
0.0
 21
0.0
 31
0.0
  0
LINE
  5
5B
330
59
100
AcDbEntity
  8
0
 62
     0
100
AcDbLine
 10
0.0
 20
0.0
 30
0.0
 11
-1.0
 21
-0.26794919
 31
0.0
  0
LINE
  5
5C
330
59
100
AcDbEntity
  8
0
 62
     0
100
AcDbLine
 10
0.0
 20
0.0
 30
0.0
 11
-1.0
 21
0.0
 31
0.0
  0
ENDBLK
  5
5E
330
59
100
AcDbEntity
  8
0
100
AcDbBlockEnd
  0
BLOCK
  5
66
330
64
100
AcDbEntity
  8
0
100
AcDbBlockBegin
  2
GENAXEH
 70
     0
 10
0.0
 20
0.0
 30
0.0
  3
GENAXEH
  1

  0
LINE
  5
65
330
64
100
AcDbEntity
  8
0
100
AcDbLine
 10
-1.0
 20
0.0
 30
0.0
 11
1.0
 21
0.0
 31
0.0
  0
ENDBLK
  5
67
330
64
100
AcDbEntity
  8
0
100
AcDbBlockEnd
  0
BLOCK
  5
1823
330
1819
100
AcDbEntity
  8
0
100
AcDbBlockBegin
  2
*D5
 70
     1
 10
0.0
 20
0.0
 30
0.0
  3
*D5
  1

  0
LINE
  5
1DEB
330
1819
100
AcDbEntity
  8
AM_5
100
AcDbLine
 10
-45.00000000000009
 20
3.000000000000064
 30
0.0
 11
-53.71831628338793
 21
3.000000000000066
 31
0.0
  0
LINE
  5
1DEC
330
1819
100
AcDbEntity
  8
AM_5
100
AcDbLine
 10
-45.00000000000008
 20
-2.999999999999935
 30
0.0
 11
-53.71831628338793
 21
-2.999999999999933
 31
0.0
  0
LINE
  5
1DED
330
1819
100
AcDbEntity
  8
AM_5
100
AcDbLine
 10
-53.21831628338793
 20
1.750000000000066
 30
0.0
 11
-53.21831628338793
 21
-1.749999999999933
 31
0.0
  0
INSERT
  5
1DEE
330
1819
100
AcDbEntity
  8
AM_5
100
AcDbBlockReference
  2
_OPEN30
 10
-53.21831628338793
 20
3.000000000000066
 30
0.0
 41
1.25
 42
1.25
 43
1.25
 50
90.0
  0
INSERT
  5
1DEF
330
1819
100
AcDbEntity
  8
AM_5
100
AcDbBlockReference
  2
_OPEN30
 10
-53.21831628338793
 20
-2.999999999999933
 30
0.0
 41
1.25
 42
1.25
 43
1.25
 50
270.0
  0
MTEXT
  5
1DF0
330
1819
100
AcDbEntity
  8
AM_5
 62
     2
100
AcDbMText
 10
-54.76831628338793
 20
0.0000000000000581
 30
0.0
 40
1.6
 41
0.0
 71
     5
 72
     1
  1
%%c6
  7
ASAMI
 11
0.0000000000000001
 21
1.0
 31
0.0
1001
ACAD
1000
MTEXTBEGIN
1070
    73
1070
     1
1070
    44
1040
1.0
1070
    74
1070
     0
1000
MTEXTEND
  0
POINT
  5
1DF1
330
1819
100
AcDbEntity
  8
DEFPOINTS
 62
     0
100
AcDbPoint
 10
-44.50000000000009
 20
3.000000000000063
 30
0.0
  0
POINT
  5
1DF2
330
1819
100
AcDbEntity
  8
DEFPOINTS
 62
     0
100
AcDbPoint
 10
-44.50000000000009
 20
-2.999999999999936
 30
0.0
  0
POINT
  5
1DF3
330
1819
100
AcDbEntity
  8
DEFPOINTS
 62
     0
100
AcDbPoint
 10
-53.21831628338793
 20
-2.999999999999933
 30
0.0
  0
ENDBLK
  5
1824
330
1819
100
AcDbEntity
  8
0
100
AcDbBlockEnd
  0
BLOCK
  5
18B6
330
18AC
100
AcDbEntity
  8
0
100
AcDbBlockBegin
  2
*D6
 70
     1
 10
0.0
 20
0.0
 30
0.0
  3
*D6
  1

  0
LINE
  5
20EF
330
18AC
100
AcDbEntity
  8
AM_5
100
AcDbLine
 10
-45.00000000000008
 20
-2.999999999999936
 30
0.0
 11
-45.00000000000008
 21
-16.50000099999989
 31
0.0
  0
LINE
  5
20F0
330
18AC
100
AcDbEntity
  8
AM_5
100
AcDbLine
 10
-0.0000000000000545
 20
-1.999999999999998
 30
0.0
 11
-0.0000000000000554
 21
-16.50000099999989
 31
0.0
  0
LINE
  5
20F1
330
18AC
100
AcDbEntity
  8
AM_5
100
AcDbLine
 10
-43.75000000000008
 20
-16.00000099999989
 30
0.0
 11
-1.250000000000055
 21
-16.00000099999989
 31
0.0
  0
INSERT
  5
20F2
330
18AC
100
AcDbEntity
  8
AM_5
100
AcDbBlockReference
  2
_OPEN30
 10
-45.00000000000008
 20
-16.00000099999989
 30
0.0
 41
1.25
 42
1.25
 43
1.25
 50
180.0
  0
INSERT
  5
20F3
330
18AC
100
AcDbEntity
  8
AM_5
100
AcDbBlockReference
  2
_OPEN30
 10
-0.0000000000000553
 20
-16.00000099999989
 30
0.0
 41
1.25
 42
1.25
 43
1.25
  0
MTEXT
  5
20F4
330
18AC
100
AcDbEntity
  8
AM_5
 62
     2
100
AcDbMText
 10
-22.50000000000007
 20
-14.45000099999989
 30
0.0
 40
1.6
 41
0.0
 71
     5
 72
     1
  1
45
  7
ASAMI
1001
ACAD
1000
MTEXTBEGIN
1070
    73
1070
     1
1070
    44
1040
1.0
1070
    74
1070
     0
1000
MTEXTEND
  0
POINT
  5
20F5
330
18AC
100
AcDbEntity
  8
DEFPOINTS
 62
     0
100
AcDbPoint
 10
-45.00000000000008
 20
-2.499999999999936
 30
0.0
  0
POINT
  5
20F6
330
18AC
100
AcDbEntity
  8
DEFPOINTS
 62
     0
100
AcDbPoint
 10
-0.0000000000000544
 20
-1.499999999999998
 30
0.0
  0
POINT
  5
20F7
330
18AC
100
AcDbEntity
  8
DEFPOINTS
 62
     0
100
AcDbPoint
 10
-0.0000000000000553
 20
-16.00000099999989
 30
0.0
  0
ENDBLK
  5
18B7
330
18AC
100
AcDbEntity
  8
0
100
AcDbBlockEnd
  0
BLOCK
  5
194A
330
1940
100
AcDbEntity
  8
0
100
AcDbBlockBegin
  2
*D7
 70
     1
 10
0.0
 20
0.0
 30
0.0
  3
*D7
  1

  0
LINE
  5
20F8
330
1940
100
AcDbEntity
  8
AM_5
100
AcDbLine
 10
-10.00000000000009
 20
-2.000000000000005
 30
0.0
 11
-10.00000000000009
 21
-10.5000009999999
 31
0.0
  0
LINE
  5
20F9
330
1940
100
AcDbEntity
  8
AM_5
100
AcDbLine
 10
-0.0000000000000545
 20
-1.999999999999998
 30
0.0
 11
-0.000000000000055
 21
-10.5000009999999
 31
0.0
  0
LINE
  5
20FA
330
1940
100
AcDbEntity
  8
AM_5
100
AcDbLine
 10
-8.750000000000099
 20
-10.0000009999999
 30
0.0
 11
-1.250000000000054
 21
-10.0000009999999
 31
0.0
  0
INSERT
  5
20FB
330
1940
100
AcDbEntity
  8
AM_5
100
AcDbBlockReference
  2
_OPEN30
 10
-10.00000000000009
 20
-10.0000009999999
 30
0.0
 41
1.25
 42
1.25
 43
1.25
 50
180.0
  0
INSERT
  5
20FC
330
1940
100
AcDbEntity
  8
AM_5
100
AcDbBlockReference
  2
_OPEN30
 10
-0.000000000000055
 20
-10.0000009999999
 30
0.0
 41
1.25
 42
1.25
 43
1.25
  0
MTEXT
  5
20FD
330
1940
100
AcDbEntity
  8
AM_5
 62
     2
100
AcDbMText
 10
-5.000000000000077
 20
-8.450000999999899
 30
0.0
 40
1.6
 41
0.0
 71
     5
 72
     1
  1
10
  7
ASAMI
1001
ACAD
1000
MTEXTBEGIN
1070
    73
1070
     1
1070
    44
1040
1.0
1070
    74
1070
     0
1000
MTEXTEND
  0
POINT
  5
20FE
330
1940
100
AcDbEntity
  8
DEFPOINTS
 62
     0
100
AcDbPoint
 10
-10.00000000000009
 20
-1.500000000000005
 30
0.0
  0
POINT
  5
20FF
330
1940
100
AcDbEntity
  8
DEFPOINTS
 62
     0
100
AcDbPoint
 10
-0.0000000000000544
 20
-1.499999999999998
 30
0.0
  0
POINT
  5
2100
330
1940
100
AcDbEntity
  8
DEFPOINTS
 62
     0
100
AcDbPoint
 10
-0.000000000000055
 20
-10.0000009999999
 30
0.0
  0
ENDBLK
  5
194B
330
1940
100
AcDbEntity
  8
0
100
AcDbBlockEnd
  0
BLOCK
  5
19F0
330
19E6
100
AcDbEntity
  8
0
100
AcDbBlockBegin
  2
*D8
 70
     1
 10
0.0
 20
0.0
 30
0.0
  3
*D8
  1

  0
LINE
  5
2293
330
19E6
100
AcDbEntity
  8
AM_5
100
AcDbLine
 10
0.4999999999999456
 20
1.500000000000001
 30
0.0
 11
9.778885015427377
 21
1.499999999999998
 31
0.0
  0
LINE
  5
2294
330
19E6
100
AcDbEntity
  8
AM_5
100
AcDbLine
 10
0.4999999999999456
 20
-1.499999999999998
 30
0.0
 11
9.778885015427377
 21
-1.500000000000001
 31
0.0
  0
LINE
  5
2295
330
19E6
100
AcDbEntity
  8
AM_5
100
AcDbLine
 10
9.278885015427377
 20
2.749999999999998
 30
0.0
 11
9.278885015427379
 21
3.999999999999998
 31
0.0
  0
LINE
  5
2296
330
19E6
100
AcDbEntity
  8
AM_5
100
AcDbLine
 10
9.278885015427377
 20
-2.750000000000001
 30
0.0
 11
9.278885015427375
 21
-8.014285714285714
 31
0.0
  0
LINE
  5
2297
330
19E6
100
AcDbEntity
  8
AM_5
100
AcDbLine
 10
9.278885015427377
 20
1.499999999999998
 30
0.0
 11
9.278885015427377
 21
-1.500000000000001
 31
0.0
  0
INSERT
  5
2298
330
19E6
100
AcDbEntity
  8
AM_5
100
AcDbBlockReference
  2
_OPEN30
 10
9.278885015427377
 20
1.499999999999998
 30
0.0
 41
1.25
 42
1.25
 43
1.25
 50
270.0
  0
INSERT
  5
2299
330
19E6
100
AcDbEntity
  8
AM_5
100
AcDbBlockReference
  2
_OPEN30
 10
9.278885015427377
 20
-1.500000000000001
 30
0.0
 41
1.25
 42
1.25
 43
1.25
 50
90.0
  0
MTEXT
  5
229A
330
19E6
100
AcDbEntity
  8
AM_5
 62
     2
100
AcDbMText
 10
7.728885015427376
 20
-6.007142857142857
 30
0.0
 40
1.6
 41
0.0
 71
     5
 72
     1
  1
%%c3
  7
ASAMI
 11
0.0000000000000001
 21
1.0
 31
0.0
1001
ACAD
1000
MTEXTBEGIN
1070
    73
1070
     1
1070
    44
1040
1.0
1070
    74
1070
     0
1000
MTEXTEND
  0
POINT
  5
229B
330
19E6
100
AcDbEntity
  8
DEFPOINTS
 62
     0
100
AcDbPoint
 10
-0.0000000000000544
 20
1.500000000000001
 30
0.0
  0
POINT
  5
229C
330
19E6
100
AcDbEntity
  8
DEFPOINTS
 62
     0
100
AcDbPoint
 10
-0.0000000000000544
 20
-1.499999999999998
 30
0.0
  0
POINT
  5
229D
330
19E6
100
AcDbEntity
  8
DEFPOINTS
 62
     0
100
AcDbPoint
 10
9.278885015427377
 20
-1.500000000000001
 30
0.0
  0
ENDBLK
  5
19F1
330
19E6
100
AcDbEntity
  8
0
100
AcDbBlockEnd
  0
ENDSEC
  0
SECTION
  2
ENTITIES
  0
TEXT
  5
E5A
330
1F
100
AcDbEntity
  8
AM_6
100
AcDbText
 10
-30.47619047619054
 20
-27.2500009999999
 30
0.0
 40
2.5
  1
JSM4030
 72
     4
 11
-22.50000000000006
 21
-26.0000009999999
 31
0.0
100
AcDbText
  0
LINE
  5
178E
330
1F
100
AcDbEntity
  8
AM_7
  6
AM_ISO08W050X2
100
AcDbLine
 10
2.278884015427379
 20
0.0
 30
0.0
 11
-46.21831528338794
 21
-0.0000000000000213
 31
0.0
1001
GENIUS_GENODEF_13
1002
{
1000
HIER
1070
     0
1002
}
1002
{
1000
MANEDIT
1070
     0
1002
}
1002
{
1000
NOSEL
1070
     0
1002
}
1002
{
1000
BEHIND
1070
     0
1002
}
1002
{
1000
REACTOR
1002
}
1001
GENIUS_GENOBJ-N-CEN_13
1002
{
1000
OWNER
1000
GEN
1002
}
  0
LINE
  5
17D6
330
1F
100
AcDbEntity
  8
AM_0
100
AcDbLine
 10
-45.00000000000009
 20
2.500000000000063
 30
0.0
 11
-45.00000000000008
 21
-2.499999999999936
 31
0.0
  0
LINE
  5
17D7
330
1F
100
AcDbEntity
  8
AM_0
100
AcDbLine
 10
-44.50000000000009
 20
-2.999999999999936
 30
0.0
 11
-19.00000000000007
 21
-2.999999999999941
 31
0.0
  0
LINE
  5
17D8
330
1F
100
AcDbEntity
  8
AM_0
100
AcDbLine
 10
-44.50000000000009
 20
3.000000000000063
 30
0.0
 11
-19.0000000000001
 21
3.00000000000007
 31
0.0
  0
LINE
  5
17E6
330
1F
100
AcDbEntity
  8
AM_0
100
AcDbLine
 10
-44.50000000000009
 20
3.000000000000063
 30
0.0
 11
-45.00000000000009
 21
2.500000000000063
 31
0.0
1001
GENIUS_GENFIL_13
1070
     0
1040
0.5
1040
0.5
1040
20.0
1040
0.0
1002
{
1002
}
1001
GENIUS_GENODEF_13
1002
{
1000
HIER
1070
     0
1002
}
1002
{
1000
MANEDIT
1070
     0
1002
}
1002
{
1000
NOSEL
1070
     0
1002
}
1002
{
1000
BEHIND
1070
     0
1002
}
1002
{
1000
REACTOR
1002
}
1001
GENIUS_GENOBJ-N-CHA_13
1002
{
1000
OWNER
1000
GEN
1002
}
  0
LINE
  5
17E9
330
1F
100
AcDbEntity
  8
AM_0
100
AcDbLine
 10
-45.00000000000008
 20
-2.499999999999936
 30
0.0
 11
-44.50000000000009
 21
-2.999999999999936
 31
0.0
1001
GENIUS_GENFIL_13
1070
     0
1040
0.5
1040
0.5
1040
20.0
1040
0.0
1002
{
1002
}
1001
GENIUS_GENODEF_13
1002
{
1000
HIER
1070
     0
1002
}
1002
{
1000
MANEDIT
1070
     0
1002
}
1002
{
1000
NOSEL
1070
     0
1002
}
1002
{
1000
BEHIND
1070
     0
1002
}
1002
{
1000
REACTOR
1002
}
1001
GENIUS_GENOBJ-N-CHA_13
1002
{
1000
OWNER
1000
GEN
1002
}
  0
LINE
  5
17EA
330
1F
100
AcDbEntity
  8
AM_0
100
AcDbLine
 10
-44.50000000000009
 20
3.000000000000063
 30
0.0
 11
-44.50000000000009
 21
-2.999999999999921
 31
0.0
  0
DIMENSION
  5
1818
330
1F
100
AcDbEntity
  8
AM_5
100
AcDbDimension
  2
*D5
 10
-53.21831628338793
 20
-2.999999999999933
 30
0.0
 11
-54.76831628338793
 21
0.0000000000000581
 31
0.0
 70
    32
  1
%%c<>
  3
AM_JIS
100
AcDbAlignedDimension
 13
-44.50000000000009
 23
3.000000000000063
 33
0.0
 14
-44.50000000000009
 24
-2.999999999999936
 34
0.0
 50
270.0000000000001
100
AcDbRotatedDimension
1001
GENIUS_GENDTOL_13
1000

1000
h7
1000

1040
0.0
  0
DIMENSION
  5
18AB
330
1F
100
AcDbEntity
  8
AM_5
100
AcDbDimension
  2
*D6
 10
-0.0000000000000553
 20
-16.00000099999989
 30
0.0
 11
-22.50000000000007
 21
-14.45000099999989
 31
0.0
 70
    32
  1
<>
  3
AM_JIS
100
AcDbAlignedDimension
 13
-45.00000000000008
 23
-2.499999999999936
 33
0.0
 14
-0.0000000000000544
 24
-1.499999999999998
 34
0.0
 50
0.0000000000001132
100
AcDbRotatedDimension
1001
GENIUS_GENDTOL_13
1000

1000
h7
1000

1040
0.0
  0
DIMENSION
  5
193F
330
1F
100
AcDbEntity
  8
AM_5
100
AcDbDimension
  2
*D7
 10
-0.000000000000055
 20
-10.0000009999999
 30
0.0
 11
-5.000000000000077
 21
-8.450000999999899
 31
0.0
 70
    32
  1
<>
  3
AM_JIS
100
AcDbAlignedDimension
 13
-10.00000000000009
 23
-1.500000000000005
 33
0.0
 14
-0.0000000000000544
 24
-1.499999999999998
 34
0.0
 50
0.0000000000001132
100
AcDbRotatedDimension
1001
GENIUS_GENDTOL_13
1000

1000
h7
1000

1040
0.0
  0
DIMENSION
  5
19E5
330
1F
100
AcDbEntity
  8
AM_5
100
AcDbDimension
  2
*D8
 10
9.278885015427377
 20
-1.500000000000001
 30
0.0
 11
7.728885015427376
 21
-6.007142857142857
 31
0.0
 70
    32
  1
%%c<>
  3
AM_JIS
100
AcDbAlignedDimension
 13
-0.0000000000000544
 23
1.500000000000001
 33
0.0
 14
-0.0000000000000544
 24
-1.499999999999998
 34
0.0
 50
90.00000000000003
100
AcDbRotatedDimension
1001
GENIUS_GENDTOL_13
1000

1000
h7
1000

1040
0.0
  0
LINE
  5
1D65
330
1F
100
AcDbEntity
  8
AM_0
100
AcDbLine
 10
-0.0000000000000544
 20
0.0000000000000015
 30
0.0
 11
-0.0306000000000526
 21
0.3000000000000332
 31
0.0
  0
LINE
  5
1D66
330
1F
100
AcDbEntity
  8
AM_0
100
AcDbLine
 10
-0.3111070519145615
 20
0.8001422442031181
 30
0.0
 11
-0.6867724787550028
 21
0.9025360267584236
 31
0.0
  0
LINE
  5
1D67
330
1F
100
AcDbEntity
  8
AM_0
100
AcDbLine
 10
-0.0306000000000526
 20
0.3000000000000332
 30
0.0
 11
-0.3111070519145615
 21
0.8001422442031181
 31
0.0
  0
LINE
  5
1D68
330
1F
100
AcDbEntity
  8
AM_0
100
AcDbLine
 10
-0.0000000000000544
 20
0.0000000000000015
 30
0.0
 11
-0.6867724787550028
 21
0.0000000000000015
 31
0.0
  0
LINE
  5
1D69
330
1F
100
AcDbEntity
  8
AM_0
100
AcDbLine
 10
-0.0000000000000544
 20
0.0000000000000015
 30
0.0
 11
-0.0000000000000544
 21
1.500000000000001
 31
0.0
  0
LINE
  5
1D79
330
1F
100
AcDbEntity
  8
AM_11
100
AcDbLine
 10
-0.0000000000002792
 20
1.500000000000001
 30
0.0
 11
-10.00000000000006
 21
1.499999999999994
 31
0.0
  0
SPLINE
  5
1D7A
330
1F
100
AcDbEntity
  8
AM_0
100
AcDbSpline
210
0.0
220
0.0
230
1.0
 70
     8
 71
     3
 72
     8
 73
     4
 74
     0
 42
0.0000000001
 43
0.0000000001
 40
0.0
 40
0.0
 40
0.0
 40
0.0
 40
5.071498792270384
 40
5.071498792270384
 40
5.071498792270384
 40
5.071498792270384
 10
-7.926857142857191
 20
1.500000000000025
 30
0.0
 10
-6.519257478063781
 20
1.500000000000026
 30
0.0
 10
-5.241343024746202
 20
0.7500000000000286
 30
0.0
 10
-3.963428571428622
 20
0.0000000000000289
 30
0.0
  0
SPLINE
  5
1D7D
330
1F
100
AcDbEntity
  8
AM_0
100
AcDbSpline
210
0.0
220
0.0
230
1.0
 70
     8
 71
     3
 72
     8
 73
     4
 74
     0
 42
0.0000000001
 43
0.0000000001
 40
0.7142832446738512
 40
0.7142832446738512
 40
0.7142832446738512
 40
0.7142832446738512
 40
14.36247867694493
 40
14.36247867694493
 40
14.36247867694493
 40
14.36247867694493
 10
-7.011607604726944
 20
1.398287241574778
 30
0.0
 10
-5.309514305160945
 20
1.316342110642652
 30
0.0
 10
-4.089268150495527
 20
0.6581710553213331
 30
0.0
 10
-2.869021995830111
 20
0.0000000000000137
 30
0.0
  0
SPLINE
  5
1D7E
330
1F
100
AcDbEntity
  8
AM_0
100
AcDbSpline
210
0.0
220
0.0
230
1.0
 70
     8
 71
     3
 72
     8
 73
     4
 74
     0
 42
0.0000000001
 43
0.0000000001
 40
0.0
 40
0.0
 40
0.0
 40
0.0
 40
5.071498792270391
 40
5.071498792270391
 40
5.071498792270391
 40
5.071498792270391
 10
-3.963428571428628
 20
1.500000000000028
 30
0.0
 10
-2.555828906635215
 20
1.50000000000003
 30
0.0
 10
-1.277914453317634
 20
0.7500000000000303
 30
0.0
 10
-0.0000000000000544
 20
0.000000000000032
 30
0.0
  0
SPLINE
  5
1D80
330
1F
100
AcDbEntity
  8
AM_0
100
AcDbSpline
210
0.0
220
0.0
230
1.0
 70
     8
 71
     3
 72
     8
 73
     4
 74
     0
 42
0.0000000001
 43
0.0000000001
 40
0.0
 40
0.0
 40
0.0
 40
0.0
 40
5.635889483499127
 40
5.635889483499127
 40
5.635889483499127
 40
5.635889483499127
 10
-0.0000000000000544
 20
1.500000000000001
 30
0.0
 10
-0.5474864069685433
 20
1.500000000000001
 30
0.0
 10
-1.075353725403723
 20
1.386538208693739
 30
0.0
 10
-1.594441753620734
 20
1.190995873812869
 30
0.0
  0
SPLINE
  5
1D81
330
1F
100
AcDbEntity
  8
AM_0
100
AcDbSpline
210
0.0
220
0.0
230
1.0
 70
     8
 71
     3
 72
     8
 73
     4
 74
     0
 42
0.0000000001
 43
0.0000000001
 40
0.0
 40
0.0
 40
0.0
 40
0.0
 40
0.9052978632658483
 40
0.9052978632658483
 40
0.9052978632658483
 40
0.9052978632658483
 10
-0.0000000000000544
 20
1.222410806005188
 30
0.0
 10
-0.161237922318055
 20
1.024032958845302
 30
0.0
 10
-0.4379936842315725
 20
0.9388421390773052
 30
0.0
 10
-0.6867724787550027
 20
0.9025360267584233
 30
0.0
  0
SPLINE
  5
1D82
330
1F
100
AcDbEntity
  8
AM_0
100
AcDbSpline
210
0.0
220
0.0
230
1.0
 70
     8
 71
     3
 72
     8
 73
     4
 74
     0
 42
0.0000000001
 43
0.0000000001
 40
0.7142832446738512
 40
0.7142832446738512
 40
0.7142832446738512
 40
0.7142832446738512
 40
9.361146747480315
 40
9.361146747480315
 40
9.361146747480315
 40
9.361146747480315
 10
-2.918436483801984
 20
1.368266131795588
 30
0.0
 10
-1.828176901304108
 20
1.33973503169147
 30
0.0
 10
-1.032951479564908
 20
1.060730964839888
 30
0.0
 10
-0.25174917392079
 20
0.694307534844286
 30
0.0
  0
SPLINE
  5
1D84
330
1F
100
AcDbEntity
  8
AM_0
100
AcDbSpline
210
0.0
220
0.0
230
1.0
 70
     8
 71
     3
 72
     8
 73
     4
 74
     0
 42
0.0000000001
 43
0.0000000001
 40
0.0
 40
0.0
 40
0.0
 40
0.0
 40
5.635889483499305
 40
5.635889483499305
 40
5.635889483499305
 40
5.635889483499305
 10
-3.963428571428688
 20
1.500000000000028
 30
0.0
 10
-4.510914978397194
 20
1.500000000000028
 30
0.0
 10
-5.03878229683238
 20
1.386538208693769
 30
0.0
 10
-5.562110395908879
 20
1.175465834652919
 30
0.0
  0
LINE
  5
1D86
330
1F
100
AcDbEntity
  8
AM_0
100
AcDbLine
 10
-0.0306000000000526
 20
-0.3980693563689565
 30
0.0
 11
-0.0000000000000544
 21
-0.2999999999999996
 31
0.0
  0
LINE
  5
1D87
330
1F
100
AcDbEntity
  8
AM_0
100
AcDbLine
 10
-0.0000000000000544
 20
-1.499999999999998
 30
0.0
 11
-0.0306000000000526
 21
-1.420032347286547
 31
0.0
  0
LINE
  5
1D89
330
1F
100
AcDbEntity
  8
AM_0
100
AcDbLine
 10
-0.0000000000000544
 20
-1.499999999999998
 30
0.0
 11
-0.0000000000000544
 21
-0.2999999999999996
 31
0.0
  0
ELLIPSE
  5
1D8A
330
1F
100
AcDbEntity
  8
AM_0
100
AcDbEllipse
 10
0.5786818987621577
 20
-0.7631640494153693
 30
0.0
 11
-0.0000000000000052
 21
0.9122094346548156
 31
0.0
210
0.0
220
0.0
230
1.0
 40
0.9714285714285704
 41
1.211124581303818
 42
2.069278538290312
  0
LINE
  5
1D8B
330
1F
100
AcDbEntity
  8
AM_0
100
AcDbLine
 10
-0.6867724787550028
 20
-0.2400000000000025
 30
0.0
 11
-0.2507620415443381
 21
-0.4420964295499614
 31
0.0
  0
LINE
  5
1D8C
330
1F
100
AcDbEntity
  8
AM_0
100
AcDbLine
 10
-0.2507620415443381
 20
-0.4420964295499614
 30
0.0
 11
-0.0306000000000526
 21
-0.3980693563689565
 31
0.0
  0
LINE
  5
1D8D
330
1F
100
AcDbEntity
  8
AM_0
100
AcDbLine
 10
-0.0306000000000526
 20
-1.420032347286529
 30
0.0
 11
-0.1996285714286265
 21
-1.199284996638574
 31
0.0
  0
LINE
  5
1D8E
330
1F
100
AcDbEntity
  8
AM_0
100
AcDbLine
 10
-0.6867724787550028
 20
-0.2400000000000025
 30
0.0
 11
-0.0336512728328245
 21
-0.2400000000000025
 31
0.0
  0
LINE
  5
1D91
330
1F
100
AcDbEntity
  8
AM_11
100
AcDbLine
 10
-10.00000000000009
 20
-1.500000000000005
 30
0.0
 11
-0.0000000000000544
 21
-1.499999999999998
 31
0.0
  0
SPLINE
  5
1D96
330
1F
100
AcDbEntity
  8
AM_0
100
AcDbSpline
210
0.0
220
0.0
230
1.0
 70
     8
 71
     3
 72
     8
 73
     4
 74
     0
 42
0.0000000001
 43
0.0000000001
 40
0.0
 40
0.0
 40
0.0
 40
0.0
 40
2.764560748519282
 40
2.764560748519282
 40
2.764560748519282
 40
2.764560748519282
 10
-3.454754926390251
 20
-1.455085101100617
 30
0.0
 10
-3.186197596534095
 20
-1.455085101100617
 30
0.0
 10
-2.922122046755654
 20
-1.428414344553019
 30
0.0
 10
-2.661670174865229
 20
-1.380179336952935
 30
0.0
  0
SPLINE
  5
1D97
330
1F
100
AcDbEntity
  8
AM_0
100
AcDbSpline
210
0.0
220
0.0
230
1.0
 70
     8
 71
     3
 72
     8
 73
     4
 74
     0
 42
0.0000000001
 43
0.0000000001
 40
0.0
 40
0.0
 40
0.0
 40
0.0
 40
4.451443990518192
 40
4.451443990518192
 40
4.451443990518192
 40
4.451443990518192
 10
-2.86902199583017
 20
-1.385233351140808
 30
0.0
 10
-2.436596008179827
 20
-1.385233351140808
 30
0.0
 10
-2.014842685277081
 20
-1.318700524274234
 30
0.0
 10
-1.600454187965323
 20
-1.206255764677043
 30
0.0
  0
SPLINE
  5
1D98
330
1F
100
AcDbEntity
  8
AM_0
100
AcDbSpline
210
0.0
220
0.0
230
1.0
 70
     8
 71
     3
 72
     8
 73
     4
 74
     0
 42
0.0000000001
 43
0.0000000001
 40
0.0
 40
0.0
 40
0.0
 40
0.0
 40
2.130230809022907
 40
2.130230809022907
 40
2.130230809022907
 40
2.130230809022907
 10
-3.963428571428682
 20
-1.500000000000003
 30
0.0
 10
-3.75649186426645
 20
-1.500000000000001
 30
0.0
 10
-3.552358054586486
 20
-1.483790186346052
 30
0.0
 10
-3.350615077516928
 20
-1.453753626855771
 30
0.0
  0
LINE
  5
1D9C
330
1F
100
AcDbEntity
  8
AM_0
100
AcDbLine
 10
-0.0000000000000544
 20
-0.2999999999999996
 30
0.0
 11
-0.168256364163899
 21
0.0000000000000167
 31
0.0
  0
LINE
  5
1D9D
330
1F
100
AcDbEntity
  8
AM_0
100
AcDbLine
 10
-0.0000000000000544
 20
0.0000000000000015
 30
0.0
 11
-0.0258912746648699
 21
-0.2538360261257238
 31
0.0
  0
LINE
  5
1D9E
330
1F
100
AcDbEntity
  8
AM_0
100
AcDbLine
 10
-0.6867724787550028
 20
0.0000000000000015
 30
0.0
 11
-0.6867724787550028
 21
-0.2400000000000025
 31
0.0
  0
SPLINE
  5
1DA6
330
1F
100
AcDbEntity
  8
AM_0
100
AcDbSpline
210
0.0
220
0.0
230
1.0
 70
     8
 71
     3
 72
     8
 73
     4
 74
     0
 42
0.0000000001
 43
0.0000000001
 40
0.0
 40
0.0
 40
0.0
 40
0.0
 40
5.071498792270384
 40
5.071498792270384
 40
5.071498792270384
 40
5.071498792270384
 10
-3.963428571428682
 20
-1.49999999999997
 30
0.0
 10
-5.589826989756705
 20
-1.281201246465361
 30
0.0
 10
-6.648942689539673
 20
-0.7499999999999739
 30
0.0
 10
-7.667110101858114
 20
0.0000000000000259
 30
0.0
  0
SPLINE
  5
1DA8
330
1F
100
AcDbEntity
  8
AM_0
100
AcDbSpline
210
0.0
220
0.0
230
1.0
 70
     8
 71
     3
 72
     8
 73
     4
 74
     0
 42
0.0000000001
 43
0.0000000001
 40
0.0
 40
0.0
 40
0.0
 40
0.0
 40
5.026867536930726
 40
5.026867536930726
 40
5.026867536930726
 40
5.026867536930726
 10
-2.86902199583017
 20
-1.385233351140774
 30
0.0
 10
-4.264234210161962
 20
-1.385233351140776
 30
0.0
 10
-5.54834238871035
 20
-0.6926166755703652
 30
0.0
 10
-6.677436269432028
 20
0.0000000000000442
 30
0.0
  0
SPLINE
  5
1DA9
330
1F
100
AcDbEntity
  8
AM_0
100
AcDbSpline
210
0.0
220
0.0
230
1.0
 70
     8
 71
     3
 72
     8
 73
     4
 74
     0
 42
0.0000000001
 43
0.0000000001
 40
0.0
 40
0.0
 40
0.0
 40
0.0
 40
5.071498792270383
 40
5.071498792270383
 40
5.071498792270383
 40
5.071498792270383
 10
-0.0000000000000544
 20
-1.499999999999998
 30
0.0
 10
-1.407599664793466
 20
-1.499999999999999
 30
0.0
 10
-2.685514118111044
 20
-0.7500000000000028
 30
0.0
 10
-3.963428571428622
 20
-0.0000000000000046
 30
0.0
  0
SPLINE
  5
1DAA
330
1F
100
AcDbEntity
  8
AM_0
100
AcDbSpline
210
0.0
220
0.0
230
1.0
 70
     8
 71
     3
 72
     8
 73
     4
 74
     0
 42
0.0000000001
 43
0.0000000001
 40
4.542668862435135
 40
4.542668862435135
 40
4.542668862435135
 40
4.542668862435135
 40
14.36247867694493
 40
14.36247867694493
 40
14.36247867694493
 40
14.36247867694493
 10
-0.1996285714282241
 20
-1.199284996636987
 30
0.0
 10
-1.113099723883669
 20
-0.9471017059718576
 30
0.0
 10
-1.991060859856893
 20
-0.4735508529859235
 30
0.0
 10
-2.869021995830111
 20
0.0000000000000137
 30
0.0
  0
LINE
  5
1DFC
330
1F
100
AcDbEntity
  8
AM_0
100
AcDbLine
 10
-19.0000000000001
 20
3.000000000000071
 30
0.0
 11
-19.00000000000008
 21
-2.999999999999942
 31
0.0
  0
LINE
  5
1E14
330
1F
100
AcDbEntity
  8
AM_0
100
AcDbLine
 10
-11.35506265884366
 20
1.499999999999994
 30
0.0
 11
-13.40192378864649
 21
1.499999999999993
 31
0.0
  0
LINE
  5
1E15
330
1F
100
AcDbEntity
  8
AM_0
100
AcDbLine
 10
-10.96045760178055
 20
-1.500000000000006
 30
0.0
 11
-13.40192378864693
 21
-1.500000000000007
 31
0.0
  0
LINE
  5
1E1F
330
1F
100
AcDbEntity
  8
AM_0
100
AcDbLine
 10
-19.0000000000001
 20
3.000000000000071
 30
0.0
 11
-13.40192378864649
 21
1.499999999999993
 31
0.0
  0
LINE
  5
1E20
330
1F
100
AcDbEntity
  8
AM_0
100
AcDbLine
 10
-13.40192378864649
 20
1.499999999999993
 30
0.0
 11
-13.40192378864693
 21
-1.500000000000007
 31
0.0
  0
LINE
  5
1E21
330
1F
100
AcDbEntity
  8
AM_0
100
AcDbLine
 10
-13.401923788647
 20
-1.500000000000007
 30
0.0
 11
-19.00000000000008
 21
-2.999999999999942
 31
0.0
  0
LINE
  5
2052
330
1F
100
AcDbEntity
  8
AM_11
100
AcDbLine
 10
-10.00000000000009
 20
-1.500000000000005
 30
0.0
 11
-10.00000000000006
 21
1.499999999999994
 31
0.0
  0
POLYLINE
  5
209E
330
1F
100
AcDbEntity
  8
AM_0
100
AcDb2dPolyline
 66
     1
 10
0.0
 20
0.0
 30
0.0
 70
     2
  0
VERTEX
  5
209F
330
209E
100
AcDbEntity
  8
AM_0
100
AcDbVertex
100
AcDb2dVertex
 10
-10.0000000000001
 20
1.123483486365409
 30
0.0
 42
0.0113495642762015
  0
VERTEX
  5
20A0
330
209E
100
AcDbEntity
  8
AM_0
100
AcDbVertex
100
AcDb2dVertex
 10
-10.34971598318504
 20
1.175846163403222
 30
0.0
 42
0.0187918863228812
 70
     1
  0
VERTEX
  5
20A1
330
209E
100
AcDbEntity
  8
AM_0
100
AcDbVertex
100
AcDb2dVertex
 10
-10.5625000000001
 20
1.194694172270574
 30
0.0
 42
0.0075788461628208
  0
VERTEX
  5
20A2
330
209E
100
AcDbEntity
  8
AM_0
100
AcDbVertex
100
AcDb2dVertex
 10
-11.12814765104924
 20
1.214845852323127
 30
0.0
 42
0.0232722457202398
 70
     1
  0
VERTEX
  5
20A3
330
209E
100
AcDbEntity
  8
AM_0
100
AcDbVertex
100
AcDb2dVertex
 10
-11.3125000000001
 20
1.210036354397936
 30
0.0
 42
0.0542958387243925
  0
VERTEX
  5
20A4
330
209E
100
AcDbEntity
  8
AM_0
100
AcDbVertex
100
AcDb2dVertex
 10
-11.48858882609926
 20
1.17779268346698
 30
0.0
 42
0.4413285869607302
 70
     1
  0
VERTEX
  5
20A5
330
209E
100
AcDbEntity
  8
AM_0
100
AcDbVertex
100
AcDb2dVertex
 10
-11.5000000000001
 20
1.154167850620134
 30
0.0
 42
0.0678159998049314
  0
VERTEX
  5
20A6
330
209E
100
AcDbEntity
  8
AM_0
100
AcDbVertex
100
AcDb2dVertex
 10
-11.4859513054327
 20
1.129442146473978
 30
0.0
 42
0.006836731909696
 70
     1
  0
VERTEX
  5
20A7
330
209E
100
AcDbEntity
  8
AM_0
100
AcDbVertex
100
AcDb2dVertex
 10
-11.3125000000001
 20
0.9086058401177098
 30
0.0
 42
0.0061465077983929
  0
VERTEX
  5
20A8
330
209E
100
AcDbEntity
  8
AM_0
100
AcDbVertex
100
AcDb2dVertex
 10
-11.05104767759594
 20
0.5929556941138343
 30
0.0
 42
0.0039869705606079
 70
     1
  0
VERTEX
  5
20A9
330
209E
100
AcDbEntity
  8
AM_0
100
AcDbVertex
100
AcDb2dVertex
 10
-10.61717352113702
 20
0.1336082232005895
 30
0.0
 42
0.0689315603773871
  0
VERTEX
  5
20AA
330
209E
100
AcDbEntity
  8
AM_0
100
AcDbVertex
100
AcDb2dVertex
 10
-10.42363093913573
 20
-0.0274970186550438
 30
0.0
 42
0.0283969782476205
 70
     1
  0
VERTEX
  5
20AB
330
209E
100
AcDbEntity
  8
AM_0
100
AcDbVertex
100
AcDb2dVertex
 10
-10.00000000000008
 20
-0.2856925231873533
 30
0.0
  0
SEQEND
  5
20AC
330
209E
100
AcDbEntity
  8
AM_0
  0
SPLINE
  5
20AE
330
1F
100
AcDbEntity
  8
AM_0
100
AcDbSpline
210
0.0
220
0.0
230
1.0
 70
     8
 71
     3
 72
     8
 73
     4
 74
     0
 42
0.0000000001
 43
0.0000000001
 40
1.090140354492627
 40
1.090140354492627
 40
1.090140354492627
 40
1.090140354492627
 40
13.8620608180077
 40
13.8620608180077
 40
13.8620608180077
 40
13.8620608180077
 10
-11.35506265884366
 20
1.499999999999994
 30
0.0
 10
-8.845950959315841
 20
1.177027557579987
 30
0.0
 10
-7.667190057129602
 20
0.5809448612743056
 30
0.0
 10
-6.677436269431946
 20
-0.0000000000000043
 30
0.0
  0
SPLINE
  5
20AF
330
1F
100
AcDbEntity
  8
AM_0
100
AcDbSpline
210
0.0
220
0.0
230
1.0
 70
     8
 71
     3
 72
     8
 73
     4
 74
     0
 42
0.0000000001
 43
0.0000000001
 40
5.360156850992435
 40
5.360156850992435
 40
5.360156850992435
 40
5.360156850992435
 40
14.48999654934396
 40
14.48999654934396
 40
14.48999654934396
 40
14.48999654934396
 10
-10.00000000000011
 20
1.123483486365409
 30
0.0
 10
-9.137737551210497
 20
0.8385300161361271
 30
0.0
 10
-8.308868775605299
 20
0.3659709130027529
 30
0.0
 10
-7.667110101858114
 20
0.000000000000026
 30
0.0
  0
LINE
  5
20B2
330
1F
100
AcDbEntity
  8
AM_0
100
AcDbLine
 10
-10.00000000000008
 20
-0.2856925231873533
 30
0.0
 11
-10.00000000000009
 21
-0.8974014090973025
 31
0.0
  0
ARC
  5
20B4
330
1F
100
AcDbEntity
  8
AM_0
100
AcDbCircle
 10
-11.58342848931938
 20
-4.133247940017432
 30
0.0
 40
3.602491992004399
100
AcDbArc
 50
63.9256569400123
 51
76.66668070587397
  0
SPLINE
  5
20B5
330
1F
100
AcDbEntity
  8
AM_0
100
AcDbSpline
210
0.0
220
0.0
230
1.0
 70
     8
 71
     3
 72
     8
 73
     4
 74
     0
 42
0.0000000001
 43
0.0000000001
 40
0.0
 40
0.0
 40
0.0
 40
0.0
 40
4.451443990518192
 40
4.451443990518192
 40
4.451443990518192
 40
4.451443990518192
 10
-10.75263752066683
 20
-1.447330173359798
 30
0.0
 10
-9.990898117322487
 20
-1.443471004278255
 30
0.0
 10
-9.5567402849226
 20
-1.376938177411681
 30
0.0
 10
-9.137272852428901
 20
-1.26636287545426
 30
0.0
  0
POLYLINE
  5
20B6
330
1F
100
AcDbEntity
  8
AM_0
100
AcDb2dPolyline
 66
     1
 10
0.0
 20
0.0
 30
0.0
 70
     2
  0
VERTEX
  5
20B7
330
20B6
100
AcDbEntity
  8
AM_0
100
AcDbVertex
100
AcDb2dVertex
 10
-10.75263752066684
 20
-1.447330173359798
 30
0.0
 42
-0.0230918143391583
  0
VERTEX
  5
20B8
330
20B6
100
AcDbEntity
  8
AM_0
100
AcDbVertex
100
AcDb2dVertex
 10
-10.92559284425757
 20
-1.403498030282329
 30
0.0
 42
-0.0355587143075394
 70
     1
  0
VERTEX
  5
20B9
330
20B6
100
AcDbEntity
  8
AM_0
100
AcDbVertex
100
AcDb2dVertex
 10
-11.03388752066684
 20
-1.362058203364899
 30
0.0
 42
-0.0216088548285507
  0
VERTEX
  5
20BA
330
20B6
100
AcDbEntity
  8
AM_0
100
AcDbVertex
100
AcDb2dVertex
 10
-11.28655478751959
 20
-1.230592006242652
 30
0.0
 42
-0.0414110700152503
 70
     1
  0
VERTEX
  5
20BB
330
20B6
100
AcDbEntity
  8
AM_0
100
AcDbVertex
100
AcDb2dVertex
 10
-11.40888752066684
 20
-1.145862608639181
 30
0.0
 42
-0.0653031023268945
  0
VERTEX
  5
20BC
330
20B6
100
AcDbEntity
  8
AM_0
100
AcDbVertex
100
AcDb2dVertex
 10
-11.48769011365447
 20
-1.061586746781781
 30
0.0
 42
-0.1569363594221426
 70
     1
  0
VERTEX
  5
20BD
330
20B6
100
AcDbEntity
  8
AM_0
100
AcDbVertex
100
AcDb2dVertex
 10
-11.50263752066684
 20
-1.014938983908348
 30
0.0
 42
-0.1617045000652558
  0
VERTEX
  5
20BE
330
20B6
100
AcDbEntity
  8
AM_0
100
AcDbVertex
100
AcDb2dVertex
 10
-11.48743192160906
 20
-0.9693407510825092
 30
0.0
 42
-0.0680210806811403
 70
     1
  0
VERTEX
  5
20BF
330
20B6
100
AcDbEntity
  8
AM_0
100
AcDbVertex
100
AcDb2dVertex
 10
-11.40888752066684
 20
-0.8896795576608344
 30
0.0
 42
-0.0450747416233525
  0
VERTEX
  5
20C0
330
20B6
100
AcDbEntity
  8
AM_0
100
AcDbVertex
100
AcDb2dVertex
 10
-11.28770626857789
 20
-0.8125971522404501
 30
0.0
 42
-0.0231467319857815
 70
     1
  0
VERTEX
  5
20C1
330
20B6
100
AcDbEntity
  8
AM_0
100
AcDbVertex
100
AcDb2dVertex
 10
-11.03388752066684
 20
-0.6961407568684313
 30
0.0
 42
-0.0364444523572374
  0
VERTEX
  5
20C2
330
20B6
100
AcDbEntity
  8
AM_0
100
AcDbVertex
100
AcDb2dVertex
 10
-10.92365515648531
 20
-0.6607062626932217
 30
0.0
 42
-0.0242139410122645
 70
     1
  0
VERTEX
  5
20C3
330
20B6
100
AcDbEntity
  8
AM_0
100
AcDbVertex
100
AcDb2dVertex
 10
-10.75263752066684
 20
-0.6278613823235167
 30
0.0
  0
SEQEND
  5
20C4
330
20B6
100
AcDbEntity
  8
AM_0
  0
ARC
  5
20C5
330
1F
100
AcDbEntity
  8
AM_0
100
AcDbCircle
 10
-11.55953134210395
 20
1.300107976256892
 30
0.0
 40
2.863475864232589
100
AcDbArc
 50
282.0761821003259
 51
286.3669614370607
  0
SPLINE
  5
20C7
330
1F
100
AcDbEntity
  8
AM_0
100
AcDbSpline
210
0.0
220
0.0
230
1.0
 70
     8
 71
     3
 72
     8
 73
     4
 74
     0
 42
0.0000000001
 43
0.0000000001
 40
2.398293923793958
 40
2.398293923793958
 40
2.398293923793958
 40
2.398293923793958
 40
8.782560574003049
 40
8.782560574003049
 40
8.782560574003049
 40
8.782560574003049
 10
-8.060120879087179
 20
-1.491237659350488
 30
0.0
 10
-8.812326534823238
 20
-1.399664970897439
 30
0.0
 10
-9.431422595869722
 20
-1.212742952898531
 30
0.0
 10
-10.00000000000009
 20
-0.8974014090973039
 30
0.0
  0
SPLINE
  5
20CA
330
1F
100
AcDbEntity
  8
AM_0
100
AcDbSpline
210
0.0
220
0.0
230
1.0
 70
     8
 71
     3
 72
     8
 73
     4
 74
     0
 42
0.0000000001
 43
0.0000000001
 40
0.0
 40
0.0
 40
0.0
 40
0.0
 40
12.79333816032526
 40
12.79333816032526
 40
12.79333816032526
 40
12.79333816032526
 10
-6.353404995707575
 20
-1.444818225536521
 30
0.0
 10
-7.632738811740101
 20
-1.444818225536524
 30
0.0
 10
-8.82132653658579
 20
-0.8952749364427162
 30
0.0
 10
-10.00000000000007
 20
-0.2856925231873064
 30
0.0
  0
SPLINE
  5
20CB
330
1F
100
AcDbEntity
  8
AM_0
100
AcDbSpline
210
0.0
220
0.0
230
1.0
 70
     8
 71
     3
 72
     8
 73
     4
 74
     0
 42
0.0000000001
 43
0.0000000001
 40
0.0
 40
0.0
 40
0.0
 40
0.0
 40
4.451443990518192
 40
4.451443990518192
 40
4.451443990518192
 40
4.451443990518192
 10
-6.353404995707575
 20
-1.444818225536556
 30
0.0
 10
-5.908260596655751
 20
-1.444818225536556
 30
0.0
 10
-5.474102764255865
 20
-1.378285398669979
 30
0.0
 10
-5.047526369964349
 20
-1.26584063907279
 30
0.0
  0
SPLINE
  5
20E1
330
1F
100
AcDbEntity
  8
AM_0
100
AcDbSpline
210
0.0
220
0.0
230
1.0
 70
     8
 71
     3
 72
     8
 73
     4
 74
     0
 42
0.0000000001
 43
0.0000000001
 40
0.0
 40
0.0
 40
0.0
 40
0.0
 40
5.635889483499305
 40
5.635889483499305
 40
5.635889483499305
 40
5.635889483499305
 10
-7.926857142857363
 20
1.500000000000028
 30
0.0
 10
-8.490446091207298
 20
1.500000000000028
 30
0.0
 10
-9.03383891900823
 20
1.386538208693767
 30
0.0
 10
-9.564890914770552
 20
1.203745631511381
 30
0.0
  0
SPLINE
  5
22DD
330
1F
100
AcDbEntity
  8
AM_0
100
AcDbSpline
210
0.0
220
0.0
230
1.0
 70
     8
 71
     3
 72
     9
 73
     5
 74
     3
 42
0.0000000001
 43
0.0000000001
 44
0.0000000001
 40
0.0
 40
0.0
 40
0.0
 40
0.0
 40
0.2949531350789414
 40
1.707924004099197
 40
1.707924004099197
 40
1.707924004099197
 40
1.707924004099197
 10
-8.060120879087179
 20
-1.491237659350488
 30
0.0
 10
-7.961843832036904
 20
-1.494742194114238
 30
0.0
 10
-7.39277129899118
 20
-1.515035177420235
 30
0.0
 10
-6.82397333219021
 20
-1.476608629108787
 30
0.0
 10
-6.353404995707575
 20
-1.444818225536521
 30
0.0
 11
-8.060120879087179
 21
-1.491237659350488
 31
0.0
 11
-7.765297926657694
 21
-1.500000000000006
 31
0.0
 11
-6.353404995707575
 21
-1.444818225536521
 31
0.0
  0
VIEWPORT
  5
110
330
101
100
AcDbEntity
 67
     1
  8
0
100
AcDbViewport
 10
420.5
 20
297.0
 30
0.0
 40
948.9782706766916
 41
628.452
 68
     1
 69
     1
1001
ACAD
1000
MVIEW
1002
{
1070
    16
1010
0.0
1020
0.0
1030
0.0
1010
0.0
1020
0.0
1030
1.0
1040
0.0
1040
628.452
1040
420.5
1040
297.0
1040
50.0
1040
0.0
1040
0.0
1070
     0
1070
   100
1070
     1
1070
     1
1070
     0
1070
     0
1070
     0
1070
     0
1040
0.0
1040
0.0
1040
0.0
1040
10.0
1040
10.0
1040
10.0
1040
10.0
1070
     0
1002
{
1002
}
1002
}
  0
ENDSEC
  0
SECTION
  2
OBJECTS
  0
DICTIONARY
  5
C
330
0
100
AcDbDictionary
  3
ACAD_GROUP
350
D
  3
ACAD_LAYOUT
350
1A
  3
ACAD_MLINESTYLE
350
17
  3
ACAD_PLOTSETTINGS
350
19
  3
ACAD_PLOTSTYLENAME
350
E
  3
ACDBVARIABLEDICTIONARY
350
34
  3
ACMDICTIONARY
350
43
  3
AMG
350
2B
  3
AMGSNAPSETTINGS
350
6E
  3
DWGPROPS
350
233D
  3
ACDBHEADERROUNDTRIPXREC
350
234A
  0
DICTIONARY
  5
74
330
1F
100
AcDbDictionary
280
     1
  3
ACAD_INDEX
360
233F
  3
ACAD_LAYOUTSELFREF
360
236D
  0
DICTIONARY
  5
2372
330
101
100
AcDbDictionary
280
     1
  3
ACAD_LAYOUTSELFREF
360
2373
  0
DICTIONARY
  5
D
102
{ACAD_REACTORS
330
C
102
}
330
C
100
AcDbDictionary
  0
DICTIONARY
  5
1A
102
{ACAD_REACTORS
330
C
102
}
330
C
100
AcDbDictionary
  0
DICTIONARY
  5
17
102
{ACAD_REACTORS
330
C
102
}
330
C
100
AcDbDictionary
  3
STANDARD
350
18
  0
DICTIONARY
  5
19
102
{ACAD_REACTORS
330
C
102
}
330
C
100
AcDbDictionary
  0
ACDBDICTIONARYWDFLT
  5
E
102
{ACAD_REACTORS
330
C
102
}
330
C
100
AcDbDictionary
281
     1
  3
Normal
350
F
100
AcDbDictionaryWithDefault
340
F
  0
DICTIONARY
  5
34
102
{ACAD_REACTORS
330
C
102
}
330
C
100
AcDbDictionary
  3
INDEXCTL
350
35
  3
SORTENTS
350
B5E
  0
DICTIONARY
  5
43
102
{ACAD_REACTORS
330
C
102
}
330
C
100
AcDbDictionary
  3
ACMSTDDICTIONARY
350
260
  0
DICTIONARY
  5
2B
102
{ACAD_REACTORS
330
C
102
}
330
C
100
AcDbDictionary
  3
ACMGSETTINGS
350
2C
  0
DICTIONARY
  5
6E
102
{ACAD_REACTORS
330
C
102
}
330
C
100
AcDbDictionary
  0
XRECORD
  5
233D
102
{ACAD_REACTORS
330
C
102
}
330
C
100
AcDbXrecord
  1
DWGPROPS COOKIE
  2

  3

  4

  6

  7

  8

  9

300
AmdtFileType=82
301
=
302
=
303
=
304
=
305
=
306
=
307
=
308
=
309
=
 40
0.073339849537037
 41
2452836.771637361
 42
2453045.499611029
  1

 90
        1
  0
DICTIONARY
  5
234A
102
{ACAD_REACTORS
330
C
102
}
330
C
100
AcDbDictionary
  3
TSTACKALIGN
350
234B
  3
TSTACKSIZE
350
234C
  3
HYPERLINKBASE
350
234D
  3
STYLESHEET
350
234E
  3
LAYOUTDICT
350
234F
  3
PLOTSETDICT
350
2350
  3
PLOTSTYLNAMDICT
350
2351
  3
LWETCUNION
350
2352
  3
INSUNITS
350
2353
  3
CEPSNTYPE
350
2354
  3
FINGERPRINTGUID
350
2355
  3
VERSIONGUID
350
2356
  3
PSVPSCALE
350
2357
  3
DIMSTYLEDATA
350
2358
  3
PUCSORTHOREF
350
2359
  3
PUCSORTHOVIEW
350
235A
  3
PUCSBASE
350
235B
  3
PUCSORGTOP
350
235C
  3
PUCSORGBOTTOM
350
235D
  3
PUCSORGLEFT
350
235E
  3
PUCSORGRIGHT
350
235F
  3
PUCSORGFRONT
350
2360
  3
PUCSORGBACK
350
2361
  3
UCSORTHOREF
350
2362
  3
UCSORTHOVIEW
350
2363
  3
UCSBASE
350
2364
  3
UCSORGTOP
350
2365
  3
UCSORGBOTTOM
350
2366
  3
UCSORGLEFT
350
2367
  3
UCSORGRIGHT
350
2368
  3
UCSORGFRONT
350
2369
  3
UCSORGBACK
350
236A
  0
DICTIONARY
  5
233F
102
{ACAD_REACTORS
330
74
102
}
330
74
100
AcDbDictionary
  3
*A1
350
2340
  0
XRECORD
  5
236D
102
{ACAD_REACTORS
330
74
102
}
330
74
100
AcDbXrecord
340
1F
  0
XRECORD
  5
2373
102
{ACAD_REACTORS
330
2372
102
}
330
2372
100
AcDbXrecord
340
101
  0
MLINESTYLE
  5
18
102
{ACAD_REACTORS
330
17
102
}
330
17
100
AcDbMlineStyle
  2
STANDARD
 70
     0
  3

 62
   256
 51
90.0
 52
90.0
 71
     2
 49
0.5
 62
   256
  6
BYLAYER
 49
-0.5
 62
   256
  6
BYLAYER
  0
ACDBPLACEHOLDER
  5
F
102
{ACAD_REACTORS
330
E
102
}
330
E
100
AcDbPlaceHolder
280
     0
  0
DICTIONARYVAR
  5
35
102
{ACAD_REACTORS
330
34
102
}
330
34
100
DictionaryVariables
280
     0
  1
1
  0
DICTIONARYVAR
  5
B5E
102
{ACAD_REACTORS
330
34
102
}
330
34
100
DictionaryVariables
280
     0
  1
96
  0
DICTIONARY
  5
260
102
{ACAD_REACTORS
330
43
102
}
330
43
100
AcDbDictionary
  0
DICTIONARY
  5
2C
102
{ACAD_REACTORS
330
2B
102
}
330
2B
100
AcDbDictionary
  3
DWGSETTINGS
350
2D
  0
XRECORD
  5
234B
102
{ACAD_REACTORS
330
234A
102
}
330
234A
100
AcDbXrecord
 90
        1
  0
XRECORD
  5
234C
102
{ACAD_REACTORS
330
234A
102
}
330
234A
100
AcDbXrecord
 90
       70
  0
XRECORD
  5
234D
102
{ACAD_REACTORS
330
234A
102
}
330
234A
100
AcDbXrecord
  1

  0
XRECORD
  5
234E
102
{ACAD_REACTORS
330
234A
102
}
330
234A
100
AcDbXrecord
  1
ASAMI.ctb
  0
XRECORD
  5
234F
102
{ACAD_REACTORS
330
234A
102
}
330
234A
100
AcDbXrecord
340
1A
  0
XRECORD
  5
2350
102
{ACAD_REACTORS
330
234A
102
}
330
234A
100
AcDbXrecord
340
19
  0
XRECORD
  5
2351
102
{ACAD_REACTORS
330
234A
102
}
330
234A
100
AcDbXrecord
340
E
  0
XRECORD
  5
2352
102
{ACAD_REACTORS
330
234A
102
}
330
234A
100
AcDbXrecord
 90
    10781
  0
XRECORD
  5
2353
102
{ACAD_REACTORS
330
234A
102
}
330
234A
100
AcDbXrecord
 90
        4
  0
XRECORD
  5
2354
102
{ACAD_REACTORS
330
234A
102
}
330
234A
100
AcDbXrecord
 90
        0
  0
XRECORD
  5
2355
102
{ACAD_REACTORS
330
234A
102
}
330
234A
100
AcDbXrecord
  1
{AFB28963-8C59-40AE-9337-C84526B81ACE}
  0
XRECORD
  5
2356
102
{ACAD_REACTORS
330
234A
102
}
330
234A
100
AcDbXrecord
  1
{EAACDCA9-618D-4EF8-90BE-0B7071996C8B}
  0
XRECORD
  5
2357
102
{ACAD_REACTORS
330
234A
102
}
330
234A
100
AcDbXrecord
 40
0.0
  0
XRECORD
  5
2358
102
{ACAD_REACTORS
330
234A
102
}
330
234A
100
AcDbXrecord
1000
DSTYLE
1002
{
1070
    79
 70
     2
1070
   341
340
59
1070
   342
340
59
1070
   371
 70
    -1
1070
   372
 70
    -1
1002
}
  0
XRECORD
  5
2359
102
{ACAD_REACTORS
330
234A
102
}
330
234A
100
AcDbXrecord
340
0
  0
XRECORD
  5
235A
102
{ACAD_REACTORS
330
234A
102
}
330
234A
100
AcDbXrecord
 70
     0
  0
XRECORD
  5
235B
102
{ACAD_REACTORS
330
234A
102
}
330
234A
100
AcDbXrecord
340
0
  0
XRECORD
  5
235C
102
{ACAD_REACTORS
330
234A
102
}
330
234A
100
AcDbXrecord
 10
0.0
 20
0.0
 30
0.0
  0
XRECORD
  5
235D
102
{ACAD_REACTORS
330
234A
102
}
330
234A
100
AcDbXrecord
 10
0.0
 20
0.0
 30
0.0
  0
XRECORD
  5
235E
102
{ACAD_REACTORS
330
234A
102
}
330
234A
100
AcDbXrecord
 10
0.0
 20
0.0
 30
0.0
  0
XRECORD
  5
235F
102
{ACAD_REACTORS
330
234A
102
}
330
234A
100
AcDbXrecord
 10
0.0
 20
0.0
 30
0.0
  0
XRECORD
  5
2360
102
{ACAD_REACTORS
330
234A
102
}
330
234A
100
AcDbXrecord
 10
0.0
 20
0.0
 30
0.0
  0
XRECORD
  5
2361
102
{ACAD_REACTORS
330
234A
102
}
330
234A
100
AcDbXrecord
 10
0.0
 20
0.0
 30
0.0
  0
XRECORD
  5
2362
102
{ACAD_REACTORS
330
234A
102
}
330
234A
100
AcDbXrecord
340
0
  0
XRECORD
  5
2363
102
{ACAD_REACTORS
330
234A
102
}
330
234A
100
AcDbXrecord
 70
     0
  0
XRECORD
  5
2364
102
{ACAD_REACTORS
330
234A
102
}
330
234A
100
AcDbXrecord
340
0
  0
XRECORD
  5
2365
102
{ACAD_REACTORS
330
234A
102
}
330
234A
100
AcDbXrecord
 10
0.0
 20
0.0
 30
0.0
  0
XRECORD
  5
2366
102
{ACAD_REACTORS
330
234A
102
}
330
234A
100
AcDbXrecord
 10
0.0
 20
0.0
 30
0.0
  0
XRECORD
  5
2367
102
{ACAD_REACTORS
330
234A
102
}
330
234A
100
AcDbXrecord
 10
0.0
 20
0.0
 30
0.0
  0
XRECORD
  5
2368
102
{ACAD_REACTORS
330
234A
102
}
330
234A
100
AcDbXrecord
 10
0.0
 20
0.0
 30
0.0
  0
XRECORD
  5
2369
102
{ACAD_REACTORS
330
234A
102
}
330
234A
100
AcDbXrecord
 10
0.0
 20
0.0
 30
0.0
  0
XRECORD
  5
236A
102
{ACAD_REACTORS
330
234A
102
}
330
234A
100
AcDbXrecord
 10
0.0
 20
0.0
 30
0.0
  0
LAYER_INDEX
  5
2340
102
{ACAD_REACTORS
330
233F
102
}
330
233F
100
AcDbIndex
 40
2453152.457484907
100
AcDbLayerIndex
  8
0
360
2341
 90
        0
  8
AM_0
360
2342
 90
       55
  8
AM_11
360
2343
 90
        3
  8
AM_7
360
2344
 90
        1
  8
AM_5
360
2345
 90
        4
  8
Defpoints
360
2346
 90
        0
  8
AM_6
360
2347
 90
        1
  8
AM_CL
360
2348
 90
        0
  0
XRECORD
  5
2D
102
{ACAD_REACTORS
330
2C
102
}
330
2C
100
AcDbXrecord
  1
VERSION
140
15.0
  1
PRODUCT
  2
AutoCAD Mechanical 2000
  0
IDBUFFER
  5
2341
330
0
100
AcDbIdBuffer
  0
IDBUFFER
  5
2342
330
0
100
AcDbIdBuffer
330
20B6
330
20C5
330
20C7
330
20CA
330
20CB
330
20E1
330
22DD
330
17D6
330
17D7
330
17D8
330
17E6
330
17E9
330
17EA
330
1D65
330
1D66
330
1D67
330
1D68
330
1D69
330
1D7A
330
1D7D
330
1D7E
330
1D80
330
1D81
330
1D82
330
1D84
330
1D86
330
1D87
330
1D89
330
1D8A
330
1D8B
330
1D8C
330
1D8D
330
1D8E
330
1D96
330
1D97
330
1D98
330
1D9C
330
1D9D
330
1D9E
330
1DA6
330
1DA8
330
1DA9
330
1DAA
330
1DFC
330
1E14
330
1E15
330
1E1F
330
1E20
330
1E21
330
209E
330
20AE
330
20AF
330
20B2
330
20B4
330
20B5
  0
IDBUFFER
  5
2343
330
0
100
AcDbIdBuffer
330
1D79
330
1D91
330
2052
  0
IDBUFFER
  5
2344
330
0
100
AcDbIdBuffer
330
178E
  0
IDBUFFER
  5
2345
330
0
100
AcDbIdBuffer
330
1818
330
18AB
330
193F
330
19E5
  0
IDBUFFER
  5
2346
330
0
100
AcDbIdBuffer
  0
IDBUFFER
  5
2347
330
0
100
AcDbIdBuffer
330
E5A
  0
IDBUFFER
  5
2348
330
0
100
AcDbIdBuffer
  0
ENDSEC
  0
EOF
