  0
SECTION
  2
HEADER
  9
$ACADVER
  1
AC1014
  9
$ACADMAINTVER
 70
     9
  9
$DWGCODEPAGE
  3
ANSI_932
  9
$INSBASE
 10
0.0
 20
0.0
 30
0.0
  9
$EXTMIN
 10
-60.56831628338794
 20
-27.2500009999999
 30
-0.00000001
  9
$EXTMAX
 10
9.778885015427377
 20
3.028349673591788
 30
0.00000001
  9
$LIMMIN
 10
-62.44926534414389
 20
-30.79158841064975
  9
$LIMMAX
 10
13.48027085814578
 20
9.499628682869058
  9
$ORTHOMODE
 70
     0
  9
$REGENMODE
 70
     1
  9
$FILLMODE
 70
     1
  9
$QTEXTMODE
 70
     0
  9
$MIRRTEXT
 70
     0
  9
$DRAGMODE
 70
     2
  9
$LTSCALE
 40
1.0
  9
$OSMODE
 70
    55
  9
$ATTMODE
 70
     1
  9
$TEXTSIZE
 40
2.5
  9
$TRACEWID
 40
1.0
  9
$TEXTSTYLE
  7
STANDARD
  9
$CLAYER
  8
AM_0
  9
$CELTYPE
  6
BYLAYER
  9
$CECOLOR
 62
   256
  9
$CELTSCALE
 40
1.0
  9
$DELOBJ
 70
     1
  9
$DISPSILH
 70
     0
  9
$DIMSCALE
 40
0.5
  9
$DIMASZ
 40
2.5
  9
$DIMEXO
 40
1.0
  9
$DIMDLI
 40
12.0
  9
$DIMRND
 40
0.0
  9
$DIMDLE
 40
0.0
  9
$DIMEXE
 40
1.0
  9
$DIMTP
 40
0.1
  9
$DIMTM
 40
0.1
  9
$DIMTXT
 40
3.2
  9
$DIMCEN
 40
0.0
  9
$DIMTSZ
 40
0.0
  9
$DIMTOL
 70
     0
  9
$DIMLIM
 70
     0
  9
$DIMTIH
 70
     0
  9
$DIMTOH
 70
     0
  9
$DIMSE1
 70
     0
  9
$DIMSE2
 70
     0
  9
$DIMTAD
 70
     3
  9
$DIMZIN
 70
     8
  9
$DIMBLK
  1
OPEN30
  9
$DIMASO
 70
     1
  9
$DIMSHO
 70
     1
  9
$DIMPOST
  1

  9
$DIMAPOST
  1
"
  9
$DIMALT
 70
     0
  9
$DIMALTD
 70
     2
  9
$DIMALTF
 40
0.0393701
  9
$DIMLFAC
 40
1.0
  9
$DIMTOFL
 70
     1
  9
$DIMTVP
 40
0.0
  9
$DIMTIX
 70
     0
  9
$DIMSOXD
 70
     0
  9
$DIMSAH
 70
     0
  9
$DIMBLK1
  1

  9
$DIMBLK2
  1

  9
$DIMSTYLE
  2
AM_JIS
  9
$DIMCLRD
 70
   256
  9
$DIMCLRE
 70
   256
  9
$DIMCLRT
 70
     2
  9
$DIMTFAC
 40
0.71
  9
$DIMGAP
 40
1.5
  9
$DIMJUST
 70
     0
  9
$DIMSD1
 70
     0
  9
$DIMSD2
 70
     0
  9
$DIMTOLJ
 70
     0
  9
$DIMTZIN
 70
     0
  9
$DIMALTZ
 70
     0
  9
$DIMALTTZ
 70
     0
  9
$DIMFIT
 70
     3
  9
$DIMUPT
 70
     0
  9
$DIMUNIT
 70
     2
  9
$DIMDEC
 70
     3
  9
$DIMTDEC
 70
     3
  9
$DIMALTU
 70
     2
  9
$DIMALTTD
 70
     2
  9
$DIMTXSTY
  7
ASAMI
  9
$DIMAUNIT
 70
     0
  9
$LUNITS
 70
     2
  9
$LUPREC
 70
     2
  9
$SKETCHINC
 40
1.0
  9
$FILLETRAD
 40
2.5
  9
$AUNITS
 70
     0
  9
$AUPREC
 70
     0
  9
$MENU
  1
.
  9
$ELEVATION
 40
0.0
  9
$PELEVATION
 40
0.0
  9
$THICKNESS
 40
0.0
  9
$LIMCHECK
 70
     0
  9
$BLIPMODE
 70
     0
  9
$CHAMFERA
 40
0.5
  9
$CHAMFERB
 40
0.5
  9
$CHAMFERC
 40
20.0
  9
$CHAMFERD
 40
0.0
  9
$SKPOLY
 70
     0
  9
$TDCREATE
 40
2452836.771637361
  9
$TDUPDATE
 40
2453152.454836539
  9
$TDINDWG
 40
0.0386845139
  9
$TDUSRTIMER
 40
0.0386845139
  9
$USRTIMER
 70
     1
  9
$ANGBASE
 50
0.0
  9
$ANGDIR
 70
     0
  9
$PDMODE
 70
     0
  9
$PDSIZE
 40
0.0
  9
$PLINEWID
 40
0.0
  9
$COORDS
 70
     1
  9
$SPLFRAME
 70
     0
  9
$SPLINETYPE
 70
     6
  9
$SPLINESEGS
 70
     8
  9
$ATTDIA
 70
     1
  9
$ATTREQ
 70
     1
  9
$HANDLING
 70
 12289
  9
$HANDSEED
  5
1C3E
  9
$SURFTAB1
 70
     6
  9
$SURFTAB2
 70
     6
  9
$SURFTYPE
 70
     6
  9
$SURFU
 70
     6
  9
$SURFV
 70
     6
  9
$UCSNAME
  2

  9
$UCSORG
 10
0.0
 20
0.0
 30
0.0
  9
$UCSXDIR
 10
1.0
 20
0.0
 30
0.0
  9
$UCSYDIR
 10
0.0
 20
1.0
 30
0.0
  9
$PUCSNAME
  2

  9
$PUCSORG
 10
0.0
 20
0.0
 30
0.0
  9
$PUCSXDIR
 10
1.0
 20
0.0
 30
0.0
  9
$PUCSYDIR
 10
0.0
 20
1.0
 30
0.0
  9
$USERI1
 70
     0
  9
$USERI2
 70
     0
  9
$USERI3
 70
     0
  9
$USERI4
 70
     0
  9
$USERI5
 70
     0
  9
$USERR1
 40
0.0
  9
$USERR2
 40
0.0
  9
$USERR3
 40
0.0
  9
$USERR4
 40
0.0
  9
$USERR5
 40
0.0
  9
$WORLDVIEW
 70
     1
  9
$SHADEDGE
 70
     3
  9
$SHADEDIF
 70
    70
  9
$TILEMODE
 70
     1
  9
$MAXACTVP
 70
    64
  9
$PINSBASE
 10
0.0
 20
0.0
 30
0.0
  9
$PLIMCHECK
 70
     0
  9
$PEXTMIN
 10
1.000000000000000E+20
 20
1.000000000000000E+20
 30
1.000000000000000E+20
  9
$PEXTMAX
 10
-1.000000000000000E+20
 20
-1.000000000000000E+20
 30
-1.000000000000000E+20
  9
$PLIMMIN
 10
0.0
 20
0.0
  9
$PLIMMAX
 10
841.0
 20
594.0
  9
$UNITMODE
 70
     0
  9
$VISRETAIN
 70
     1
  9
$PLINEGEN
 70
     0
  9
$PSLTSCALE
 70
     0
  9
$TREEDEPTH
 70
  3020
  9
$PICKSTYLE
 70
     0
  9
$CMLSTYLE
  2
STANDARD
  9
$CMLJUST
 70
     0
  9
$CMLSCALE
 40
20.0
  9
$PROXYGRAPHICS
 70
     1
  9
$MEASUREMENT
 70
     1
  0
ENDSEC
  0
SECTION
  2
CLASSES
  0
CLASS
  1
ACDBDICTIONARYWDFLT
  2
AcDbDictionaryWithDefault
  3
AutoCAD 2000
 90
        0
280
     0
281
     0
  0
CLASS
  1
ACDBPLACEHOLDER
  2
AcDbPlaceHolder
  3
AutoCAD 2000
 90
        0
280
     0
281
     0
  0
CLASS
  1
LAYOUT
  2
AcDbLayout
  3
AutoCAD 2000
 90
        0
280
     0
281
     0
  0
CLASS
  1
AMGSETTINGSOBJ
  2
AmgSettingsObj
  3
"AcadM|Product Description: AutoCAD Mechanical 2000|Company: Autodesk"
 90
        0
280
     0
281
     0
  0
CLASS
  1
ACME_DOCUMENT
  2
AcMeDbDoc
  3
AcMeServices
 90
        0
280
     0
281
     0
  0
CLASS
  1
ACMESCOPE
  2
AcMeScope
  3
AcMeServices
 90
        0
280
     0
281
     0
  0
CLASS
  1
ACMECOMMANDHISTORY
  2
AcMeCommandHistory
  3
AcMeServices
 90
        0
280
     0
281
     0
  0
CLASS
  1
DICTIONARYVAR
  2
AcDbDictionaryVar
  3
AutoCAD 2000
 90
        0
280
     0
281
     0
  0
CLASS
  1
ACIMSYSVARMAN
  2
AcImSysVarManager
  3
AcMeServices
 90
        0
280
     0
281
     0
  0
CLASS
  1
ACIMREALSYSVAR
  2
AcImRealSysVar
  3
AcMeServices
 90
        0
280
     0
281
     0
  0
CLASS
  1
ACIMINTSYSVAR
  2
AcImIntSysVar
  3
AcMeServices
 90
        0
280
     0
281
     0
  0
CLASS
  1
ACMEDRAWINGMAN
  2
AcMeDrawingMan
  3
AcMeServices
 90
        0
280
     0
281
     0
  0
CLASS
  1
ACMEVIEW
  2
AcMeView
  3
AcMeServices
 90
        0
280
     0
281
     0
  0
CLASS
  1
ACDBENTITYCACHE
  2
AcMeEntityCache
  3
AcMeServices
 90
        0
280
     0
281
     0
  0
CLASS
  1
GSMANAGER
  2
AcMeGSManager
  3
AcMeServices
 90
        0
280
     0
281
     0
  0
CLASS
  1
AmdtInternalReactor
  2
AmdtInternalReactor
  3
AcMeServices
 90
        0
280
     0
281
     0
  0
CLASS
  1
ACMESTATEMGR
  2
AcMeStateMgr
  3
AcMeServices
 90
        0
280
     0
281
     0
  0
CLASS
  1
ACME_DATABASE
  2
AcMeDbDatabase
  3
AcMeServices
 90
        0
280
     0
281
     0
  0
CLASS
  1
ACRFINSADJUSTERMGR
  2
AcRfInsAdjusterMgr
  3
AcMeServices
 90
        0
280
     0
281
     0
  0
CLASS
  1
ACMDATADICTIONARY
  2
AcmDataDictionary
  3
"AcmSymBB|Product Description: AutoCAD Mechanical 2000|Company: Autodesk"
 90
        0
280
     0
281
     0
  0
CLASS
  1
ACMDATAENTRYBLOCK
  2
AcmDataEntryBlock
  3
"AcmSymBB|Product Description: AutoCAD Mechanical 2000|Company: Autodesk"
 90
        0
280
     0
281
     0
  0
CLASS
  1
AMGOBJPROPCFG
  2
AmgObjPropCfg
  3
"AmgLay|Product Description: AutoCAD Mechanical 2000|Company: Autodesk"
 90
        1
280
     0
281
     0
  0
CLASS
  1
ACAMGFILTERDAT
  2
AcAmgFilterDat
  3
"AcadM|Product Description: AutoCAD Mechanical 2000|Company: Autodesk"
 90
        0
280
     0
281
     0
  0
CLASS
  1
LAYER_INDEX
  2
AcDbLayerIndex
  3
AutoCAD 2000
 90
        0
280
     0
281
     0
  0
CLASS
  1
IDBUFFER
  2
AcDbIdBuffer
  3
AutoCAD 2000
 90
        0
280
     0
281
     0
  0
CLASS
  1
ACIMSTRSYSVAR
  2
AcImStrSysVar
  3
AcMeServices
 90
        0
280
     0
281
     0
  0
CLASS
  1
ACMSTANDARDJIS
  2
AcmStandardJIS
  3
"AcmSymBB|Product Description: AutoCAD Mechanical 2000|Company: Autodesk"
 90
        0
280
     0
281
     0
  0
CLASS
  1
ACMSURFSTANDARDJIS
  2
AcmSurfTextStdJIS
  3
"AcmSymBB|Product Description: AutoCAD Mechanical 2000|Company: Autodesk"
 90
        0
280
     0
281
     0
  0
CLASS
  1
ACMFCFSTANDARDJIS
  2
AcmFCFStdJIS
  3
"AcmSymBB|Product Description: AutoCAD Mechanical 2000|Company: Autodesk"
 90
        0
280
     0
281
     0
  0
CLASS
  1
ACMWELDSTANDARDJIS
  2
AcmWeldingStdJIS
  3
"AcmSymBB|Product Description: AutoCAD Mechanical 2000|Company: Autodesk"
 90
        0
280
     0
281
     0
  0
CLASS
  1
ACMIDSTANDARDJIS
  2
AcmIdStdJIS
  3
"AcmSymBB|Product Description: AutoCAD Mechanical 2000|Company: Autodesk"
 90
        0
280
     0
281
     0
  0
CLASS
  1
ACMDATUMSTANDARDJIS
  2
AcmDatumStdJIS
  3
"AcmSymBB|Product Description: AutoCAD Mechanical 2000|Company: Autodesk"
 90
        0
280
     0
281
     0
  0
CLASS
  1
ACMBOMSTANDARDJIS
  2
AcmBOMStdJIS
  3
"AcmSymBB|Product Description: AutoCAD Mechanical 2000|Company: Autodesk"
 90
        0
280
     0
281
     0
  0
CLASS
  1
ACMSTANDARDANSI
  2
AcmStandardANSI
  3
"AcmSymBB|Product Description: AutoCAD Mechanical 2000|Company: Autodesk"
 90
        0
280
     0
281
     0
  0
CLASS
  1
ACMSURFSTANDARDANSI
  2
AcmSurfTextStdANSI
  3
"AcmSymBB|Product Description: AutoCAD Mechanical 2000|Company: Autodesk"
 90
        0
280
     0
281
     0
  0
CLASS
  1
ACMFCFSTANDARDANSI
  2
AcmFCFStdANSI
  3
"AcmSymBB|Product Description: AutoCAD Mechanical 2000|Company: Autodesk"
 90
        0
280
     0
281
     0
  0
CLASS
  1
ACMWELDSTANDARDANSI
  2
AcmWeldingStdANSI
  3
"AcmSymBB|Product Description: AutoCAD Mechanical 2000|Company: Autodesk"
 90
        0
280
     0
281
     0
  0
CLASS
  1
ACMIDSTANDARDANSI
  2
AcmIdStdANSI
  3
"AcmSymBB|Product Description: AutoCAD Mechanical 2000|Company: Autodesk"
 90
        0
280
     0
281
     0
  0
CLASS
  1
ACMDATUMSTANDARDANSI
  2
AcmDatumStdANSI
  3
"AcmSymBB|Product Description: AutoCAD Mechanical 2000|Company: Autodesk"
 90
        0
280
     0
281
     0
  0
CLASS
  1
ACMBOMSTANDARDANSI
  2
AcmBOMStdANSI
  3
"AcmSymBB|Product Description: AutoCAD Mechanical 2000|Company: Autodesk"
 90
        0
280
     0
281
     0
  0
CLASS
  1
ACMSTANDARDBSI
  2
AcmStandardBSI
  3
"AcmSymBB|Product Description: AutoCAD Mechanical 2000|Company: Autodesk"
 90
        0
280
     0
281
     0
  0
CLASS
  1
ACMSURFSTANDARDBSI
  2
AcmSurfTextStdBSI
  3
"AcmSymBB|Product Description: AutoCAD Mechanical 2000|Company: Autodesk"
 90
        0
280
     0
281
     0
  0
CLASS
  1
ACMFCFSTANDARDBSI
  2
AcmFCFStdBSI
  3
"AcmSymBB|Product Description: AutoCAD Mechanical 2000|Company: Autodesk"
 90
        0
280
     0
281
     0
  0
CLASS
  1
ACMWELDSTANDARDBSI
  2
AcmWeldingStdBSI
  3
"AcmSymBB|Product Description: AutoCAD Mechanical 2000|Company: Autodesk"
 90
        0
280
     0
281
     0
  0
CLASS
  1
ACMIDSTANDARDBSI
  2
AcmIdStdBSI
  3
"AcmSymBB|Product Description: AutoCAD Mechanical 2000|Company: Autodesk"
 90
        0
280
     0
281
     0
  0
CLASS
  1
ACMDATUMSTANDARDBSI
  2
AcmDatumStdBSI
  3
"AcmSymBB|Product Description: AutoCAD Mechanical 2000|Company: Autodesk"
 90
        0
280
     0
281
     0
  0
CLASS
  1
ACMBOMSTANDARDBSI
  2
AcmBOMStdBSI
  3
"AcmSymBB|Product Description: AutoCAD Mechanical 2000|Company: Autodesk"
 90
        0
280
     0
281
     0
  0
CLASS
  1
LONG_TRANSACTION
  2
AcDbLongTransaction
  3
AutoCAD 2000
 90
        0
280
     0
281
     0
  0
CLASS
  1
LWPOLYLINE
  2
AcDbPolyline
  3
AutoCAD 2000
 90
        0
280
     0
281
     1
  0
CLASS
  1
HATCH
  2
AcDbHatch
  3
AutoCAD 2000
 90
        0
280
     0
281
     1
  0
CLASS
  1
XRECORD
  2
AcDbXrecord
  3
AutoCAD 2000
 90
        0
280
     0
281
     0
  0
ENDSEC
  0
SECTION
  2
TABLES
  0
TABLE
  2
VPORT
  5
8
330
0
100
AcDbSymbolTable
 70
     3
  0
VPORT
  5
1C13
330
8
100
AcDbSymbolTableRecord
100
AcDbViewportTableRecord
  2
*ACTIVE
 70
     0
 10
0.0
 20
0.0
 11
1.0
 21
1.0
 12
-25.39399239684212
 22
-12.11072929457131
 13
0.0
 23
0.0
 14
2.5
 24
2.5
 15
10.0
 25
10.0
 16
0.0
 26
0.0
 36
1.0
 17
0.0
 27
0.0
 37
0.0
 40
45.11661074093171
 41
1.56570841889117
 42
50.0
 43
0.0
 44
0.0
 50
0.0
 51
0.0
 71
     0
 72
   100
 73
     1
 74
     3
 75
     0
 76
     0
 77
     0
 78
     0
  0
ENDTAB
  0
TABLE
  2
LTYPE
  5
5
330
0
100
AcDbSymbolTable
 70
    10
  0
LTYPE
  5
14
330
5
100
AcDbSymbolTableRecord
100
AcDbLinetypeTableRecord
  2
BYBLOCK
 70
     0
  3

 72
    65
 73
     0
 40
0.0
  0
LTYPE
  5
15
330
5
100
AcDbSymbolTableRecord
100
AcDbLinetypeTableRecord
  2
BYLAYER
 70
     0
  3

 72
    65
 73
     0
 40
0.0
  0
LTYPE
  5
16
330
5
100
AcDbSymbolTableRecord
100
AcDbLinetypeTableRecord
  2
CONTINUOUS
 70
     0
  3
Solid line
 72
    65
 73
     0
 40
0.0
  0
LTYPE
  5
4B
330
5
100
AcDbSymbolTableRecord
100
AcDbLinetypeTableRecord
  2
AM_ISO02W050
 70
     0
  3
__ __ __ __ __ __ __ __ __ __ __ __ __ __ __
 72
    65
 73
     2
 40
7.5
 49
6.0
 74
     0
 49
-1.5
 74
     0
  0
LTYPE
  5
4C
330
5
100
AcDbSymbolTableRecord
100
AcDbLinetypeTableRecord
  2
AM_ISO08W050
 70
     0
  3
____ . ____ . ____ . ____ . ____ . ____ . ____
 72
    65
 73
     4
 40
18.0
 49
12.0
 74
     0
 49
-1.5
 74
     0
 49
3.0
 74
     0
 49
-1.5
 74
     0
  0
LTYPE
  5
4D
330
5
100
AcDbSymbolTableRecord
100
AcDbLinetypeTableRecord
  2
AM_ISO09W050
 70
     0
  3
_____ . . _____ . . _____ . . ____ .. ____
 72
    65
 73
     6
 40
22.5
 49
12.0
 74
     0
 49
-1.5
 74
     0
 49
3.0
 74
     0
 49
-1.5
 74
     0
 49
3.0
 74
     0
 49
-1.5
 74
     0
  0
LTYPE
  5
4E
330
5
100
AcDbSymbolTableRecord
100
AcDbLinetypeTableRecord
  2
AMCONSTR
 70
     0
  3
_______________________
 72
    65
 73
     2
 40
9999.0
 49
9999.0
 74
     0
 49
0.0
 74
     0
  0
LTYPE
  5
4F
330
5
100
AcDbSymbolTableRecord
100
AcDbLinetypeTableRecord
  2
AM_ISO02W050X2
 70
     0
  3
 _ _ _ _ _ _ _ _ _ _ _ _
 72
    65
 73
     2
 40
3.75
 49
3.0
 74
     0
 49
-0.75
 74
     0
  0
LTYPE
  5
50
330
5
100
AcDbSymbolTableRecord
100
AcDbLinetypeTableRecord
  2
AM_ISO08W050X2
 70
     0
  3
__ . __ . __ . __ . __ . __
 72
    65
 73
     4
 40
9.0
 49
6.0
 74
     0
 49
-0.75
 74
     0
 49
1.5
 74
     0
 49
-0.75
 74
     0
  0
LTYPE
  5
53
330
5
100
AcDbSymbolTableRecord
100
AcDbLinetypeTableRecord
  2
AMZIGZAG
 70
     0
  3
/\/-/\/-/\/-/\/-/\/-/\/
 72
    65
 73
     2
 40
11.00009999999999
 49
0.0001
 74
     4
 75
   135
340
52
 46
0.04
 50
0.0
 44
0.0
 45
0.0
 49
-11.0
 74
     0
  0
LTYPE
  5
166
330
5
100
AcDbSymbolTableRecord
100
AcDbLinetypeTableRecord
  2
ACJISTGL
 70
     0
  3
_ _ _ _ _
 72
    65
 73
     2
 40
3.0
 49
2.0
 74
     0
 49
-1.0
 74
     0
  0
LTYPE
  5
26A
330
5
100
AcDbSymbolTableRecord
100
AcDbLinetypeTableRecord
  2
ACJISTGB
 70
     0
  3
__ . . __ . .
 72
    65
 73
     6
 40
9.0
 49
4.0
 74
     0
 49
-1.0
 74
     0
 49
1.0
 74
     0
 49
-1.0
 74
     0
 49
1.0
 74
     0
 49
-1.0
 74
     0
  0
ENDTAB
  0
TABLE
  2
LAYER
  5
2
330
0
100
AcDbSymbolTable
 70
     7
  0
LAYER
  5
10
330
2
100
AcDbSymbolTableRecord
100
AcDbLayerTableRecord
  2
0
 70
     0
 62
     7
  6
CONTINUOUS
  0
LAYER
  5
3F9
330
2
100
AcDbSymbolTableRecord
100
AcDbLayerTableRecord
  2
AM_0
 70
     0
 62
     7
  6
CONTINUOUS
  0
LAYER
  5
BD4
330
2
100
AcDbSymbolTableRecord
100
AcDbLayerTableRecord
  2
AM_11
 70
     0
 62
     3
  6
AM_ISO09W050
  0
LAYER
  5
BD5
330
2
100
AcDbSymbolTableRecord
100
AcDbLayerTableRecord
  2
AM_7
 70
     0
 62
     4
  6
AM_ISO08W050
  0
LAYER
  5
BD6
330
2
100
AcDbSymbolTableRecord
100
AcDbLayerTableRecord
  2
AM_5
 70
     0
 62
     3
  6
CONTINUOUS
  0
LAYER
  5
BD7
330
2
100
AcDbSymbolTableRecord
100
AcDbLayerTableRecord
  2
DEFPOINTS
 70
     0
 62
     7
  6
CONTINUOUS
  0
LAYER
  5
E59
330
2
100
AcDbSymbolTableRecord
100
AcDbLayerTableRecord
  2
AM_6
 70
     0
 62
     2
  6
CONTINUOUS
  0
ENDTAB
  0
TABLE
  2
STYLE
  5
3
330
0
100
AcDbSymbolTable
 70
     5
  0
STYLE
  5
11
330
3
100
AcDbSymbolTableRecord
100
AcDbTextStyleTableRecord
  2
STANDARD
 70
     0
 40
0.0
 41
1.0
 50
0.0
 71
     0
 42
2.5
  3
simplex.shx
  4
EXTFONT.SHX
  0
STYLE
  5
52
330
3
100
AcDbSymbolTableRecord
100
AcDbTextStyleTableRecord
  2

 70
     1
 40
0.0
 41
1.0
 50
0.0
 71
     0
 42
2.5
  3
ltypeshp.shx
  4

  0
STYLE
  5
6B
330
3
100
AcDbSymbolTableRecord
100
AcDbTextStyleTableRecord
  2
ASAMI
 70
     0
 40
0.0
 41
1.0
 50
0.0
 71
     0
 42
2.5
  3
simplex.shx
  4
EXTFONT.SHX
  0
STYLE
  5
262
330
3
100
AcDbSymbolTableRecord
100
AcDbTextStyleTableRecord
  2
ACJISTS
 70
     0
 40
1.0
 41
1.0
 50
0.0
 71
     0
 42
2.5
  3
simplex.shx
  4
bigfont.shx
  0
STYLE
  5
269
330
3
100
AcDbSymbolTableRecord
100
AcDbTextStyleTableRecord
  2
ACJISGDT
 70
     0
 40
0.0
 41
1.0
 50
0.0
 71
     0
 42
2.5
  3
amgdtans.shx
  4

  0
ENDTAB
  0
TABLE
  2
VIEW
  5
6
330
0
100
AcDbSymbolTable
 70
     0
  0
ENDTAB
  0
TABLE
  2
UCS
  5
7
330
0
100
AcDbSymbolTable
 70
     0
  0
ENDTAB
  0
TABLE
  2
APPID
  5
9
330
0
100
AcDbSymbolTable
 70
    12
  0
APPID
  5
12
330
9
100
AcDbSymbolTableRecord
100
AcDbRegAppTableRecord
  2
ACAD
 70
     0
  0
APPID
  5
30
330
9
100
AcDbSymbolTableRecord
100
AcDbRegAppTableRecord
  2
MCAD_NO_VIS
 70
     0
  0
APPID
  5
31
330
9
100
AcDbSymbolTableRecord
100
AcDbRegAppTableRecord
  2
ACAD_TEMP_GRAPHIC
 70
     0
  0
APPID
  5
2C2
330
9
100
AcDbSymbolTableRecord
100
AcDbRegAppTableRecord
  2
GENIUS_GENDTOL_13
 70
     0
  0
APPID
  5
339
330
9
100
AcDbSymbolTableRecord
100
AcDbRegAppTableRecord
  2
GENIUS_GENODEF_13
 70
     0
  0
APPID
  5
33A
330
9
100
AcDbSymbolTableRecord
100
AcDbRegAppTableRecord
  2
GENIUS_GENOBJ-N-RSBK_13
 70
     0
  0
APPID
  5
33B
330
9
100
AcDbSymbolTableRecord
100
AcDbRegAppTableRecord
  2
GENIUS_GENOBJ-N-LIB_13
 70
     0
  0
APPID
  5
33C
330
9
100
AcDbSymbolTableRecord
100
AcDbRegAppTableRecord
  2
GENIUS_GENSCALE_13
 70
     0
  0
APPID
  5
378
330
9
100
AcDbSymbolTableRecord
100
AcDbRegAppTableRecord
  2
GENIUS_GENDIMSH_14
 70
     0
  0
APPID
  5
BD8
330
9
100
AcDbSymbolTableRecord
100
AcDbRegAppTableRecord
  2
GENIUS_GENOBJ-N-CEN_13
 70
     0
  0
APPID
  5
BD9
330
9
100
AcDbSymbolTableRecord
100
AcDbRegAppTableRecord
  2
GENIUS_GENFIL_13
 70
     0
  0
APPID
  5
BDA
330
9
100
AcDbSymbolTableRecord
100
AcDbRegAppTableRecord
  2
GENIUS_GENOBJ-N-CHA_13
 70
     0
  0
ENDTAB
  0
TABLE
  2
DIMSTYLE
  5
A
330
0
100
AcDbSymbolTable
 70
     8
  0
DIMSTYLE
105
58
102
{ACAD_REACTORS
330
1818
330
18AB
330
193F
330
19E5
102
}
330
A
100
AcDbSymbolTableRecord
100
AcDbDimStyleTableRecord
  2
AM_JIS
 70
     0
  3

  4
"
  5
OPEN30
  6

  7

 40
0.5
 41
2.5
 42
1.0
 43
12.0
 44
1.0
 45
0.0
 46
0.0
 47
0.1
 48
0.1
140
3.2
141
0.0
142
0.0
143
0.0393701
144
1.0
145
0.0
146
0.71
147
1.5
 71
     0
 72
     0
 73
     0
 74
     0
 75
     0
 76
     0
 77
     3
 78
     8
170
     0
171
     2
172
     1
173
     0
174
     0
175
     0
176
   256
177
   256
178
     2
270
     2
271
     3
272
     3
273
     2
274
     2
340
6B
275
     0
280
     0
281
     0
282
     0
283
     0
284
     0
285
     0
286
     0
287
     3
288
     0
  0
DIMSTYLE
105
5F
330
A
100
AcDbSymbolTableRecord
100
AcDbDimStyleTableRecord
  2
AM_JIS$3
 70
     0
  3

  4
"
  5
OPEN30
  6

  7

 40
0.5
 41
2.5
 42
1.0
 43
10.0
 44
1.0
 45
0.0
 46
0.0
 47
0.1
 48
0.1
140
3.2
141
0.0
142
0.0
143
0.0393701
144
1.0
145
0.0
146
0.71
147
1.5
 71
     0
 72
     0
 73
     0
 74
     1
 75
     0
 76
     0
 77
     3
 78
     8
170
     0
171
     2
172
     0
173
     0
174
     0
175
     0
176
   256
177
   256
178
     2
270
     2
271
     2
272
     3
273
     2
274
     2
340
6B
275
     0
280
     0
281
     0
282
     0
283
     0
284
     0
285
     0
286
     0
287
     0
288
     1
  0
DIMSTYLE
105
60
330
A
100
AcDbSymbolTableRecord
100
AcDbDimStyleTableRecord
  2
AM_JIS$4
 70
     0
  3

  4
"
  5
OPEN30
  6

  7

 40
0.5
 41
2.5
 42
1.0
 43
10.0
 44
1.0
 45
0.0
 46
0.0
 47
0.1
 48
0.1
140
3.2
141
0.0
142
0.0
143
0.0393701
144
1.0
145
0.0
146
0.71
147
1.5
 71
     0
 72
     0
 73
     0
 74
     1
 75
     0
 76
     0
 77
     3
 78
     8
170
     0
171
     2
172
     0
173
     0
174
     0
175
     0
176
   256
177
   256
178
     2
270
     2
271
     2
272
     3
273
     2
274
     2
340
6B
275
     0
280
     0
281
     0
282
     0
283
     0
284
     0
285
     0
286
     0
287
     0
288
     1
  0
DIMSTYLE
105
61
330
A
100
AcDbSymbolTableRecord
100
AcDbDimStyleTableRecord
  2
AM_JIS$6
 70
     0
  3

  4
"
  5
OPEN30
  6

  7

 40
0.5
 41
2.5
 42
1.0
 43
10.0
 44
1.0
 45
0.0
 46
0.0
 47
0.1
 48
0.1
140
3.2
141
0.0
142
0.0
143
0.0393701
144
1.0
145
0.0
146
0.71
147
1.5
 71
     0
 72
     0
 73
     0
 74
     0
 75
     0
 76
     0
 77
     0
 78
     8
170
     0
171
     2
172
     1
173
     0
174
     0
175
     0
176
   256
177
   256
178
     2
270
     2
271
     2
272
     2
273
     2
274
     2
340
6B
275
     0
280
     0
281
     0
282
     0
283
     0
284
     0
285
     0
286
     0
287
     3
288
     0
  0
DIMSTYLE
105
62
330
A
100
AcDbSymbolTableRecord
100
AcDbDimStyleTableRecord
  2
AM_JIS$7
 70
     0
  3

  4
"
  5
OPEN30
  6

  7

 40
0.5
 41
2.5
 42
1.0
 43
10.0
 44
1.0
 45
0.0
 46
0.0
 47
0.1
 48
0.1
140
3.2
141
0.0
142
0.0
143
0.0393701
144
1.0
145
0.0
146
0.71
147
1.5
 71
     0
 72
     0
 73
     0
 74
     0
 75
     0
 76
     0
 77
     3
 78
     8
170
     0
171
     2
172
     1
173
     0
174
     0
175
     0
176
   256
177
   256
178
     2
270
     2
271
     2
272
     3
273
     2
274
     2
340
6B
275
     0
280
     0
281
     0
282
     0
283
     0
284
     0
285
     0
286
     0
287
     3
288
     0
  0
DIMSTYLE
105
63
330
A
100
AcDbSymbolTableRecord
100
AcDbDimStyleTableRecord
  2
AM_JIS$SF
 70
     0
  3

  4
"
  5
OPEN30
  6

  7

 40
0.5
 41
2.5
 42
1.0
 43
10.0
 44
1.0
 45
0.0
 46
0.0
 47
0.1
 48
0.1
140
3.2
141
0.0
142
0.0
143
0.0393701
144
1.0
145
0.0
146
0.71
147
1.5
 71
     0
 72
     0
 73
     0
 74
     0
 75
     1
 76
     1
 77
     3
 78
     8
170
     0
171
     2
172
     1
173
     0
174
     0
175
     0
176
   256
177
   256
178
     2
270
     2
271
     2
272
     2
273
     2
274
     2
340
6B
275
     0
280
     0
281
     0
282
     0
283
     0
284
     0
285
     0
286
     0
287
     3
288
     0
  0
DIMSTYLE
105
68
330
A
100
AcDbSymbolTableRecord
100
AcDbDimStyleTableRecord
  2
AM_JIS$SH
 70
     0
  3

  4
"
  5

  6
GENAXEH
  7
OPEN30
 40
0.5
 41
2.5
 42
1.0
 43
10.0
 44
1.0
 45
0.0
 46
0.0
 47
0.1
 48
0.1
140
3.2
141
0.0
142
0.0
143
0.0393701
144
2.0
145
0.0
146
0.71
147
1.5
 71
     0
 72
     0
 73
     0
 74
     0
 75
     1
 76
     1
 77
     3
 78
     8
170
     0
171
     2
172
     1
173
     1
174
     0
175
     0
176
   256
177
   256
178
     2
270
     2
271
     2
272
     2
273
     2
274
     2
340
6B
275
     0
280
     0
281
     0
282
     0
283
     0
284
     0
285
     0
286
     0
287
     3
288
     0
  0
DIMSTYLE
105
B34
330
A
100
AcDbSymbolTableRecord
100
AcDbDimStyleTableRecord
  2
AM_JIS$2
 70
     0
  3

  4
"
  5
OPEN30
  6

  7

 40
0.5
 41
2.5
 42
1.0
 43
12.0
 44
1.0
 45
0.0
 46
0.0
 47
0.1
 48
0.1
140
3.2
141
0.0
142
0.0
143
0.0393701
144
1.0
145
0.0
146
0.71
147
1.5
 71
     0
 72
     0
 73
     0
 74
     0
 75
     0
 76
     0
 77
     3
 78
     8
170
     0
171
     2
172
     1
173
     0
174
     0
175
     0
176
   256
177
   256
178
     2
270
     2
271
     3
272
     3
273
     2
274
     2
340
6B
275
     0
280
     0
281
     0
282
     0
283
     0
284
     0
285
     0
286
     0
287
     3
288
     0
  0
ENDTAB
  0
TABLE
  2
BLOCK_RECORD
  5
1
330
0
100
AcDbSymbolTable
 70
     9
  0
BLOCK_RECORD
  5
1F
102
{ACAD_XDICTIONARY
360
74
102
}
330
1
100
AcDbSymbolTableRecord
100
AcDbBlockTableRecord
  2
*MODEL_SPACE
  0
BLOCK_RECORD
  5
101
102
{ACAD_XDICTIONARY
360
1C3C
102
}
330
1
100
AcDbSymbolTableRecord
100
AcDbBlockTableRecord
  2
*PAPER_SPACE
  0
BLOCK_RECORD
  5
59
330
1
100
AcDbSymbolTableRecord
100
AcDbBlockTableRecord
  2
_OPEN30
  0
BLOCK_RECORD
  5
64
330
1
100
AcDbSymbolTableRecord
100
AcDbBlockTableRecord
  2
GENAXEH
  0
BLOCK_RECORD
  5
1819
330
1
100
AcDbSymbolTableRecord
100
AcDbBlockTableRecord
  2
*D5
  0
BLOCK_RECORD
  5
18AC
330
1
100
AcDbSymbolTableRecord
100
AcDbBlockTableRecord
  2
*D6
  0
BLOCK_RECORD
  5
1940
330
1
100
AcDbSymbolTableRecord
100
AcDbBlockTableRecord
  2
*D7
  0
BLOCK_RECORD
  5
19E6
330
1
100
AcDbSymbolTableRecord
100
AcDbBlockTableRecord
  2
*D8
  0
ENDTAB
  0
ENDSEC
  0
SECTION
  2
BLOCKS
  0
BLOCK
  5
20
330
1F
100
AcDbEntity
  8
0
100
AcDbBlockBegin
  2
*MODEL_SPACE
 70
     0
 10
0.0
 20
0.0
 30
0.0
  3
*MODEL_SPACE
  1

  0
ENDBLK
  5
21
330
1F
100
AcDbEntity
  8
0
100
AcDbBlockEnd
  0
BLOCK
  5
103
330
101
100
AcDbEntity
 67
     1
  8
0
100
AcDbBlockBegin
  2
*PAPER_SPACE
 70
     0
 10
0.0
 20
0.0
 30
0.0
  3
*PAPER_SPACE
  1

  0
ENDBLK
  5
104
330
101
100
AcDbEntity
 67
     1
  8
0
100
AcDbBlockEnd
  0
BLOCK
  5
5D
330
59
100
AcDbEntity
  8
0
100
AcDbBlockBegin
  2
_OPEN30
 70
     0
 10
0.0
 20
0.0
 30
0.0
  3
_OPEN30
  1

  0
LINE
  5
5A
330
59
100
AcDbEntity
  8
0
 62
     0
100
AcDbLine
 10
-1.0
 20
0.26794919
 30
0.0
 11
0.0
 21
0.0
 31
0.0
  0
LINE
  5
5B
330
59
100
AcDbEntity
  8
0
 62
     0
100
AcDbLine
 10
0.0
 20
0.0
 30
0.0
 11
-1.0
 21
-0.26794919
 31
0.0
  0
LINE
  5
5C
330
59
100
AcDbEntity
  8
0
 62
     0
100
AcDbLine
 10
0.0
 20
0.0
 30
0.0
 11
-1.0
 21
0.0
 31
0.0
  0
ENDBLK
  5
5E
330
59
100
AcDbEntity
  8
0
100
AcDbBlockEnd
  0
BLOCK
  5
66
330
64
100
AcDbEntity
  8
0
100
AcDbBlockBegin
  2
GENAXEH
 70
     0
 10
0.0
 20
0.0
 30
0.0
  3
GENAXEH
  1

  0
LINE
  5
65
330
64
100
AcDbEntity
  8
0
100
AcDbLine
 10
-1.0
 20
0.0
 30
0.0
 11
1.0
 21
0.0
 31
0.0
  0
ENDBLK
  5
67
330
64
100
AcDbEntity
  8
0
100
AcDbBlockEnd
  0
BLOCK
  5
1823
330
1819
100
AcDbEntity
  8
0
100
AcDbBlockBegin
  2
*D5
 70
     1
 10
0.0
 20
0.0
 30
0.0
  3
*D5
  1

  0
LINE
  5
1A77
330
1819
100
AcDbEntity
  8
AM_5
100
AcDbLine
 10
-50.0000000000001
 20
3.000000000000063
 30
0.0
 11
-58.71831628338793
 21
3.000000000000066
 31
0.0
  0
LINE
  5
1A78
330
1819
100
AcDbEntity
  8
AM_5
100
AcDbLine
 10
-50.00000000000008
 20
-2.999999999999936
 30
0.0
 11
-58.71831628338793
 21
-2.999999999999933
 31
0.0
  0
LINE
  5
1A79
330
1819
100
AcDbEntity
  8
AM_5
100
AcDbLine
 10
-58.21831628338793
 20
1.750000000000066
 30
0.0
 11
-58.21831628338793
 21
-1.749999999999933
 31
0.0
  0
INSERT
  5
1A7A
330
1819
100
AcDbEntity
  8
AM_5
100
AcDbBlockReference
  2
_OPEN30
 10
-58.21831628338793
 20
3.000000000000066
 30
0.0
 41
1.25
 42
1.25
 43
1.25
 50
90.0
  0
INSERT
  5
1A7B
330
1819
100
AcDbEntity
  8
AM_5
100
AcDbBlockReference
  2
_OPEN30
 10
-58.21831628338793
 20
-2.999999999999933
 30
0.0
 41
1.25
 42
1.25
 43
1.25
 50
270.0
  0
MTEXT
  5
1A7C
330
1819
100
AcDbEntity
  8
AM_5
 62
     2
100
AcDbMText
 10
-59.76831628338793
 20
0.000000000000057
 30
0.0
 40
1.6
 41
0.0
 71
     5
 72
     1
  1
%%c6
  7
ASAMI
 11
0.0000000000000001
 21
1.0
 31
0.0
1001
ACAD
1000
MTEXTBEGIN
1070
    73
1070
     1
1070
    44
1040
1.0
1070
    74
1070
     0
1000
MTEXTEND
  0
POINT
  5
1A7D
330
1819
100
AcDbEntity
  8
DEFPOINTS
 62
     0
100
AcDbPoint
 10
-49.50000000000009
 20
3.000000000000063
 30
0.0
  0
POINT
  5
1A7E
330
1819
100
AcDbEntity
  8
DEFPOINTS
 62
     0
100
AcDbPoint
 10
-49.50000000000009
 20
-2.999999999999936
 30
0.0
  0
POINT
  5
1A7F
330
1819
100
AcDbEntity
  8
DEFPOINTS
 62
     0
100
AcDbPoint
 10
-58.21831628338793
 20
-2.999999999999933
 30
0.0
  0
ENDBLK
  5
1824
330
1819
100
AcDbEntity
  8
0
100
AcDbBlockEnd
  0
BLOCK
  5
18B6
330
18AC
100
AcDbEntity
  8
0
100
AcDbBlockBegin
  2
*D6
 70
     1
 10
0.0
 20
0.0
 30
0.0
  3
*D6
  1

  0
LINE
  5
1A6E
330
18AC
100
AcDbEntity
  8
AM_5
100
AcDbLine
 10
-50.00000000000008
 20
-2.999999999999936
 30
0.0
 11
-50.00000000000008
 21
-16.50000099999989
 31
0.0
  0
LINE
  5
1A6F
330
18AC
100
AcDbEntity
  8
AM_5
100
AcDbLine
 10
-0.0000000000000995
 20
-3.0
 30
0.0
 11
-0.0000000000001003
 21
-16.50000099999989
 31
0.0
  0
LINE
  5
1A70
330
18AC
100
AcDbEntity
  8
AM_5
100
AcDbLine
 10
-48.75000000000008
 20
-16.00000099999989
 30
0.0
 11
-1.2500000000001
 21
-16.00000099999989
 31
0.0
  0
INSERT
  5
1A71
330
18AC
100
AcDbEntity
  8
AM_5
100
AcDbBlockReference
  2
_OPEN30
 10
-50.00000000000008
 20
-16.00000099999989
 30
0.0
 41
1.25
 42
1.25
 43
1.25
 50
180.0
  0
INSERT
  5
1A72
330
18AC
100
AcDbEntity
  8
AM_5
100
AcDbBlockReference
  2
_OPEN30
 10
-0.0000000000001003
 20
-16.00000099999989
 30
0.0
 41
1.25
 42
1.25
 43
1.25
  0
MTEXT
  5
1A73
330
18AC
100
AcDbEntity
  8
AM_5
 62
     2
100
AcDbMText
 10
-25.00000000000009
 20
-14.45000099999989
 30
0.0
 40
1.6
 41
0.0
 71
     5
 72
     1
  1
50
  7
ASAMI
1001
ACAD
1000
MTEXTBEGIN
1070
    73
1070
     1
1070
    44
1040
1.0
1070
    74
1070
     0
1000
MTEXTEND
  0
POINT
  5
1A74
330
18AC
100
AcDbEntity
  8
DEFPOINTS
 62
     0
100
AcDbPoint
 10
-50.00000000000008
 20
-2.499999999999936
 30
0.0
  0
POINT
  5
1A75
330
18AC
100
AcDbEntity
  8
DEFPOINTS
 62
     0
100
AcDbPoint
 10
-0.0000000000000995
 20
-2.5
 30
0.0
  0
POINT
  5
1A76
330
18AC
100
AcDbEntity
  8
DEFPOINTS
 62
     0
100
AcDbPoint
 10
-0.0000000000001003
 20
-16.00000099999989
 30
0.0
  0
ENDBLK
  5
18B7
330
18AC
100
AcDbEntity
  8
0
100
AcDbBlockEnd
  0
BLOCK
  5
194A
330
1940
100
AcDbEntity
  8
0
100
AcDbBlockBegin
  2
*D7
 70
     1
 10
0.0
 20
0.0
 30
0.0
  3
*D7
  1

  0
LINE
  5
1A80
330
1940
100
AcDbEntity
  8
AM_5
100
AcDbLine
 10
-15.00000000000014
 20
-3.0
 30
0.0
 11
-15.00000000000014
 21
-10.5000009999999
 31
0.0
  0
LINE
  5
1A81
330
1940
100
AcDbEntity
  8
AM_5
100
AcDbLine
 10
-0.0000000000000995
 20
-3.0
 30
0.0
 11
-0.0000000000001
 21
-10.5000009999999
 31
0.0
  0
LINE
  5
1A82
330
1940
100
AcDbEntity
  8
AM_5
100
AcDbLine
 10
-13.75000000000014
 20
-10.0000009999999
 30
0.0
 11
-1.250000000000099
 21
-10.0000009999999
 31
0.0
  0
INSERT
  5
1A83
330
1940
100
AcDbEntity
  8
AM_5
100
AcDbBlockReference
  2
_OPEN30
 10
-15.00000000000014
 20
-10.0000009999999
 30
0.0
 41
1.25
 42
1.25
 43
1.25
 50
180.0
  0
INSERT
  5
1A84
330
1940
100
AcDbEntity
  8
AM_5
100
AcDbBlockReference
  2
_OPEN30
 10
-0.0000000000000999
 20
-10.0000009999999
 30
0.0
 41
1.25
 42
1.25
 43
1.25
  0
MTEXT
  5
1A85
330
1940
100
AcDbEntity
  8
AM_5
 62
     2
100
AcDbMText
 10
-7.50000000000012
 20
-8.450000999999899
 30
0.0
 40
1.6
 41
0.0
 71
     5
 72
     1
  1
15
  7
ASAMI
1001
ACAD
1000
MTEXTBEGIN
1070
    73
1070
     1
1070
    44
1040
1.0
1070
    74
1070
     0
1000
MTEXTEND
  0
POINT
  5
1A86
330
1940
100
AcDbEntity
  8
DEFPOINTS
 62
     0
100
AcDbPoint
 10
-15.00000000000014
 20
-2.5
 30
0.0
  0
POINT
  5
1A87
330
1940
100
AcDbEntity
  8
DEFPOINTS
 62
     0
100
AcDbPoint
 10
-0.0000000000000995
 20
-2.5
 30
0.0
  0
POINT
  5
1A88
330
1940
100
AcDbEntity
  8
DEFPOINTS
 62
     0
100
AcDbPoint
 10
-0.0000000000000999
 20
-10.0000009999999
 30
0.0
  0
ENDBLK
  5
194B
330
1940
100
AcDbEntity
  8
0
100
AcDbBlockEnd
  0
BLOCK
  5
19F0
330
19E6
100
AcDbEntity
  8
0
100
AcDbBlockBegin
  2
*D8
 70
     1
 10
0.0
 20
0.0
 30
0.0
  3
*D8
  1

  0
LINE
  5
1A89
330
19E6
100
AcDbEntity
  8
AM_5
100
AcDbLine
 10
0.4999999999999006
 20
2.5
 30
0.0
 11
9.778885015427377
 21
2.499999999999997
 31
0.0
  0
LINE
  5
1A8A
330
19E6
100
AcDbEntity
  8
AM_5
100
AcDbLine
 10
0.4999999999999041
 20
-2.500000000000008
 30
0.0
 11
9.778885015427377
 21
-2.500000000000011
 31
0.0
  0
LINE
  5
1A8B
330
19E6
100
AcDbEntity
  8
AM_5
100
AcDbLine
 10
9.278885015427377
 20
1.249999999999997
 30
0.0
 11
9.278885015427377
 21
-1.250000000000011
 31
0.0
  0
INSERT
  5
1A8C
330
19E6
100
AcDbEntity
  8
AM_5
100
AcDbBlockReference
  2
_OPEN30
 10
9.278885015427377
 20
2.499999999999997
 30
0.0
 41
1.25
 42
1.25
 43
1.25
 50
90.0
  0
INSERT
  5
1A8D
330
19E6
100
AcDbEntity
  8
AM_5
100
AcDbBlockReference
  2
_OPEN30
 10
9.278885015427377
 20
-2.500000000000011
 30
0.0
 41
1.25
 42
1.25
 43
1.25
 50
270.0
  0
MTEXT
  5
1A8E
330
19E6
100
AcDbEntity
  8
AM_5
 62
     2
100
AcDbMText
 10
7.728885015427376
 20
-0.0000000000000053
 30
0.0
 40
1.6
 41
0.0
 71
     5
 72
     1
  1
%%c5
  7
ASAMI
 11
0.0000000000000001
 21
1.0
 31
0.0
1001
ACAD
1000
MTEXTBEGIN
1070
    73
1070
     1
1070
    44
1040
1.0
1070
    74
1070
     0
1000
MTEXTEND
  0
POINT
  5
1A8F
330
19E6
100
AcDbEntity
  8
DEFPOINTS
 62
     0
100
AcDbPoint
 10
-0.0000000000000995
 20
2.5
 30
0.0
  0
POINT
  5
1A90
330
19E6
100
AcDbEntity
  8
DEFPOINTS
 62
     0
100
AcDbPoint
 10
-0.0000000000000959
 20
-2.500000000000008
 30
0.0
  0
POINT
  5
1A91
330
19E6
100
AcDbEntity
  8
DEFPOINTS
 62
     0
100
AcDbPoint
 10
9.278885015427377
 20
-2.500000000000011
 30
0.0
  0
ENDBLK
  5
19F1
330
19E6
100
AcDbEntity
  8
0
100
AcDbBlockEnd
  0
ENDSEC
  0
SECTION
  2
ENTITIES
  0
TEXT
  5
E5A
330
1F
100
AcDbEntity
  8
AM_6
100
AcDbText
 10
-35.35714285714294
 20
-27.2500009999999
 30
0.0
 40
2.5
  1
JSM4050ZX
 72
     4
 11
-25.00000000000008
 21
-26.0000009999999
 31
0.0
100
AcDbText
  0
SPLINE
  5
1770
330
1F
100
AcDbEntity
  8
AM_0
100
AcDbSpline
210
0.0
220
0.0
230
1.0
 70
     8
 71
     3
 72
     8
 73
     4
 74
     0
 42
0.0000000001
 43
0.0000000001
 40
0.0
 40
0.0
 40
0.0
 40
0.0
 40
1.412269715655734
 40
1.412269715655734
 40
1.412269715655734
 40
1.412269715655734
 10
-14.30000000000018
 20
-2.465534372956213
 30
0.0
 10
-14.53537828594281
 20
-2.465534372956213
 30
0.0
 10
-14.76864295115419
 20
-2.453660053146734
 30
0.0
 10
-15.00000000000008
 20
-2.431068745912497
 30
0.0
  0
SPLINE
  5
1771
330
1F
100
AcDbEntity
  8
AM_0
100
AcDbSpline
210
0.0
220
0.0
230
1.0
 70
     8
 71
     3
 72
     8
 73
     4
 74
     2
 42
0.0000000001
 43
0.0000000001
 44
0.0000000001
 12
-1.0
 22
0.0000000000000001
 32
0.0
 40
0.0
 40
0.0
 40
0.0
 40
0.0
 40
7.244998274671979
 40
7.244998274671979
 40
7.244998274671979
 40
7.244998274671979
 10
-6.800000000000196
 20
-2.499999999999943
 30
0.0
 10
-9.214999424890855
 20
-2.499999999999942
 30
0.0
 10
-11.40749971244552
 20
-1.249999999999942
 30
0.0
 10
-13.60000000000019
 20
0.0000000000000568
 30
0.0
 11
-6.800000000000196
 21
-2.499999999999943
 31
0.0
 11
-13.60000000000019
 21
0.0000000000000568
 31
0.0
  0
SPLINE
  5
1772
330
1F
100
AcDbEntity
  8
AM_0
100
AcDbSpline
210
0.0
220
0.0
230
1.0
 70
     8
 71
     3
 72
     8
 73
     4
 74
     2
 42
0.0000000001
 43
0.0000000001
 44
0.0000000001
 12
1.0
 22
-0.0000000000000002
 32
0.0
 40
0.0
 40
0.0
 40
0.0
 40
0.0
 40
7.244998274671979
 40
7.244998274671979
 40
7.244998274671979
 40
7.244998274671979
 10
-13.60000000000009
 20
2.500000000000056
 30
0.0
 10
-11.18500057510943
 20
2.500000000000056
 30
0.0
 10
-8.992500287554765
 20
1.250000000000056
 30
0.0
 10
-6.800000000000096
 20
0.0000000000000568
 30
0.0
 11
-13.60000000000009
 21
2.500000000000056
 31
0.0
 11
-6.800000000000096
 21
0.0000000000000568
 31
0.0
  0
SPLINE
  5
1773
330
1F
100
AcDbEntity
  8
AM_0
100
AcDbSpline
210
0.0
220
0.0
230
1.0
 70
     8
 71
     3
 72
     8
 73
     4
 74
     0
 42
0.0000000001
 43
0.0000000001
 40
0.0
 40
0.0
 40
0.0
 40
0.0
 40
2.130230809022907
 40
2.130230809022907
 40
2.130230809022907
 40
2.130230809022907
 10
-13.60000000000019
 20
-2.5
 30
0.0
 10
-13.2449615318297
 20
-2.5
 30
0.0
 10
-12.89473195639838
 20
-2.472983643910083
 30
0.0
 10
-12.5486042996614
 20
-2.422922711426281
 30
0.0
  0
SPLINE
  5
1774
330
1F
100
AcDbEntity
  8
AM_0
100
AcDbSpline
210
0.0
220
0.0
230
1.0
 70
     8
 71
     3
 72
     8
 73
     4
 74
     0
 42
0.0000000001
 43
0.0000000001
 40
0.0
 40
0.0
 40
0.0
 40
0.0
 40
6.769478140335353
 40
6.769478140335353
 40
6.769478140335353
 40
6.769478140335353
 10
-11.72234165951255
 20
-2.308722251901286
 30
0.0
 10
-12.8505880162351
 20
-2.308722251901286
 30
0.0
 10
-13.93648769968436
 20
-2.052277816571503
 30
0.0
 10
-15.00000000000008
 20
-1.660259099192813
 30
0.0
  0
SPLINE
  5
1775
330
1F
100
AcDbEntity
  8
AM_0
100
AcDbSpline
210
0.0
220
0.0
230
1.0
 70
     8
 71
     3
 72
     8
 73
     4
 74
     0
 42
0.0000000001
 43
0.0000000001
 40
0.0
 40
0.0
 40
0.0
 40
0.0
 40
4.662554012798695
 40
4.662554012798695
 40
4.662554012798695
 40
4.662554012798695
 10
-12.72727560900288
 20
-2.425141835167636
 30
0.0
 10
-13.50436794446932
 20
-2.425141835167636
 30
0.0
 10
-14.25958851169771
 20
-2.298703269252726
 30
0.0
 10
-15.00000000000008
 20
-2.086654857734686
 30
0.0
  0
SPLINE
  5
1776
330
1F
100
AcDbEntity
  8
AM_0
100
AcDbSpline
210
0.0
220
0.0
230
1.0
 70
     8
 71
     3
 72
     8
 73
     4
 74
     0
 42
0.0000000001
 43
0.0000000001
 40
4.48458745047074
 40
4.48458745047074
 40
4.48458745047074
 40
4.48458745047074
 40
14.36247867694493
 40
14.36247867694493
 40
14.36247867694493
 40
14.36247867694493
 10
-16.33005628652227
 20
2.006207740085855
 30
0.0
 10
-14.75277215135994
 20
1.587839243446907
 30
0.0
 10
-13.23755690543623
 20
0.793919621723461
 30
0.0
 10
-11.72234165951255
 20
0.0000000000000284
 30
0.0
  0
SPLINE
  5
1777
330
1F
100
AcDbEntity
  8
AM_0
100
AcDbSpline
210
0.0
220
0.0
230
1.0
 70
     8
 71
     3
 72
     8
 73
     4
 74
     0
 42
0.0000000001
 43
0.0000000001
 40
9.094138221207366
 40
9.094138221207366
 40
9.094138221207366
 40
9.094138221207366
 40
14.43901837670146
 40
14.43901837670146
 40
14.43901837670146
 40
14.43901837670146
 10
-15.17742088753502
 20
1.285064623818442
 30
0.0
 10
-14.35361293888976
 20
0.8977128590654217
 30
0.0
 10
-13.54044427394632
 20
0.4488564295327251
 30
0.0
 10
-12.7272756090029
 20
0.0000000000000284
 30
0.0
  0
SPLINE
  5
1778
330
1F
100
AcDbEntity
  8
AM_0
100
AcDbSpline
210
0.0
220
0.0
230
1.0
 70
     8
 71
     3
 72
     8
 73
     4
 74
     0
 42
0.0000000001
 43
0.0000000001
 40
0.0
 40
0.0
 40
0.0
 40
0.0
 40
2.764560748519282
 40
2.764560748519282
 40
2.764560748519282
 40
2.764560748519282
 10
-5.92727560900289
 20
-2.425141835167693
 30
0.0
 10
-5.466515484249683
 20
-2.425141835167693
 30
0.0
 10
-5.013444688061184
 20
-2.380690574255027
 30
0.0
 10
-4.566590986288389
 20
-2.300298894921553
 30
0.0
  0
SPLINE
  5
1779
330
1F
100
AcDbEntity
  8
AM_0
100
AcDbSpline
210
0.0
220
0.0
230
1.0
 70
     8
 71
     3
 72
     8
 73
     4
 74
     0
 42
0.0000000001
 43
0.0000000001
 40
1.870660592686466
 40
1.870660592686466
 40
1.870660592686466
 40
1.870660592686466
 40
14.43901837670146
 40
14.43901837670146
 40
14.43901837670146
 40
14.43901837670146
 10
-0.0525000000000944
 20
-2.366720578810884
 30
0.0
 10
-2.102982295614509
 20
-2.110950306050739
 30
0.0
 10
-4.015128952308657
 20
-1.055475153025355
 30
0.0
 10
-5.927275609002805
 20
0.0000000000000284
 30
0.0
  0
SPLINE
  5
177A
330
1F
100
AcDbEntity
  8
AM_0
100
AcDbSpline
210
0.0
220
0.0
230
1.0
 70
     8
 71
     3
 72
     8
 73
     4
 74
     0
 42
0.0000000001
 43
0.0000000001
 40
0.7142832446738512
 40
0.7142832446738512
 40
0.7142832446738512
 40
0.7142832446738512
 40
14.36247867694493
 40
14.36247867694493
 40
14.36247867694493
 40
14.36247867694493
 10
-11.36659098623562
 20
2.300298894912145
 30
0.0
 10
-9.109460817678098
 20
2.193903517737766
 30
0.0
 10
-7.015901238595276
 20
1.096951758868897
 30
0.0
 10
-4.922341659512454
 20
0.0000000000000284
 30
0.0
  0
SPLINE
  5
177B
330
1F
100
AcDbEntity
  8
AM_0
100
AcDbSpline
210
0.0
220
0.0
230
1.0
 70
     8
 71
     3
 72
     8
 73
     4
 74
     2
 42
0.0000000001
 43
0.0000000001
 44
0.0000000001
 12
-1.0
 22
0.0000000000000001
 32
0.0
 40
0.0
 40
0.0
 40
0.0
 40
0.0
 40
7.181239338472469
 40
7.181239338472469
 40
7.181239338472469
 40
7.181239338472469
 10
-4.922341659512554
 20
-2.308722251901286
 30
0.0
 10
-7.316088105670043
 20
-2.308722251901286
 30
0.0
 10
-9.519214882591297
 20
-1.1543611259506
 30
0.0
 10
-11.72234165951255
 20
0.0000000000000853
 30
0.0
 11
-4.922341659512554
 21
-2.308722251901286
 31
0.0
 11
-11.72234165951255
 21
0.0000000000000853
 31
0.0
  0
SPLINE
  5
177C
330
1F
100
AcDbEntity
  8
AM_0
100
AcDbSpline
210
0.0
220
0.0
230
1.0
 70
     8
 71
     3
 72
     8
 73
     4
 74
     2
 42
0.0000000001
 43
0.0000000001
 44
0.0000000001
 12
-1.0
 22
0.0000000000000001
 32
0.0
 40
0.0
 40
0.0
 40
0.0
 40
0.0
 40
7.244998274671979
 40
7.244998274671979
 40
7.244998274671979
 40
7.244998274671979
 10
-0.0000000000000995
 20
-2.5
 30
0.0
 10
-2.414999424890758
 20
-2.499999999999999
 30
0.0
 10
-4.607499712445427
 20
-1.249999999999999
 30
0.0
 10
-6.800000000000096
 20
0.0
 30
0.0
 11
-0.0000000000000995
 21
-2.5
 31
0.0
 11
-6.800000000000096
 21
0.0
 31
0.0
  0
SPLINE
  5
177D
330
1F
100
AcDbEntity
  8
AM_0
100
AcDbSpline
210
0.0
220
0.0
230
1.0
 70
     8
 71
     3
 72
     8
 73
     4
 74
     2
 42
0.0000000001
 43
0.0000000001
 44
0.0000000001
 12
1.0
 22
-0.0000000000000002
 32
0.0
 40
0.0
 40
0.0
 40
0.0
 40
0.0
 40
7.244998274671979
 40
7.244998274671979
 40
7.244998274671979
 40
7.244998274671979
 10
-6.800000000000096
 20
2.500000000000056
 30
0.0
 10
-4.385000575109437
 20
2.500000000000056
 30
0.0
 10
-2.192500287554768
 20
1.250000000000056
 30
0.0
 10
-0.0000000000000995
 20
0.0000000000000568
 30
0.0
 11
-6.800000000000096
 21
2.500000000000056
 31
0.0
 11
-0.0000000000000995
 21
0.0000000000000568
 31
0.0
  0
SPLINE
  5
177E
330
1F
100
AcDbEntity
  8
AM_0
100
AcDbSpline
210
0.0
220
0.0
230
1.0
 70
     8
 71
     3
 72
     8
 73
     4
 74
     0
 42
0.0000000001
 43
0.0000000001
 40
0.3581103616548037
 40
0.3581103616548037
 40
0.3581103616548037
 40
0.3581103616548037
 40
12.40023413887867
 40
12.40023413887867
 40
12.40023413887867
 40
12.40023413887867
 10
-5.748604299661209
 20
2.422922711426338
 30
0.0
 10
-3.750153394393535
 20
2.373381968531418
 30
0.0
 10
-1.893979689075109
 20
1.5013505642425
 30
0.0
 10
-0.0584063961980093
 20
0.5102301783044823
 30
0.0
  0
SPLINE
  5
177F
330
1F
100
AcDbEntity
  8
AM_0
100
AcDbSpline
210
0.0
220
0.0
230
1.0
 70
     8
 71
     3
 72
     8
 73
     4
 74
     0
 42
0.0000000001
 43
0.0000000001
 40
4.542668862435135
 40
4.542668862435135
 40
4.542668862435135
 40
4.542668862435135
 40
14.36247867694493
 40
14.36247867694493
 40
14.36247867694493
 40
14.36247867694493
 10
-0.3424999999994043
 20
-1.998808327728312
 30
0.0
 10
-1.909729918427871
 20
-1.578502843286429
 30
0.0
 10
-3.416035788970162
 20
-0.7892514216432005
 30
0.0
 10
-4.922341659512454
 20
0.0000000000000284
 30
0.0
  0
SPLINE
  5
1780
330
1F
100
AcDbEntity
  8
AM_0
100
AcDbSpline
210
0.0
220
0.0
230
1.0
 70
     8
 71
     3
 72
     8
 73
     4
 74
     0
 42
0.0000000001
 43
0.0000000001
 40
0.0
 40
0.0
 40
0.0
 40
0.0
 40
5.635889483499127
 40
5.635889483499127
 40
5.635889483499127
 40
5.635889483499127
 10
-0.0000000000000995
 20
2.5
 30
0.0
 10
-0.9393149139166183
 20
2.5
 30
0.0
 10
-1.844969626918157
 20
2.310897014489569
 30
0.0
 10
-2.730056286522014
 20
2.006242719185621
 30
0.0
  0
SPLINE
  5
1781
330
1F
100
AcDbEntity
  8
AM_0
100
AcDbSpline
210
0.0
220
0.0
230
1.0
 70
     8
 71
     3
 72
     8
 73
     4
 74
     2
 42
0.0000000001
 43
0.0000000001
 44
0.0000000001
 12
-0.6417012268563102
 22
-0.766954715384883
 32
0.0
 13
-0.9900999427831044
 23
-0.1403641809753962
 33
0.0
 40
0.0
 40
0.0
 40
0.0
 40
0.0
 40
1.293282661808357
 40
1.293282661808357
 40
1.293282661808357
 40
1.293282661808357
 10
-0.0000000000000995
 20
2.037351343341981
 30
0.0
 10
-0.2766336902515718
 20
1.706721598075504
 30
0.0
 10
-0.7514597523580974
 20
1.564736898462175
 30
0.0
 10
-1.178286115511042
 20
1.504226711264038
 30
0.0
 11
-0.0000000000000995
 21
2.037351343341981
 31
0.0
 11
-1.178286115511042
 21
1.504226711264038
 31
0.0
  0
SPLINE
  5
1782
330
1F
100
AcDbEntity
  8
AM_0
100
AcDbSpline
210
0.0
220
0.0
230
1.0
 70
     8
 71
     3
 72
     8
 73
     4
 74
     0
 42
0.0000000001
 43
0.0000000001
 40
0.7142832446738512
 40
0.7142832446738512
 40
0.7142832446738512
 40
0.7142832446738512
 40
9.361146747480315
 40
9.361146747480315
 40
9.361146747480315
 40
9.361146747480315
 10
-4.566590986235624
 20
2.300298894912145
 30
0.0
 10
-3.136578016943332
 20
2.232891719485792
 30
0.0
 10
-1.772220675724113
 20
1.767884941399813
 30
0.0
 10
-0.4319226023150833
 20
1.157179224740474
 30
0.0
  0
SPLINE
  5
1783
330
1F
100
AcDbEntity
  8
AM_0
100
AcDbSpline
210
0.0
220
0.0
230
1.0
 70
     8
 71
     3
 72
     8
 73
     4
 74
     0
 42
0.0000000001
 43
0.0000000001
 40
0.0
 40
0.0
 40
0.0
 40
0.0
 40
4.451443990518192
 40
4.451443990518192
 40
4.451443990518192
 40
4.451443990518192
 10
-4.922341659512554
 20
-2.308722251901343
 30
0.0
 10
-4.180434327759513
 20
-2.308722251901343
 30
0.0
 10
-3.456837940426368
 20
-2.197834207123719
 30
0.0
 10
-2.745877283273841
 20
-2.010426274461735
 30
0.0
  0
SPLINE
  5
1784
330
1F
100
AcDbEntity
  8
AM_0
100
AcDbSpline
210
0.0
220
0.0
230
1.0
 70
     8
 71
     3
 72
     8
 73
     4
 74
     2
 42
0.0000000001
 43
0.0000000001
 44
0.0000000001
 12
-1.0
 22
0.0000000000000001
 32
0.0
 40
0.0
 40
0.0
 40
0.0
 40
0.0
 40
7.219509188350743
 40
7.219509188350743
 40
7.219509188350743
 40
7.219509188350743
 10
-5.92727560900289
 20
-2.425141835167636
 30
0.0
 10
-8.333778671786472
 20
-2.425141835167635
 30
0.0
 10
-10.53052714039468
 20
-1.212570917583775
 30
0.0
 10
-12.7272756090029
 20
0.0000000000000853
 30
0.0
 11
-5.92727560900289
 21
-2.425141835167636
 31
0.0
 11
-12.7272756090029
 21
0.0000000000000853
 31
0.0
  0
SPLINE
  5
1785
330
1F
100
AcDbEntity
  8
AM_0
100
AcDbSpline
210
0.0
220
0.0
230
1.0
 70
     8
 71
     3
 72
     8
 73
     4
 74
     0
 42
0.0000000001
 43
0.0000000001
 40
0.3581103616548037
 40
0.3581103616548037
 40
0.3581103616548037
 40
0.3581103616548037
 40
14.43901837670146
 40
14.43901837670146
 40
14.43901837670146
 40
14.43901837670146
 10
-12.5486042996612
 20
2.422922711426338
 30
0.0
 10
-10.21180691323307
 20
2.364994504026611
 30
0.0
 10
-8.069541261117933
 20
1.18249725201332
 30
0.0
 10
-5.927275609002805
 20
0.0000000000000284
 30
0.0
  0
SPLINE
  5
1786
330
1F
100
AcDbEntity
  8
AM_0
100
AcDbSpline
210
0.0
220
0.0
230
1.0
 70
     8
 71
     3
 72
     8
 73
     4
 74
     0
 42
0.0000000001
 43
0.0000000001
 40
0.0
 40
0.0
 40
0.0
 40
0.0
 40
5.635889483499305
 40
5.635889483499305
 40
5.635889483499305
 40
5.635889483499305
 10
-6.800000000000196
 20
2.500000000000056
 30
0.0
 10
-7.739314913916757
 20
2.500000000000056
 30
0.0
 10
-8.64496962691831
 20
2.310897014489626
 30
0.0
 10
-9.530056286522182
 20
2.00624271918565
 30
0.0
  0
SPLINE
  5
1787
330
1F
100
AcDbEntity
  8
AM_0
100
AcDbSpline
210
0.0
220
0.0
230
1.0
 70
     8
 71
     3
 72
     8
 73
     4
 74
     0
 42
0.0000000001
 43
0.0000000001
 40
0.0
 40
0.0
 40
0.0
 40
0.0
 40
2.130230809022907
 40
2.130230809022907
 40
2.130230809022907
 40
2.130230809022907
 10
-6.800000000000196
 20
-2.5
 30
0.0
 10
-6.444961531829704
 20
-2.5
 30
0.0
 10
-6.094731956398391
 20
-2.472983643910083
 30
0.0
 10
-5.748604299661408
 20
-2.422922711426281
 30
0.0
  0
SPLINE
  5
1788
330
1F
100
AcDbEntity
  8
AM_0
100
AcDbSpline
210
0.0
220
0.0
230
1.0
 70
     8
 71
     3
 72
     8
 73
     4
 74
     0
 42
0.0000000001
 43
0.0000000001
 40
0.0
 40
0.0
 40
0.0
 40
0.0
 40
4.451443990518192
 40
4.451443990518192
 40
4.451443990518192
 40
4.451443990518192
 10
-11.72234165951255
 20
-2.308722251901343
 30
0.0
 10
-10.98043432775951
 20
-2.308722251901343
 30
0.0
 10
-10.25683794042636
 20
-2.197834207123719
 30
0.0
 10
-9.545877283273838
 20
-2.010426274461735
 30
0.0
  0
SPLINE
  5
1789
330
1F
100
AcDbEntity
  8
AM_0
100
AcDbSpline
210
0.0
220
0.0
230
1.0
 70
     8
 71
     3
 72
     8
 73
     4
 74
     0
 42
0.0000000001
 43
0.0000000001
 40
0.0
 40
0.0
 40
0.0
 40
0.0
 40
2.764560748519282
 40
2.764560748519282
 40
2.764560748519282
 40
2.764560748519282
 10
-12.72727560900288
 20
-2.425141835167693
 30
0.0
 10
-12.26651548424968
 20
-2.425141835167693
 30
0.0
 10
-11.81344468806118
 20
-2.380690574255027
 30
0.0
 10
-11.36659098628838
 20
-2.300298894921553
 30
0.0
  0
SPLINE
  5
178A
330
1F
100
AcDbEntity
  8
AM_0
100
AcDbSpline
210
0.0
220
0.0
230
1.0
 70
     8
 71
     3
 72
     8
 73
     4
 74
     0
 42
0.0000000001
 43
0.0000000001
 40
0.0
 40
0.0
 40
0.0
 40
0.0
 40
1.412269715655931
 40
1.412269715655931
 40
1.412269715655931
 40
1.412269715655931
 10
-13.60000000000019
 20
-2.499999999999943
 30
0.0
 10
-13.83537828594285
 20
-2.499999999999943
 30
0.0
 10
-14.06864295115425
 20
-2.488125680190464
 30
0.0
 10
-14.30000000000019
 20
-2.465534372956213
 30
0.0
  0
SPLINE
  5
178B
330
1F
100
AcDbEntity
  8
AM_0
100
AcDbSpline
210
0.0
220
0.0
230
1.0
 70
     8
 71
     3
 72
     8
 73
     4
 74
     0
 42
0.0000000001
 43
0.0000000001
 40
11.41055204919593
 40
11.41055204919593
 40
11.41055204919593
 40
11.41055204919593
 40
14.48999654934393
 40
14.48999654934393
 40
14.48999654934393
 40
14.48999654934393
 10
-15.00000000000011
 20
0.7849595044895637
 30
0.0
 10
-14.53190953208201
 20
0.5313052507744942
 30
0.0
 10
-14.0659547660411
 20
0.2656526253872755
 30
0.0
 10
-13.60000000000019
 20
0.0000000000000568
 30
0.0
  0
LINE
  5
178C
330
1F
100
AcDbEntity
  8
AM_0
100
AcDbLine
 10
-15.84692934940338
 20
-2.5
 30
0.0
 11
-20.13397459621588
 21
-2.5
 31
0.0
  0
LINE
  5
178D
330
1F
100
AcDbEntity
  8
AM_0
100
AcDbLine
 10
-15.00000000000008
 20
2.5
 30
0.0
 11
-20.13397459621541
 21
2.5
 31
0.0
  0
LINE
  5
178E
330
1F
100
AcDbEntity
  8
AM_7
  6
AM_ISO08W050X2
100
AcDbLine
 10
2.278884015427379
 20
0.0
 30
0.0
 11
-51.21831528338794
 21
-0.0000000000000213
 31
0.0
1001
GENIUS_GENODEF_13
1002
{
1000
HIER
1070
     0
1002
}
1002
{
1000
MANEDIT
1070
     0
1002
}
1002
{
1000
NOSEL
1070
     0
1002
}
1002
{
1000
BEHIND
1070
     0
1002
}
1002
{
1000
REACTOR
1002
}
1001
GENIUS_GENOBJ-N-CEN_13
1002
{
1000
OWNER
1000
GEN
1002
}
  0
LINE
  5
178F
330
1F
100
AcDbEntity
  8
AM_11
100
AcDbLine
 10
-15.00000000000014
 20
-2.5
 30
0.0
 11
-0.0000000000000995
 21
-2.5
 31
0.0
  0
LINE
  5
1790
330
1F
100
AcDbEntity
  8
AM_11
100
AcDbLine
 10
-0.0000000000004832
 20
2.5
 30
0.0
 11
-15.00000000000022
 21
2.5
 31
0.0
  0
LINE
  5
1791
330
1F
100
AcDbEntity
  8
AM_0
100
AcDbLine
 10
-0.0000000000000995
 20
0.0
 30
0.0
 11
-0.0000000000000995
 21
2.5
 31
0.0
  0
ARC
  5
1792
330
1F
100
AcDbEntity
  8
AM_0
100
AcDbCircle
 10
0.9928365910134999
 20
-1.271940082358952
 30
0.0
 40
1.520349057758025
100
AcDbArc
 50
159.392326973258
 51
208.5609268810354
  0
LINE
  5
1793
330
1F
100
AcDbEntity
  8
AM_0
100
AcDbLine
 10
-0.0525000000000944
 20
-2.366720578810912
 30
0.0
 11
-0.0525000000000944
 21
-0.6634489272815927
 31
0.0
  0
LINE
  5
1794
330
1F
100
AcDbEntity
  8
AM_0
100
AcDbLine
 10
-0.0000000000000995
 20
-2.5
 30
0.0
 11
-0.0000000000000995
 21
-0.5
 31
0.0
  0
LINE
  5
1795
330
1F
100
AcDbEntity
  8
AM_0
100
AcDbLine
 10
-0.4302289928456844
 20
-0.7368273825832717
 30
0.0
 11
-0.0525000000000944
 21
-0.6634489272815927
 31
0.0
  0
LINE
  5
1796
330
1F
100
AcDbEntity
  8
AM_0
100
AcDbLine
 10
-0.0000000000000995
 20
0.0
 30
0.0
 11
-1.178286115511042
 21
0.0
 31
0.0
  0
LINE
  5
1797
330
1F
100
AcDbEntity
  8
AM_0
100
AcDbLine
 10
-1.178286115511042
 20
-0.4000000000000057
 30
0.0
 11
-0.0577350269190618
 21
-0.4000000000000057
 31
0.0
  0
LINE
  5
1798
330
1F
100
AcDbEntity
  8
AM_0
100
AcDbLine
 10
-0.0000000000000995
 20
-0.5
 30
0.0
 11
-0.288675134594925
 21
0.0000000000000284
 31
0.0
  0
LINE
  5
1799
330
1F
100
AcDbEntity
  8
AM_0
100
AcDbLine
 10
-0.0000000000000995
 20
0.0
 30
0.0
 11
-0.0525000000000944
 21
0.5000000000000569
 31
0.0
  0
LINE
  5
179A
330
1F
100
AcDbEntity
  8
AM_0
100
AcDbLine
 10
-0.0000000000000995
 20
0.0
 30
0.0
 11
-0.0444213045720829
 21
-0.4230600435428756
 31
0.0
  0
LINE
  5
179B
330
1F
100
AcDbEntity
  8
AM_0
100
AcDbLine
 10
-1.178286115511042
 20
0.0
 30
0.0
 11
-1.178286115511042
 21
-0.4000000000000057
 31
0.0
  0
LINE
  5
179C
330
1F
100
AcDbEntity
  8
AM_0
100
AcDbLine
 10
-1.178286115511042
 20
-0.4000000000000057
 30
0.0
 11
-0.4302289928456844
 21
-0.7368273825832717
 31
0.0
  0
LINE
  5
179D
330
1F
100
AcDbEntity
  8
AM_0
100
AcDbLine
 10
-0.0525000000000944
 20
-0.6634489272815927
 30
0.0
 11
-0.0000000000000995
 21
-0.5
 31
0.0
  0
LINE
  5
179E
330
1F
100
AcDbEntity
  8
AM_0
100
AcDbLine
 10
-0.5337620988730265
 20
1.333570407005197
 30
0.0
 11
-1.178286115511042
 21
1.504226711264038
 31
0.0
  0
LINE
  5
179F
330
1F
100
AcDbEntity
  8
AM_0
100
AcDbLine
 10
-0.0525000000000944
 20
0.5000000000000569
 30
0.0
 11
-0.5337620988730265
 21
1.333570407005197
 31
0.0
  0
LINE
  5
17A0
330
1F
100
AcDbEntity
  8
AM_0
100
AcDbLine
 10
-0.0000000000000995
 20
-2.5
 30
0.0
 11
-0.0525000000000944
 21
-2.366720578810912
 31
0.0
  0
LINE
  5
17A1
330
1F
100
AcDbEntity
  8
AM_0
100
AcDbLine
 10
-0.0525000000000944
 20
-2.366720578810884
 30
0.0
 11
-0.3425000000001006
 21
-1.998808327730955
 31
0.0
  0
POLYLINE
  5
17A2
330
1F
100
AcDbEntity
  8
AM_0
100
AcDb2dPolyline
 66
     1
 10
0.0
 20
0.0
 30
0.0
 70
     2
  0
VERTEX
  5
17A3
330
17A2
100
AcDbEntity
  8
AM_0
100
AcDbVertex
100
AcDb2dVertex
 10
-16.33005628652228
 20
2.006207740085855
 30
0.0
 42
-0.0080850818469205
  0
VERTEX
  5
17A4
330
17A2
100
AcDbEntity
  8
AM_0
100
AcDbVertex
100
AcDb2dVertex
 10
-16.58074398672088
 20
2.084731393680527
 30
0.0
 42
-0.0113772357485858
 70
     1
  0
VERTEX
  5
17A5
330
17A2
100
AcDbEntity
  8
AM_0
100
AcDbVertex
100
AcDb2dVertex
 10
-16.75935197986778
 20
2.148435300845875
 30
0.0
 42
-0.0082896290467094
  0
VERTEX
  5
17A6
330
17A2
100
AcDbEntity
  8
AM_0
100
AcDbVertex
100
AcDb2dVertex
 10
-17.32860432681307
 20
2.377080712838946
 30
0.0
 42
-0.2726804491113656
 70
     1
  0
VERTEX
  5
17A7
330
17A2
100
AcDbEntity
  8
AM_0
100
AcDbVertex
100
AcDb2dVertex
 10
-17.34056674842177
 20
2.393152033034496
 30
0.0
 42
-0.4014058829339297
  0
VERTEX
  5
17A8
330
17A2
100
AcDbEntity
  8
AM_0
100
AcDbVertex
100
AcDb2dVertex
 10
-17.31888057502465
 20
2.421327021310119
 30
0.0
 42
-0.0313656446754737
 70
     1
  0
VERTEX
  5
17A9
330
17A2
100
AcDbEntity
  8
AM_0
100
AcDbVertex
100
AcDb2dVertex
 10
-16.92816395159716
 20
2.456059912335291
 30
0.0
 42
-0.0039726403541645
  0
VERTEX
  5
17AA
330
17A2
100
AcDbEntity
  8
AM_0
100
AcDbVertex
100
AcDb2dVertex
 10
-16.57234560461029
 20
2.462467585225454
 30
0.0
 42
0.0019401889352083
 70
     1
  0
VERTEX
  5
17AB
330
17A2
100
AcDbEntity
  8
AM_0
100
AcDbVertex
100
AcDb2dVertex
 10
-15.84375000000009
 20
2.472625928294178
 30
0.0
 42
0.0036525506412497
  0
VERTEX
  5
17AC
330
17A2
100
AcDbEntity
  8
AM_0
100
AcDbVertex
100
AcDb2dVertex
 10
-15.55723996223898
 20
2.479826552726621
 30
0.0
 42
0.0018773371428962
 70
     1
  0
VERTEX
  5
17AD
330
17A2
100
AcDbEntity
  8
AM_0
100
AcDbVertex
100
AcDb2dVertex
 10
-15.00000000000009
 20
2.5
 30
0.0
  0
SEQEND
  5
17AE
330
17A2
100
AcDbEntity
  8
AM_0
  0
LINE
  5
17AF
330
1F
100
AcDbEntity
  8
AM_11
100
AcDbLine
 10
-15.00000000000014
 20
-2.5
 30
0.0
 11
-15.00000000000008
 21
2.5
 31
0.0
  0
POLYLINE
  5
17B0
330
1F
100
AcDbEntity
  8
AM_0
100
AcDb2dPolyline
 66
     1
 10
0.0
 20
0.0
 30
0.0
 70
     2
  0
VERTEX
  5
1BAC
330
17B0
100
AcDbEntity
  8
AM_0
100
AcDbVertex
100
AcDb2dVertex
 10
-15.00000000000008
 20
0.7849595044896063
 30
0.0
 42
0.0282874143909199
  0
VERTEX
  5
1BB4
330
17B0
100
AcDbEntity
  8
AM_0
100
AcDbVertex
100
AcDb2dVertex
 10
-15.45146775439562
 20
0.9077009111864819
 30
0.0
 42
0.0334074463496902
 70
     1
  0
VERTEX
  5
1BAD
330
17B0
100
AcDbEntity
  8
AM_0
100
AcDbVertex
100
AcDb2dVertex
 10
-15.84375000000008
 20
0.9638248506174988
 30
0.0
 42
0.0318888583378956
  0
VERTEX
  5
1BB5
330
17B0
100
AcDbEntity
  8
AM_0
100
AcDbVertex
100
AcDb2dVertex
 10
-16.66821064068376
 20
0.9733558590092139
 30
0.0
 42
0.0858515004804063
 70
     1
  0
VERTEX
  5
1BAE
330
17B0
100
AcDbEntity
  8
AM_0
100
AcDbVertex
100
AcDb2dVertex
 10
-16.96875000000008
 20
0.9050505924771385
 30
0.0
 42
0.1198883322212097
  0
VERTEX
  5
1BB6
330
17B0
100
AcDbEntity
  8
AM_0
100
AcDbVertex
100
AcDb2dVertex
 10
-17.18300785675213
 20
0.7477135021870858
 30
0.0
 42
0.1704800302433629
 70
     1
  0
VERTEX
  5
1BAF
330
17B0
100
AcDbEntity
  8
AM_0
100
AcDbVertex
100
AcDb2dVertex
 10
-17.25000000000008
 20
0.5702963104104839
 30
0.0
 42
0.1172295991725409
  0
VERTEX
  5
1BB7
330
17B0
100
AcDbEntity
  8
AM_0
100
AcDbVertex
100
AcDb2dVertex
 10
-17.20272109534291
 20
0.3485453917077521
 30
0.0
 42
0.0600702127063902
 70
     1
  0
VERTEX
  5
1BB0
330
17B0
100
AcDbEntity
  8
AM_0
100
AcDbVertex
100
AcDb2dVertex
 10
-16.96875000000008
 20
-0.0217973644502365
 30
0.0
 42
0.0296604585274336
  0
VERTEX
  5
1BB9
330
17B0
100
AcDbEntity
  8
AM_0
100
AcDbVertex
100
AcDb2dVertex
 10
-16.58526651287613
 20
-0.439467788247427
 30
0.0
 42
0.0168132859575131
 70
     1
  0
VERTEX
  5
1BB1
330
17B0
100
AcDbEntity
  8
AM_0
100
AcDbVertex
100
AcDb2dVertex
 10
-15.84375000000008
 20
-1.109929193766873
 30
0.0
 42
0.0308957679148693
  0
VERTEX
  5
1BB8
330
17B0
100
AcDbEntity
  8
AM_0
100
AcDbVertex
100
AcDb2dVertex
 10
-15.53892081830286
 20
-1.336756274846244
 30
0.0
 42
0.018665024272642
 70
     1
  0
VERTEX
  5
1BB2
330
17B0
100
AcDbEntity
  8
AM_0
100
AcDbVertex
100
AcDb2dVertex
 10
-15.00000000000008
 20
-1.660259099192813
 30
0.0
  0
SEQEND
  5
1BB3
330
17B0
100
AcDbEntity
  8
AM_0
  0
LINE
  5
17B1
330
1F
100
AcDbEntity
  8
AM_0
100
AcDbLine
 10
-15.00000000000008
 20
1.56757933611847
 30
0.0
 11
-15.17742088753505
 21
1.285064623818442
 31
0.0
  0
LINE
  5
17B2
330
1F
100
AcDbEntity
  8
AM_0
100
AcDbLine
 10
-15.17742088753505
 20
1.285064623818442
 30
0.0
 11
-15.00000000000008
 21
0.7849595044896063
 31
0.0
  0
ARC
  5
17B3
330
1F
100
AcDbEntity
  8
AM_0
100
AcDbCircle
 10
-14.99188318631594
 20
-7.768194741055253
 30
0.0
 40
5.337132167249822
100
AcDbArc
 50
90.08713656171531
 51
99.21891394236277
  0
LINE
  5
17B4
330
1F
100
AcDbEntity
  8
AM_0
100
AcDbLine
 10
-15.00000000000008
 20
-1.660259099192813
 30
0.0
 11
-15.00000000000014
 21
-2.431068745912511
 31
0.0
  0
LINE
  5
17D6
330
1F
100
AcDbEntity
  8
AM_0
100
AcDbLine
 10
-50.0000000000001
 20
2.500000000000063
 30
0.0
 11
-50.00000000000008
 21
-2.499999999999936
 31
0.0
  0
LINE
  5
17D7
330
1F
100
AcDbEntity
  8
AM_0
100
AcDbLine
 10
-49.50000000000009
 20
-2.999999999999936
 30
0.0
 11
-22.00000000000007
 21
-2.999999999999943
 31
0.0
  0
LINE
  5
17D8
330
1F
100
AcDbEntity
  8
AM_0
100
AcDbLine
 10
-49.50000000000009
 20
3.000000000000063
 30
0.0
 11
-22.00000000000009
 21
3.000000000000071
 31
0.0
  0
LINE
  5
17E6
330
1F
100
AcDbEntity
  8
AM_0
100
AcDbLine
 10
-49.50000000000009
 20
3.000000000000063
 30
0.0
 11
-50.0000000000001
 21
2.500000000000063
 31
0.0
1001
GENIUS_GENFIL_13
1070
     0
1040
0.5
1040
0.5
1040
20.0
1040
0.0
1002
{
1002
}
1001
GENIUS_GENODEF_13
1002
{
1000
HIER
1070
     0
1002
}
1002
{
1000
MANEDIT
1070
     0
1002
}
1002
{
1000
NOSEL
1070
     0
1002
}
1002
{
1000
BEHIND
1070
     0
1002
}
1002
{
1000
REACTOR
1002
}
1001
GENIUS_GENOBJ-N-CHA_13
1002
{
1000
OWNER
1000
GEN
1002
}
  0
LINE
  5
17E9
330
1F
100
AcDbEntity
  8
AM_0
100
AcDbLine
 10
-50.00000000000008
 20
-2.499999999999936
 30
0.0
 11
-49.50000000000009
 21
-2.999999999999936
 31
0.0
1001
GENIUS_GENFIL_13
1070
     0
1040
0.5
1040
0.5
1040
20.0
1040
0.0
1002
{
1002
}
1001
GENIUS_GENODEF_13
1002
{
1000
HIER
1070
     0
1002
}
1002
{
1000
MANEDIT
1070
     0
1002
}
1002
{
1000
NOSEL
1070
     0
1002
}
1002
{
1000
BEHIND
1070
     0
1002
}
1002
{
1000
REACTOR
1002
}
1001
GENIUS_GENOBJ-N-CHA_13
1002
{
1000
OWNER
1000
GEN
1002
}
  0
LINE
  5
17EA
330
1F
100
AcDbEntity
  8
AM_0
100
AcDbLine
 10
-49.50000000000009
 20
3.000000000000063
 30
0.0
 11
-49.50000000000009
 21
-2.999999999999921
 31
0.0
  0
LINE
  5
17F2
330
1F
100
AcDbEntity
  8
AM_0
100
AcDbLine
 10
-22.00000000000009
 20
3.000000000000071
 30
0.0
 11
-22.00000000000008
 21
-2.999999999999936
 31
0.0
  0
LINE
  5
1809
330
1F
100
AcDbEntity
  8
AM_0
100
AcDbLine
 10
-22.00000000000009
 20
3.000000000000063
 30
0.0
 11
-20.13397459621541
 21
2.5
 31
0.0
  0
LINE
  5
180A
330
1F
100
AcDbEntity
  8
AM_0
100
AcDbLine
 10
-20.13397459621541
 20
2.5
 30
0.0
 11
-20.13397459621588
 21
-2.5
 31
0.0
  0
LINE
  5
180B
330
1F
100
AcDbEntity
  8
AM_0
100
AcDbLine
 10
-20.13397459621588
 20
-2.5
 30
0.0
 11
-22.00000000000008
 21
-2.999999999999936
 31
0.0
  0
DIMENSION
  5
1818
330
1F
100
AcDbEntity
  8
AM_5
100
AcDbDimension
  2
*D5
 10
-58.21831628338793
 20
-2.999999999999933
 30
0.0
 11
-59.76831628338793
 21
0.000000000000057
 31
0.0
 70
    32
  1
%%c<>
  3
AM_JIS
100
AcDbAlignedDimension
 13
-49.50000000000009
 23
3.000000000000063
 33
0.0
 14
-49.50000000000009
 24
-2.999999999999936
 34
0.0
 50
270.0000000000001
100
AcDbRotatedDimension
1001
GENIUS_GENDTOL_13
1000

1000
h7
1000

1040
0.0
  0
DIMENSION
  5
18AB
330
1F
100
AcDbEntity
  8
AM_5
100
AcDbDimension
  2
*D6
 10
-0.0000000000001003
 20
-16.00000099999989
 30
0.0
 11
-25.00000000000009
 21
-14.45000099999989
 31
0.0
 70
    32
  1
<>
  3
AM_JIS
100
AcDbAlignedDimension
 13
-50.00000000000008
 23
-2.499999999999936
 33
0.0
 14
-0.0000000000000995
 24
-2.5
 34
0.0
 50
0.0000000000001132
100
AcDbRotatedDimension
1001
GENIUS_GENDTOL_13
1000

1000
h7
1000

1040
0.0
  0
DIMENSION
  5
193F
330
1F
100
AcDbEntity
  8
AM_5
100
AcDbDimension
  2
*D7
 10
-0.0000000000000999
 20
-10.0000009999999
 30
0.0
 11
-7.50000000000012
 21
-8.450000999999899
 31
0.0
 70
    32
  1
<>
  3
AM_JIS
100
AcDbAlignedDimension
 13
-15.00000000000014
 23
-2.5
 33
0.0
 14
-0.0000000000000995
 24
-2.5
 34
0.0
 50
0.0000000000001132
100
AcDbRotatedDimension
1001
GENIUS_GENDTOL_13
1000

1000
h7
1000

1040
0.0
  0
DIMENSION
  5
19E5
330
1F
100
AcDbEntity
  8
AM_5
100
AcDbDimension
  2
*D8
 10
9.278885015427377
 20
-2.500000000000011
 30
0.0
 11
7.728885015427376
 21
-0.0000000000000053
 31
0.0
 70
    32
  1
%%c<>
  3
AM_JIS
100
AcDbAlignedDimension
 13
-0.0000000000000995
 23
2.5
 33
0.0
 14
-0.0000000000000959
 24
-2.500000000000008
 34
0.0
 50
90.00000000000003
100
AcDbRotatedDimension
1001
GENIUS_GENDTOL_13
1000

1000
h7
1000

1040
0.0
  0
SPLINE
  5
1B76
330
1F
100
AcDbEntity
  8
AM_0
100
AcDbSpline
210
0.0
220
0.0
230
1.0
 70
    24
 71
     3
 72
     8
 73
     4
 74
     2
 42
0.0000000001
 43
0.0000000001
 44
0.0000000001
 40
0.0
 40
0.0
 40
0.0
 40
0.0
 40
1.400000000024881
 40
1.400000000024881
 40
1.400000000024881
 40
1.400000000024881
 10
-14.99999999999991
 20
2.5
 30
0.0
 10
-14.53333333332495
 20
2.500000000000019
 30
0.0
 10
-14.06666666664999
 20
2.500000000000038
 30
0.0
 10
-13.59999999997503
 20
2.500000000000056
 30
0.0
 11
-14.99999999999991
 21
2.5
 31
0.0
 11
-13.59999999997503
 21
2.500000000000056
 31
0.0
  0
VIEWPORT
  5
110
330
101
100
AcDbEntity
 67
     1
  8
0
100
AcDbViewport
 10
420.5
 20
297.0
 30
0.0
 40
948.9782706766916
 41
628.452
 68
     1
 69
     1
1001
ACAD
1000
MVIEW
1002
{
1070
    16
1010
0.0
1020
0.0
1030
0.0
1010
0.0
1020
0.0
1030
1.0
1040
0.0
1040
628.452
1040
420.5
1040
297.0
1040
50.0
1040
0.0
1040
0.0
1070
     0
1070
   100
1070
     1
1070
     1
1070
     0
1070
     0
1070
     0
1070
     0
1040
0.0
1040
0.0
1040
0.0
1040
10.0
1040
10.0
1040
10.0
1040
10.0
1070
     0
1002
{
1002
}
1002
}
  0
ENDSEC
  0
SECTION
  2
OBJECTS
  0
DICTIONARY
  5
C
330
0
100
AcDbDictionary
  3
ACAD_GROUP
350
D
  3
ACAD_LAYOUT
350
1A
  3
ACAD_MLINESTYLE
350
17
  3
ACAD_PLOTSETTINGS
350
19
  3
ACAD_PLOTSTYLENAME
350
E
  3
ACDBVARIABLEDICTIONARY
350
34
  3
ACMDICTIONARY
350
43
  3
AMG
350
2B
  3
AMGSNAPSETTINGS
350
6E
  3
DWGPROPS
350
1C08
  3
ACDBHEADERROUNDTRIPXREC
350
1C14
  0
DICTIONARY
  5
74
330
1F
100
AcDbDictionary
280
     1
  3
ACAD_INDEX
360
1C0A
  3
ACAD_LAYOUTSELFREF
360
1C37
  0
DICTIONARY
  5
1C3C
330
101
100
AcDbDictionary
280
     1
  3
ACAD_LAYOUTSELFREF
360
1C3D
  0
DICTIONARY
  5
D
102
{ACAD_REACTORS
330
C
102
}
330
C
100
AcDbDictionary
  0
DICTIONARY
  5
1A
102
{ACAD_REACTORS
330
C
102
}
330
C
100
AcDbDictionary
  0
DICTIONARY
  5
17
102
{ACAD_REACTORS
330
C
102
}
330
C
100
AcDbDictionary
  3
STANDARD
350
18
  0
DICTIONARY
  5
19
102
{ACAD_REACTORS
330
C
102
}
330
C
100
AcDbDictionary
  0
ACDBDICTIONARYWDFLT
  5
E
102
{ACAD_REACTORS
330
C
102
}
330
C
100
AcDbDictionary
281
     1
  3
Normal
350
F
100
AcDbDictionaryWithDefault
340
F
  0
DICTIONARY
  5
34
102
{ACAD_REACTORS
330
C
102
}
330
C
100
AcDbDictionary
  3
INDEXCTL
350
35
  3
SORTENTS
350
B5E
  0
DICTIONARY
  5
43
102
{ACAD_REACTORS
330
C
102
}
330
C
100
AcDbDictionary
  3
ACMSTDDICTIONARY
350
260
  0
DICTIONARY
  5
2B
102
{ACAD_REACTORS
330
C
102
}
330
C
100
AcDbDictionary
  3
ACMGSETTINGS
350
2C
  0
DICTIONARY
  5
6E
102
{ACAD_REACTORS
330
C
102
}
330
C
100
AcDbDictionary
  0
XRECORD
  5
1C08
102
{ACAD_REACTORS
330
C
102
}
330
C
100
AcDbXrecord
  1
DWGPROPS COOKIE
  2

  3

  4

  6

  7

  8

  9

300
AmdtFileType=82
301
=
302
=
303
=
304
=
305
=
306
=
307
=
308
=
309
=
 40
0.0385546643518519
 41
2452836.771637361
 42
2452901.555915602
  1

 90
        1
  0
DICTIONARY
  5
1C14
102
{ACAD_REACTORS
330
C
102
}
330
C
100
AcDbDictionary
  3
TSTACKALIGN
350
1C15
  3
TSTACKSIZE
350
1C16
  3
HYPERLINKBASE
350
1C17
  3
STYLESHEET
350
1C18
  3
LAYOUTDICT
350
1C19
  3
PLOTSETDICT
350
1C1A
  3
PLOTSTYLNAMDICT
350
1C1B
  3
LWETCUNION
350
1C1C
  3
INSUNITS
350
1C1D
  3
CEPSNTYPE
350
1C1E
  3
FINGERPRINTGUID
350
1C1F
  3
VERSIONGUID
350
1C20
  3
PSVPSCALE
350
1C21
  3
DIMSTYLEDATA
350
1C22
  3
PUCSORTHOREF
350
1C23
  3
PUCSORTHOVIEW
350
1C24
  3
PUCSBASE
350
1C25
  3
PUCSORGTOP
350
1C26
  3
PUCSORGBOTTOM
350
1C27
  3
PUCSORGLEFT
350
1C28
  3
PUCSORGRIGHT
350
1C29
  3
PUCSORGFRONT
350
1C2A
  3
PUCSORGBACK
350
1C2B
  3
UCSORTHOREF
350
1C2C
  3
UCSORTHOVIEW
350
1C2D
  3
UCSBASE
350
1C2E
  3
UCSORGTOP
350
1C2F
  3
UCSORGBOTTOM
350
1C30
  3
UCSORGLEFT
350
1C31
  3
UCSORGRIGHT
350
1C32
  3
UCSORGFRONT
350
1C33
  3
UCSORGBACK
350
1C34
  0
DICTIONARY
  5
1C0A
102
{ACAD_REACTORS
330
74
102
}
330
74
100
AcDbDictionary
  3
*A1
350
1C0B
  0
XRECORD
  5
1C37
102
{ACAD_REACTORS
330
74
102
}
330
74
100
AcDbXrecord
340
1F
  0
XRECORD
  5
1C3D
102
{ACAD_REACTORS
330
1C3C
102
}
330
1C3C
100
AcDbXrecord
340
101
  0
MLINESTYLE
  5
18
102
{ACAD_REACTORS
330
17
102
}
330
17
100
AcDbMlineStyle
  2
STANDARD
 70
     0
  3

 62
   256
 51
90.0
 52
90.0
 71
     2
 49
0.5
 62
   256
  6
BYLAYER
 49
-0.5
 62
   256
  6
BYLAYER
  0
ACDBPLACEHOLDER
  5
F
102
{ACAD_REACTORS
330
E
102
}
330
E
100
AcDbPlaceHolder
280
     0
  0
DICTIONARYVAR
  5
35
102
{ACAD_REACTORS
330
34
102
}
330
34
100
DictionaryVariables
280
     0
  1
1
  0
DICTIONARYVAR
  5
B5E
102
{ACAD_REACTORS
330
34
102
}
330
34
100
DictionaryVariables
280
     0
  1
96
  0
DICTIONARY
  5
260
102
{ACAD_REACTORS
330
43
102
}
330
43
100
AcDbDictionary
  0
DICTIONARY
  5
2C
102
{ACAD_REACTORS
330
2B
102
}
330
2B
100
AcDbDictionary
  3
DWGSETTINGS
350
2D
  0
XRECORD
  5
1C15
102
{ACAD_REACTORS
330
1C14
102
}
330
1C14
100
AcDbXrecord
 90
        1
  0
XRECORD
  5
1C16
102
{ACAD_REACTORS
330
1C14
102
}
330
1C14
100
AcDbXrecord
 90
       70
  0
XRECORD
  5
1C17
102
{ACAD_REACTORS
330
1C14
102
}
330
1C14
100
AcDbXrecord
  1

  0
XRECORD
  5
1C18
102
{ACAD_REACTORS
330
1C14
102
}
330
1C14
100
AcDbXrecord
  1
ASAMI.ctb
  0
XRECORD
  5
1C19
102
{ACAD_REACTORS
330
1C14
102
}
330
1C14
100
AcDbXrecord
340
1A
  0
XRECORD
  5
1C1A
102
{ACAD_REACTORS
330
1C14
102
}
330
1C14
100
AcDbXrecord
340
19
  0
XRECORD
  5
1C1B
102
{ACAD_REACTORS
330
1C14
102
}
330
1C14
100
AcDbXrecord
340
E
  0
XRECORD
  5
1C1C
102
{ACAD_REACTORS
330
1C14
102
}
330
1C14
100
AcDbXrecord
 90
    10781
  0
XRECORD
  5
1C1D
102
{ACAD_REACTORS
330
1C14
102
}
330
1C14
100
AcDbXrecord
 90
        4
  0
XRECORD
  5
1C1E
102
{ACAD_REACTORS
330
1C14
102
}
330
1C14
100
AcDbXrecord
 90
        0
  0
XRECORD
  5
1C1F
102
{ACAD_REACTORS
330
1C14
102
}
330
1C14
100
AcDbXrecord
  1
{AFB28963-8C59-40AE-9337-C84526B81ACE}
  0
XRECORD
  5
1C20
102
{ACAD_REACTORS
330
1C14
102
}
330
1C14
100
AcDbXrecord
  1
{0F4B3B8B-472A-4A01-B387-01AC0475C1F1}
  0
XRECORD
  5
1C21
102
{ACAD_REACTORS
330
1C14
102
}
330
1C14
100
AcDbXrecord
 40
0.0
  0
XRECORD
  5
1C22
102
{ACAD_REACTORS
330
1C14
102
}
330
1C14
100
AcDbXrecord
1000
DSTYLE
1002
{
1070
    79
 70
     2
1070
   341
340
59
1070
   342
340
59
1070
   371
 70
    -1
1070
   372
 70
    -1
1002
}
  0
XRECORD
  5
1C23
102
{ACAD_REACTORS
330
1C14
102
}
330
1C14
100
AcDbXrecord
340
0
  0
XRECORD
  5
1C24
102
{ACAD_REACTORS
330
1C14
102
}
330
1C14
100
AcDbXrecord
 70
     0
  0
XRECORD
  5
1C25
102
{ACAD_REACTORS
330
1C14
102
}
330
1C14
100
AcDbXrecord
340
0
  0
XRECORD
  5
1C26
102
{ACAD_REACTORS
330
1C14
102
}
330
1C14
100
AcDbXrecord
 10
0.0
 20
0.0
 30
0.0
  0
XRECORD
  5
1C27
102
{ACAD_REACTORS
330
1C14
102
}
330
1C14
100
AcDbXrecord
 10
0.0
 20
0.0
 30
0.0
  0
XRECORD
  5
1C28
102
{ACAD_REACTORS
330
1C14
102
}
330
1C14
100
AcDbXrecord
 10
0.0
 20
0.0
 30
0.0
  0
XRECORD
  5
1C29
102
{ACAD_REACTORS
330
1C14
102
}
330
1C14
100
AcDbXrecord
 10
0.0
 20
0.0
 30
0.0
  0
XRECORD
  5
1C2A
102
{ACAD_REACTORS
330
1C14
102
}
330
1C14
100
AcDbXrecord
 10
0.0
 20
0.0
 30
0.0
  0
XRECORD
  5
1C2B
102
{ACAD_REACTORS
330
1C14
102
}
330
1C14
100
AcDbXrecord
 10
0.0
 20
0.0
 30
0.0
  0
XRECORD
  5
1C2C
102
{ACAD_REACTORS
330
1C14
102
}
330
1C14
100
AcDbXrecord
340
0
  0
XRECORD
  5
1C2D
102
{ACAD_REACTORS
330
1C14
102
}
330
1C14
100
AcDbXrecord
 70
     0
  0
XRECORD
  5
1C2E
102
{ACAD_REACTORS
330
1C14
102
}
330
1C14
100
AcDbXrecord
340
0
  0
XRECORD
  5
1C2F
102
{ACAD_REACTORS
330
1C14
102
}
330
1C14
100
AcDbXrecord
 10
0.0
 20
0.0
 30
0.0
  0
XRECORD
  5
1C30
102
{ACAD_REACTORS
330
1C14
102
}
330
1C14
100
AcDbXrecord
 10
0.0
 20
0.0
 30
0.0
  0
XRECORD
  5
1C31
102
{ACAD_REACTORS
330
1C14
102
}
330
1C14
100
AcDbXrecord
 10
0.0
 20
0.0
 30
0.0
  0
XRECORD
  5
1C32
102
{ACAD_REACTORS
330
1C14
102
}
330
1C14
100
AcDbXrecord
 10
0.0
 20
0.0
 30
0.0
  0
XRECORD
  5
1C33
102
{ACAD_REACTORS
330
1C14
102
}
330
1C14
100
AcDbXrecord
 10
0.0
 20
0.0
 30
0.0
  0
XRECORD
  5
1C34
102
{ACAD_REACTORS
330
1C14
102
}
330
1C14
100
AcDbXrecord
 10
0.0
 20
0.0
 30
0.0
  0
LAYER_INDEX
  5
1C0B
102
{ACAD_REACTORS
330
1C0A
102
}
330
1C0A
100
AcDbIndex
 40
2453152.454836539
100
AcDbLayerIndex
  8
0
360
1C0C
 90
        0
  8
AM_0
360
1C0D
 90
       64
  8
AM_11
360
1C0E
 90
        3
  8
AM_7
360
1C0F
 90
        1
  8
AM_5
360
1C10
 90
        4
  8
Defpoints
360
1C11
 90
        0
  8
AM_6
360
1C12
 90
        1
  0
XRECORD
  5
2D
102
{ACAD_REACTORS
330
2C
102
}
330
2C
100
AcDbXrecord
  1
VERSION
140
15.0
  1
PRODUCT
  2
AutoCAD Mechanical 2000
  0
IDBUFFER
  5
1C0C
330
0
100
AcDbIdBuffer
  0
IDBUFFER
  5
1C0D
330
0
100
AcDbIdBuffer
330
17B0
330
17B1
330
17B2
330
17B3
330
17B4
330
17D6
330
17D7
330
17D8
330
17E6
330
17E9
330
17EA
330
17F2
330
1809
330
180A
330
180B
330
1B76
330
1770
330
1771
330
1772
330
1773
330
1774
330
1775
330
1776
330
1777
330
1778
330
1779
330
177A
330
177B
330
177C
330
177D
330
177E
330
177F
330
1780
330
1781
330
1782
330
1783
330
1784
330
1785
330
1786
330
1787
330
1788
330
1789
330
178A
330
178B
330
178C
330
178D
330
1791
330
1792
330
1793
330
1794
330
1795
330
1796
330
1797
330
1798
330
1799
330
179A
330
179B
330
179C
330
179D
330
179E
330
179F
330
17A0
330
17A1
330
17A2
  0
IDBUFFER
  5
1C0E
330
0
100
AcDbIdBuffer
330
178F
330
1790
330
17AF
  0
IDBUFFER
  5
1C0F
330
0
100
AcDbIdBuffer
330
178E
  0
IDBUFFER
  5
1C10
330
0
100
AcDbIdBuffer
330
1818
330
18AB
330
193F
330
19E5
  0
IDBUFFER
  5
1C11
330
0
100
AcDbIdBuffer
  0
IDBUFFER
  5
1C12
330
0
100
AcDbIdBuffer
330
E5A
  0
ENDSEC
  0
EOF
