  0
SECTION
  2
HEADER
  9
$ACADVER
  1
AC1014
  9
$ACADMAINTVER
 70
     9
  9
$DWGCODEPAGE
  3
ANSI_932
  9
$INSBASE
 10
0.0
 20
0.0
 30
0.0
  9
$EXTMIN
 10
-70.56831628338793
 20
-28.25000099999989
 30
-0.00000001
  9
$EXTMAX
 10
9.778885015427372
 20
4.09469784273877
 30
0.00000001
  9
$LIMMIN
 10
-71.95543616466079
 20
-34.13472070195365
  9
$LIMMAX
 10
15.60161692949782
 20
16.11251057243666
  9
$ORTHOMODE
 70
     0
  9
$REGENMODE
 70
     1
  9
$FILLMODE
 70
     1
  9
$QTEXTMODE
 70
     0
  9
$MIRRTEXT
 70
     0
  9
$DRAGMODE
 70
     2
  9
$LTSCALE
 40
1.0
  9
$OSMODE
 70
    55
  9
$ATTMODE
 70
     1
  9
$TEXTSIZE
 40
2.5
  9
$TRACEWID
 40
1.0
  9
$TEXTSTYLE
  7
STANDARD
  9
$CLAYER
  8
AM_0
  9
$CELTYPE
  6
BYLAYER
  9
$CECOLOR
 62
   256
  9
$CELTSCALE
 40
1.0
  9
$DELOBJ
 70
     1
  9
$DISPSILH
 70
     0
  9
$DIMSCALE
 40
0.5
  9
$DIMASZ
 40
2.5
  9
$DIMEXO
 40
1.0
  9
$DIMDLI
 40
12.0
  9
$DIMRND
 40
0.0
  9
$DIMDLE
 40
0.0
  9
$DIMEXE
 40
1.0
  9
$DIMTP
 40
0.1
  9
$DIMTM
 40
0.1
  9
$DIMTXT
 40
3.2
  9
$DIMCEN
 40
0.0
  9
$DIMTSZ
 40
0.0
  9
$DIMTOL
 70
     0
  9
$DIMLIM
 70
     0
  9
$DIMTIH
 70
     0
  9
$DIMTOH
 70
     0
  9
$DIMSE1
 70
     0
  9
$DIMSE2
 70
     0
  9
$DIMTAD
 70
     3
  9
$DIMZIN
 70
     8
  9
$DIMBLK
  1
OPEN30
  9
$DIMASO
 70
     1
  9
$DIMSHO
 70
     1
  9
$DIMPOST
  1

  9
$DIMAPOST
  1
"
  9
$DIMALT
 70
     0
  9
$DIMALTD
 70
     2
  9
$DIMALTF
 40
0.0393701
  9
$DIMLFAC
 40
1.0
  9
$DIMTOFL
 70
     1
  9
$DIMTVP
 40
0.0
  9
$DIMTIX
 70
     0
  9
$DIMSOXD
 70
     0
  9
$DIMSAH
 70
     0
  9
$DIMBLK1
  1

  9
$DIMBLK2
  1

  9
$DIMSTYLE
  2
AM_JIS
  9
$DIMCLRD
 70
   256
  9
$DIMCLRE
 70
   256
  9
$DIMCLRT
 70
     2
  9
$DIMTFAC
 40
0.71
  9
$DIMGAP
 40
1.5
  9
$DIMJUST
 70
     0
  9
$DIMSD1
 70
     0
  9
$DIMSD2
 70
     0
  9
$DIMTOLJ
 70
     0
  9
$DIMTZIN
 70
     0
  9
$DIMALTZ
 70
     0
  9
$DIMALTTZ
 70
     0
  9
$DIMFIT
 70
     3
  9
$DIMUPT
 70
     0
  9
$DIMUNIT
 70
     2
  9
$DIMDEC
 70
     3
  9
$DIMTDEC
 70
     3
  9
$DIMALTU
 70
     2
  9
$DIMALTTD
 70
     2
  9
$DIMTXSTY
  7
ASAMI
  9
$DIMAUNIT
 70
     0
  9
$LUNITS
 70
     2
  9
$LUPREC
 70
     2
  9
$SKETCHINC
 40
1.0
  9
$FILLETRAD
 40
2.5
  9
$AUNITS
 70
     0
  9
$AUPREC
 70
     0
  9
$MENU
  1
.
  9
$ELEVATION
 40
0.0
  9
$PELEVATION
 40
0.0
  9
$THICKNESS
 40
0.0
  9
$LIMCHECK
 70
     0
  9
$BLIPMODE
 70
     0
  9
$CHAMFERA
 40
0.5
  9
$CHAMFERB
 40
0.5
  9
$CHAMFERC
 40
20.0
  9
$CHAMFERD
 40
0.0
  9
$SKPOLY
 70
     0
  9
$TDCREATE
 40
2452836.771637361
  9
$TDUPDATE
 40
2453152.458677245
  9
$TDINDWG
 40
0.0513351505
  9
$TDUSRTIMER
 40
0.0513351505
  9
$USRTIMER
 70
     1
  9
$ANGBASE
 50
0.0
  9
$ANGDIR
 70
     0
  9
$PDMODE
 70
     0
  9
$PDSIZE
 40
0.0
  9
$PLINEWID
 40
0.0
  9
$COORDS
 70
     1
  9
$SPLFRAME
 70
     0
  9
$SPLINETYPE
 70
     6
  9
$SPLINESEGS
 70
     8
  9
$ATTDIA
 70
     1
  9
$ATTREQ
 70
     1
  9
$HANDLING
 70
 12289
  9
$HANDSEED
  5
2739
  9
$SURFTAB1
 70
     6
  9
$SURFTAB2
 70
     6
  9
$SURFTYPE
 70
     6
  9
$SURFU
 70
     6
  9
$SURFV
 70
     6
  9
$UCSNAME
  2

  9
$UCSORG
 10
0.0
 20
0.0
 30
0.0
  9
$UCSXDIR
 10
1.0
 20
0.0
 30
0.0
  9
$UCSYDIR
 10
0.0
 20
1.0
 30
0.0
  9
$PUCSNAME
  2

  9
$PUCSORG
 10
0.0
 20
0.0
 30
0.0
  9
$PUCSXDIR
 10
1.0
 20
0.0
 30
0.0
  9
$PUCSYDIR
 10
0.0
 20
1.0
 30
0.0
  9
$USERI1
 70
     0
  9
$USERI2
 70
     0
  9
$USERI3
 70
     0
  9
$USERI4
 70
     0
  9
$USERI5
 70
     0
  9
$USERR1
 40
0.0
  9
$USERR2
 40
0.0
  9
$USERR3
 40
0.0
  9
$USERR4
 40
0.0
  9
$USERR5
 40
0.0
  9
$WORLDVIEW
 70
     1
  9
$SHADEDGE
 70
     3
  9
$SHADEDIF
 70
    70
  9
$TILEMODE
 70
     1
  9
$MAXACTVP
 70
    64
  9
$PINSBASE
 10
0.0
 20
0.0
 30
0.0
  9
$PLIMCHECK
 70
     0
  9
$PEXTMIN
 10
1.000000000000000E+20
 20
1.000000000000000E+20
 30
1.000000000000000E+20
  9
$PEXTMAX
 10
-1.000000000000000E+20
 20
-1.000000000000000E+20
 30
-1.000000000000000E+20
  9
$PLIMMIN
 10
0.0
 20
0.0
  9
$PLIMMAX
 10
841.0
 20
594.0
  9
$UNITMODE
 70
     0
  9
$VISRETAIN
 70
     1
  9
$PLINEGEN
 70
     0
  9
$PSLTSCALE
 70
     0
  9
$TREEDEPTH
 70
  3020
  9
$PICKSTYLE
 70
     0
  9
$CMLSTYLE
  2
STANDARD
  9
$CMLJUST
 70
     0
  9
$CMLSCALE
 40
20.0
  9
$PROXYGRAPHICS
 70
     1
  9
$MEASUREMENT
 70
     1
  0
ENDSEC
  0
SECTION
  2
CLASSES
  0
CLASS
  1
ACDBDICTIONARYWDFLT
  2
AcDbDictionaryWithDefault
  3
AutoCAD 2000
 90
        0
280
     0
281
     0
  0
CLASS
  1
ACDBPLACEHOLDER
  2
AcDbPlaceHolder
  3
AutoCAD 2000
 90
        0
280
     0
281
     0
  0
CLASS
  1
LAYOUT
  2
AcDbLayout
  3
AutoCAD 2000
 90
        0
280
     0
281
     0
  0
CLASS
  1
AMGSETTINGSOBJ
  2
AmgSettingsObj
  3
"AcadM|Product Description: AutoCAD Mechanical 2000|Company: Autodesk"
 90
        0
280
     0
281
     0
  0
CLASS
  1
ACME_DOCUMENT
  2
AcMeDbDoc
  3
AcMeServices
 90
        0
280
     0
281
     0
  0
CLASS
  1
ACMESCOPE
  2
AcMeScope
  3
AcMeServices
 90
        0
280
     0
281
     0
  0
CLASS
  1
ACMECOMMANDHISTORY
  2
AcMeCommandHistory
  3
AcMeServices
 90
        0
280
     0
281
     0
  0
CLASS
  1
DICTIONARYVAR
  2
AcDbDictionaryVar
  3
AutoCAD 2000
 90
        0
280
     0
281
     0
  0
CLASS
  1
ACIMSYSVARMAN
  2
AcImSysVarManager
  3
AcMeServices
 90
        0
280
     0
281
     0
  0
CLASS
  1
ACIMREALSYSVAR
  2
AcImRealSysVar
  3
AcMeServices
 90
        0
280
     0
281
     0
  0
CLASS
  1
ACIMINTSYSVAR
  2
AcImIntSysVar
  3
AcMeServices
 90
        0
280
     0
281
     0
  0
CLASS
  1
ACMEDRAWINGMAN
  2
AcMeDrawingMan
  3
AcMeServices
 90
        0
280
     0
281
     0
  0
CLASS
  1
ACMEVIEW
  2
AcMeView
  3
AcMeServices
 90
        0
280
     0
281
     0
  0
CLASS
  1
ACDBENTITYCACHE
  2
AcMeEntityCache
  3
AcMeServices
 90
        0
280
     0
281
     0
  0
CLASS
  1
GSMANAGER
  2
AcMeGSManager
  3
AcMeServices
 90
        0
280
     0
281
     0
  0
CLASS
  1
AmdtInternalReactor
  2
AmdtInternalReactor
  3
AcMeServices
 90
        0
280
     0
281
     0
  0
CLASS
  1
ACMESTATEMGR
  2
AcMeStateMgr
  3
AcMeServices
 90
        0
280
     0
281
     0
  0
CLASS
  1
ACME_DATABASE
  2
AcMeDbDatabase
  3
AcMeServices
 90
        0
280
     0
281
     0
  0
CLASS
  1
ACRFINSADJUSTERMGR
  2
AcRfInsAdjusterMgr
  3
AcMeServices
 90
        0
280
     0
281
     0
  0
CLASS
  1
ACMDATADICTIONARY
  2
AcmDataDictionary
  3
"AcmSymBB|Product Description: AutoCAD Mechanical 2000|Company: Autodesk"
 90
        0
280
     0
281
     0
  0
CLASS
  1
ACMDATAENTRYBLOCK
  2
AcmDataEntryBlock
  3
"AcmSymBB|Product Description: AutoCAD Mechanical 2000|Company: Autodesk"
 90
        0
280
     0
281
     0
  0
CLASS
  1
AMGOBJPROPCFG
  2
AmgObjPropCfg
  3
"AmgLay|Product Description: AutoCAD Mechanical 2000|Company: Autodesk"
 90
        1
280
     0
281
     0
  0
CLASS
  1
ACAMGFILTERDAT
  2
AcAmgFilterDat
  3
"AcadM|Product Description: AutoCAD Mechanical 2000|Company: Autodesk"
 90
        0
280
     0
281
     0
  0
CLASS
  1
LAYER_INDEX
  2
AcDbLayerIndex
  3
AutoCAD 2000
 90
        0
280
     0
281
     0
  0
CLASS
  1
IDBUFFER
  2
AcDbIdBuffer
  3
AutoCAD 2000
 90
        0
280
     0
281
     0
  0
CLASS
  1
ACIMSTRSYSVAR
  2
AcImStrSysVar
  3
AcMeServices
 90
        0
280
     0
281
     0
  0
CLASS
  1
ACMSTANDARDJIS
  2
AcmStandardJIS
  3
"AcmSymBB|Product Description: AutoCAD Mechanical 2000|Company: Autodesk"
 90
        0
280
     0
281
     0
  0
CLASS
  1
ACMSURFSTANDARDJIS
  2
AcmSurfTextStdJIS
  3
"AcmSymBB|Product Description: AutoCAD Mechanical 2000|Company: Autodesk"
 90
        0
280
     0
281
     0
  0
CLASS
  1
ACMFCFSTANDARDJIS
  2
AcmFCFStdJIS
  3
"AcmSymBB|Product Description: AutoCAD Mechanical 2000|Company: Autodesk"
 90
        0
280
     0
281
     0
  0
CLASS
  1
ACMWELDSTANDARDJIS
  2
AcmWeldingStdJIS
  3
"AcmSymBB|Product Description: AutoCAD Mechanical 2000|Company: Autodesk"
 90
        0
280
     0
281
     0
  0
CLASS
  1
ACMIDSTANDARDJIS
  2
AcmIdStdJIS
  3
"AcmSymBB|Product Description: AutoCAD Mechanical 2000|Company: Autodesk"
 90
        0
280
     0
281
     0
  0
CLASS
  1
ACMDATUMSTANDARDJIS
  2
AcmDatumStdJIS
  3
"AcmSymBB|Product Description: AutoCAD Mechanical 2000|Company: Autodesk"
 90
        0
280
     0
281
     0
  0
CLASS
  1
ACMBOMSTANDARDJIS
  2
AcmBOMStdJIS
  3
"AcmSymBB|Product Description: AutoCAD Mechanical 2000|Company: Autodesk"
 90
        0
280
     0
281
     0
  0
CLASS
  1
ACMSTANDARDANSI
  2
AcmStandardANSI
  3
"AcmSymBB|Product Description: AutoCAD Mechanical 2000|Company: Autodesk"
 90
        0
280
     0
281
     0
  0
CLASS
  1
ACMSURFSTANDARDANSI
  2
AcmSurfTextStdANSI
  3
"AcmSymBB|Product Description: AutoCAD Mechanical 2000|Company: Autodesk"
 90
        0
280
     0
281
     0
  0
CLASS
  1
ACMFCFSTANDARDANSI
  2
AcmFCFStdANSI
  3
"AcmSymBB|Product Description: AutoCAD Mechanical 2000|Company: Autodesk"
 90
        0
280
     0
281
     0
  0
CLASS
  1
ACMWELDSTANDARDANSI
  2
AcmWeldingStdANSI
  3
"AcmSymBB|Product Description: AutoCAD Mechanical 2000|Company: Autodesk"
 90
        0
280
     0
281
     0
  0
CLASS
  1
ACMIDSTANDARDANSI
  2
AcmIdStdANSI
  3
"AcmSymBB|Product Description: AutoCAD Mechanical 2000|Company: Autodesk"
 90
        0
280
     0
281
     0
  0
CLASS
  1
ACMDATUMSTANDARDANSI
  2
AcmDatumStdANSI
  3
"AcmSymBB|Product Description: AutoCAD Mechanical 2000|Company: Autodesk"
 90
        0
280
     0
281
     0
  0
CLASS
  1
ACMBOMSTANDARDANSI
  2
AcmBOMStdANSI
  3
"AcmSymBB|Product Description: AutoCAD Mechanical 2000|Company: Autodesk"
 90
        0
280
     0
281
     0
  0
CLASS
  1
ACMSTANDARDBSI
  2
AcmStandardBSI
  3
"AcmSymBB|Product Description: AutoCAD Mechanical 2000|Company: Autodesk"
 90
        0
280
     0
281
     0
  0
CLASS
  1
ACMSURFSTANDARDBSI
  2
AcmSurfTextStdBSI
  3
"AcmSymBB|Product Description: AutoCAD Mechanical 2000|Company: Autodesk"
 90
        0
280
     0
281
     0
  0
CLASS
  1
ACMFCFSTANDARDBSI
  2
AcmFCFStdBSI
  3
"AcmSymBB|Product Description: AutoCAD Mechanical 2000|Company: Autodesk"
 90
        0
280
     0
281
     0
  0
CLASS
  1
ACMWELDSTANDARDBSI
  2
AcmWeldingStdBSI
  3
"AcmSymBB|Product Description: AutoCAD Mechanical 2000|Company: Autodesk"
 90
        0
280
     0
281
     0
  0
CLASS
  1
ACMIDSTANDARDBSI
  2
AcmIdStdBSI
  3
"AcmSymBB|Product Description: AutoCAD Mechanical 2000|Company: Autodesk"
 90
        0
280
     0
281
     0
  0
CLASS
  1
ACMDATUMSTANDARDBSI
  2
AcmDatumStdBSI
  3
"AcmSymBB|Product Description: AutoCAD Mechanical 2000|Company: Autodesk"
 90
        0
280
     0
281
     0
  0
CLASS
  1
ACMBOMSTANDARDBSI
  2
AcmBOMStdBSI
  3
"AcmSymBB|Product Description: AutoCAD Mechanical 2000|Company: Autodesk"
 90
        0
280
     0
281
     0
  0
CLASS
  1
LONG_TRANSACTION
  2
AcDbLongTransaction
  3
AutoCAD 2000
 90
        0
280
     0
281
     0
  0
CLASS
  1
LWPOLYLINE
  2
AcDbPolyline
  3
AutoCAD 2000
 90
        0
280
     0
281
     1
  0
CLASS
  1
HATCH
  2
AcDbHatch
  3
AutoCAD 2000
 90
        0
280
     0
281
     1
  0
CLASS
  1
XRECORD
  2
AcDbXrecord
  3
AutoCAD 2000
 90
        0
280
     0
281
     0
  0
ENDSEC
  0
SECTION
  2
TABLES
  0
TABLE
  2
VPORT
  5
8
330
0
100
AcDbSymbolTable
 70
     3
  0
VPORT
  5
270E
330
8
100
AcDbSymbolTableRecord
100
AcDbViewportTableRecord
  2
*ACTIVE
 70
     0
 10
0.0
 20
0.0
 11
1.0
 21
1.0
 12
-30.39469365910616
 22
-12.07795256330012
 13
0.0
 23
0.0
 14
2.5
 24
2.5
 15
10.0
 25
10.0
 16
0.0
 26
0.0
 36
1.0
 17
0.0
 27
0.0
 37
0.0
 40
51.51899040543
 41
1.56570841889117
 42
50.0
 43
0.0
 44
0.0
 50
0.0
 51
0.0
 71
     0
 72
   100
 73
     1
 74
     3
 75
     0
 76
     0
 77
     0
 78
     0
  0
ENDTAB
  0
TABLE
  2
LTYPE
  5
5
330
0
100
AcDbSymbolTable
 70
    10
  0
LTYPE
  5
14
330
5
100
AcDbSymbolTableRecord
100
AcDbLinetypeTableRecord
  2
BYBLOCK
 70
     0
  3

 72
    65
 73
     0
 40
0.0
  0
LTYPE
  5
15
330
5
100
AcDbSymbolTableRecord
100
AcDbLinetypeTableRecord
  2
BYLAYER
 70
     0
  3

 72
    65
 73
     0
 40
0.0
  0
LTYPE
  5
16
330
5
100
AcDbSymbolTableRecord
100
AcDbLinetypeTableRecord
  2
CONTINUOUS
 70
     0
  3
Solid line
 72
    65
 73
     0
 40
0.0
  0
LTYPE
  5
4B
330
5
100
AcDbSymbolTableRecord
100
AcDbLinetypeTableRecord
  2
AM_ISO02W050
 70
     0
  3
__ __ __ __ __ __ __ __ __ __ __ __ __ __ __
 72
    65
 73
     2
 40
7.5
 49
6.0
 74
     0
 49
-1.5
 74
     0
  0
LTYPE
  5
4C
330
5
100
AcDbSymbolTableRecord
100
AcDbLinetypeTableRecord
  2
AM_ISO08W050
 70
     0
  3
____ . ____ . ____ . ____ . ____ . ____ . ____
 72
    65
 73
     4
 40
18.0
 49
12.0
 74
     0
 49
-1.5
 74
     0
 49
3.0
 74
     0
 49
-1.5
 74
     0
  0
LTYPE
  5
4D
330
5
100
AcDbSymbolTableRecord
100
AcDbLinetypeTableRecord
  2
AM_ISO09W050
 70
     0
  3
_____ . . _____ . . _____ . . ____ .. ____
 72
    65
 73
     6
 40
22.5
 49
12.0
 74
     0
 49
-1.5
 74
     0
 49
3.0
 74
     0
 49
-1.5
 74
     0
 49
3.0
 74
     0
 49
-1.5
 74
     0
  0
LTYPE
  5
4E
330
5
100
AcDbSymbolTableRecord
100
AcDbLinetypeTableRecord
  2
AMCONSTR
 70
     0
  3
_______________________
 72
    65
 73
     2
 40
9999.0
 49
9999.0
 74
     0
 49
0.0
 74
     0
  0
LTYPE
  5
4F
330
5
100
AcDbSymbolTableRecord
100
AcDbLinetypeTableRecord
  2
AM_ISO02W050X2
 70
     0
  3
 _ _ _ _ _ _ _ _ _ _ _ _
 72
    65
 73
     2
 40
3.75
 49
3.0
 74
     0
 49
-0.75
 74
     0
  0
LTYPE
  5
50
330
5
100
AcDbSymbolTableRecord
100
AcDbLinetypeTableRecord
  2
AM_ISO08W050X2
 70
     0
  3
__ . __ . __ . __ . __ . __
 72
    65
 73
     4
 40
9.0
 49
6.0
 74
     0
 49
-0.75
 74
     0
 49
1.5
 74
     0
 49
-0.75
 74
     0
  0
LTYPE
  5
53
330
5
100
AcDbSymbolTableRecord
100
AcDbLinetypeTableRecord
  2
AMZIGZAG
 70
     0
  3
/\/-/\/-/\/-/\/-/\/-/\/
 72
    65
 73
     2
 40
11.00009999999999
 49
0.0001
 74
     4
 75
   135
340
52
 46
0.04
 50
0.0
 44
0.0
 45
0.0
 49
-11.0
 74
     0
  0
LTYPE
  5
166
330
5
100
AcDbSymbolTableRecord
100
AcDbLinetypeTableRecord
  2
ACJISTGL
 70
     0
  3
_ _ _ _ _
 72
    65
 73
     2
 40
3.0
 49
2.0
 74
     0
 49
-1.0
 74
     0
  0
LTYPE
  5
26A
330
5
100
AcDbSymbolTableRecord
100
AcDbLinetypeTableRecord
  2
ACJISTGB
 70
     0
  3
__ . . __ . .
 72
    65
 73
     6
 40
9.0
 49
4.0
 74
     0
 49
-1.0
 74
     0
 49
1.0
 74
     0
 49
-1.0
 74
     0
 49
1.0
 74
     0
 49
-1.0
 74
     0
  0
ENDTAB
  0
TABLE
  2
LAYER
  5
2
330
0
100
AcDbSymbolTable
 70
     7
  0
LAYER
  5
10
330
2
100
AcDbSymbolTableRecord
100
AcDbLayerTableRecord
  2
0
 70
     0
 62
     7
  6
CONTINUOUS
  0
LAYER
  5
3F9
330
2
100
AcDbSymbolTableRecord
100
AcDbLayerTableRecord
  2
AM_0
 70
     0
 62
     7
  6
CONTINUOUS
  0
LAYER
  5
BD4
330
2
100
AcDbSymbolTableRecord
100
AcDbLayerTableRecord
  2
AM_11
 70
     0
 62
     3
  6
AM_ISO09W050
  0
LAYER
  5
BD5
330
2
100
AcDbSymbolTableRecord
100
AcDbLayerTableRecord
  2
AM_7
 70
     0
 62
     4
  6
AM_ISO08W050
  0
LAYER
  5
BD6
330
2
100
AcDbSymbolTableRecord
100
AcDbLayerTableRecord
  2
AM_5
 70
     0
 62
     3
  6
CONTINUOUS
  0
LAYER
  5
BD7
330
2
100
AcDbSymbolTableRecord
100
AcDbLayerTableRecord
  2
DEFPOINTS
 70
     0
 62
     7
  6
CONTINUOUS
  0
LAYER
  5
E59
330
2
100
AcDbSymbolTableRecord
100
AcDbLayerTableRecord
  2
AM_6
 70
     0
 62
     2
  6
CONTINUOUS
  0
ENDTAB
  0
TABLE
  2
STYLE
  5
3
330
0
100
AcDbSymbolTable
 70
     5
  0
STYLE
  5
11
330
3
100
AcDbSymbolTableRecord
100
AcDbTextStyleTableRecord
  2
STANDARD
 70
     0
 40
0.0
 41
1.0
 50
0.0
 71
     0
 42
2.5
  3
simplex.shx
  4
EXTFONT.SHX
  0
STYLE
  5
52
330
3
100
AcDbSymbolTableRecord
100
AcDbTextStyleTableRecord
  2

 70
     1
 40
0.0
 41
1.0
 50
0.0
 71
     0
 42
2.5
  3
ltypeshp.shx
  4

  0
STYLE
  5
6B
330
3
100
AcDbSymbolTableRecord
100
AcDbTextStyleTableRecord
  2
ASAMI
 70
     0
 40
0.0
 41
1.0
 50
0.0
 71
     0
 42
2.5
  3
simplex.shx
  4
EXTFONT.SHX
  0
STYLE
  5
262
330
3
100
AcDbSymbolTableRecord
100
AcDbTextStyleTableRecord
  2
ACJISTS
 70
     0
 40
1.0
 41
1.0
 50
0.0
 71
     0
 42
2.5
  3
simplex.shx
  4
bigfont.shx
  0
STYLE
  5
269
330
3
100
AcDbSymbolTableRecord
100
AcDbTextStyleTableRecord
  2
ACJISGDT
 70
     0
 40
0.0
 41
1.0
 50
0.0
 71
     0
 42
2.5
  3
amgdtans.shx
  4

  0
ENDTAB
  0
TABLE
  2
VIEW
  5
6
330
0
100
AcDbSymbolTable
 70
     0
  0
ENDTAB
  0
TABLE
  2
UCS
  5
7
330
0
100
AcDbSymbolTable
 70
     0
  0
ENDTAB
  0
TABLE
  2
APPID
  5
9
330
0
100
AcDbSymbolTable
 70
    12
  0
APPID
  5
12
330
9
100
AcDbSymbolTableRecord
100
AcDbRegAppTableRecord
  2
ACAD
 70
     0
  0
APPID
  5
30
330
9
100
AcDbSymbolTableRecord
100
AcDbRegAppTableRecord
  2
MCAD_NO_VIS
 70
     0
  0
APPID
  5
31
330
9
100
AcDbSymbolTableRecord
100
AcDbRegAppTableRecord
  2
ACAD_TEMP_GRAPHIC
 70
     0
  0
APPID
  5
2C2
330
9
100
AcDbSymbolTableRecord
100
AcDbRegAppTableRecord
  2
GENIUS_GENDTOL_13
 70
     0
  0
APPID
  5
339
330
9
100
AcDbSymbolTableRecord
100
AcDbRegAppTableRecord
  2
GENIUS_GENODEF_13
 70
     0
  0
APPID
  5
33A
330
9
100
AcDbSymbolTableRecord
100
AcDbRegAppTableRecord
  2
GENIUS_GENOBJ-N-RSBK_13
 70
     0
  0
APPID
  5
33B
330
9
100
AcDbSymbolTableRecord
100
AcDbRegAppTableRecord
  2
GENIUS_GENOBJ-N-LIB_13
 70
     0
  0
APPID
  5
33C
330
9
100
AcDbSymbolTableRecord
100
AcDbRegAppTableRecord
  2
GENIUS_GENSCALE_13
 70
     0
  0
APPID
  5
378
330
9
100
AcDbSymbolTableRecord
100
AcDbRegAppTableRecord
  2
GENIUS_GENDIMSH_14
 70
     0
  0
APPID
  5
BD8
330
9
100
AcDbSymbolTableRecord
100
AcDbRegAppTableRecord
  2
GENIUS_GENOBJ-N-CEN_13
 70
     0
  0
APPID
  5
BD9
330
9
100
AcDbSymbolTableRecord
100
AcDbRegAppTableRecord
  2
GENIUS_GENFIL_13
 70
     0
  0
APPID
  5
BDA
330
9
100
AcDbSymbolTableRecord
100
AcDbRegAppTableRecord
  2
GENIUS_GENOBJ-N-CHA_13
 70
     0
  0
ENDTAB
  0
TABLE
  2
DIMSTYLE
  5
A
330
0
100
AcDbSymbolTable
 70
     8
  0
DIMSTYLE
105
58
102
{ACAD_REACTORS
330
18AB
330
193F
330
19E5
330
23EE
102
}
330
A
100
AcDbSymbolTableRecord
100
AcDbDimStyleTableRecord
  2
AM_JIS
 70
     0
  3

  4
"
  5
OPEN30
  6

  7

 40
0.5
 41
2.5
 42
1.0
 43
12.0
 44
1.0
 45
0.0
 46
0.0
 47
0.1
 48
0.1
140
3.2
141
0.0
142
0.0
143
0.0393701
144
1.0
145
0.0
146
0.71
147
1.5
 71
     0
 72
     0
 73
     0
 74
     0
 75
     0
 76
     0
 77
     3
 78
     8
170
     0
171
     2
172
     1
173
     0
174
     0
175
     0
176
   256
177
   256
178
     2
270
     2
271
     3
272
     3
273
     2
274
     2
340
6B
275
     0
280
     0
281
     0
282
     0
283
     0
284
     0
285
     0
286
     0
287
     3
288
     0
  0
DIMSTYLE
105
5F
330
A
100
AcDbSymbolTableRecord
100
AcDbDimStyleTableRecord
  2
AM_JIS$3
 70
     0
  3

  4
"
  5
OPEN30
  6

  7

 40
0.5
 41
2.5
 42
1.0
 43
10.0
 44
1.0
 45
0.0
 46
0.0
 47
0.1
 48
0.1
140
3.2
141
0.0
142
0.0
143
0.0393701
144
1.0
145
0.0
146
0.71
147
1.5
 71
     0
 72
     0
 73
     0
 74
     1
 75
     0
 76
     0
 77
     3
 78
     8
170
     0
171
     2
172
     0
173
     0
174
     0
175
     0
176
   256
177
   256
178
     2
270
     2
271
     2
272
     3
273
     2
274
     2
340
6B
275
     0
280
     0
281
     0
282
     0
283
     0
284
     0
285
     0
286
     0
287
     0
288
     1
  0
DIMSTYLE
105
60
330
A
100
AcDbSymbolTableRecord
100
AcDbDimStyleTableRecord
  2
AM_JIS$4
 70
     0
  3

  4
"
  5
OPEN30
  6

  7

 40
0.5
 41
2.5
 42
1.0
 43
10.0
 44
1.0
 45
0.0
 46
0.0
 47
0.1
 48
0.1
140
3.2
141
0.0
142
0.0
143
0.0393701
144
1.0
145
0.0
146
0.71
147
1.5
 71
     0
 72
     0
 73
     0
 74
     1
 75
     0
 76
     0
 77
     3
 78
     8
170
     0
171
     2
172
     0
173
     0
174
     0
175
     0
176
   256
177
   256
178
     2
270
     2
271
     2
272
     3
273
     2
274
     2
340
6B
275
     0
280
     0
281
     0
282
     0
283
     0
284
     0
285
     0
286
     0
287
     0
288
     1
  0
DIMSTYLE
105
61
330
A
100
AcDbSymbolTableRecord
100
AcDbDimStyleTableRecord
  2
AM_JIS$6
 70
     0
  3

  4
"
  5
OPEN30
  6

  7

 40
0.5
 41
2.5
 42
1.0
 43
10.0
 44
1.0
 45
0.0
 46
0.0
 47
0.1
 48
0.1
140
3.2
141
0.0
142
0.0
143
0.0393701
144
1.0
145
0.0
146
0.71
147
1.5
 71
     0
 72
     0
 73
     0
 74
     0
 75
     0
 76
     0
 77
     0
 78
     8
170
     0
171
     2
172
     1
173
     0
174
     0
175
     0
176
   256
177
   256
178
     2
270
     2
271
     2
272
     2
273
     2
274
     2
340
6B
275
     0
280
     0
281
     0
282
     0
283
     0
284
     0
285
     0
286
     0
287
     3
288
     0
  0
DIMSTYLE
105
62
330
A
100
AcDbSymbolTableRecord
100
AcDbDimStyleTableRecord
  2
AM_JIS$7
 70
     0
  3

  4
"
  5
OPEN30
  6

  7

 40
0.5
 41
2.5
 42
1.0
 43
10.0
 44
1.0
 45
0.0
 46
0.0
 47
0.1
 48
0.1
140
3.2
141
0.0
142
0.0
143
0.0393701
144
1.0
145
0.0
146
0.71
147
1.5
 71
     0
 72
     0
 73
     0
 74
     0
 75
     0
 76
     0
 77
     3
 78
     8
170
     0
171
     2
172
     1
173
     0
174
     0
175
     0
176
   256
177
   256
178
     2
270
     2
271
     2
272
     3
273
     2
274
     2
340
6B
275
     0
280
     0
281
     0
282
     0
283
     0
284
     0
285
     0
286
     0
287
     3
288
     0
  0
DIMSTYLE
105
63
330
A
100
AcDbSymbolTableRecord
100
AcDbDimStyleTableRecord
  2
AM_JIS$SF
 70
     0
  3

  4
"
  5
OPEN30
  6

  7

 40
0.5
 41
2.5
 42
1.0
 43
10.0
 44
1.0
 45
0.0
 46
0.0
 47
0.1
 48
0.1
140
3.2
141
0.0
142
0.0
143
0.0393701
144
1.0
145
0.0
146
0.71
147
1.5
 71
     0
 72
     0
 73
     0
 74
     0
 75
     1
 76
     1
 77
     3
 78
     8
170
     0
171
     2
172
     1
173
     0
174
     0
175
     0
176
   256
177
   256
178
     2
270
     2
271
     2
272
     2
273
     2
274
     2
340
6B
275
     0
280
     0
281
     0
282
     0
283
     0
284
     0
285
     0
286
     0
287
     3
288
     0
  0
DIMSTYLE
105
68
330
A
100
AcDbSymbolTableRecord
100
AcDbDimStyleTableRecord
  2
AM_JIS$SH
 70
     0
  3

  4
"
  5

  6
GENAXEH
  7
OPEN30
 40
0.5
 41
2.5
 42
1.0
 43
10.0
 44
1.0
 45
0.0
 46
0.0
 47
0.1
 48
0.1
140
3.2
141
0.0
142
0.0
143
0.0393701
144
2.0
145
0.0
146
0.71
147
1.5
 71
     0
 72
     0
 73
     0
 74
     0
 75
     1
 76
     1
 77
     3
 78
     8
170
     0
171
     2
172
     1
173
     1
174
     0
175
     0
176
   256
177
   256
178
     2
270
     2
271
     2
272
     2
273
     2
274
     2
340
6B
275
     0
280
     0
281
     0
282
     0
283
     0
284
     0
285
     0
286
     0
287
     3
288
     0
  0
DIMSTYLE
105
B34
330
A
100
AcDbSymbolTableRecord
100
AcDbDimStyleTableRecord
  2
AM_JIS$2
 70
     0
  3

  4
"
  5
OPEN30
  6

  7

 40
0.5
 41
2.5
 42
1.0
 43
12.0
 44
1.0
 45
0.0
 46
0.0
 47
0.1
 48
0.1
140
3.2
141
0.0
142
0.0
143
0.0393701
144
1.0
145
0.0
146
0.71
147
1.5
 71
     0
 72
     0
 73
     0
 74
     0
 75
     0
 76
     0
 77
     3
 78
     8
170
     0
171
     2
172
     1
173
     0
174
     0
175
     0
176
   256
177
   256
178
     2
270
     2
271
     3
272
     3
273
     2
274
     2
340
6B
275
     0
280
     0
281
     0
282
     0
283
     0
284
     0
285
     0
286
     0
287
     3
288
     0
  0
ENDTAB
  0
TABLE
  2
BLOCK_RECORD
  5
1
330
0
100
AcDbSymbolTable
 70
     9
  0
BLOCK_RECORD
  5
1F
102
{ACAD_XDICTIONARY
360
74
102
}
330
1
100
AcDbSymbolTableRecord
100
AcDbBlockTableRecord
  2
*MODEL_SPACE
  0
BLOCK_RECORD
  5
101
102
{ACAD_XDICTIONARY
360
2737
102
}
330
1
100
AcDbSymbolTableRecord
100
AcDbBlockTableRecord
  2
*PAPER_SPACE
  0
BLOCK_RECORD
  5
59
330
1
100
AcDbSymbolTableRecord
100
AcDbBlockTableRecord
  2
_OPEN30
  0
BLOCK_RECORD
  5
64
330
1
100
AcDbSymbolTableRecord
100
AcDbBlockTableRecord
  2
GENAXEH
  0
BLOCK_RECORD
  5
18AC
330
1
100
AcDbSymbolTableRecord
100
AcDbBlockTableRecord
  2
*D5
  0
BLOCK_RECORD
  5
1940
330
1
100
AcDbSymbolTableRecord
100
AcDbBlockTableRecord
  2
*D6
  0
BLOCK_RECORD
  5
19E6
330
1
100
AcDbSymbolTableRecord
100
AcDbBlockTableRecord
  2
*D7
  0
BLOCK_RECORD
  5
23EF
330
1
100
AcDbSymbolTableRecord
100
AcDbBlockTableRecord
  2
*D8
  0
ENDTAB
  0
ENDSEC
  0
SECTION
  2
BLOCKS
  0
BLOCK
  5
20
330
1F
100
AcDbEntity
  8
0
100
AcDbBlockBegin
  2
*MODEL_SPACE
 70
     0
 10
0.0
 20
0.0
 30
0.0
  3
*MODEL_SPACE
  1

  0
ENDBLK
  5
21
330
1F
100
AcDbEntity
  8
0
100
AcDbBlockEnd
  0
BLOCK
  5
103
330
101
100
AcDbEntity
 67
     1
  8
0
100
AcDbBlockBegin
  2
*PAPER_SPACE
 70
     0
 10
0.0
 20
0.0
 30
0.0
  3
*PAPER_SPACE
  1

  0
ENDBLK
  5
104
330
101
100
AcDbEntity
 67
     1
  8
0
100
AcDbBlockEnd
  0
BLOCK
  5
5D
330
59
100
AcDbEntity
  8
0
100
AcDbBlockBegin
  2
_OPEN30
 70
     0
 10
0.0
 20
0.0
 30
0.0
  3
_OPEN30
  1

  0
LINE
  5
5A
330
59
100
AcDbEntity
  8
0
 62
     0
100
AcDbLine
 10
-1.0
 20
0.26794919
 30
0.0
 11
0.0
 21
0.0
 31
0.0
  0
LINE
  5
5B
330
59
100
AcDbEntity
  8
0
 62
     0
100
AcDbLine
 10
0.0
 20
0.0
 30
0.0
 11
-1.0
 21
-0.26794919
 31
0.0
  0
LINE
  5
5C
330
59
100
AcDbEntity
  8
0
 62
     0
100
AcDbLine
 10
0.0
 20
0.0
 30
0.0
 11
-1.0
 21
0.0
 31
0.0
  0
ENDBLK
  5
5E
330
59
100
AcDbEntity
  8
0
100
AcDbBlockEnd
  0
BLOCK
  5
66
330
64
100
AcDbEntity
  8
0
100
AcDbBlockBegin
  2
GENAXEH
 70
     0
 10
0.0
 20
0.0
 30
0.0
  3
GENAXEH
  1

  0
LINE
  5
65
330
64
100
AcDbEntity
  8
0
100
AcDbLine
 10
-1.0
 20
0.0
 30
0.0
 11
1.0
 21
0.0
 31
0.0
  0
ENDBLK
  5
67
330
64
100
AcDbEntity
  8
0
100
AcDbBlockEnd
  0
BLOCK
  5
18B6
330
18AC
100
AcDbEntity
  8
0
100
AcDbBlockBegin
  2
*D5
 70
     1
 10
0.0
 20
0.0
 30
0.0
  3
*D5
  1

  0
LINE
  5
24C9
330
18AC
100
AcDbEntity
  8
AM_5
100
AcDbLine
 10
-60.00000000000009
 20
-3.999999999999936
 30
0.0
 11
-60.00000000000009
 21
-17.50000099999989
 31
0.0
  0
LINE
  5
24CA
330
18AC
100
AcDbEntity
  8
AM_5
100
AcDbLine
 10
-0.0000000000000745
 20
-2.750000000000003
 30
0.0
 11
-0.0000000000000754
 21
-17.50000099999989
 31
0.0
  0
LINE
  5
24CB
330
18AC
100
AcDbEntity
  8
AM_5
100
AcDbLine
 10
-58.75000000000009
 20
-17.00000099999989
 30
0.0
 11
-1.250000000000075
 21
-17.00000099999989
 31
0.0
  0
INSERT
  5
24CC
330
18AC
100
AcDbEntity
  8
AM_5
100
AcDbBlockReference
  2
_OPEN30
 10
-60.00000000000009
 20
-17.00000099999989
 30
0.0
 41
1.25
 42
1.25
 43
1.25
 50
180.0
  0
INSERT
  5
24CD
330
18AC
100
AcDbEntity
  8
AM_5
100
AcDbBlockReference
  2
_OPEN30
 10
-0.0000000000000753
 20
-17.00000099999989
 30
0.0
 41
1.25
 42
1.25
 43
1.25
  0
MTEXT
  5
24CE
330
18AC
100
AcDbEntity
  8
AM_5
 62
     2
100
AcDbMText
 10
-30.00000000000008
 20
-15.45000099999989
 30
0.0
 40
1.6
 41
0.0
 71
     5
 72
     1
  1
60
  7
ASAMI
1001
ACAD
1000
MTEXTBEGIN
1070
    73
1070
     1
1070
    44
1040
1.0
1070
    74
1070
     0
1000
MTEXTEND
  0
POINT
  5
24CF
330
18AC
100
AcDbEntity
  8
DEFPOINTS
 62
     0
100
AcDbPoint
 10
-60.00000000000009
 20
-3.499999999999936
 30
0.0
  0
POINT
  5
24D0
330
18AC
100
AcDbEntity
  8
DEFPOINTS
 62
     0
100
AcDbPoint
 10
-0.0000000000000744
 20
-2.250000000000003
 30
0.0
  0
POINT
  5
24D1
330
18AC
100
AcDbEntity
  8
DEFPOINTS
 62
     0
100
AcDbPoint
 10
-0.0000000000000753
 20
-17.00000099999989
 30
0.0
  0
ENDBLK
  5
18B7
330
18AC
100
AcDbEntity
  8
0
100
AcDbBlockEnd
  0
BLOCK
  5
194A
330
1940
100
AcDbEntity
  8
0
100
AcDbBlockBegin
  2
*D6
 70
     1
 10
0.0
 20
0.0
 30
0.0
  3
*D6
  1

  0
LINE
  5
24D2
330
1940
100
AcDbEntity
  8
AM_5
100
AcDbLine
 10
-18.00000000000012
 20
-3.750000000000016
 30
0.0
 11
-18.00000000000012
 21
-11.50000099999989
 31
0.0
  0
LINE
  5
24D3
330
1940
100
AcDbEntity
  8
AM_5
100
AcDbLine
 10
-0.0000000000000745
 20
-2.750000000000003
 30
0.0
 11
-0.000000000000075
 21
-11.50000099999989
 31
0.0
  0
LINE
  5
24D4
330
1940
100
AcDbEntity
  8
AM_5
100
AcDbLine
 10
-16.75000000000012
 20
-11.00000099999989
 30
0.0
 11
-1.250000000000075
 21
-11.00000099999989
 31
0.0
  0
INSERT
  5
24D5
330
1940
100
AcDbEntity
  8
AM_5
100
AcDbBlockReference
  2
_OPEN30
 10
-18.00000000000012
 20
-11.00000099999989
 30
0.0
 41
1.25
 42
1.25
 43
1.25
 50
180.0
  0
INSERT
  5
24D6
330
1940
100
AcDbEntity
  8
AM_5
100
AcDbBlockReference
  2
_OPEN30
 10
-0.000000000000075
 20
-11.00000099999989
 30
0.0
 41
1.25
 42
1.25
 43
1.25
  0
MTEXT
  5
24D7
330
1940
100
AcDbEntity
  8
AM_5
 62
     2
100
AcDbMText
 10
-9.000000000000097
 20
-9.450000999999891
 30
0.0
 40
1.6
 41
0.0
 71
     5
 72
     1
  1
18
  7
ASAMI
1001
ACAD
1000
MTEXTBEGIN
1070
    73
1070
     1
1070
    44
1040
1.0
1070
    74
1070
     0
1000
MTEXTEND
  0
POINT
  5
24D8
330
1940
100
AcDbEntity
  8
DEFPOINTS
 62
     0
100
AcDbPoint
 10
-18.00000000000012
 20
-3.250000000000016
 30
0.0
  0
POINT
  5
24D9
330
1940
100
AcDbEntity
  8
DEFPOINTS
 62
     0
100
AcDbPoint
 10
-0.0000000000000744
 20
-2.250000000000003
 30
0.0
  0
POINT
  5
24DA
330
1940
100
AcDbEntity
  8
DEFPOINTS
 62
     0
100
AcDbPoint
 10
-0.000000000000075
 20
-11.00000099999989
 30
0.0
  0
ENDBLK
  5
194B
330
1940
100
AcDbEntity
  8
0
100
AcDbBlockEnd
  0
BLOCK
  5
19F0
330
19E6
100
AcDbEntity
  8
0
100
AcDbBlockBegin
  2
*D7
 70
     1
 10
0.0
 20
0.0
 30
0.0
  3
*D7
  1

  0
LINE
  5
24DB
330
19E6
100
AcDbEntity
  8
AM_5
100
AcDbLine
 10
0.4999999999998967
 20
3.25
 30
0.0
 11
9.778885015427372
 21
3.249999999999997
 31
0.0
  0
LINE
  5
24DC
330
19E6
100
AcDbEntity
  8
AM_5
100
AcDbLine
 10
0.4999999999998846
 20
-3.25000000000002
 30
0.0
 11
9.778885015427372
 21
-3.250000000000023
 31
0.0
  0
LINE
  5
24DD
330
19E6
100
AcDbEntity
  8
AM_5
100
AcDbLine
 10
9.278885015427372
 20
1.999999999999997
 30
0.0
 11
9.278885015427372
 21
-2.000000000000023
 31
0.0
  0
INSERT
  5
24DE
330
19E6
100
AcDbEntity
  8
AM_5
100
AcDbBlockReference
  2
_OPEN30
 10
9.278885015427372
 20
3.249999999999997
 30
0.0
 41
1.25
 42
1.25
 43
1.25
 50
90.0
  0
INSERT
  5
24DF
330
19E6
100
AcDbEntity
  8
AM_5
100
AcDbBlockReference
  2
_OPEN30
 10
9.278885015427372
 20
-3.250000000000023
 30
0.0
 41
1.25
 42
1.25
 43
1.25
 50
270.0
  0
MTEXT
  5
24E0
330
19E6
100
AcDbEntity
  8
AM_5
 62
     2
100
AcDbMText
 10
7.728885015427371
 20
-0.000000000000011
 30
0.0
 40
1.6
 41
0.0
 71
     5
 72
     1
  1
%%c6.5
  7
ASAMI
 11
0.0000000000000001
 21
1.0
 31
0.0
1001
ACAD
1000
MTEXTBEGIN
1070
    73
1070
     1
1070
    44
1040
1.0
1070
    74
1070
     0
1000
MTEXTEND
  0
POINT
  5
24E1
330
19E6
100
AcDbEntity
  8
DEFPOINTS
 62
     0
100
AcDbPoint
 10
-0.0000000000001034
 20
3.25
 30
0.0
  0
POINT
  5
24E2
330
19E6
100
AcDbEntity
  8
DEFPOINTS
 62
     0
100
AcDbPoint
 10
-0.0000000000001155
 20
-3.25000000000002
 30
0.0
  0
POINT
  5
24E3
330
19E6
100
AcDbEntity
  8
DEFPOINTS
 62
     0
100
AcDbPoint
 10
9.278885015427372
 20
-3.250000000000023
 30
0.0
  0
ENDBLK
  5
19F1
330
19E6
100
AcDbEntity
  8
0
100
AcDbBlockEnd
  0
BLOCK
  5
23F9
330
23EF
100
AcDbEntity
  8
0
100
AcDbBlockBegin
  2
*D8
 70
     1
 10
0.0
 20
0.0
 30
0.0
  3
*D8
  1

  0
LINE
  5
23FB
330
23EF
100
AcDbEntity
  8
AM_5
100
AcDbLine
 10
-60.0000000000001
 20
4.000000000000063
 30
0.0
 11
-68.71831628338793
 21
4.000000000000066
 31
0.0
  0
LINE
  5
23FC
330
23EF
100
AcDbEntity
  8
AM_5
100
AcDbLine
 10
-60.00000000000008
 20
-3.999999999999936
 30
0.0
 11
-68.71831628338793
 21
-3.999999999999933
 31
0.0
  0
LINE
  5
23FD
330
23EF
100
AcDbEntity
  8
AM_5
100
AcDbLine
 10
-68.21831628338793
 20
2.750000000000066
 30
0.0
 11
-68.21831628338793
 21
-2.749999999999933
 31
0.0
  0
INSERT
  5
23FE
330
23EF
100
AcDbEntity
  8
AM_5
100
AcDbBlockReference
  2
_OPEN30
 10
-68.21831628338793
 20
4.000000000000066
 30
0.0
 41
1.25
 42
1.25
 43
1.25
 50
90.0
  0
INSERT
  5
23FF
330
23EF
100
AcDbEntity
  8
AM_5
100
AcDbBlockReference
  2
_OPEN30
 10
-68.21831628338793
 20
-3.999999999999933
 30
0.0
 41
1.25
 42
1.25
 43
1.25
 50
270.0
  0
MTEXT
  5
2400
330
23EF
100
AcDbEntity
  8
AM_5
 62
     2
100
AcDbMText
 10
-69.76831628338793
 20
0.0000000000000557
 30
0.0
 40
1.6
 41
0.0
 71
     5
 72
     1
  1
%%c8
  7
ASAMI
 11
0.0000000000000001
 21
1.0
 31
0.0
1001
ACAD
1000
MTEXTBEGIN
1070
    73
1070
     1
1070
    44
1040
1.0
1070
    74
1070
     0
1000
MTEXTEND
  0
POINT
  5
2401
330
23EF
100
AcDbEntity
  8
DEFPOINTS
 62
     0
100
AcDbPoint
 10
-59.50000000000009
 20
4.000000000000063
 30
0.0
  0
POINT
  5
2402
330
23EF
100
AcDbEntity
  8
DEFPOINTS
 62
     0
100
AcDbPoint
 10
-59.50000000000009
 20
-3.999999999999936
 30
0.0
  0
POINT
  5
2403
330
23EF
100
AcDbEntity
  8
DEFPOINTS
 62
     0
100
AcDbPoint
 10
-68.21831628338793
 20
-3.999999999999933
 30
0.0
  0
ENDBLK
  5
23FA
330
23EF
100
AcDbEntity
  8
0
100
AcDbBlockEnd
  0
ENDSEC
  0
SECTION
  2
ENTITIES
  0
TEXT
  5
E5A
330
1F
100
AcDbEntity
  8
AM_6
100
AcDbText
 10
-37.97619047619055
 20
-28.25000099999989
 30
0.0
 40
2.5
  1
JSM4065
 72
     4
 11
-30.00000000000007
 21
-27.00000099999989
 31
0.0
100
AcDbText
  0
LINE
  5
178E
330
1F
100
AcDbEntity
  8
AM_7
  6
AM_ISO08W050X2
100
AcDbLine
 10
2.278884015427379
 20
0.0
 30
0.0
 11
-61.21831528338794
 21
-0.0000000000000213
 31
0.0
1001
GENIUS_GENODEF_13
1002
{
1000
HIER
1070
     0
1002
}
1002
{
1000
MANEDIT
1070
     0
1002
}
1002
{
1000
NOSEL
1070
     0
1002
}
1002
{
1000
BEHIND
1070
     0
1002
}
1002
{
1000
REACTOR
1002
}
1001
GENIUS_GENOBJ-N-CEN_13
1002
{
1000
OWNER
1000
GEN
1002
}
  0
DIMENSION
  5
18AB
330
1F
100
AcDbEntity
  8
AM_5
100
AcDbDimension
  2
*D5
 10
-0.0000000000000753
 20
-17.00000099999989
 30
0.0
 11
-30.00000000000008
 21
-15.45000099999989
 31
0.0
 70
    32
  1
<>
  3
AM_JIS
100
AcDbAlignedDimension
 13
-60.00000000000009
 23
-3.499999999999936
 33
0.0
 14
-0.0000000000000744
 24
-2.250000000000003
 34
0.0
 50
0.0000000000001132
100
AcDbRotatedDimension
1001
GENIUS_GENDTOL_13
1000

1000
h7
1000

1040
0.0
  0
DIMENSION
  5
193F
330
1F
100
AcDbEntity
  8
AM_5
100
AcDbDimension
  2
*D6
 10
-0.000000000000075
 20
-11.00000099999989
 30
0.0
 11
-9.000000000000097
 21
-9.450000999999891
 31
0.0
 70
    32
  1
<>
  3
AM_JIS
100
AcDbAlignedDimension
 13
-18.00000000000012
 23
-3.250000000000016
 33
0.0
 14
-0.0000000000000744
 24
-2.250000000000003
 34
0.0
 50
0.0000000000001132
100
AcDbRotatedDimension
1001
GENIUS_GENDTOL_13
1000

1000
h7
1000

1040
0.0
  0
DIMENSION
  5
19E5
330
1F
100
AcDbEntity
  8
AM_5
100
AcDbDimension
  2
*D7
 10
9.278885015427372
 20
-3.250000000000023
 30
0.0
 11
7.728885015427371
 21
-0.000000000000011
 31
0.0
 70
    32
  1
%%c<>
  3
AM_JIS
100
AcDbAlignedDimension
 13
-0.0000000000001034
 23
3.25
 33
0.0
 14
-0.0000000000001155
 24
-3.25000000000002
 34
0.0
 50
90.00000000000003
100
AcDbRotatedDimension
1001
GENIUS_GENDTOL_13
1000

1000
h7
1000

1040
0.0
  0
SPLINE
  5
20E5
330
1F
100
AcDbEntity
  8
AM_0
100
AcDbSpline
210
0.0
220
0.0
230
1.0
 70
     8
 71
     3
 72
     8
 73
     4
 74
     0
 42
0.0000000001
 43
0.0000000001
 40
5.522276060027962
 40
5.522276060027962
 40
5.522276060027962
 40
5.522276060027962
 40
13.55357386605776
 40
13.55357386605776
 40
13.55357386605776
 40
13.55357386605776
 10
-20.13030252692594
 20
2.439069178062782
 30
0.0
 10
-18.38918098289627
 20
1.577622041671942
 30
0.0
 10
-16.88372559995549
 20
1.066705981937966
 30
0.0
 10
-14.60328340893068
 20
-0.0000000000000062
 30
0.0
  0
POLYLINE
  5
20FE
330
1F
100
AcDbEntity
  8
AM_0
100
AcDb2dPolyline
 66
     1
 10
0.0
 20
0.0
 30
0.0
 70
     2
  0
VERTEX
  5
20FF
330
20FE
100
AcDbEntity
  8
AM_0
100
AcDbVertex
100
AcDb2dVertex
 10
-20.13030252692594
 20
2.439069178062782
 30
0.0
 42
-0.0100635788804193
  0
VERTEX
  5
2100
330
20FE
100
AcDbEntity
  8
AM_0
100
AcDbVertex
100
AcDb2dVertex
 10
-20.43029886219176
 20
2.5961483047889
 30
0.0
 42
-0.0110915323732218
 70
     1
  0
VERTEX
  5
2101
330
20FE
100
AcDbEntity
  8
AM_0
100
AcDbVertex
100
AcDb2dVertex
 10
-20.71284561166129
 20
2.716867218414065
 30
0.0
 42
-0.0081698205674145
  0
VERTEX
  5
2102
330
20FE
100
AcDbEntity
  8
AM_0
100
AcDbVertex
100
AcDb2dVertex
 10
-20.97055744659938
 20
2.841195982359653
 30
0.0
 42
-0.1012800428637157
 70
     1
  0
VERTEX
  5
2103
330
20FE
100
AcDbEntity
  8
AM_0
100
AcDbVertex
100
AcDb2dVertex
 10
-20.98726853290539
 20
2.857457391554635
 30
0.0
 42
-0.5091829191374789
  0
VERTEX
  5
2104
330
20FE
100
AcDbEntity
  8
AM_0
100
AcDbVertex
100
AcDb2dVertex
 10
-20.97659640276658
 20
2.887175401855958
 30
0.0
 42
-0.0351954426445148
 70
     1
  0
VERTEX
  5
2105
330
20FE
100
AcDbEntity
  8
AM_0
100
AcDbVertex
100
AcDb2dVertex
 10
-20.62164353290538
 20
2.964216271207338
 30
0.0
 42
-0.011586529956417
  0
VERTEX
  5
2106
330
20FE
100
AcDbEntity
  8
AM_0
100
AcDbVertex
100
AcDb2dVertex
 10
-20.30446757458526
 20
3.00252435492327
 30
0.0
 42
-0.0030188361960122
 70
     1
  0
VERTEX
  5
2107
330
20FE
100
AcDbEntity
  8
AM_0
100
AcDbVertex
100
AcDb2dVertex
 10
-19.18460313178585
 20
3.202248250308413
 30
0.0
 42
-0.0270236747876273
  0
VERTEX
  5
2108
330
20FE
100
AcDbEntity
  8
AM_0
100
AcDbVertex
100
AcDb2dVertex
 10
-18.71543275632501
 20
3.23667378142986
 30
0.0
 42
-0.0069037738036377
 70
     1
  0
VERTEX
  5
2109
330
20FE
100
AcDbEntity
  8
AM_0
100
AcDbVertex
100
AcDb2dVertex
 10
-18.00000000000008
 20
3.249999999999982
 30
0.0
  0
SEQEND
  5
210A
330
20FE
100
AcDbEntity
  8
AM_0
  0
LINE
  5
2111
330
1F
100
AcDbEntity
  8
AM_0
100
AcDbLine
 10
-18.36726912599011
 20
1.110504798017629
 30
0.0
 11
-18.00000000000008
 21
0.3341190617521983
 31
0.0
  0
LINE
  5
2112
330
1F
100
AcDbEntity
  8
AM_0
100
AcDbLine
 10
-18.00000000000008
 20
1.477773924007664
 30
0.0
 11
-18.36726912599011
 21
1.110504798017629
 31
0.0
  0
LINE
  5
21D7
330
1F
100
AcDbEntity
  8
AM_0
100
AcDbLine
 10
-0.6681910719225251
 20
1.733641529106754
 30
0.0
 11
-1.475039655713817
 21
1.955494724643246
 31
0.0
  0
LINE
  5
21D8
330
1F
100
AcDbEntity
  8
AM_0
100
AcDbLine
 10
-0.0000000000001167
 20
-0.0000000000000058
 30
0.0
 11
-0.0657222222223303
 21
0.650000000000067
 31
0.0
  0
LINE
  5
21D9
330
1F
100
AcDbEntity
  8
AM_0
100
AcDbLine
 10
-0.0657222222223303
 20
-0.8624836054660773
 30
0.0
 11
-0.0000000000001167
 21
-0.6500000000000035
 31
0.0
  0
LINE
  5
21DA
330
1F
100
AcDbEntity
  8
AM_0
100
AcDbLine
 10
-0.0000000000001167
 20
-0.0000000000000058
 30
0.0
 11
-0.0556088923902277
 21
-0.549978056605744
 31
0.0
  0
LINE
  5
21DB
330
1F
100
AcDbEntity
  8
AM_0
100
AcDbLine
 10
-0.0000000000001167
 20
-3.250000000000005
 30
0.0
 11
-0.0657222222223303
 21
-3.076736752454189
 31
0.0
  0
LINE
  5
21DC
330
1F
100
AcDbEntity
  8
AM_0
100
AcDbLine
 10
-0.0657222222223303
 20
-3.076736752454189
 30
0.0
 11
-0.0657222222223303
 21
-0.8624836054660773
 31
0.0
  0
LINE
  5
21DD
330
1F
100
AcDbEntity
  8
AM_0
100
AcDbLine
 10
-0.0000000000001167
 20
-3.250000000000005
 30
0.0
 11
-0.0000000000001167
 21
-0.6500000000000035
 31
0.0
  0
LINE
  5
21DE
330
1F
100
AcDbEntity
  8
AM_0
100
AcDbLine
 10
-1.475039655713815
 20
-0.0000000000000058
 30
0.0
 11
-1.475039655713815
 21
-0.520000000000012
 31
0.0
  0
ELLIPSE
  5
21DF
330
1F
100
AcDbEntity
  8
AM_0
100
AcDbEllipse
 10
1.242884325046537
 20
-1.653522107066639
 30
0.0
 11
0.0000000000000006
 21
1.976453775085433
 31
0.0
210
0.0
220
0.0
230
1.0
 40
0.9629629629629626
 41
1.211124581303828
 42
2.06927853829032
  0
LINE
  5
21E0
330
1F
100
AcDbEntity
  8
AM_0
100
AcDbLine
 10
-1.475039655713815
 20
-0.520000000000012
 30
0.0
 11
-0.5385829614142194
 21
-0.9578755973582588
 31
0.0
  0
LINE
  5
21E1
330
1F
100
AcDbEntity
  8
AM_0
100
AcDbLine
 10
-0.0000000000001167
 20
-0.0000000000000058
 30
0.0
 11
-1.475039655713815
 21
-0.0000000000000058
 31
0.0
  0
LINE
  5
21E2
330
1F
100
AcDbEntity
  8
AM_0
100
AcDbLine
 10
-0.5385829614142194
 20
-0.9578755973582588
 30
0.0
 11
-0.0657222222223303
 21
-0.8624836054660773
 31
0.0
  0
LINE
  5
21E3
330
1F
100
AcDbEntity
  8
AM_0
100
AcDbLine
 10
-1.475039655713815
 20
-0.520000000000012
 30
0.0
 11
-0.0722757003653351
 21
-0.520000000000012
 31
0.0
  0
LINE
  5
21E4
330
1F
100
AcDbEntity
  8
AM_0
100
AcDbLine
 10
-0.0657222222223303
 20
-3.076736752454154
 30
0.0
 11
-0.4287592592593774
 21
-2.598450826050249
 31
0.0
  0
LINE
  5
21E5
330
1F
100
AcDbEntity
  8
AM_0
100
AcDbLine
 10
-0.0000000000001167
 20
-0.6500000000000035
 30
0.0
 11
-0.3613785018262305
 21
0.0000000000000346
 31
0.0
  0
LINE
  5
21E6
330
1F
100
AcDbEntity
  8
AM_0
100
AcDbLine
 10
-0.0657222222223303
 20
0.650000000000067
 30
0.0
 11
-0.6681910719225251
 21
1.733641529106754
 31
0.0
  0
LINE
  5
21E7
330
1F
100
AcDbEntity
  8
AM_0
100
AcDbLine
 10
-0.0000000000001167
 20
-0.0000000000000058
 30
0.0
 11
-0.0000000000001195
 21
3.25
 31
0.0
  0
LINE
  5
21ED
330
1F
100
AcDbEntity
  8
AM_11
100
AcDbLine
 10
-18.00000000000012
 20
-3.250000000000016
 30
0.0
 11
-0.0000000000001167
 21
-3.250000000000005
 31
0.0
  0
LINE
  5
21EE
330
1F
100
AcDbEntity
  8
AM_11
100
AcDbLine
 10
-0.0000000000006004
 20
3.25
 30
0.0
 11
-18.00000000000012
 21
3.250000000000122
 31
0.0
  0
SPLINE
  5
21EF
330
1F
100
AcDbEntity
  8
AM_0
100
AcDbSpline
210
0.0
220
0.0
230
1.0
 70
     8
 71
     3
 72
     8
 73
     4
 74
     0
 42
0.0000000001
 43
0.0000000001
 40
0.0
 40
0.0
 40
0.0
 40
0.0
 40
6.520498447204779
 40
6.520498447204779
 40
6.520498447204779
 40
6.520498447204779
 10
-8.512592592592827
 20
-3.249999999999936
 30
0.0
 10
-11.53581409486335
 20
-3.249999999999939
 30
0.0
 10
-14.28049964002438
 20
-1.62499999999994
 30
0.0
 10
-18.00000000000012
 20
0.3341190617522809
 30
0.0
  0
SPLINE
  5
21F0
330
1F
100
AcDbEntity
  8
AM_0
100
AcDbSpline
210
0.0
220
0.0
230
1.0
 70
     8
 71
     3
 72
     8
 73
     4
 74
     0
 42
0.0000000001
 43
0.0000000001
 40
0.0
 40
0.0
 40
0.0
 40
0.0
 40
6.520498447204779
 40
6.520498447204779
 40
6.520498447204779
 40
6.520498447204779
 10
-17.99999999998522
 20
3.250000000000057
 30
0.0
 10
-14.05726426344651
 20
3.345783415169099
 30
0.0
 10
-11.25727813775373
 20
1.625000000000061
 30
0.0
 10
-8.512592592592703
 20
0.0000000000000635
 30
0.0
  0
SPLINE
  5
21F5
330
1F
100
AcDbEntity
  8
AM_0
100
AcDbSpline
210
0.0
220
0.0
230
1.0
 70
     8
 71
     3
 72
     8
 73
     4
 74
     0
 42
0.0000000001
 43
0.0000000001
 40
0.0
 40
0.0
 40
0.0
 40
0.0
 40
6.497558269515668
 40
6.497558269515668
 40
6.497558269515668
 40
6.497558269515668
 10
-7.420070947566573
 20
-3.152684385717936
 30
0.0
 10
-10.43265626319935
 20
-3.152684385717939
 30
0.0
 10
-13.18265990167926
 20
-1.57634219285892
 30
0.0
 10
-18.36726912599011
 20
1.110504798017629
 30
0.0
  0
SPLINE
  5
21F9
330
1F
100
AcDbEntity
  8
AM_0
100
AcDbSpline
210
0.0
220
0.0
230
1.0
 70
     8
 71
     3
 72
     8
 73
     4
 74
     0
 42
0.0000000001
 43
0.0000000001
 40
0.0
 40
0.0
 40
0.0
 40
0.0
 40
2.764560748519282
 40
2.764560748519282
 40
2.764560748519282
 40
2.764560748519282
 10
-7.420070947566573
 20
-3.152684385718011
 30
0.0
 10
-6.843267532134777
 20
-3.152684385718011
 30
0.0
 10
-6.276090016906216
 20
-3.094897746531543
 30
0.0
 10
-5.716695382835085
 20
-2.990388563398027
 30
0.0
  0
SPLINE
  5
21FA
330
1F
100
AcDbEntity
  8
AM_0
100
AcDbSpline
210
0.0
220
0.0
230
1.0
 70
     8
 71
     3
 72
     8
 73
     4
 74
     0
 42
0.0000000001
 43
0.0000000001
 40
0.7142832446738512
 40
0.7142832446738512
 40
0.7142832446738512
 40
0.7142832446738512
 40
14.36247867694493
 40
14.36247867694493
 40
14.36247867694493
 40
14.36247867694493
 10
-14.27079228658703
 20
2.966426038127255
 30
0.0
 10
-11.4036953939822
 20
2.852074573059089
 30
0.0
 10
-8.782868957945188
 20
1.426037286529556
 30
0.0
 10
-6.162042521908179
 20
0.0000000000000289
 30
0.0
  0
SPLINE
  5
21FB
330
1F
100
AcDbEntity
  8
AM_0
100
AcDbSpline
210
0.0
220
0.0
230
1.0
 70
     8
 71
     3
 72
     8
 73
     4
 74
     0
 42
0.0000000001
 43
0.0000000001
 40
0.0
 40
0.0
 40
0.0
 40
0.0
 40
6.463115404625226
 40
6.463115404625226
 40
6.463115404625226
 40
6.463115404625226
 10
-6.1620425219083
 20
-3.001338927471682
 30
0.0
 10
-9.158658443394344
 20
-3.001338927471684
 30
0.0
 10
-11.91664677894762
 20
-1.500669463735793
 30
0.0
 10
-14.60328340893068
 20
-0.0000000000000079
 30
0.0
  0
SPLINE
  5
21FC
330
1F
100
AcDbEntity
  8
AM_0
100
AcDbSpline
210
0.0
220
0.0
230
1.0
 70
     8
 71
     3
 72
     8
 73
     4
 74
     0
 42
0.0000000001
 43
0.0000000001
 40
0.0
 40
0.0
 40
0.0
 40
0.0
 40
4.451443990518192
 40
4.451443990518192
 40
4.451443990518192
 40
4.451443990518192
 10
-6.1620425219083
 20
-3.001338927471757
 30
0.0
 10
-5.233284454750788
 20
-3.001338927471757
 30
0.0
 10
-4.327448977274483
 20
-2.857184469260837
 30
0.0
 10
-3.437431562024281
 20
-2.61355415680026
 30
0.0
  0
SPLINE
  5
21FD
330
1F
100
AcDbEntity
  8
AM_0
100
AcDbSpline
210
0.0
220
0.0
230
1.0
 70
     8
 71
     3
 72
     8
 73
     4
 74
     0
 42
0.0000000001
 43
0.0000000001
 40
0.3581103616548037
 40
0.3581103616548037
 40
0.3581103616548037
 40
0.3581103616548037
 40
14.43901837670146
 40
14.43901837670146
 40
14.43901837670146
 40
14.43901837670146
 10
-15.7818176188584
 20
3.10775451794497
 30
0.0
 10
-12.78366939508436
 20
3.074492855234583
 30
0.0
 10
-10.1018701713254
 20
1.537246427617309
 30
0.0
 10
-7.420070947566467
 20
0.0000000000000289
 30
0.0
  0
SPLINE
  5
21FE
330
1F
100
AcDbEntity
  8
AM_0
100
AcDbSpline
210
0.0
220
0.0
230
1.0
 70
     8
 71
     3
 72
     8
 73
     4
 74
     0
 42
0.0000000001
 43
0.0000000001
 40
0.0
 40
0.0
 40
0.0
 40
0.0
 40
5.635889483499305
 40
5.635889483499305
 40
5.635889483499305
 40
5.635889483499305
 10
-8.512592592592833
 20
3.250000000000069
 30
0.0
 10
-9.688475707051344
 20
3.250000000000063
 30
0.0
 10
-10.82222123666069
 20
3.004166118836504
 30
0.0
 10
-11.94595394699509
 20
2.599030734200411
 30
0.0
  0
SPLINE
  5
21FF
330
1F
100
AcDbEntity
  8
AM_0
100
AcDbSpline
210
0.0
220
0.0
230
1.0
 70
     8
 71
     3
 72
     8
 73
     4
 74
     0
 42
0.0000000001
 43
0.0000000001
 40
0.0
 40
0.0
 40
0.0
 40
0.0
 40
2.130230809022907
 40
2.130230809022907
 40
2.130230809022907
 40
2.130230809022907
 10
-8.512592592592827
 20
-3.250000000000011
 30
0.0
 10
-8.068137028734952
 20
-3.250000000000011
 30
0.0
 10
-7.629701486157977
 20
-3.214878737083119
 30
0.0
 10
-7.196400938094643
 20
-3.149799524854173
 30
0.0
  0
SPLINE
  5
2202
330
1F
100
AcDbEntity
  8
AM_0
100
AcDbSpline
210
0.0
220
0.0
230
1.0
 70
     8
 71
     3
 72
     8
 73
     4
 74
     0
 42
0.0000000001
 43
0.0000000001
 40
1.870660592686466
 40
1.870660592686466
 40
1.870660592686466
 40
1.870660592686466
 40
14.43901837670146
 40
14.43901837670146
 40
14.43901837670146
 40
14.43901837670146
 10
-0.0657222222223303
 20
-3.076736752454154
 30
0.0
 10
-2.632622281176672
 20
-2.744235397865965
 30
0.0
 10
-5.026346614371567
 20
-1.372117698932965
 30
0.0
 10
-7.420070947566467
 20
0.0000000000000289
 30
0.0
  0
SPLINE
  5
2203
330
1F
100
AcDbEntity
  8
AM_0
100
AcDbSpline
210
0.0
220
0.0
230
1.0
 70
     8
 71
     3
 72
     8
 73
     4
 74
     0
 42
0.0000000001
 43
0.0000000001
 40
0.0
 40
0.0
 40
0.0
 40
0.0
 40
6.520498447204779
 40
6.520498447204779
 40
6.520498447204779
 40
6.520498447204779
 10
-0.0000000000001167
 20
-3.250000000000005
 30
0.0
 10
-3.023221502270645
 20
-3.250000000000008
 30
0.0
 10
-5.767907047431673
 20
-1.625000000000009
 30
0.0
 10
-8.512592592592703
 20
-0.0000000000000115
 30
0.0
  0
SPLINE
  5
2204
330
1F
100
AcDbEntity
  8
AM_0
100
AcDbSpline
210
0.0
220
0.0
230
1.0
 70
     8
 71
     3
 72
     8
 73
     4
 74
     0
 42
0.0000000001
 43
0.0000000001
 40
0.0
 40
0.0
 40
0.0
 40
0.0
 40
6.520498447204785
 40
6.520498447204785
 40
6.520498447204785
 40
6.520498447204785
 10
-8.51259259259271
 20
3.250000000000069
 30
0.0
 10
-5.48937109032218
 20
3.250000000000071
 30
0.0
 10
-2.744685545161148
 20
1.62500000000007
 30
0.0
 10
-0.0000000000001167
 20
0.0000000000000693
 30
0.0
  0
SPLINE
  5
2205
330
1F
100
AcDbEntity
  8
AM_0
100
AcDbSpline
210
0.0
220
0.0
230
1.0
 70
     8
 71
     3
 72
     8
 73
     4
 74
     0
 42
0.0000000001
 43
0.0000000001
 40
0.3581103616548037
 40
0.3581103616548037
 40
0.3581103616548037
 40
0.3581103616548037
 40
12.40023413887867
 40
12.40023413887867
 40
12.40023413887867
 40
12.40023413887867
 10
-7.196400938094398
 20
3.149799524854231
 30
0.0
 10
-4.694636471500053
 20
3.085396559090835
 30
0.0
 10
-2.370981981138467
 20
1.951755733515248
 30
0.0
 10
-0.0731161552404631
 20
0.6632992317958247
 30
0.0
  0
SPLINE
  5
2206
330
1F
100
AcDbEntity
  8
AM_0
100
AcDbSpline
210
0.0
220
0.0
230
1.0
 70
     8
 71
     3
 72
     8
 73
     4
 74
     0
 42
0.0000000001
 43
0.0000000001
 40
4.542668862435135
 40
4.542668862435135
 40
4.542668862435135
 40
4.542668862435135
 40
14.36247867694493
 40
14.36247867694493
 40
14.36247867694493
 40
14.36247867694493
 10
-0.4287592592585046
 20
-2.598450826046808
 30
0.0
 10
-2.390698934920808
 20
-2.05205369627236
 30
0.0
 10
-4.276370728414493
 20
-1.026026848136162
 30
0.0
 10
-6.162042521908179
 20
0.0000000000000289
 30
0.0
  0
SPLINE
  5
2207
330
1F
100
AcDbEntity
  8
AM_0
100
AcDbSpline
210
0.0
220
0.0
230
1.0
 70
     8
 71
     3
 72
     8
 73
     4
 74
     0
 42
0.0000000001
 43
0.0000000001
 40
0.0
 40
0.0
 40
0.0
 40
0.0
 40
5.635889483499127
 40
5.635889483499127
 40
5.635889483499127
 40
5.635889483499127
 10
-0.0000000000001195
 20
3.25
 30
0.0
 10
-1.175883114458578
 20
3.25
 30
0.0
 10
-2.309628644067911
 20
3.004166118836435
 30
0.0
 10
-3.417626017942366
 20
2.608115534941303
 30
0.0
  0
SPLINE
  5
2208
330
1F
100
AcDbEntity
  8
AM_0
100
AcDbSpline
210
0.0
220
0.0
230
1.0
 70
     8
 71
     3
 72
     8
 73
     4
 74
     0
 42
0.0000000001
 43
0.0000000001
 40
0.0
 40
0.0
 40
0.0
 40
0.0
 40
1.163954395627521
 40
1.163954395627521
 40
1.163954395627521
 40
1.163954395627521
 10
-0.0000000000001195
 20
2.648556746344573
 30
0.0
 10
-0.3463043974260364
 20
2.218738077498152
 30
0.0
 10
-0.9407162825816127
 20
2.034157968000825
 30
0.0
 10
-1.475039655713817
 20
1.955494724643246
 30
0.0
  0
SPLINE
  5
2209
330
1F
100
AcDbEntity
  8
AM_0
100
AcDbSpline
210
0.0
220
0.0
230
1.0
 70
     8
 71
     3
 72
     8
 73
     4
 74
     0
 42
0.0000000001
 43
0.0000000001
 40
0.7142832446738512
 40
0.7142832446738512
 40
0.7142832446738512
 40
0.7142832446738512
 40
9.361146747480315
 40
9.361146747480315
 40
9.361146747480315
 40
9.361146747480315
 10
-5.716695382769033
 20
2.990388563385782
 30
0.0
 10
-3.926530998988313
 20
2.902759235331524
 30
0.0
 10
-2.218557734795366
 20
2.298250423819754
 30
0.0
 10
-0.5407031095648013
 20
1.50433299216261
 30
0.0
  0
SPLINE
  5
2230
330
1F
100
AcDbEntity
  8
AM_0
100
AcDbSpline
210
0.0
220
0.0
230
1.0
 70
     8
 71
     3
 72
     8
 73
     4
 74
     0
 42
0.0000000001
 43
0.0000000001
 40
0.0
 40
0.0
 40
0.0
 40
0.0
 40
5.291496149500158
 40
5.291496149500158
 40
5.291496149500158
 40
5.291496149500158
 10
-14.18656828217485
 20
-2.990388563398031
 30
0.0
 10
-15.72127055365247
 20
-3.129968704001864
 30
0.0
 10
-16.8055226701789
 20
-2.876731666029199
 30
0.0
 10
-18.00000000000011
 20
-2.685213228332797
 30
0.0
  0
SPLINE
  5
2231
330
1F
100
AcDbEntity
  8
AM_0
100
AcDbSpline
210
0.0
220
0.0
230
1.0
 70
     8
 71
     3
 72
     8
 73
     4
 74
     0
 42
0.0000000001
 43
0.0000000001
 40
0.0
 40
0.0
 40
0.0
 40
0.0
 40
3.20279236890966
 40
3.20279236890966
 40
3.20279236890966
 40
3.20279236890966
 10
-15.95545829170371
 20
-3.152684385717942
 30
0.0
 10
-16.6493966383008
 20
-3.152684385717942
 30
0.0
 10
-17.32991855190402
 20
-3.075125290862221
 30
0.0
 10
-17.99999999999882
 20
-2.937210879874672
 30
0.0
  0
SPLINE
  5
2232
330
1F
100
AcDbEntity
  8
AM_0
100
AcDbSpline
210
0.0
220
0.0
230
1.0
 70
     8
 71
     3
 72
     8
 73
     4
 74
     0
 42
0.0000000001
 43
0.0000000001
 40
0.0
 40
0.0
 40
0.0
 40
0.0
 40
2.130230809022907
 40
2.130230809022907
 40
2.130230809022907
 40
2.130230809022907
 10
-17.0900000000002
 20
-3.250000000000016
 30
0.0
 10
-16.62844999137856
 20
-3.250000000000016
 30
0.0
 10
-16.17315154331785
 20
-3.214878737083127
 30
0.0
 10
-15.72318558955978
 20
-3.149799524854177
 30
0.0
  0
SPLINE
  5
2233
330
1F
100
AcDbEntity
  8
AM_0
100
AcDbSpline
210
0.0
220
0.0
230
1.0
 70
     8
 71
     3
 72
     8
 73
     4
 74
     0
 42
0.0000000001
 43
0.0000000001
 40
0.0
 40
0.0
 40
0.0
 40
0.0
 40
2.764560748519282
 40
2.764560748519282
 40
2.764560748519282
 40
2.764560748519282
 10
-15.95545829170371
 20
-3.152684385718019
 30
0.0
 10
-15.35647012952454
 20
-3.152684385718019
 30
0.0
 10
-14.76747809447949
 20
-3.094897746531547
 30
0.0
 10
-14.18656828217485
 20
-2.990388563398031
 30
0.0
  0
SPLINE
  5
2234
330
1F
100
AcDbEntity
  8
AM_0
100
AcDbSpline
210
0.0
220
0.0
230
1.0
 70
     8
 71
     3
 72
     8
 73
     4
 74
     0
 42
0.0000000001
 43
0.0000000001
 40
0.0
 40
0.0
 40
0.0
 40
0.0
 40
1.412269715655734
 40
1.412269715655734
 40
1.412269715655734
 40
1.412269715655734
 10
-17.0900000000002
 20
-3.249999999999944
 30
0.0
 10
-17.3959917717256
 20
-3.249999999999944
 30
0.0
 10
-17.69923583650039
 20
-3.234563384247638
 30
0.0
 10
-18.00000000000008
 20
-3.205194684843109
 30
0.0
  0
SPLINE
  5
2235
330
1F
100
AcDbEntity
  8
AM_0
100
AcDbSpline
210
0.0
220
0.0
230
1.0
 70
     8
 71
     3
 72
     8
 73
     4
 74
     0
 42
0.0000000001
 43
0.0000000001
 40
0.0
 40
0.0
 40
0.0
 40
0.0
 40
4.451443990518192
 40
4.451443990518192
 40
4.451443990518192
 40
4.451443990518192
 10
-14.18656828217485
 20
-2.990388563398031
 30
0.0
 10
-13.53874017684563
 20
-2.855514478230077
 30
0.0
 10
-12.74388932255423
 20
-2.783621267883781
 30
0.0
 10
-12.15334777292584
 20
-2.528265461234875
 30
0.0
  0
ARC
  5
2236
330
1F
100
AcDbEntity
  8
AM_0
100
AcDbCircle
 10
-10.2167352528966
 20
-202.8927578046046
 30
0.0
 40
199.8391905378728
100
AcDbArc
 50
92.2320999259376
 51
92.54062056902689
  0
LINE
  5
2237
330
1F
100
AcDbEntity
  8
AM_0
100
AcDbLine
 10
-18.00000000000006
 20
-2.685213228332806
 30
0.0
 11
-18.00000000000008
 21
-3.205194684843109
 31
0.0
  0
LINE
  5
23E8
330
1F
100
AcDbEntity
  8
AM_0
100
AcDbLine
 10
-59.50000000000009
 20
-3.999999999999936
 30
0.0
 11
-25.00000000000008
 21
-3.999999999999941
 31
0.0
  0
LINE
  5
23E9
330
1F
100
AcDbEntity
  8
AM_0
100
AcDbLine
 10
-59.50000000000009
 20
4.000000000000063
 30
0.0
 11
-25.00000000000008
 21
4.000000000000071
 31
0.0
  0
LINE
  5
23EC
330
1F
100
AcDbEntity
  8
AM_0
100
AcDbLine
 10
-60.00000000000009
 20
3.500000000000063
 30
0.0
 11
-60.00000000000009
 21
-3.499999999999936
 31
0.0
  0
LINE
  5
23ED
330
1F
100
AcDbEntity
  8
AM_0
100
AcDbLine
 10
-59.50000000000009
 20
4.000000000000063
 30
0.0
 11
-59.50000000000009
 21
-3.999999999999916
 31
0.0
  0
DIMENSION
  5
23EE
330
1F
100
AcDbEntity
  8
AM_5
100
AcDbDimension
  2
*D8
 10
-68.21831628338793
 20
-3.999999999999933
 30
0.0
 11
-69.76831628338793
 21
0.0000000000000557
 31
0.0
 70
    32
  1
%%c<>
  3
AM_JIS
100
AcDbAlignedDimension
 13
-59.50000000000009
 23
4.000000000000063
 33
0.0
 14
-59.50000000000009
 24
-3.999999999999936
 34
0.0
 50
270.0
100
AcDbRotatedDimension
1001
GENIUS_GENDTOL_13
1000

1000
h7
1000

1040
0.0
  0
LINE
  5
2406
330
1F
100
AcDbEntity
  8
AM_0
100
AcDbLine
 10
-59.50000000000009
 20
4.000000000000063
 30
0.0
 11
-60.00000000000009
 21
3.500000000000063
 31
0.0
1001
GENIUS_GENFIL_13
1070
     0
1040
0.5
1040
0.5
1040
20.0
1040
0.0
1002
{
1002
}
1001
GENIUS_GENODEF_13
1002
{
1000
HIER
1070
     0
1002
}
1002
{
1000
MANEDIT
1070
     0
1002
}
1002
{
1000
NOSEL
1070
     0
1002
}
1002
{
1000
BEHIND
1070
     0
1002
}
1002
{
1000
REACTOR
1002
}
1001
GENIUS_GENOBJ-N-CHA_13
1002
{
1000
OWNER
1000
GEN
1002
}
  0
LINE
  5
2409
330
1F
100
AcDbEntity
  8
AM_0
100
AcDbLine
 10
-60.00000000000009
 20
-3.499999999999936
 30
0.0
 11
-59.50000000000009
 21
-3.999999999999936
 31
0.0
1001
GENIUS_GENFIL_13
1070
     0
1040
0.5
1040
0.5
1040
20.0
1040
0.0
1002
{
1002
}
1001
GENIUS_GENODEF_13
1002
{
1000
HIER
1070
     0
1002
}
1002
{
1000
MANEDIT
1070
     0
1002
}
1002
{
1000
NOSEL
1070
     0
1002
}
1002
{
1000
BEHIND
1070
     0
1002
}
1002
{
1000
REACTOR
1002
}
1001
GENIUS_GENOBJ-N-CHA_13
1002
{
1000
OWNER
1000
GEN
1002
}
  0
LINE
  5
241B
330
1F
100
AcDbEntity
  8
AM_0
100
AcDbLine
 10
-25.00000000000009
 20
4.00000000000007
 30
0.0
 11
-25.00000000000009
 21
-3.999999999999941
 31
0.0
  0
LINE
  5
244E
330
1F
100
AcDbEntity
  8
AM_11
100
AcDbLine
 10
-18.00000000000015
 20
-3.250000000000017
 30
0.0
 11
-18.00000000000008
 21
3.249999999999982
 31
0.0
  0
LINE
  5
24A0
330
1F
100
AcDbEntity
  8
AM_0
100
AcDbLine
 10
-25.00000000000009
 20
4.00000000000007
 30
0.0
 11
-22.93939193540887
 21
3.249999999999979
 31
0.0
  0
LINE
  5
24A1
330
1F
100
AcDbEntity
  8
AM_0
100
AcDbLine
 10
-25.00000000000009
 20
-3.999999999999941
 30
0.0
 11
-22.93939193540886
 21
-3.249999999999847
 31
0.0
  0
POLYLINE
  5
24A4
330
1F
100
AcDbEntity
  8
AM_0
100
AcDb2dPolyline
 66
     1
 10
0.0
 20
0.0
 30
0.0
 70
     2
  0
VERTEX
  5
26D1
330
24A4
100
AcDbEntity
  8
AM_0
100
AcDbVertex
100
AcDb2dVertex
 10
-18.00000000000012
 20
0.3341190617522809
 30
0.0
 42
0.0333178258054091
  0
VERTEX
  5
26DF
330
24A4
100
AcDbEntity
  8
AM_0
100
AcDbVertex
100
AcDb2dVertex
 10
-18.2565354238685
 20
0.5098223262606503
 30
0.0
 42
0.0565738641326232
 70
     1
  0
VERTEX
  5
26D2
330
24A4
100
AcDbEntity
  8
AM_0
100
AcDbVertex
100
AcDb2dVertex
 10
-18.42402220366974
 20
0.5847956106180164
 30
0.0
 42
0.0130721032232984
  0
VERTEX
  5
26E0
330
24A4
100
AcDbEntity
  8
AM_0
100
AcDbVertex
100
AcDb2dVertex
 10
-18.72685118557615
 20
0.67243868230001
 30
0.0
 42
0.0186278101001229
 70
     1
  0
VERTEX
  5
26D3
330
24A4
100
AcDbEntity
  8
AM_0
100
AcDbVertex
100
AcDb2dVertex
 10
-18.94286954385107
 20
0.7203643802863562
 30
0.0
 42
0.0353509759036829
  0
VERTEX
  5
26E1
330
24A4
100
AcDbEntity
  8
AM_0
100
AcDbVertex
100
AcDb2dVertex
 10
-19.44325503132377
 20
0.775832125005687
 30
0.0
 42
0.0399315732844617
 70
     1
  0
VERTEX
  5
26D4
330
24A4
100
AcDbEntity
  8
AM_0
100
AcDbVertex
100
AcDb2dVertex
 10
-19.8887492407743
 20
0.7579609263697354
 30
0.0
 42
0.034860498466252
  0
VERTEX
  5
26E2
330
24A4
100
AcDbEntity
  8
AM_0
100
AcDbVertex
100
AcDb2dVertex
 10
-20.12783067385262
 20
0.7120781365642373
 30
0.0
 42
0.0419359893317098
 70
     1
  0
VERTEX
  5
26D5
330
24A4
100
AcDbEntity
  8
AM_0
100
AcDbVertex
100
AcDb2dVertex
 10
-20.31850779551586
 20
0.6439578447038703
 30
0.0
 42
0.0606429178448324
  0
VERTEX
  5
26E3
330
24A4
100
AcDbEntity
  8
AM_0
100
AcDbVertex
100
AcDb2dVertex
 10
-20.51183317634631
 20
0.525938243362262
 30
0.0
 42
0.0960780837574318
 70
     1
  0
VERTEX
  5
26D6
330
24A4
100
AcDbEntity
  8
AM_0
100
AcDbVertex
100
AcDb2dVertex
 10
-20.60553874717738
 20
0.416920123887437
 30
0.0
 42
0.0393687735355605
  0
VERTEX
  5
26E4
330
24A4
100
AcDbEntity
  8
AM_0
100
AcDbVertex
100
AcDb2dVertex
 10
-20.64589853996918
 20
0.3311332078229157
 30
0.0
 42
0.0290957501424973
 70
     1
  0
VERTEX
  5
26D7
330
24A4
100
AcDbEntity
  8
AM_0
100
AcDbVertex
100
AcDb2dVertex
 10
-20.68413279551585
 20
0.2087772780172172
 30
0.0
 42
0.0405478381168951
  0
VERTEX
  5
26E5
330
24A4
100
AcDbEntity
  8
AM_0
100
AcDbVertex
100
AcDb2dVertex
 10
-20.71416507104562
 20
0.0268961959765761
 30
0.0
 42
0.030389655116164
 70
     1
  0
VERTEX
  5
26D8
330
24A4
100
AcDbEntity
  8
AM_0
100
AcDbVertex
100
AcDb2dVertex
 10
-20.71953063975047
 20
-0.2188317757286655
 30
0.0
 42
0.0647225587056214
  0
VERTEX
  5
26E6
330
24A4
100
AcDbEntity
  8
AM_0
100
AcDbVertex
100
AcDb2dVertex
 10
-20.66976742963566
 20
-0.5119053566842098
 30
0.0
 42
0.0777498677558295
 70
     1
  0
VERTEX
  5
26D9
330
24A4
100
AcDbEntity
  8
AM_0
100
AcDbVertex
100
AcDb2dVertex
 10
-20.56134170319406
 20
-0.7348556169231629
 30
0.0
 42
0.0421695076586396
  0
VERTEX
  5
26E7
330
24A4
100
AcDbEntity
  8
AM_0
100
AcDbVertex
100
AcDb2dVertex
 10
-20.3506198846537
 20
-0.9890709867600122
 30
0.0
 42
0.0300433233662068
 70
     1
  0
VERTEX
  5
26DA
330
24A4
100
AcDbEntity
  8
AM_0
100
AcDbVertex
100
AcDb2dVertex
 10
-20.0068916894796
 20
-1.299361537207535
 30
0.0
 42
0.0048310643957994
  0
VERTEX
  5
26E8
330
24A4
100
AcDbEntity
  8
AM_0
100
AcDbVertex
100
AcDb2dVertex
 10
-19.36051218726294
 20
-1.805786209508482
 30
0.0
 42
0.0094455660497316
 70
     1
  0
VERTEX
  5
26DB
330
24A4
100
AcDbEntity
  8
AM_0
100
AcDbVertex
100
AcDb2dVertex
 10
-19.02263037935528
 20
-2.055276712917557
 30
0.0
 42
0.0024023878499352
  0
VERTEX
  5
26EA
330
24A4
100
AcDbEntity
  8
AM_0
100
AcDbVertex
100
AcDb2dVertex
 10
-18.93481819637168
 20
-2.116956348076882
 30
0.0
 42
0.0006958051764927
 70
     1
  0
VERTEX
  5
26DC
330
24A4
100
AcDbEntity
  8
AM_0
100
AcDbVertex
100
AcDb2dVertex
 10
-18.63031929085935
 20
-2.328032116572023
 30
0.0
 42
0.0223037986123749
  0
VERTEX
  5
26E9
330
24A4
100
AcDbEntity
  8
AM_0
100
AcDbVertex
100
AcDb2dVertex
 10
-18.39490488743722
 20
-2.475674076034138
 30
0.0
 42
0.0138594698169625
 70
     1
  0
VERTEX
  5
26DD
330
24A4
100
AcDbEntity
  8
AM_0
100
AcDbVertex
100
AcDb2dVertex
 10
-18.00000000000006
 20
-2.685213228332806
 30
0.0
  0
SEQEND
  5
26DE
330
24A4
100
AcDbEntity
  8
AM_0
  0
LINE
  5
24C1
330
1F
100
AcDbEntity
  8
AM_0
100
AcDbLine
 10
-18.00000000000009
 20
3.249999999999982
 30
0.0
 11
-22.93939193540887
 21
3.249999999999978
 31
0.0
  0
LINE
  5
24C2
330
1F
100
AcDbEntity
  8
AM_0
100
AcDbLine
 10
-19.07513979345712
 20
-3.25
 30
0.0
 11
-22.93939193540887
 21
-3.250000000000019
 31
0.0
  0
LINE
  5
24C3
330
1F
100
AcDbEntity
  8
AM_0
100
AcDbLine
 10
-22.93939193540887
 20
3.249999999999978
 30
0.0
 11
-22.93939193540886
 21
-3.249999999999847
 31
0.0
  0
VIEWPORT
  5
110
330
101
100
AcDbEntity
 67
     1
  8
0
100
AcDbViewport
 10
420.5
 20
297.0
 30
0.0
 40
948.9782706766916
 41
628.452
 68
     1
 69
     1
1001
ACAD
1000
MVIEW
1002
{
1070
    16
1010
0.0
1020
0.0
1030
0.0
1010
0.0
1020
0.0
1030
1.0
1040
0.0
1040
628.452
1040
420.5
1040
297.0
1040
50.0
1040
0.0
1040
0.0
1070
     0
1070
   100
1070
     1
1070
     1
1070
     0
1070
     0
1070
     0
1070
     0
1040
0.0
1040
0.0
1040
0.0
1040
10.0
1040
10.0
1040
10.0
1040
10.0
1070
     0
1002
{
1002
}
1002
}
  0
ENDSEC
  0
SECTION
  2
OBJECTS
  0
DICTIONARY
  5
C
330
0
100
AcDbDictionary
  3
ACAD_GROUP
350
D
  3
ACAD_LAYOUT
350
1A
  3
ACAD_MLINESTYLE
350
17
  3
ACAD_PLOTSETTINGS
350
19
  3
ACAD_PLOTSTYLENAME
350
E
  3
ACDBVARIABLEDICTIONARY
350
34
  3
ACMDICTIONARY
350
43
  3
AMG
350
2B
  3
AMGSNAPSETTINGS
350
6E
  3
DWGPROPS
350
2703
  3
ACDBHEADERROUNDTRIPXREC
350
270F
  0
DICTIONARY
  5
74
330
1F
100
AcDbDictionary
280
     1
  3
ACAD_INDEX
360
2705
  3
ACAD_LAYOUTSELFREF
360
2732
  0
DICTIONARY
  5
2737
330
101
100
AcDbDictionary
280
     1
  3
ACAD_LAYOUTSELFREF
360
2738
  0
DICTIONARY
  5
D
102
{ACAD_REACTORS
330
C
102
}
330
C
100
AcDbDictionary
  0
DICTIONARY
  5
1A
102
{ACAD_REACTORS
330
C
102
}
330
C
100
AcDbDictionary
  0
DICTIONARY
  5
17
102
{ACAD_REACTORS
330
C
102
}
330
C
100
AcDbDictionary
  3
STANDARD
350
18
  0
DICTIONARY
  5
19
102
{ACAD_REACTORS
330
C
102
}
330
C
100
AcDbDictionary
  0
ACDBDICTIONARYWDFLT
  5
E
102
{ACAD_REACTORS
330
C
102
}
330
C
100
AcDbDictionary
281
     1
  3
Normal
350
F
100
AcDbDictionaryWithDefault
340
F
  0
DICTIONARY
  5
34
102
{ACAD_REACTORS
330
C
102
}
330
C
100
AcDbDictionary
  3
INDEXCTL
350
35
  3
SORTENTS
350
B5E
  0
DICTIONARY
  5
43
102
{ACAD_REACTORS
330
C
102
}
330
C
100
AcDbDictionary
  3
ACMSTDDICTIONARY
350
260
  0
DICTIONARY
  5
2B
102
{ACAD_REACTORS
330
C
102
}
330
C
100
AcDbDictionary
  3
ACMGSETTINGS
350
2C
  0
DICTIONARY
  5
6E
102
{ACAD_REACTORS
330
C
102
}
330
C
100
AcDbDictionary
  0
XRECORD
  5
2703
102
{ACAD_REACTORS
330
C
102
}
330
C
100
AcDbXrecord
  1
DWGPROPS COOKIE
  2

  3

  4

  6

  7

  8

  9

300
AmdtFileType=82
301
=
302
=
303
=
304
=
305
=
306
=
307
=
308
=
309
=
 40
0.0512029513888889
 41
2452836.771637361
 42
2452846.463755602
  1

 90
        1
  0
DICTIONARY
  5
270F
102
{ACAD_REACTORS
330
C
102
}
330
C
100
AcDbDictionary
  3
TSTACKALIGN
350
2710
  3
TSTACKSIZE
350
2711
  3
HYPERLINKBASE
350
2712
  3
STYLESHEET
350
2713
  3
LAYOUTDICT
350
2714
  3
PLOTSETDICT
350
2715
  3
PLOTSTYLNAMDICT
350
2716
  3
LWETCUNION
350
2717
  3
INSUNITS
350
2718
  3
CEPSNTYPE
350
2719
  3
FINGERPRINTGUID
350
271A
  3
VERSIONGUID
350
271B
  3
PSVPSCALE
350
271C
  3
DIMSTYLEDATA
350
271D
  3
PUCSORTHOREF
350
271E
  3
PUCSORTHOVIEW
350
271F
  3
PUCSBASE
350
2720
  3
PUCSORGTOP
350
2721
  3
PUCSORGBOTTOM
350
2722
  3
PUCSORGLEFT
350
2723
  3
PUCSORGRIGHT
350
2724
  3
PUCSORGFRONT
350
2725
  3
PUCSORGBACK
350
2726
  3
UCSORTHOREF
350
2727
  3
UCSORTHOVIEW
350
2728
  3
UCSBASE
350
2729
  3
UCSORGTOP
350
272A
  3
UCSORGBOTTOM
350
272B
  3
UCSORGLEFT
350
272C
  3
UCSORGRIGHT
350
272D
  3
UCSORGFRONT
350
272E
  3
UCSORGBACK
350
272F
  0
DICTIONARY
  5
2705
102
{ACAD_REACTORS
330
74
102
}
330
74
100
AcDbDictionary
  3
*A1
350
2706
  0
XRECORD
  5
2732
102
{ACAD_REACTORS
330
74
102
}
330
74
100
AcDbXrecord
340
1F
  0
XRECORD
  5
2738
102
{ACAD_REACTORS
330
2737
102
}
330
2737
100
AcDbXrecord
340
101
  0
MLINESTYLE
  5
18
102
{ACAD_REACTORS
330
17
102
}
330
17
100
AcDbMlineStyle
  2
STANDARD
 70
     0
  3

 62
   256
 51
90.0
 52
90.0
 71
     2
 49
0.5
 62
   256
  6
BYLAYER
 49
-0.5
 62
   256
  6
BYLAYER
  0
ACDBPLACEHOLDER
  5
F
102
{ACAD_REACTORS
330
E
102
}
330
E
100
AcDbPlaceHolder
280
     0
  0
DICTIONARYVAR
  5
35
102
{ACAD_REACTORS
330
34
102
}
330
34
100
DictionaryVariables
280
     0
  1
1
  0
DICTIONARYVAR
  5
B5E
102
{ACAD_REACTORS
330
34
102
}
330
34
100
DictionaryVariables
280
     0
  1
96
  0
DICTIONARY
  5
260
102
{ACAD_REACTORS
330
43
102
}
330
43
100
AcDbDictionary
  0
DICTIONARY
  5
2C
102
{ACAD_REACTORS
330
2B
102
}
330
2B
100
AcDbDictionary
  3
DWGSETTINGS
350
2D
  0
XRECORD
  5
2710
102
{ACAD_REACTORS
330
270F
102
}
330
270F
100
AcDbXrecord
 90
        1
  0
XRECORD
  5
2711
102
{ACAD_REACTORS
330
270F
102
}
330
270F
100
AcDbXrecord
 90
       70
  0
XRECORD
  5
2712
102
{ACAD_REACTORS
330
270F
102
}
330
270F
100
AcDbXrecord
  1

  0
XRECORD
  5
2713
102
{ACAD_REACTORS
330
270F
102
}
330
270F
100
AcDbXrecord
  1
ASAMI.ctb
  0
XRECORD
  5
2714
102
{ACAD_REACTORS
330
270F
102
}
330
270F
100
AcDbXrecord
340
1A
  0
XRECORD
  5
2715
102
{ACAD_REACTORS
330
270F
102
}
330
270F
100
AcDbXrecord
340
19
  0
XRECORD
  5
2716
102
{ACAD_REACTORS
330
270F
102
}
330
270F
100
AcDbXrecord
340
E
  0
XRECORD
  5
2717
102
{ACAD_REACTORS
330
270F
102
}
330
270F
100
AcDbXrecord
 90
    10781
  0
XRECORD
  5
2718
102
{ACAD_REACTORS
330
270F
102
}
330
270F
100
AcDbXrecord
 90
        4
  0
XRECORD
  5
2719
102
{ACAD_REACTORS
330
270F
102
}
330
270F
100
AcDbXrecord
 90
        0
  0
XRECORD
  5
271A
102
{ACAD_REACTORS
330
270F
102
}
330
270F
100
AcDbXrecord
  1
{AFB28963-8C59-40AE-9337-C84526B81ACE}
  0
XRECORD
  5
271B
102
{ACAD_REACTORS
330
270F
102
}
330
270F
100
AcDbXrecord
  1
{60739182-6491-4265-8BB0-CF98BFD5212F}
  0
XRECORD
  5
271C
102
{ACAD_REACTORS
330
270F
102
}
330
270F
100
AcDbXrecord
 40
0.0
  0
XRECORD
  5
271D
102
{ACAD_REACTORS
330
270F
102
}
330
270F
100
AcDbXrecord
1000
DSTYLE
1002
{
1070
    79
 70
     2
1070
   341
340
59
1070
   342
340
59
1070
   371
 70
    -1
1070
   372
 70
    -1
1002
}
  0
XRECORD
  5
271E
102
{ACAD_REACTORS
330
270F
102
}
330
270F
100
AcDbXrecord
340
0
  0
XRECORD
  5
271F
102
{ACAD_REACTORS
330
270F
102
}
330
270F
100
AcDbXrecord
 70
     0
  0
XRECORD
  5
2720
102
{ACAD_REACTORS
330
270F
102
}
330
270F
100
AcDbXrecord
340
0
  0
XRECORD
  5
2721
102
{ACAD_REACTORS
330
270F
102
}
330
270F
100
AcDbXrecord
 10
0.0
 20
0.0
 30
0.0
  0
XRECORD
  5
2722
102
{ACAD_REACTORS
330
270F
102
}
330
270F
100
AcDbXrecord
 10
0.0
 20
0.0
 30
0.0
  0
XRECORD
  5
2723
102
{ACAD_REACTORS
330
270F
102
}
330
270F
100
AcDbXrecord
 10
0.0
 20
0.0
 30
0.0
  0
XRECORD
  5
2724
102
{ACAD_REACTORS
330
270F
102
}
330
270F
100
AcDbXrecord
 10
0.0
 20
0.0
 30
0.0
  0
XRECORD
  5
2725
102
{ACAD_REACTORS
330
270F
102
}
330
270F
100
AcDbXrecord
 10
0.0
 20
0.0
 30
0.0
  0
XRECORD
  5
2726
102
{ACAD_REACTORS
330
270F
102
}
330
270F
100
AcDbXrecord
 10
0.0
 20
0.0
 30
0.0
  0
XRECORD
  5
2727
102
{ACAD_REACTORS
330
270F
102
}
330
270F
100
AcDbXrecord
340
0
  0
XRECORD
  5
2728
102
{ACAD_REACTORS
330
270F
102
}
330
270F
100
AcDbXrecord
 70
     0
  0
XRECORD
  5
2729
102
{ACAD_REACTORS
330
270F
102
}
330
270F
100
AcDbXrecord
340
0
  0
XRECORD
  5
272A
102
{ACAD_REACTORS
330
270F
102
}
330
270F
100
AcDbXrecord
 10
0.0
 20
0.0
 30
0.0
  0
XRECORD
  5
272B
102
{ACAD_REACTORS
330
270F
102
}
330
270F
100
AcDbXrecord
 10
0.0
 20
0.0
 30
0.0
  0
XRECORD
  5
272C
102
{ACAD_REACTORS
330
270F
102
}
330
270F
100
AcDbXrecord
 10
0.0
 20
0.0
 30
0.0
  0
XRECORD
  5
272D
102
{ACAD_REACTORS
330
270F
102
}
330
270F
100
AcDbXrecord
 10
0.0
 20
0.0
 30
0.0
  0
XRECORD
  5
272E
102
{ACAD_REACTORS
330
270F
102
}
330
270F
100
AcDbXrecord
 10
0.0
 20
0.0
 30
0.0
  0
XRECORD
  5
272F
102
{ACAD_REACTORS
330
270F
102
}
330
270F
100
AcDbXrecord
 10
0.0
 20
0.0
 30
0.0
  0
LAYER_INDEX
  5
2706
102
{ACAD_REACTORS
330
2705
102
}
330
2705
100
AcDbIndex
 40
2453152.458677245
100
AcDbLayerIndex
  8
0
360
2707
 90
        0
  8
AM_0
360
2708
 90
       60
  8
AM_11
360
2709
 90
        3
  8
AM_7
360
270A
 90
        1
  8
AM_5
360
270B
 90
        4
  8
Defpoints
360
270C
 90
        0
  8
AM_6
360
270D
 90
        1
  0
XRECORD
  5
2D
102
{ACAD_REACTORS
330
2C
102
}
330
2C
100
AcDbXrecord
  1
VERSION
140
15.0
  1
PRODUCT
  2
AutoCAD Mechanical 2000
  0
IDBUFFER
  5
2707
330
0
100
AcDbIdBuffer
  0
IDBUFFER
  5
2708
330
0
100
AcDbIdBuffer
330
23E9
330
23EC
330
23ED
330
2406
330
2409
330
241B
330
24A0
330
24A1
330
24A4
330
24C1
330
24C2
330
24C3
330
20E5
330
20FE
330
2111
330
2112
330
21D7
330
21D8
330
21D9
330
21DA
330
21DB
330
21DC
330
21DD
330
21DE
330
21DF
330
21E0
330
21E1
330
21E2
330
21E3
330
21E4
330
21E5
330
21E6
330
21E7
330
21EF
330
21F0
330
21F5
330
21F9
330
21FA
330
21FB
330
21FC
330
21FD
330
21FE
330
21FF
330
2202
330
2203
330
2204
330
2205
330
2206
330
2207
330
2208
330
2209
330
2230
330
2231
330
2232
330
2233
330
2234
330
2235
330
2236
330
2237
330
23E8
  0
IDBUFFER
  5
2709
330
0
100
AcDbIdBuffer
330
21ED
330
21EE
330
244E
  0
IDBUFFER
  5
270A
330
0
100
AcDbIdBuffer
330
178E
  0
IDBUFFER
  5
270B
330
0
100
AcDbIdBuffer
330
18AB
330
193F
330
19E5
330
23EE
  0
IDBUFFER
  5
270C
330
0
100
AcDbIdBuffer
  0
IDBUFFER
  5
270D
330
0
100
AcDbIdBuffer
330
E5A
  0
ENDSEC
  0
EOF
