  0
SECTION
  2
HEADER
  9
$ACADVER
  1
AC1014
  9
$ACADMAINTVER
 70
     9
  9
$DWGCODEPAGE
  3
ANSI_932
  9
$INSBASE
 10
0.0
 20
0.0
 30
0.0
  9
$EXTMIN
 10
-70.56831628338793
 20
-28.25000099999989
 30
-0.00000001
  9
$EXTMAX
 10
9.778885015427372
 20
4.233294831524402
 30
0.00000001
  9
$LIMMIN
 10
-71.95543616466079
 20
-34.13472070195365
  9
$LIMMAX
 10
15.60161692949782
 20
16.11251057243666
  9
$ORTHOMODE
 70
     0
  9
$REGENMODE
 70
     1
  9
$FILLMODE
 70
     1
  9
$QTEXTMODE
 70
     0
  9
$MIRRTEXT
 70
     0
  9
$DRAGMODE
 70
     2
  9
$LTSCALE
 40
1.0
  9
$OSMODE
 70
    55
  9
$ATTMODE
 70
     1
  9
$TEXTSIZE
 40
2.5
  9
$TRACEWID
 40
1.0
  9
$TEXTSTYLE
  7
STANDARD
  9
$CLAYER
  8
AM_0
  9
$CELTYPE
  6
BYLAYER
  9
$CECOLOR
 62
   256
  9
$CELTSCALE
 40
1.0
  9
$DELOBJ
 70
     1
  9
$DISPSILH
 70
     0
  9
$DIMSCALE
 40
0.5
  9
$DIMASZ
 40
2.5
  9
$DIMEXO
 40
1.0
  9
$DIMDLI
 40
12.0
  9
$DIMRND
 40
0.0
  9
$DIMDLE
 40
0.0
  9
$DIMEXE
 40
1.0
  9
$DIMTP
 40
0.1
  9
$DIMTM
 40
0.1
  9
$DIMTXT
 40
3.2
  9
$DIMCEN
 40
0.0
  9
$DIMTSZ
 40
0.0
  9
$DIMTOL
 70
     0
  9
$DIMLIM
 70
     0
  9
$DIMTIH
 70
     0
  9
$DIMTOH
 70
     0
  9
$DIMSE1
 70
     0
  9
$DIMSE2
 70
     0
  9
$DIMTAD
 70
     3
  9
$DIMZIN
 70
     8
  9
$DIMBLK
  1
OPEN30
  9
$DIMASO
 70
     1
  9
$DIMSHO
 70
     1
  9
$DIMPOST
  1

  9
$DIMAPOST
  1
"
  9
$DIMALT
 70
     0
  9
$DIMALTD
 70
     2
  9
$DIMALTF
 40
0.0393701
  9
$DIMLFAC
 40
1.0
  9
$DIMTOFL
 70
     1
  9
$DIMTVP
 40
0.0
  9
$DIMTIX
 70
     0
  9
$DIMSOXD
 70
     0
  9
$DIMSAH
 70
     0
  9
$DIMBLK1
  1

  9
$DIMBLK2
  1

  9
$DIMSTYLE
  2
AM_JIS
  9
$DIMCLRD
 70
   256
  9
$DIMCLRE
 70
   256
  9
$DIMCLRT
 70
     2
  9
$DIMTFAC
 40
0.71
  9
$DIMGAP
 40
1.5
  9
$DIMJUST
 70
     0
  9
$DIMSD1
 70
     0
  9
$DIMSD2
 70
     0
  9
$DIMTOLJ
 70
     0
  9
$DIMTZIN
 70
     0
  9
$DIMALTZ
 70
     0
  9
$DIMALTTZ
 70
     0
  9
$DIMFIT
 70
     3
  9
$DIMUPT
 70
     0
  9
$DIMUNIT
 70
     2
  9
$DIMDEC
 70
     3
  9
$DIMTDEC
 70
     3
  9
$DIMALTU
 70
     2
  9
$DIMALTTD
 70
     2
  9
$DIMTXSTY
  7
ASAMI
  9
$DIMAUNIT
 70
     0
  9
$LUNITS
 70
     2
  9
$LUPREC
 70
     2
  9
$SKETCHINC
 40
1.0
  9
$FILLETRAD
 40
2.5
  9
$AUNITS
 70
     0
  9
$AUPREC
 70
     0
  9
$MENU
  1
.
  9
$ELEVATION
 40
0.0
  9
$PELEVATION
 40
0.0
  9
$THICKNESS
 40
0.0
  9
$LIMCHECK
 70
     0
  9
$BLIPMODE
 70
     0
  9
$CHAMFERA
 40
0.5
  9
$CHAMFERB
 40
0.5
  9
$CHAMFERC
 40
20.0
  9
$CHAMFERD
 40
0.0
  9
$SKPOLY
 70
     0
  9
$TDCREATE
 40
2452836.771637361
  9
$TDUPDATE
 40
2453152.455488865
  9
$TDINDWG
 40
0.0753585995
  9
$TDUSRTIMER
 40
0.0753585995
  9
$USRTIMER
 70
     1
  9
$ANGBASE
 50
0.0
  9
$ANGDIR
 70
     0
  9
$PDMODE
 70
     0
  9
$PDSIZE
 40
0.0
  9
$PLINEWID
 40
0.0
  9
$COORDS
 70
     1
  9
$SPLFRAME
 70
     0
  9
$SPLINETYPE
 70
     6
  9
$SPLINESEGS
 70
     8
  9
$ATTDIA
 70
     1
  9
$ATTREQ
 70
     1
  9
$HANDLING
 70
 12289
  9
$HANDSEED
  5
2D9D
  9
$SURFTAB1
 70
     6
  9
$SURFTAB2
 70
     6
  9
$SURFTYPE
 70
     6
  9
$SURFU
 70
     6
  9
$SURFV
 70
     6
  9
$UCSNAME
  2

  9
$UCSORG
 10
0.0
 20
0.0
 30
0.0
  9
$UCSXDIR
 10
1.0
 20
0.0
 30
0.0
  9
$UCSYDIR
 10
0.0
 20
1.0
 30
0.0
  9
$PUCSNAME
  2

  9
$PUCSORG
 10
0.0
 20
0.0
 30
0.0
  9
$PUCSXDIR
 10
1.0
 20
0.0
 30
0.0
  9
$PUCSYDIR
 10
0.0
 20
1.0
 30
0.0
  9
$USERI1
 70
     0
  9
$USERI2
 70
     0
  9
$USERI3
 70
     0
  9
$USERI4
 70
     0
  9
$USERI5
 70
     0
  9
$USERR1
 40
0.0
  9
$USERR2
 40
0.0
  9
$USERR3
 40
0.0
  9
$USERR4
 40
0.0
  9
$USERR5
 40
0.0
  9
$WORLDVIEW
 70
     1
  9
$SHADEDGE
 70
     3
  9
$SHADEDIF
 70
    70
  9
$TILEMODE
 70
     1
  9
$MAXACTVP
 70
    64
  9
$PINSBASE
 10
0.0
 20
0.0
 30
0.0
  9
$PLIMCHECK
 70
     0
  9
$PEXTMIN
 10
1.000000000000000E+20
 20
1.000000000000000E+20
 30
1.000000000000000E+20
  9
$PEXTMAX
 10
-1.000000000000000E+20
 20
-1.000000000000000E+20
 30
-1.000000000000000E+20
  9
$PLIMMIN
 10
0.0
 20
0.0
  9
$PLIMMAX
 10
841.0
 20
594.0
  9
$UNITMODE
 70
     0
  9
$VISRETAIN
 70
     1
  9
$PLINEGEN
 70
     0
  9
$PSLTSCALE
 70
     0
  9
$TREEDEPTH
 70
  3020
  9
$PICKSTYLE
 70
     0
  9
$CMLSTYLE
  2
STANDARD
  9
$CMLJUST
 70
     0
  9
$CMLSCALE
 40
20.0
  9
$PROXYGRAPHICS
 70
     1
  9
$MEASUREMENT
 70
     1
  0
ENDSEC
  0
SECTION
  2
CLASSES
  0
CLASS
  1
ACDBDICTIONARYWDFLT
  2
AcDbDictionaryWithDefault
  3
AutoCAD 2000
 90
        0
280
     0
281
     0
  0
CLASS
  1
ACDBPLACEHOLDER
  2
AcDbPlaceHolder
  3
AutoCAD 2000
 90
        0
280
     0
281
     0
  0
CLASS
  1
LAYOUT
  2
AcDbLayout
  3
AutoCAD 2000
 90
        0
280
     0
281
     0
  0
CLASS
  1
AMGSETTINGSOBJ
  2
AmgSettingsObj
  3
"AcadM|Product Description: AutoCAD Mechanical 2000|Company: Autodesk"
 90
        0
280
     0
281
     0
  0
CLASS
  1
ACME_DOCUMENT
  2
AcMeDbDoc
  3
AcMeServices
 90
        0
280
     0
281
     0
  0
CLASS
  1
ACMESCOPE
  2
AcMeScope
  3
AcMeServices
 90
        0
280
     0
281
     0
  0
CLASS
  1
ACMECOMMANDHISTORY
  2
AcMeCommandHistory
  3
AcMeServices
 90
        0
280
     0
281
     0
  0
CLASS
  1
DICTIONARYVAR
  2
AcDbDictionaryVar
  3
AutoCAD 2000
 90
        0
280
     0
281
     0
  0
CLASS
  1
ACIMSYSVARMAN
  2
AcImSysVarManager
  3
AcMeServices
 90
        0
280
     0
281
     0
  0
CLASS
  1
ACIMREALSYSVAR
  2
AcImRealSysVar
  3
AcMeServices
 90
        0
280
     0
281
     0
  0
CLASS
  1
ACIMINTSYSVAR
  2
AcImIntSysVar
  3
AcMeServices
 90
        0
280
     0
281
     0
  0
CLASS
  1
ACMEDRAWINGMAN
  2
AcMeDrawingMan
  3
AcMeServices
 90
        0
280
     0
281
     0
  0
CLASS
  1
ACMEVIEW
  2
AcMeView
  3
AcMeServices
 90
        0
280
     0
281
     0
  0
CLASS
  1
ACDBENTITYCACHE
  2
AcMeEntityCache
  3
AcMeServices
 90
        0
280
     0
281
     0
  0
CLASS
  1
GSMANAGER
  2
AcMeGSManager
  3
AcMeServices
 90
        0
280
     0
281
     0
  0
CLASS
  1
AmdtInternalReactor
  2
AmdtInternalReactor
  3
AcMeServices
 90
        0
280
     0
281
     0
  0
CLASS
  1
ACMESTATEMGR
  2
AcMeStateMgr
  3
AcMeServices
 90
        0
280
     0
281
     0
  0
CLASS
  1
ACME_DATABASE
  2
AcMeDbDatabase
  3
AcMeServices
 90
        0
280
     0
281
     0
  0
CLASS
  1
ACRFINSADJUSTERMGR
  2
AcRfInsAdjusterMgr
  3
AcMeServices
 90
        0
280
     0
281
     0
  0
CLASS
  1
ACMDATADICTIONARY
  2
AcmDataDictionary
  3
"AcmSymBB|Product Description: AutoCAD Mechanical 2000|Company: Autodesk"
 90
        0
280
     0
281
     0
  0
CLASS
  1
ACMDATAENTRYBLOCK
  2
AcmDataEntryBlock
  3
"AcmSymBB|Product Description: AutoCAD Mechanical 2000|Company: Autodesk"
 90
        0
280
     0
281
     0
  0
CLASS
  1
AMGOBJPROPCFG
  2
AmgObjPropCfg
  3
"AmgLay|Product Description: AutoCAD Mechanical 2000|Company: Autodesk"
 90
        1
280
     0
281
     0
  0
CLASS
  1
ACAMGFILTERDAT
  2
AcAmgFilterDat
  3
"AcadM|Product Description: AutoCAD Mechanical 2000|Company: Autodesk"
 90
        0
280
     0
281
     0
  0
CLASS
  1
LAYER_INDEX
  2
AcDbLayerIndex
  3
AutoCAD 2000
 90
        0
280
     0
281
     0
  0
CLASS
  1
IDBUFFER
  2
AcDbIdBuffer
  3
AutoCAD 2000
 90
        0
280
     0
281
     0
  0
CLASS
  1
ACIMSTRSYSVAR
  2
AcImStrSysVar
  3
AcMeServices
 90
        0
280
     0
281
     0
  0
CLASS
  1
ACMSTANDARDJIS
  2
AcmStandardJIS
  3
"AcmSymBB|Product Description: AutoCAD Mechanical 2000|Company: Autodesk"
 90
        0
280
     0
281
     0
  0
CLASS
  1
ACMSURFSTANDARDJIS
  2
AcmSurfTextStdJIS
  3
"AcmSymBB|Product Description: AutoCAD Mechanical 2000|Company: Autodesk"
 90
        0
280
     0
281
     0
  0
CLASS
  1
ACMFCFSTANDARDJIS
  2
AcmFCFStdJIS
  3
"AcmSymBB|Product Description: AutoCAD Mechanical 2000|Company: Autodesk"
 90
        0
280
     0
281
     0
  0
CLASS
  1
ACMWELDSTANDARDJIS
  2
AcmWeldingStdJIS
  3
"AcmSymBB|Product Description: AutoCAD Mechanical 2000|Company: Autodesk"
 90
        0
280
     0
281
     0
  0
CLASS
  1
ACMIDSTANDARDJIS
  2
AcmIdStdJIS
  3
"AcmSymBB|Product Description: AutoCAD Mechanical 2000|Company: Autodesk"
 90
        0
280
     0
281
     0
  0
CLASS
  1
ACMDATUMSTANDARDJIS
  2
AcmDatumStdJIS
  3
"AcmSymBB|Product Description: AutoCAD Mechanical 2000|Company: Autodesk"
 90
        0
280
     0
281
     0
  0
CLASS
  1
ACMBOMSTANDARDJIS
  2
AcmBOMStdJIS
  3
"AcmSymBB|Product Description: AutoCAD Mechanical 2000|Company: Autodesk"
 90
        0
280
     0
281
     0
  0
CLASS
  1
ACMSTANDARDANSI
  2
AcmStandardANSI
  3
"AcmSymBB|Product Description: AutoCAD Mechanical 2000|Company: Autodesk"
 90
        0
280
     0
281
     0
  0
CLASS
  1
ACMSURFSTANDARDANSI
  2
AcmSurfTextStdANSI
  3
"AcmSymBB|Product Description: AutoCAD Mechanical 2000|Company: Autodesk"
 90
        0
280
     0
281
     0
  0
CLASS
  1
ACMFCFSTANDARDANSI
  2
AcmFCFStdANSI
  3
"AcmSymBB|Product Description: AutoCAD Mechanical 2000|Company: Autodesk"
 90
        0
280
     0
281
     0
  0
CLASS
  1
ACMWELDSTANDARDANSI
  2
AcmWeldingStdANSI
  3
"AcmSymBB|Product Description: AutoCAD Mechanical 2000|Company: Autodesk"
 90
        0
280
     0
281
     0
  0
CLASS
  1
ACMIDSTANDARDANSI
  2
AcmIdStdANSI
  3
"AcmSymBB|Product Description: AutoCAD Mechanical 2000|Company: Autodesk"
 90
        0
280
     0
281
     0
  0
CLASS
  1
ACMDATUMSTANDARDANSI
  2
AcmDatumStdANSI
  3
"AcmSymBB|Product Description: AutoCAD Mechanical 2000|Company: Autodesk"
 90
        0
280
     0
281
     0
  0
CLASS
  1
ACMBOMSTANDARDANSI
  2
AcmBOMStdANSI
  3
"AcmSymBB|Product Description: AutoCAD Mechanical 2000|Company: Autodesk"
 90
        0
280
     0
281
     0
  0
CLASS
  1
ACMSTANDARDBSI
  2
AcmStandardBSI
  3
"AcmSymBB|Product Description: AutoCAD Mechanical 2000|Company: Autodesk"
 90
        0
280
     0
281
     0
  0
CLASS
  1
ACMSURFSTANDARDBSI
  2
AcmSurfTextStdBSI
  3
"AcmSymBB|Product Description: AutoCAD Mechanical 2000|Company: Autodesk"
 90
        0
280
     0
281
     0
  0
CLASS
  1
ACMFCFSTANDARDBSI
  2
AcmFCFStdBSI
  3
"AcmSymBB|Product Description: AutoCAD Mechanical 2000|Company: Autodesk"
 90
        0
280
     0
281
     0
  0
CLASS
  1
ACMWELDSTANDARDBSI
  2
AcmWeldingStdBSI
  3
"AcmSymBB|Product Description: AutoCAD Mechanical 2000|Company: Autodesk"
 90
        0
280
     0
281
     0
  0
CLASS
  1
ACMIDSTANDARDBSI
  2
AcmIdStdBSI
  3
"AcmSymBB|Product Description: AutoCAD Mechanical 2000|Company: Autodesk"
 90
        0
280
     0
281
     0
  0
CLASS
  1
ACMDATUMSTANDARDBSI
  2
AcmDatumStdBSI
  3
"AcmSymBB|Product Description: AutoCAD Mechanical 2000|Company: Autodesk"
 90
        0
280
     0
281
     0
  0
CLASS
  1
ACMBOMSTANDARDBSI
  2
AcmBOMStdBSI
  3
"AcmSymBB|Product Description: AutoCAD Mechanical 2000|Company: Autodesk"
 90
        0
280
     0
281
     0
  0
CLASS
  1
LONG_TRANSACTION
  2
AcDbLongTransaction
  3
AutoCAD 2000
 90
        0
280
     0
281
     0
  0
CLASS
  1
LWPOLYLINE
  2
AcDbPolyline
  3
AutoCAD 2000
 90
        0
280
     0
281
     1
  0
CLASS
  1
HATCH
  2
AcDbHatch
  3
AutoCAD 2000
 90
        0
280
     0
281
     1
  0
CLASS
  1
XRECORD
  2
AcDbXrecord
  3
AutoCAD 2000
 90
        0
280
     0
281
     0
  0
ENDSEC
  0
SECTION
  2
TABLES
  0
TABLE
  2
VPORT
  5
8
330
0
100
AcDbSymbolTable
 70
     3
  0
VPORT
  5
2D72
330
8
100
AcDbSymbolTableRecord
100
AcDbViewportTableRecord
  2
*ACTIVE
 70
     0
 10
0.0
 20
0.0
 11
1.0
 21
1.0
 12
-30.39469365910616
 22
-12.00894849195063
 13
0.0
 23
0.0
 14
2.5
 24
2.5
 15
10.0
 25
10.0
 16
0.0
 26
0.0
 36
1.0
 17
0.0
 27
0.0
 37
0.0
 40
51.53464256343641
 41
1.56570841889117
 42
50.0
 43
0.0
 44
0.0
 50
0.0
 51
0.0
 71
     0
 72
   100
 73
     1
 74
     3
 75
     0
 76
     0
 77
     0
 78
     0
  0
ENDTAB
  0
TABLE
  2
LTYPE
  5
5
330
0
100
AcDbSymbolTable
 70
    10
  0
LTYPE
  5
14
330
5
100
AcDbSymbolTableRecord
100
AcDbLinetypeTableRecord
  2
BYBLOCK
 70
     0
  3

 72
    65
 73
     0
 40
0.0
  0
LTYPE
  5
15
330
5
100
AcDbSymbolTableRecord
100
AcDbLinetypeTableRecord
  2
BYLAYER
 70
     0
  3

 72
    65
 73
     0
 40
0.0
  0
LTYPE
  5
16
330
5
100
AcDbSymbolTableRecord
100
AcDbLinetypeTableRecord
  2
CONTINUOUS
 70
     0
  3
Solid line
 72
    65
 73
     0
 40
0.0
  0
LTYPE
  5
4B
330
5
100
AcDbSymbolTableRecord
100
AcDbLinetypeTableRecord
  2
AM_ISO02W050
 70
     0
  3
__ __ __ __ __ __ __ __ __ __ __ __ __ __ __
 72
    65
 73
     2
 40
7.5
 49
6.0
 74
     0
 49
-1.5
 74
     0
  0
LTYPE
  5
4C
330
5
100
AcDbSymbolTableRecord
100
AcDbLinetypeTableRecord
  2
AM_ISO08W050
 70
     0
  3
____ . ____ . ____ . ____ . ____ . ____ . ____
 72
    65
 73
     4
 40
18.0
 49
12.0
 74
     0
 49
-1.5
 74
     0
 49
3.0
 74
     0
 49
-1.5
 74
     0
  0
LTYPE
  5
4D
330
5
100
AcDbSymbolTableRecord
100
AcDbLinetypeTableRecord
  2
AM_ISO09W050
 70
     0
  3
_____ . . _____ . . _____ . . ____ .. ____
 72
    65
 73
     6
 40
22.5
 49
12.0
 74
     0
 49
-1.5
 74
     0
 49
3.0
 74
     0
 49
-1.5
 74
     0
 49
3.0
 74
     0
 49
-1.5
 74
     0
  0
LTYPE
  5
4E
330
5
100
AcDbSymbolTableRecord
100
AcDbLinetypeTableRecord
  2
AMCONSTR
 70
     0
  3
_______________________
 72
    65
 73
     2
 40
9999.0
 49
9999.0
 74
     0
 49
0.0
 74
     0
  0
LTYPE
  5
4F
330
5
100
AcDbSymbolTableRecord
100
AcDbLinetypeTableRecord
  2
AM_ISO02W050X2
 70
     0
  3
 _ _ _ _ _ _ _ _ _ _ _ _
 72
    65
 73
     2
 40
3.75
 49
3.0
 74
     0
 49
-0.75
 74
     0
  0
LTYPE
  5
50
330
5
100
AcDbSymbolTableRecord
100
AcDbLinetypeTableRecord
  2
AM_ISO08W050X2
 70
     0
  3
__ . __ . __ . __ . __ . __
 72
    65
 73
     4
 40
9.0
 49
6.0
 74
     0
 49
-0.75
 74
     0
 49
1.5
 74
     0
 49
-0.75
 74
     0
  0
LTYPE
  5
53
330
5
100
AcDbSymbolTableRecord
100
AcDbLinetypeTableRecord
  2
AMZIGZAG
 70
     0
  3
/\/-/\/-/\/-/\/-/\/-/\/
 72
    65
 73
     2
 40
11.00009999999999
 49
0.0001
 74
     4
 75
   135
340
52
 46
0.04
 50
0.0
 44
0.0
 45
0.0
 49
-11.0
 74
     0
  0
LTYPE
  5
166
330
5
100
AcDbSymbolTableRecord
100
AcDbLinetypeTableRecord
  2
ACJISTGL
 70
     0
  3
_ _ _ _ _
 72
    65
 73
     2
 40
3.0
 49
2.0
 74
     0
 49
-1.0
 74
     0
  0
LTYPE
  5
26A
330
5
100
AcDbSymbolTableRecord
100
AcDbLinetypeTableRecord
  2
ACJISTGB
 70
     0
  3
__ . . __ . .
 72
    65
 73
     6
 40
9.0
 49
4.0
 74
     0
 49
-1.0
 74
     0
 49
1.0
 74
     0
 49
-1.0
 74
     0
 49
1.0
 74
     0
 49
-1.0
 74
     0
  0
ENDTAB
  0
TABLE
  2
LAYER
  5
2
330
0
100
AcDbSymbolTable
 70
     7
  0
LAYER
  5
10
330
2
100
AcDbSymbolTableRecord
100
AcDbLayerTableRecord
  2
0
 70
     0
 62
     7
  6
CONTINUOUS
  0
LAYER
  5
3F9
330
2
100
AcDbSymbolTableRecord
100
AcDbLayerTableRecord
  2
AM_0
 70
     0
 62
     7
  6
CONTINUOUS
  0
LAYER
  5
BD4
330
2
100
AcDbSymbolTableRecord
100
AcDbLayerTableRecord
  2
AM_11
 70
     0
 62
     3
  6
AM_ISO09W050
  0
LAYER
  5
BD5
330
2
100
AcDbSymbolTableRecord
100
AcDbLayerTableRecord
  2
AM_7
 70
     0
 62
     4
  6
AM_ISO08W050
  0
LAYER
  5
BD6
330
2
100
AcDbSymbolTableRecord
100
AcDbLayerTableRecord
  2
AM_5
 70
     0
 62
     3
  6
CONTINUOUS
  0
LAYER
  5
BD7
330
2
100
AcDbSymbolTableRecord
100
AcDbLayerTableRecord
  2
DEFPOINTS
 70
     0
 62
     7
  6
CONTINUOUS
  0
LAYER
  5
E59
330
2
100
AcDbSymbolTableRecord
100
AcDbLayerTableRecord
  2
AM_6
 70
     0
 62
     2
  6
CONTINUOUS
  0
ENDTAB
  0
TABLE
  2
STYLE
  5
3
330
0
100
AcDbSymbolTable
 70
     5
  0
STYLE
  5
11
330
3
100
AcDbSymbolTableRecord
100
AcDbTextStyleTableRecord
  2
STANDARD
 70
     0
 40
0.0
 41
1.0
 50
0.0
 71
     0
 42
2.5
  3
simplex.shx
  4
EXTFONT.SHX
  0
STYLE
  5
52
330
3
100
AcDbSymbolTableRecord
100
AcDbTextStyleTableRecord
  2

 70
     1
 40
0.0
 41
1.0
 50
0.0
 71
     0
 42
2.5
  3
ltypeshp.shx
  4

  0
STYLE
  5
6B
330
3
100
AcDbSymbolTableRecord
100
AcDbTextStyleTableRecord
  2
ASAMI
 70
     0
 40
0.0
 41
1.0
 50
0.0
 71
     0
 42
2.5
  3
simplex.shx
  4
EXTFONT.SHX
  0
STYLE
  5
262
330
3
100
AcDbSymbolTableRecord
100
AcDbTextStyleTableRecord
  2
ACJISTS
 70
     0
 40
1.0
 41
1.0
 50
0.0
 71
     0
 42
2.5
  3
simplex.shx
  4
bigfont.shx
  0
STYLE
  5
269
330
3
100
AcDbSymbolTableRecord
100
AcDbTextStyleTableRecord
  2
ACJISGDT
 70
     0
 40
0.0
 41
1.0
 50
0.0
 71
     0
 42
2.5
  3
amgdtans.shx
  4

  0
ENDTAB
  0
TABLE
  2
VIEW
  5
6
330
0
100
AcDbSymbolTable
 70
     0
  0
ENDTAB
  0
TABLE
  2
UCS
  5
7
330
0
100
AcDbSymbolTable
 70
     0
  0
ENDTAB
  0
TABLE
  2
APPID
  5
9
330
0
100
AcDbSymbolTable
 70
    12
  0
APPID
  5
12
330
9
100
AcDbSymbolTableRecord
100
AcDbRegAppTableRecord
  2
ACAD
 70
     0
  0
APPID
  5
30
330
9
100
AcDbSymbolTableRecord
100
AcDbRegAppTableRecord
  2
MCAD_NO_VIS
 70
     0
  0
APPID
  5
31
330
9
100
AcDbSymbolTableRecord
100
AcDbRegAppTableRecord
  2
ACAD_TEMP_GRAPHIC
 70
     0
  0
APPID
  5
2C2
330
9
100
AcDbSymbolTableRecord
100
AcDbRegAppTableRecord
  2
GENIUS_GENDTOL_13
 70
     0
  0
APPID
  5
339
330
9
100
AcDbSymbolTableRecord
100
AcDbRegAppTableRecord
  2
GENIUS_GENODEF_13
 70
     0
  0
APPID
  5
33A
330
9
100
AcDbSymbolTableRecord
100
AcDbRegAppTableRecord
  2
GENIUS_GENOBJ-N-RSBK_13
 70
     0
  0
APPID
  5
33B
330
9
100
AcDbSymbolTableRecord
100
AcDbRegAppTableRecord
  2
GENIUS_GENOBJ-N-LIB_13
 70
     0
  0
APPID
  5
33C
330
9
100
AcDbSymbolTableRecord
100
AcDbRegAppTableRecord
  2
GENIUS_GENSCALE_13
 70
     0
  0
APPID
  5
378
330
9
100
AcDbSymbolTableRecord
100
AcDbRegAppTableRecord
  2
GENIUS_GENDIMSH_14
 70
     0
  0
APPID
  5
BD8
330
9
100
AcDbSymbolTableRecord
100
AcDbRegAppTableRecord
  2
GENIUS_GENOBJ-N-CEN_13
 70
     0
  0
APPID
  5
BD9
330
9
100
AcDbSymbolTableRecord
100
AcDbRegAppTableRecord
  2
GENIUS_GENFIL_13
 70
     0
  0
APPID
  5
BDA
330
9
100
AcDbSymbolTableRecord
100
AcDbRegAppTableRecord
  2
GENIUS_GENOBJ-N-CHA_13
 70
     0
  0
ENDTAB
  0
TABLE
  2
DIMSTYLE
  5
A
330
0
100
AcDbSymbolTable
 70
     8
  0
DIMSTYLE
105
58
102
{ACAD_REACTORS
330
18AB
330
193F
330
19E5
330
23EE
102
}
330
A
100
AcDbSymbolTableRecord
100
AcDbDimStyleTableRecord
  2
AM_JIS
 70
     0
  3

  4
"
  5
OPEN30
  6

  7

 40
0.5
 41
2.5
 42
1.0
 43
12.0
 44
1.0
 45
0.0
 46
0.0
 47
0.1
 48
0.1
140
3.2
141
0.0
142
0.0
143
0.0393701
144
1.0
145
0.0
146
0.71
147
1.5
 71
     0
 72
     0
 73
     0
 74
     0
 75
     0
 76
     0
 77
     3
 78
     8
170
     0
171
     2
172
     1
173
     0
174
     0
175
     0
176
   256
177
   256
178
     2
270
     2
271
     3
272
     3
273
     2
274
     2
340
6B
275
     0
280
     0
281
     0
282
     0
283
     0
284
     0
285
     0
286
     0
287
     3
288
     0
  0
DIMSTYLE
105
5F
330
A
100
AcDbSymbolTableRecord
100
AcDbDimStyleTableRecord
  2
AM_JIS$3
 70
     0
  3

  4
"
  5
OPEN30
  6

  7

 40
0.5
 41
2.5
 42
1.0
 43
10.0
 44
1.0
 45
0.0
 46
0.0
 47
0.1
 48
0.1
140
3.2
141
0.0
142
0.0
143
0.0393701
144
1.0
145
0.0
146
0.71
147
1.5
 71
     0
 72
     0
 73
     0
 74
     1
 75
     0
 76
     0
 77
     3
 78
     8
170
     0
171
     2
172
     0
173
     0
174
     0
175
     0
176
   256
177
   256
178
     2
270
     2
271
     2
272
     3
273
     2
274
     2
340
6B
275
     0
280
     0
281
     0
282
     0
283
     0
284
     0
285
     0
286
     0
287
     0
288
     1
  0
DIMSTYLE
105
60
330
A
100
AcDbSymbolTableRecord
100
AcDbDimStyleTableRecord
  2
AM_JIS$4
 70
     0
  3

  4
"
  5
OPEN30
  6

  7

 40
0.5
 41
2.5
 42
1.0
 43
10.0
 44
1.0
 45
0.0
 46
0.0
 47
0.1
 48
0.1
140
3.2
141
0.0
142
0.0
143
0.0393701
144
1.0
145
0.0
146
0.71
147
1.5
 71
     0
 72
     0
 73
     0
 74
     1
 75
     0
 76
     0
 77
     3
 78
     8
170
     0
171
     2
172
     0
173
     0
174
     0
175
     0
176
   256
177
   256
178
     2
270
     2
271
     2
272
     3
273
     2
274
     2
340
6B
275
     0
280
     0
281
     0
282
     0
283
     0
284
     0
285
     0
286
     0
287
     0
288
     1
  0
DIMSTYLE
105
61
330
A
100
AcDbSymbolTableRecord
100
AcDbDimStyleTableRecord
  2
AM_JIS$6
 70
     0
  3

  4
"
  5
OPEN30
  6

  7

 40
0.5
 41
2.5
 42
1.0
 43
10.0
 44
1.0
 45
0.0
 46
0.0
 47
0.1
 48
0.1
140
3.2
141
0.0
142
0.0
143
0.0393701
144
1.0
145
0.0
146
0.71
147
1.5
 71
     0
 72
     0
 73
     0
 74
     0
 75
     0
 76
     0
 77
     0
 78
     8
170
     0
171
     2
172
     1
173
     0
174
     0
175
     0
176
   256
177
   256
178
     2
270
     2
271
     2
272
     2
273
     2
274
     2
340
6B
275
     0
280
     0
281
     0
282
     0
283
     0
284
     0
285
     0
286
     0
287
     3
288
     0
  0
DIMSTYLE
105
62
330
A
100
AcDbSymbolTableRecord
100
AcDbDimStyleTableRecord
  2
AM_JIS$7
 70
     0
  3

  4
"
  5
OPEN30
  6

  7

 40
0.5
 41
2.5
 42
1.0
 43
10.0
 44
1.0
 45
0.0
 46
0.0
 47
0.1
 48
0.1
140
3.2
141
0.0
142
0.0
143
0.0393701
144
1.0
145
0.0
146
0.71
147
1.5
 71
     0
 72
     0
 73
     0
 74
     0
 75
     0
 76
     0
 77
     3
 78
     8
170
     0
171
     2
172
     1
173
     0
174
     0
175
     0
176
   256
177
   256
178
     2
270
     2
271
     2
272
     3
273
     2
274
     2
340
6B
275
     0
280
     0
281
     0
282
     0
283
     0
284
     0
285
     0
286
     0
287
     3
288
     0
  0
DIMSTYLE
105
63
330
A
100
AcDbSymbolTableRecord
100
AcDbDimStyleTableRecord
  2
AM_JIS$SF
 70
     0
  3

  4
"
  5
OPEN30
  6

  7

 40
0.5
 41
2.5
 42
1.0
 43
10.0
 44
1.0
 45
0.0
 46
0.0
 47
0.1
 48
0.1
140
3.2
141
0.0
142
0.0
143
0.0393701
144
1.0
145
0.0
146
0.71
147
1.5
 71
     0
 72
     0
 73
     0
 74
     0
 75
     1
 76
     1
 77
     3
 78
     8
170
     0
171
     2
172
     1
173
     0
174
     0
175
     0
176
   256
177
   256
178
     2
270
     2
271
     2
272
     2
273
     2
274
     2
340
6B
275
     0
280
     0
281
     0
282
     0
283
     0
284
     0
285
     0
286
     0
287
     3
288
     0
  0
DIMSTYLE
105
68
330
A
100
AcDbSymbolTableRecord
100
AcDbDimStyleTableRecord
  2
AM_JIS$SH
 70
     0
  3

  4
"
  5

  6
GENAXEH
  7
OPEN30
 40
0.5
 41
2.5
 42
1.0
 43
10.0
 44
1.0
 45
0.0
 46
0.0
 47
0.1
 48
0.1
140
3.2
141
0.0
142
0.0
143
0.0393701
144
2.0
145
0.0
146
0.71
147
1.5
 71
     0
 72
     0
 73
     0
 74
     0
 75
     1
 76
     1
 77
     3
 78
     8
170
     0
171
     2
172
     1
173
     1
174
     0
175
     0
176
   256
177
   256
178
     2
270
     2
271
     2
272
     2
273
     2
274
     2
340
6B
275
     0
280
     0
281
     0
282
     0
283
     0
284
     0
285
     0
286
     0
287
     3
288
     0
  0
DIMSTYLE
105
B34
330
A
100
AcDbSymbolTableRecord
100
AcDbDimStyleTableRecord
  2
AM_JIS$2
 70
     0
  3

  4
"
  5
OPEN30
  6

  7

 40
0.5
 41
2.5
 42
1.0
 43
12.0
 44
1.0
 45
0.0
 46
0.0
 47
0.1
 48
0.1
140
3.2
141
0.0
142
0.0
143
0.0393701
144
1.0
145
0.0
146
0.71
147
1.5
 71
     0
 72
     0
 73
     0
 74
     0
 75
     0
 76
     0
 77
     3
 78
     8
170
     0
171
     2
172
     1
173
     0
174
     0
175
     0
176
   256
177
   256
178
     2
270
     2
271
     3
272
     3
273
     2
274
     2
340
6B
275
     0
280
     0
281
     0
282
     0
283
     0
284
     0
285
     0
286
     0
287
     3
288
     0
  0
ENDTAB
  0
TABLE
  2
BLOCK_RECORD
  5
1
330
0
100
AcDbSymbolTable
 70
     9
  0
BLOCK_RECORD
  5
1F
102
{ACAD_XDICTIONARY
360
74
102
}
330
1
100
AcDbSymbolTableRecord
100
AcDbBlockTableRecord
  2
*MODEL_SPACE
  0
BLOCK_RECORD
  5
101
102
{ACAD_XDICTIONARY
360
2D9B
102
}
330
1
100
AcDbSymbolTableRecord
100
AcDbBlockTableRecord
  2
*PAPER_SPACE
  0
BLOCK_RECORD
  5
59
330
1
100
AcDbSymbolTableRecord
100
AcDbBlockTableRecord
  2
_OPEN30
  0
BLOCK_RECORD
  5
64
330
1
100
AcDbSymbolTableRecord
100
AcDbBlockTableRecord
  2
GENAXEH
  0
BLOCK_RECORD
  5
18AC
330
1
100
AcDbSymbolTableRecord
100
AcDbBlockTableRecord
  2
*D5
  0
BLOCK_RECORD
  5
1940
330
1
100
AcDbSymbolTableRecord
100
AcDbBlockTableRecord
  2
*D6
  0
BLOCK_RECORD
  5
19E6
330
1
100
AcDbSymbolTableRecord
100
AcDbBlockTableRecord
  2
*D7
  0
BLOCK_RECORD
  5
23EF
330
1
100
AcDbSymbolTableRecord
100
AcDbBlockTableRecord
  2
*D8
  0
ENDTAB
  0
ENDSEC
  0
SECTION
  2
BLOCKS
  0
BLOCK
  5
20
330
1F
100
AcDbEntity
  8
0
100
AcDbBlockBegin
  2
*MODEL_SPACE
 70
     0
 10
0.0
 20
0.0
 30
0.0
  3
*MODEL_SPACE
  1

  0
ENDBLK
  5
21
330
1F
100
AcDbEntity
  8
0
100
AcDbBlockEnd
  0
BLOCK
  5
103
330
101
100
AcDbEntity
 67
     1
  8
0
100
AcDbBlockBegin
  2
*PAPER_SPACE
 70
     0
 10
0.0
 20
0.0
 30
0.0
  3
*PAPER_SPACE
  1

  0
ENDBLK
  5
104
330
101
100
AcDbEntity
 67
     1
  8
0
100
AcDbBlockEnd
  0
BLOCK
  5
5D
330
59
100
AcDbEntity
  8
0
100
AcDbBlockBegin
  2
_OPEN30
 70
     0
 10
0.0
 20
0.0
 30
0.0
  3
_OPEN30
  1

  0
LINE
  5
5A
330
59
100
AcDbEntity
  8
0
 62
     0
100
AcDbLine
 10
-1.0
 20
0.26794919
 30
0.0
 11
0.0
 21
0.0
 31
0.0
  0
LINE
  5
5B
330
59
100
AcDbEntity
  8
0
 62
     0
100
AcDbLine
 10
0.0
 20
0.0
 30
0.0
 11
-1.0
 21
-0.26794919
 31
0.0
  0
LINE
  5
5C
330
59
100
AcDbEntity
  8
0
 62
     0
100
AcDbLine
 10
0.0
 20
0.0
 30
0.0
 11
-1.0
 21
0.0
 31
0.0
  0
ENDBLK
  5
5E
330
59
100
AcDbEntity
  8
0
100
AcDbBlockEnd
  0
BLOCK
  5
66
330
64
100
AcDbEntity
  8
0
100
AcDbBlockBegin
  2
GENAXEH
 70
     0
 10
0.0
 20
0.0
 30
0.0
  3
GENAXEH
  1

  0
LINE
  5
65
330
64
100
AcDbEntity
  8
0
100
AcDbLine
 10
-1.0
 20
0.0
 30
0.0
 11
1.0
 21
0.0
 31
0.0
  0
ENDBLK
  5
67
330
64
100
AcDbEntity
  8
0
100
AcDbBlockEnd
  0
BLOCK
  5
18B6
330
18AC
100
AcDbEntity
  8
0
100
AcDbBlockBegin
  2
*D5
 70
     1
 10
0.0
 20
0.0
 30
0.0
  3
*D5
  1

  0
LINE
  5
2AC7
330
18AC
100
AcDbEntity
  8
AM_5
100
AcDbLine
 10
-60.00000000000009
 20
-3.999999999999936
 30
0.0
 11
-60.00000000000009
 21
-17.50000099999989
 31
0.0
  0
LINE
  5
2AC8
330
18AC
100
AcDbEntity
  8
AM_5
100
AcDbLine
 10
-0.0000000000008172
 20
-4.00000000000001
 30
0.0
 11
-0.000000000000818
 21
-17.50000099999989
 31
0.0
  0
LINE
  5
2AC9
330
18AC
100
AcDbEntity
  8
AM_5
100
AcDbLine
 10
-58.75000000000009
 20
-17.00000099999989
 30
0.0
 11
-1.250000000000818
 21
-17.00000099999989
 31
0.0
  0
INSERT
  5
2ACA
330
18AC
100
AcDbEntity
  8
AM_5
100
AcDbBlockReference
  2
_OPEN30
 10
-60.00000000000009
 20
-17.00000099999989
 30
0.0
 41
1.25
 42
1.25
 43
1.25
 50
180.0
  0
INSERT
  5
2ACB
330
18AC
100
AcDbEntity
  8
AM_5
100
AcDbBlockReference
  2
_OPEN30
 10
-0.000000000000818
 20
-17.00000099999989
 30
0.0
 41
1.25
 42
1.25
 43
1.25
  0
MTEXT
  5
2ACC
330
18AC
100
AcDbEntity
  8
AM_5
 62
     2
100
AcDbMText
 10
-30.00000000000045
 20
-15.45000099999989
 30
0.0
 40
1.6
 41
0.0
 71
     5
 72
     1
  1
60
  7
ASAMI
1001
ACAD
1000
MTEXTBEGIN
1070
    73
1070
     1
1070
    44
1040
1.0
1070
    74
1070
     0
1000
MTEXTEND
  0
POINT
  5
2ACD
330
18AC
100
AcDbEntity
  8
DEFPOINTS
 62
     0
100
AcDbPoint
 10
-60.00000000000009
 20
-3.499999999999936
 30
0.0
  0
POINT
  5
2ACE
330
18AC
100
AcDbEntity
  8
DEFPOINTS
 62
     0
100
AcDbPoint
 10
-0.0000000000008171
 20
-3.50000000000001
 30
0.0
  0
POINT
  5
2ACF
330
18AC
100
AcDbEntity
  8
DEFPOINTS
 62
     0
100
AcDbPoint
 10
-0.000000000000818
 20
-17.00000099999989
 30
0.0
  0
ENDBLK
  5
18B7
330
18AC
100
AcDbEntity
  8
0
100
AcDbBlockEnd
  0
BLOCK
  5
194A
330
1940
100
AcDbEntity
  8
0
100
AcDbBlockBegin
  2
*D6
 70
     1
 10
0.0
 20
0.0
 30
0.0
  3
*D6
  1

  0
LINE
  5
2AD9
330
1940
100
AcDbEntity
  8
AM_5
100
AcDbLine
 10
-18.00000000000048
 20
-4.000000000000021
 30
0.0
 11
-18.00000000000048
 21
-11.50000099999989
 31
0.0
  0
LINE
  5
2ADA
330
1940
100
AcDbEntity
  8
AM_5
100
AcDbLine
 10
-0.0000000000008172
 20
-4.00000000000001
 30
0.0
 11
-0.0000000000008176
 21
-11.50000099999989
 31
0.0
  0
LINE
  5
2ADB
330
1940
100
AcDbEntity
  8
AM_5
100
AcDbLine
 10
-16.75000000000048
 20
-11.00000099999989
 30
0.0
 11
-1.250000000000817
 21
-11.00000099999989
 31
0.0
  0
INSERT
  5
2ADC
330
1940
100
AcDbEntity
  8
AM_5
100
AcDbBlockReference
  2
_OPEN30
 10
-18.00000000000048
 20
-11.00000099999989
 30
0.0
 41
1.25
 42
1.25
 43
1.25
 50
180.0
  0
INSERT
  5
2ADD
330
1940
100
AcDbEntity
  8
AM_5
100
AcDbBlockReference
  2
_OPEN30
 10
-0.0000000000008176
 20
-11.00000099999989
 30
0.0
 41
1.25
 42
1.25
 43
1.25
  0
MTEXT
  5
2ADE
330
1940
100
AcDbEntity
  8
AM_5
 62
     2
100
AcDbMText
 10
-9.000000000000651
 20
-9.450000999999891
 30
0.0
 40
1.6
 41
0.0
 71
     5
 72
     1
  1
18
  7
ASAMI
1001
ACAD
1000
MTEXTBEGIN
1070
    73
1070
     1
1070
    44
1040
1.0
1070
    74
1070
     0
1000
MTEXTEND
  0
POINT
  5
2ADF
330
1940
100
AcDbEntity
  8
DEFPOINTS
 62
     0
100
AcDbPoint
 10
-18.00000000000048
 20
-3.500000000000021
 30
0.0
  0
POINT
  5
2AE0
330
1940
100
AcDbEntity
  8
DEFPOINTS
 62
     0
100
AcDbPoint
 10
-0.0000000000008171
 20
-3.50000000000001
 30
0.0
  0
POINT
  5
2AE1
330
1940
100
AcDbEntity
  8
DEFPOINTS
 62
     0
100
AcDbPoint
 10
-0.0000000000008176
 20
-11.00000099999989
 30
0.0
  0
ENDBLK
  5
194B
330
1940
100
AcDbEntity
  8
0
100
AcDbBlockEnd
  0
BLOCK
  5
19F0
330
19E6
100
AcDbEntity
  8
0
100
AcDbBlockBegin
  2
*D7
 70
     1
 10
0.0
 20
0.0
 30
0.0
  3
*D7
  1

  0
LINE
  5
2AD0
330
19E6
100
AcDbEntity
  8
AM_5
100
AcDbLine
 10
0.4999999999998615
 20
3.5
 30
0.0
 11
9.778885015427372
 21
3.499999999999997
 31
0.0
  0
LINE
  5
2AD1
330
19E6
100
AcDbEntity
  8
AM_5
100
AcDbLine
 10
0.4999999999998848
 20
-3.500000000000007
 30
0.0
 11
9.778885015427372
 21
-3.500000000000009
 31
0.0
  0
LINE
  5
2AD2
330
19E6
100
AcDbEntity
  8
AM_5
100
AcDbLine
 10
9.278885015427372
 20
2.249999999999997
 30
0.0
 11
9.278885015427372
 21
-2.250000000000009
 31
0.0
  0
INSERT
  5
2AD3
330
19E6
100
AcDbEntity
  8
AM_5
100
AcDbBlockReference
  2
_OPEN30
 10
9.278885015427372
 20
3.499999999999997
 30
0.0
 41
1.25
 42
1.25
 43
1.25
 50
90.0
  0
INSERT
  5
2AD4
330
19E6
100
AcDbEntity
  8
AM_5
100
AcDbBlockReference
  2
_OPEN30
 10
9.278885015427372
 20
-3.500000000000009
 30
0.0
 41
1.25
 42
1.25
 43
1.25
 50
270.0
  0
MTEXT
  5
2AD5
330
19E6
100
AcDbEntity
  8
AM_5
 62
     2
100
AcDbMText
 10
7.728885015427371
 20
-0.0000000000000044
 30
0.0
 40
1.6
 41
0.0
 71
     5
 72
     1
  1
%%c7
  7
ASAMI
 11
0.0000000000000001
 21
1.0
 31
0.0
1001
ACAD
1000
MTEXTBEGIN
1070
    73
1070
     1
1070
    44
1040
1.0
1070
    74
1070
     0
1000
MTEXTEND
  0
POINT
  5
2AD6
330
19E6
100
AcDbEntity
  8
DEFPOINTS
 62
     0
100
AcDbPoint
 10
-0.0000000000001386
 20
3.5
 30
0.0
  0
POINT
  5
2AD7
330
19E6
100
AcDbEntity
  8
DEFPOINTS
 62
     0
100
AcDbPoint
 10
-0.0000000000001153
 20
-3.500000000000007
 30
0.0
  0
POINT
  5
2AD8
330
19E6
100
AcDbEntity
  8
DEFPOINTS
 62
     0
100
AcDbPoint
 10
9.278885015427372
 20
-3.500000000000009
 30
0.0
  0
ENDBLK
  5
19F1
330
19E6
100
AcDbEntity
  8
0
100
AcDbBlockEnd
  0
BLOCK
  5
23F9
330
23EF
100
AcDbEntity
  8
0
100
AcDbBlockBegin
  2
*D8
 70
     1
 10
0.0
 20
0.0
 30
0.0
  3
*D8
  1

  0
LINE
  5
23FB
330
23EF
100
AcDbEntity
  8
AM_5
100
AcDbLine
 10
-60.0000000000001
 20
4.000000000000063
 30
0.0
 11
-68.71831628338793
 21
4.000000000000066
 31
0.0
  0
LINE
  5
23FC
330
23EF
100
AcDbEntity
  8
AM_5
100
AcDbLine
 10
-60.00000000000008
 20
-3.999999999999936
 30
0.0
 11
-68.71831628338793
 21
-3.999999999999933
 31
0.0
  0
LINE
  5
23FD
330
23EF
100
AcDbEntity
  8
AM_5
100
AcDbLine
 10
-68.21831628338793
 20
2.750000000000066
 30
0.0
 11
-68.21831628338793
 21
-2.749999999999933
 31
0.0
  0
INSERT
  5
23FE
330
23EF
100
AcDbEntity
  8
AM_5
100
AcDbBlockReference
  2
_OPEN30
 10
-68.21831628338793
 20
4.000000000000066
 30
0.0
 41
1.25
 42
1.25
 43
1.25
 50
90.0
  0
INSERT
  5
23FF
330
23EF
100
AcDbEntity
  8
AM_5
100
AcDbBlockReference
  2
_OPEN30
 10
-68.21831628338793
 20
-3.999999999999933
 30
0.0
 41
1.25
 42
1.25
 43
1.25
 50
270.0
  0
MTEXT
  5
2400
330
23EF
100
AcDbEntity
  8
AM_5
 62
     2
100
AcDbMText
 10
-69.76831628338793
 20
0.0000000000000557
 30
0.0
 40
1.6
 41
0.0
 71
     5
 72
     1
  1
%%c8
  7
ASAMI
 11
0.0000000000000001
 21
1.0
 31
0.0
1001
ACAD
1000
MTEXTBEGIN
1070
    73
1070
     1
1070
    44
1040
1.0
1070
    74
1070
     0
1000
MTEXTEND
  0
POINT
  5
2401
330
23EF
100
AcDbEntity
  8
DEFPOINTS
 62
     0
100
AcDbPoint
 10
-59.50000000000009
 20
4.000000000000063
 30
0.0
  0
POINT
  5
2402
330
23EF
100
AcDbEntity
  8
DEFPOINTS
 62
     0
100
AcDbPoint
 10
-59.50000000000009
 20
-3.999999999999936
 30
0.0
  0
POINT
  5
2403
330
23EF
100
AcDbEntity
  8
DEFPOINTS
 62
     0
100
AcDbPoint
 10
-68.21831628338793
 20
-3.999999999999933
 30
0.0
  0
ENDBLK
  5
23FA
330
23EF
100
AcDbEntity
  8
0
100
AcDbBlockEnd
  0
ENDSEC
  0
SECTION
  2
ENTITIES
  0
TEXT
  5
E5A
330
1F
100
AcDbEntity
  8
AM_6
100
AcDbText
 10
-40.35714285714329
 20
-28.25000099999989
 30
0.0
 40
2.5
  1
JSM4070ZX
 72
     4
 11
-30.00000000000044
 21
-27.00000099999989
 31
0.0
100
AcDbText
  0
LINE
  5
178E
330
1F
100
AcDbEntity
  8
AM_7
  6
AM_ISO08W050X2
100
AcDbLine
 10
2.278884015427379
 20
0.0
 30
0.0
 11
-61.21831528338794
 21
-0.0000000000000213
 31
0.0
1001
GENIUS_GENODEF_13
1002
{
1000
HIER
1070
     0
1002
}
1002
{
1000
MANEDIT
1070
     0
1002
}
1002
{
1000
NOSEL
1070
     0
1002
}
1002
{
1000
BEHIND
1070
     0
1002
}
1002
{
1000
REACTOR
1002
}
1001
GENIUS_GENOBJ-N-CEN_13
1002
{
1000
OWNER
1000
GEN
1002
}
  0
DIMENSION
  5
18AB
330
1F
100
AcDbEntity
  8
AM_5
100
AcDbDimension
  2
*D5
 10
-0.000000000000818
 20
-17.00000099999989
 30
0.0
 11
-30.00000000000045
 21
-15.45000099999989
 31
0.0
 70
    32
  1
<>
  3
AM_JIS
100
AcDbAlignedDimension
 13
-60.00000000000009
 23
-3.499999999999936
 33
0.0
 14
-0.0000000000008171
 24
-3.50000000000001
 34
0.0
 50
0.0000000000001132
100
AcDbRotatedDimension
1001
GENIUS_GENDTOL_13
1000

1000
h7
1000

1040
0.0
  0
DIMENSION
  5
193F
330
1F
100
AcDbEntity
  8
AM_5
100
AcDbDimension
  2
*D6
 10
-0.0000000000008176
 20
-11.00000099999989
 30
0.0
 11
-9.000000000000651
 21
-9.450000999999891
 31
0.0
 70
    32
  1
<>
  3
AM_JIS
100
AcDbAlignedDimension
 13
-18.00000000000048
 23
-3.500000000000021
 33
0.0
 14
-0.0000000000008171
 24
-3.50000000000001
 34
0.0
 50
0.0000000000001132
100
AcDbRotatedDimension
1001
GENIUS_GENDTOL_13
1000

1000
h7
1000

1040
0.0
  0
DIMENSION
  5
19E5
330
1F
100
AcDbEntity
  8
AM_5
100
AcDbDimension
  2
*D7
 10
9.278885015427372
 20
-3.500000000000009
 30
0.0
 11
7.728885015427371
 21
-0.0000000000000044
 31
0.0
 70
    32
  1
%%c<>
  3
AM_JIS
100
AcDbAlignedDimension
 13
-0.0000000000001386
 23
3.5
 33
0.0
 14
-0.0000000000001153
 24
-3.500000000000007
 34
0.0
 50
90.00000000000003
100
AcDbRotatedDimension
1001
GENIUS_GENDTOL_13
1000

1000
h7
1000

1040
0.0
  0
LINE
  5
23E8
330
1F
100
AcDbEntity
  8
AM_0
100
AcDbLine
 10
-59.50000000000009
 20
-3.999999999999936
 30
0.0
 11
-24.50000000000009
 21
-3.999999999999941
 31
0.0
  0
LINE
  5
23E9
330
1F
100
AcDbEntity
  8
AM_0
100
AcDbLine
 10
-59.50000000000009
 20
4.000000000000063
 30
0.0
 11
-24.50000000000009
 21
4.000000000000071
 31
0.0
  0
LINE
  5
23EC
330
1F
100
AcDbEntity
  8
AM_0
100
AcDbLine
 10
-60.00000000000009
 20
3.500000000000063
 30
0.0
 11
-60.00000000000009
 21
-3.499999999999936
 31
0.0
  0
LINE
  5
23ED
330
1F
100
AcDbEntity
  8
AM_0
100
AcDbLine
 10
-59.50000000000009
 20
4.000000000000063
 30
0.0
 11
-59.50000000000009
 21
-3.999999999999916
 31
0.0
  0
DIMENSION
  5
23EE
330
1F
100
AcDbEntity
  8
AM_5
100
AcDbDimension
  2
*D8
 10
-68.21831628338793
 20
-3.999999999999933
 30
0.0
 11
-69.76831628338793
 21
0.0000000000000557
 31
0.0
 70
    32
  1
%%c<>
  3
AM_JIS
100
AcDbAlignedDimension
 13
-59.50000000000009
 23
4.000000000000063
 33
0.0
 14
-59.50000000000009
 24
-3.999999999999936
 34
0.0
 50
270.0
100
AcDbRotatedDimension
1001
GENIUS_GENDTOL_13
1000

1000
h7
1000

1040
0.0
  0
LINE
  5
2406
330
1F
100
AcDbEntity
  8
AM_0
100
AcDbLine
 10
-59.50000000000009
 20
4.000000000000063
 30
0.0
 11
-60.00000000000009
 21
3.500000000000063
 31
0.0
1001
GENIUS_GENFIL_13
1070
     0
1040
0.5
1040
0.5
1040
20.0
1040
0.0
1002
{
1002
}
1001
GENIUS_GENODEF_13
1002
{
1000
HIER
1070
     0
1002
}
1002
{
1000
MANEDIT
1070
     0
1002
}
1002
{
1000
NOSEL
1070
     0
1002
}
1002
{
1000
BEHIND
1070
     0
1002
}
1002
{
1000
REACTOR
1002
}
1001
GENIUS_GENOBJ-N-CHA_13
1002
{
1000
OWNER
1000
GEN
1002
}
  0
LINE
  5
2409
330
1F
100
AcDbEntity
  8
AM_0
100
AcDbLine
 10
-60.00000000000009
 20
-3.499999999999936
 30
0.0
 11
-59.50000000000009
 21
-3.999999999999936
 31
0.0
1001
GENIUS_GENFIL_13
1070
     0
1040
0.5
1040
0.5
1040
20.0
1040
0.0
1002
{
1002
}
1001
GENIUS_GENODEF_13
1002
{
1000
HIER
1070
     0
1002
}
1002
{
1000
MANEDIT
1070
     0
1002
}
1002
{
1000
NOSEL
1070
     0
1002
}
1002
{
1000
BEHIND
1070
     0
1002
}
1002
{
1000
REACTOR
1002
}
1001
GENIUS_GENOBJ-N-CHA_13
1002
{
1000
OWNER
1000
GEN
1002
}
  0
LINE
  5
241B
330
1F
100
AcDbEntity
  8
AM_0
100
AcDbLine
 10
-24.50000000000009
 20
4.00000000000007
 30
0.0
 11
-24.50000000000009
 21
-3.999999999999941
 31
0.0
  0
LINE
  5
24A0
330
1F
100
AcDbEntity
  8
AM_0
100
AcDbLine
 10
-24.50000000000009
 20
4.00000000000007
 30
0.0
 11
-23.12626129027277
 21
3.500000000000066
 31
0.0
  0
LINE
  5
24A1
330
1F
100
AcDbEntity
  8
AM_0
100
AcDbLine
 10
-24.50000000000009
 20
-3.999999999999941
 30
0.0
 11
-23.12626129027277
 21
-3.499999999999937
 31
0.0
  0
LINE
  5
24C1
330
1F
100
AcDbEntity
  8
AM_0
100
AcDbLine
 10
-18.00000000000009
 20
3.500000000000071
 30
0.0
 11
-23.12626129027277
 21
3.500000000000067
 31
0.0
  0
LINE
  5
24C2
330
1F
100
AcDbEntity
  8
AM_0
100
AcDbLine
 10
-19.07513979345626
 20
-3.499999999999971
 30
0.0
 11
-23.12626129027277
 21
-3.499999999999992
 31
0.0
  0
LINE
  5
24C3
330
1F
100
AcDbEntity
  8
AM_0
100
AcDbLine
 10
-23.12626129027277
 20
3.500000000000067
 30
0.0
 11
-23.12626129027277
 21
-3.499999999999936
 31
0.0
  0
POLYLINE
  5
2837
330
1F
100
AcDbEntity
  8
AM_0
100
AcDb2dPolyline
 66
     1
 10
0.0
 20
0.0
 30
0.0
 70
     2
  0
VERTEX
  5
2838
330
2837
100
AcDbEntity
  8
AM_0
100
AcDbVertex
100
AcDb2dVertex
 10
-20.88259812781962
 20
2.491173378583155
 30
0.0
 42
-0.0100635788804193
  0
VERTEX
  5
2839
330
2837
100
AcDbEntity
  8
AM_0
100
AcDbVertex
100
AcDb2dVertex
 10
-21.20567110425972
 20
2.660335515057425
 30
0.0
 42
-0.0111716247241469
 70
     1
  0
VERTEX
  5
283A
330
2837
100
AcDbEntity
  8
AM_0
100
AcDbVertex
100
AcDb2dVertex
 10
-21.48997508671866
 20
2.824941907188815
 30
0.0
 42
-0.0056817162269327
  0
VERTEX
  5
283B
330
2837
100
AcDbEntity
  8
AM_0
100
AcDbVertex
100
AcDb2dVertex
 10
-21.86572853223526
 20
3.059749519464396
 30
0.0
 42
-0.1012800428637157
 70
     1
  0
VERTEX
  5
283C
330
2837
100
AcDbEntity
  8
AM_0
100
AcDbVertex
100
AcDb2dVertex
 10
-21.88372508671866
 20
3.077261806289762
 30
0.0
 42
-0.5091829191374789
  0
VERTEX
  5
283D
330
2837
100
AcDbEntity
  8
AM_0
100
AcDbVertex
100
AcDb2dVertex
 10
-21.87223202349226
 20
3.109265817383494
 30
0.0
 42
-0.0351954426445148
 70
     1
  0
VERTEX
  5
283E
330
2837
100
AcDbEntity
  8
AM_0
100
AcDbVertex
100
AcDb2dVertex
 10
-21.48997508671866
 20
3.192232907454211
 30
0.0
 42
-0.011586529956417
  0
VERTEX
  5
283F
330
2837
100
AcDbEntity
  8
AM_0
100
AcDbVertex
100
AcDb2dVertex
 10
-21.14840097775853
 20
3.233487766840589
 30
0.0
 42
-0.0030188361960122
 70
     1
  0
VERTEX
  5
2840
330
2837
100
AcDbEntity
  8
AM_0
100
AcDbVertex
100
AcDb2dVertex
 10
-19.94239311628223
 20
3.448575038793833
 30
0.0
 42
-0.0270236747876273
  0
VERTEX
  5
2841
330
2837
100
AcDbEntity
  8
AM_0
100
AcDbVertex
100
AcDb2dVertex
 10
-19.43713271193978
 20
3.485648687693839
 30
0.0
 42
-0.0069037738036377
 70
     1
  0
VERTEX
  5
2842
330
2837
100
AcDbEntity
  8
AM_0
100
AcDbVertex
100
AcDb2dVertex
 10
-18.00000000000041
 20
3.499999999999978
 30
0.0
  0
SEQEND
  5
2843
330
2837
100
AcDbEntity
  8
AM_0
  0
SPLINE
  5
284A
330
1F
100
AcDbEntity
  8
AM_0
100
AcDbSpline
210
0.0
220
0.0
230
1.0
 70
     8
 71
     3
 72
     8
 73
     4
 74
     0
 42
0.0000000001
 43
0.0000000001
 40
0.7142832446738512
 40
0.7142832446738512
 40
0.7142832446738512
 40
0.7142832446738512
 40
9.361146747480315
 40
9.361146747480315
 40
9.361146747480315
 40
9.361146747480315
 10
-6.156441181443586
 20
3.220418452876998
 30
0.0
 10
-4.228571845064347
 20
3.126048407280109
 30
0.0
 10
-2.389216022087328
 20
2.475038917959736
 30
0.0
 10
-0.5822956564544129
 20
1.620050914636664
 30
0.0
  0
SPLINE
  5
284B
330
1F
100
AcDbEntity
  8
AM_0
100
AcDbSpline
210
0.0
220
0.0
230
1.0
 70
     8
 71
     3
 72
     8
 73
     4
 74
     0
 42
0.0000000001
 43
0.0000000001
 40
0.0
 40
0.0
 40
0.0
 40
0.0
 40
1.163954395627521
 40
1.163954395627521
 40
1.163954395627521
 40
1.163954395627521
 10
-0.0000000000001421
 20
2.85229188067877
 30
0.0
 10
-0.3729431972280537
 20
2.389410237305703
 30
0.0
 10
-1.013079073549437
 20
2.190631657847042
 30
0.0
 10
-1.588504244614892
 20
2.105917395769651
 30
0.0
  0
SPLINE
  5
284C
330
1F
100
AcDbEntity
  8
AM_0
100
AcDbSpline
210
0.0
220
0.0
230
1.0
 70
     8
 71
     3
 72
     8
 73
     4
 74
     0
 42
0.0000000001
 43
0.0000000001
 40
0.0
 40
0.0
 40
0.0
 40
0.0
 40
5.635889483499127
 40
5.635889483499127
 40
5.635889483499127
 40
5.635889483499127
 10
-0.0000000000001421
 20
3.5
 30
0.0
 10
-1.266335661724628
 20
3.5
 30
0.0
 10
-2.487292385919293
 20
3.235255820285395
 30
0.0
 10
-3.680520327014868
 20
2.808739806859868
 30
0.0
  0
SPLINE
  5
284D
330
1F
100
AcDbEntity
  8
AM_0
100
AcDbSpline
210
0.0
220
0.0
230
1.0
 70
     8
 71
     3
 72
     8
 73
     4
 74
     0
 42
0.0000000001
 43
0.0000000001
 40
4.542668862435135
 40
4.542668862435135
 40
4.542668862435135
 40
4.542668862435135
 40
14.36247867694493
 40
14.36247867694493
 40
14.36247867694493
 40
14.36247867694493
 10
-0.4617407407399412
 20
-2.798331658819641
 30
0.0
 10
-2.574598852991652
 20
-2.209903980601005
 30
0.0
 10
-4.605322322907927
 20
-1.104951990300484
 30
0.0
 10
-6.636045792824205
 20
0.0000000000000355
 30
0.0
  0
SPLINE
  5
284E
330
1F
100
AcDbEntity
  8
AM_0
100
AcDbSpline
210
0.0
220
0.0
230
1.0
 70
     8
 71
     3
 72
     8
 73
     4
 74
     0
 42
0.0000000001
 43
0.0000000001
 40
0.3581103616548037
 40
0.3581103616548037
 40
0.3581103616548037
 40
0.3581103616548037
 40
12.40023413887867
 40
12.40023413887867
 40
12.40023413887867
 40
12.40023413887867
 10
-7.749970241024747
 20
3.392091795996869
 30
0.0
 10
-5.055762353923139
 20
3.322734755943983
 30
0.0
 10
-2.553365210456824
 20
2.101890789939496
 30
0.0
 10
-0.0787404748743548
 20
0.7143222496262709
 30
0.0
  0
SPLINE
  5
284F
330
1F
100
AcDbEntity
  8
AM_0
100
AcDbSpline
210
0.0
220
0.0
230
1.0
 70
     8
 71
     3
 72
     8
 73
     4
 74
     0
 42
0.0000000001
 43
0.0000000001
 40
0.0
 40
0.0
 40
0.0
 40
0.0
 40
6.520498447204785
 40
6.520498447204785
 40
6.520498447204785
 40
6.520498447204785
 10
-9.167407407407544
 20
3.500000000000078
 30
0.0
 10
-5.911630404962352
 20
3.500000000000078
 30
0.0
 10
-2.955815202481247
 20
1.750000000000078
 30
0.0
 10
-0.0000000000001315
 20
0.0000000000000782
 30
0.0
  0
SPLINE
  5
2850
330
1F
100
AcDbEntity
  8
AM_0
100
AcDbSpline
210
0.0
220
0.0
230
1.0
 70
     8
 71
     3
 72
     8
 73
     4
 74
     0
 42
0.0000000001
 43
0.0000000001
 40
0.0
 40
0.0
 40
0.0
 40
0.0
 40
6.520498447204779
 40
6.520498447204779
 40
6.520498447204779
 40
6.520498447204779
 10
-0.0000000000001315
 20
-3.500000000000007
 30
0.0
 10
-3.255777002445324
 20
-3.500000000000007
 30
0.0
 10
-6.211592204926429
 20
-1.750000000000007
 30
0.0
 10
-9.16740740740753
 20
-0.0000000000000071
 30
0.0
  0
SPLINE
  5
2851
330
1F
100
AcDbEntity
  8
AM_0
100
AcDbSpline
210
0.0
220
0.0
230
1.0
 70
     8
 71
     3
 72
     8
 73
     4
 74
     0
 42
0.0000000001
 43
0.0000000001
 40
1.870660592686466
 40
1.870660592686466
 40
1.870660592686466
 40
1.870660592686466
 40
14.43901837670146
 40
14.43901837670146
 40
14.43901837670146
 40
14.43901837670146
 10
-0.0707777777779022
 20
-3.313408810335239
 30
0.0
 10
-2.835131687421036
 20
-2.955330428471036
 30
0.0
 10
-5.412988661630922
 20
-1.4776652142355
 30
0.0
 10
-7.99084563584082
 20
0.0000000000000355
 30
0.0
  0
SPLINE
  5
2852
330
1F
100
AcDbEntity
  8
AM_0
100
AcDbSpline
210
0.0
220
0.0
230
1.0
 70
     8
 71
     3
 72
     8
 73
     4
 74
     0
 42
0.0000000001
 43
0.0000000001
 40
0.0
 40
0.0
 40
0.0
 40
0.0
 40
2.130230809022907
 40
2.130230809022907
 40
2.130230809022907
 40
2.130230809022907
 10
-9.167407407407665
 20
-3.500000000000007
 30
0.0
 10
-8.688762954022273
 20
-3.500000000000007
 30
0.0
 10
-8.216601600477829
 20
-3.462177101474125
 30
0.0
 10
-7.74997024102501
 20
-3.392091795996797
 30
0.0
  0
SPLINE
  5
2853
330
1F
100
AcDbEntity
  8
AM_0
100
AcDbSpline
210
0.0
220
0.0
230
1.0
 70
     8
 71
     3
 72
     8
 73
     4
 74
     0
 42
0.0000000001
 43
0.0000000001
 40
0.0
 40
0.0
 40
0.0
 40
0.0
 40
5.635889483499305
 40
5.635889483499305
 40
5.635889483499305
 40
5.635889483499305
 10
-9.167407407407679
 20
3.500000000000078
 30
0.0
 10
-10.43374306913221
 20
3.500000000000071
 30
0.0
 10
-11.65469979332691
 20
3.235255820285473
 30
0.0
 10
-12.8479277344225
 20
2.808739806859904
 30
0.0
  0
SPLINE
  5
2854
330
1F
100
AcDbEntity
  8
AM_0
100
AcDbSpline
210
0.0
220
0.0
230
1.0
 70
     8
 71
     3
 72
     8
 73
     4
 74
     0
 42
0.0000000001
 43
0.0000000001
 40
0.3581103616548037
 40
0.3581103616548037
 40
0.3581103616548037
 40
0.3581103616548037
 40
14.43901837670146
 40
14.43901837670146
 40
14.43901837670146
 40
14.43901837670146
 10
-16.91737764843214
 20
3.392091795996854
 30
0.0
 10
-13.76702857932162
 20
3.310992305637249
 30
0.0
 10
-10.87893710758121
 20
1.655496152818642
 30
0.0
 10
-7.99084563584082
 20
0.0000000000000355
 30
0.0
  0
SPLINE
  5
2855
330
1F
100
AcDbEntity
  8
AM_0
100
AcDbSpline
210
0.0
220
0.0
230
1.0
 70
     8
 71
     3
 72
     8
 73
     4
 74
     0
 42
0.0000000001
 43
0.0000000001
 40
0.0
 40
0.0
 40
0.0
 40
0.0
 40
4.451443990518192
 40
4.451443990518192
 40
4.451443990518192
 40
4.451443990518192
 10
-6.636045792824333
 20
-3.232211152661889
 30
0.0
 10
-5.635844797423935
 20
-3.232211152661889
 30
0.0
 10
-4.660329667834062
 20
-3.076967889973211
 30
0.0
 10
-3.7018493744877
 20
-2.814596784246433
 30
0.0
  0
SPLINE
  5
2856
330
1F
100
AcDbEntity
  8
AM_0
100
AcDbSpline
210
0.0
220
0.0
230
1.0
 70
     8
 71
     3
 72
     8
 73
     4
 74
     0
 42
0.0000000001
 43
0.0000000001
 40
0.0
 40
0.0
 40
0.0
 40
0.0
 40
6.463115404625226
 40
6.463115404625226
 40
6.463115404625226
 40
6.463115404625226
 10
-6.636045792824333
 20
-3.232211152661804
 30
0.0
 10
-9.86317063134777
 20
-3.232211152661818
 30
0.0
 10
-12.83331191578975
 20
-1.616105576330859
 30
0.0
 10
-15.59500722038043
 20
-0.0000000000000071
 30
0.0
  0
SPLINE
  5
2857
330
1F
100
AcDbEntity
  8
AM_0
100
AcDbSpline
210
0.0
220
0.0
230
1.0
 70
     8
 71
     3
 72
     8
 73
     4
 74
     0
 42
0.0000000001
 43
0.0000000001
 40
0.7142832446738512
 40
0.7142832446738512
 40
0.7142832446738512
 40
0.7142832446738512
 40
14.36247867694493
 40
14.36247867694493
 40
14.36247867694493
 40
14.36247867694493
 10
-15.32384858885099
 20
3.220418452876998
 30
0.0
 10
-12.28090273198085
 20
3.071464924832866
 30
0.0
 10
-9.458474262402518
 20
1.535732462416447
 30
0.0
 10
-6.636045792824205
 20
0.0000000000000355
 30
0.0
  0
SPLINE
  5
2858
330
1F
100
AcDbEntity
  8
AM_0
100
AcDbSpline
210
0.0
220
0.0
230
1.0
 70
     8
 71
     3
 72
     8
 73
     4
 74
     0
 42
0.0000000001
 43
0.0000000001
 40
0.0
 40
0.0
 40
0.0
 40
0.0
 40
2.764560748519282
 40
2.764560748519282
 40
2.764560748519282
 40
2.764560748519282
 10
-7.990845635840933
 20
-3.395198569234779
 30
0.0
 10
-7.369672726914387
 20
-3.395198569234779
 30
0.0
 10
-6.758866172052854
 20
-3.332966803957042
 30
0.0
 10
-6.156441181514711
 20
-3.220418452890179
 30
0.0
  0
SPLINE
  5
2859
330
1F
100
AcDbEntity
  8
AM_0
100
AcDbSpline
210
0.0
220
0.0
230
1.0
 70
     8
 71
     3
 72
     8
 73
     4
 74
     0
 42
0.0000000001
 43
0.0000000001
 40
0.0
 40
0.0
 40
0.0
 40
0.0
 40
6.189049472460146
 40
6.189049472460146
 40
6.189049472460146
 40
6.189049472460146
 10
-7.990845635840933
 20
-3.395198569234693
 30
0.0
 10
-11.08112548217219
 20
-3.395198569234706
 30
0.0
 10
-13.91484078140721
 20
-1.854978683503183
 30
0.0
 10
-18.38178088060371
 20
0.6741455916546393
 30
0.0
  0
SPLINE
  5
285A
330
1F
100
AcDbEntity
  8
AM_0
100
AcDbSpline
210
0.0
220
0.0
230
1.0
 70
     8
 71
     3
 72
     8
 73
     4
 74
     0
 42
0.0000000001
 43
0.0000000001
 40
0.0
 40
0.0
 40
0.0
 40
0.0
 40
6.520498447204779
 40
6.520498447204779
 40
6.520498447204779
 40
6.520498447204779
 10
-18.00000000000009
 20
3.500000000000071
 30
0.0
 10
-15.07903781236975
 20
3.500000000000071
 30
0.0
 10
-12.12322260988865
 20
1.750000000000071
 30
0.0
 10
-9.16740740740753
 20
0.0000000000000711
 30
0.0
  0
SPLINE
  5
285B
330
1F
100
AcDbEntity
  8
AM_0
100
AcDbSpline
210
0.0
220
0.0
230
1.0
 70
     8
 71
     3
 72
     8
 73
     4
 74
     0
 42
0.0000000001
 43
0.0000000001
 40
0.0
 40
0.0
 40
0.0
 40
0.0
 40
6.076845125434727
 40
6.076845125434727
 40
6.076845125434727
 40
6.076845125434727
 10
-9.167407407407665
 20
-3.499999999999928
 30
0.0
 10
-12.20166203794023
 20
-3.499999999999928
 30
0.0
 10
-14.97538489520507
 20
-1.980037780566958
 30
0.0
 10
-17.99999999999736
 20
-0.1757018409370978
 30
0.0
  0
ELLIPSE
  5
285C
330
1F
100
AcDbEntity
  8
AM_0
100
AcDbEllipse
 10
1.338490811588567
 20
-1.780716115302531
 30
0.0
 11
0.0000000000000006
 21
2.128488680861236
 31
0.0
210
0.0
220
0.0
230
1.0
 40
0.9629629629629626
 41
1.211124581303828
 42
2.06927853829032
  0
SPLINE
  5
285D
330
1F
100
AcDbEntity
  8
AM_0
100
AcDbSpline
210
0.0
220
0.0
230
1.0
 70
     8
 71
     3
 72
     8
 73
     4
 74
     0
 42
0.0000000001
 43
0.0000000001
 40
5.522276060027962
 40
5.522276060027962
 40
5.522276060027962
 40
5.522276060027962
 40
13.69616833517527
 40
13.69616833517527
 40
13.69616833517527
 40
13.69616833517527
 10
-20.88259812781962
 20
2.491173378583155
 30
0.0
 10
-19.19439892540449
 20
1.703878132736861
 30
0.0
 10
-17.32879408292894
 20
0.9938247337325876
 30
0.0
 10
-15.59500722038043
 20
-0.0000000000000071
 30
0.0
  0
LINE
  5
285E
330
1F
100
AcDbEntity
  8
AM_0
100
AcDbLine
 10
-0.0707777777779022
 20
0.7000000000000739
 30
0.0
 11
-0.7195903851473347
 21
1.866998569807272
 31
0.0
  0
LINE
  5
285F
330
1F
100
AcDbEntity
  8
AM_11
100
AcDbLine
 10
-18.00000000000048
 20
-3.500000000000021
 30
0.0
 11
-18.00000000000041
 21
3.50000000000013
 31
0.0
  0
LINE
  5
2860
330
1F
100
AcDbEntity
  8
AM_0
100
AcDbLine
 10
-0.0000000000001279
 20
-0.0000000000000142
 30
0.0
 11
-0.0000000000001386
 21
3.5
 31
0.0
  0
LINE
  5
2861
330
1F
100
AcDbEntity
  8
AM_11
100
AcDbLine
 10
-18.00000000000048
 20
-3.500000000000021
 30
0.0
 11
-0.0000000000001279
 21
-3.50000000000001
 31
0.0
  0
LINE
  5
2864
330
1F
100
AcDbEntity
  8
AM_0
100
AcDbLine
 10
-17.99999999999733
 20
1.207826011625652
 30
0.0
 11
-18.38178088060373
 21
0.6741455916546287
 31
0.0
  0
LINE
  5
2865
330
1F
100
AcDbEntity
  8
AM_0
100
AcDbLine
 10
-18.38178088060373
 20
0.6741455916546287
 30
0.0
 11
-17.99999999999733
 21
-0.1757018409371547
 31
0.0
  0
LINE
  5
2866
330
1F
100
AcDbEntity
  8
AM_0
100
AcDbLine
 10
-1.588504244614878
 20
-0.5600000000000094
 30
0.0
 11
-0.5800124199845485
 21
-1.031558335616594
 31
0.0
  0
LINE
  5
2867
330
1F
100
AcDbEntity
  8
AM_0
100
AcDbLine
 10
-1.588504244614878
 20
-0.5600000000000094
 30
0.0
 11
-0.0778353696242178
 21
-0.5600000000000094
 31
0.0
  0
LINE
  5
2868
330
1F
100
AcDbEntity
  8
AM_0
100
AcDbLine
 10
-0.0000000000001279
 20
-0.0000000000000142
 30
0.0
 11
-1.588504244614878
 21
-0.0000000000000142
 31
0.0
  0
LINE
  5
2869
330
1F
100
AcDbEntity
  8
AM_0
100
AcDbLine
 10
-1.588504244614878
 20
-0.0000000000000142
 30
0.0
 11
-1.588504244614878
 21
-0.5600000000000094
 31
0.0
  0
LINE
  5
286A
330
1F
100
AcDbEntity
  8
AM_0
100
AcDbLine
 10
-0.0000000000001279
 20
-3.50000000000001
 30
0.0
 11
-0.0000000000001279
 21
-0.7000000000000029
 31
0.0
  0
LINE
  5
286B
330
1F
100
AcDbEntity
  8
AM_0
100
AcDbLine
 10
-0.0707777777779022
 20
-3.313408810335285
 30
0.0
 11
-0.0707777777779022
 21
-0.9288284981942354
 31
0.0
  0
LINE
  5
286C
330
1F
100
AcDbEntity
  8
AM_0
100
AcDbLine
 10
-0.0707777777779022
 20
-3.313408810335239
 30
0.0
 11
-0.4617407407408792
 21
-2.798331658823343
 31
0.0
  0
LINE
  5
286D
330
1F
100
AcDbEntity
  8
AM_0
100
AcDbLine
 10
-0.0000000000001279
 20
-3.50000000000001
 30
0.0
 11
-0.0707777777779022
 21
-3.313408810335285
 31
0.0
  0
LINE
  5
286E
330
1F
100
AcDbEntity
  8
AM_0
100
AcDbLine
 10
-0.0000000000001279
 20
-0.0000000000000142
 30
0.0
 11
-0.0707777777779022
 21
0.7000000000000739
 31
0.0
  0
LINE
  5
286F
330
1F
100
AcDbEntity
  8
AM_0
100
AcDbLine
 10
-0.0000000000001279
 20
-0.0000000000000142
 30
0.0
 11
-0.0598864994971713
 21
-0.59228406096004
 31
0.0
  0
LINE
  5
2870
330
1F
100
AcDbEntity
  8
AM_0
100
AcDbLine
 10
-0.0707777777779022
 20
-0.9288284981942354
 30
0.0
 11
-0.0000000000001279
 21
-0.7000000000000029
 31
0.0
  0
LINE
  5
2871
330
1F
100
AcDbEntity
  8
AM_0
100
AcDbLine
 10
-0.0000000000001279
 20
-0.7000000000000029
 30
0.0
 11
-0.3891768481205631
 21
0.0000000000000355
 31
0.0
  0
LINE
  5
2872
330
1F
100
AcDbEntity
  8
AM_0
100
AcDbLine
 10
-0.5800124199845485
 20
-1.031558335616594
 30
0.0
 11
-0.0707777777779022
 21
-0.9288284981942354
 31
0.0
  0
LINE
  5
2873
330
1F
100
AcDbEntity
  8
AM_11
100
AcDbLine
 10
-0.0000000000006466
 20
3.5
 30
0.0
 11
-18.00000000000041
 21
3.50000000000013
 31
0.0
  0
LINE
  5
2874
330
1F
100
AcDbEntity
  8
AM_0
100
AcDbLine
 10
-0.7195903851473347
 20
1.866998569807272
 30
0.0
 11
-1.588504244614888
 21
2.105917395769651
 31
0.0
  0
POLYLINE
  5
2A83
330
1F
100
AcDbEntity
  8
AM_0
100
AcDb2dPolyline
 66
     1
 10
0.0
 20
0.0
 30
0.0
 70
     2
  0
VERTEX
  5
2A86
330
2A83
100
AcDbEntity
  8
AM_0
100
AcDbVertex
100
AcDb2dVertex
 10
-18.00000000009908
 20
-3.058784312625363
 30
0.0
 42
-0.0264642626031715
  0
VERTEX
  5
2A8E
330
2A83
100
AcDbEntity
  8
AM_0
100
AcDbVertex
100
AcDb2dVertex
 10
-18.68724487714631
 20
-2.749226437490053
 30
0.0
 42
-0.0430225768898295
 70
     1
  0
VERTEX
  5
2A87
330
2A83
100
AcDbEntity
  8
AM_0
100
AcDbVertex
100
AcDb2dVertex
 10
-19.08000000004961
 20
-2.501826024165666
 30
0.0
 42
-0.0266403889877015
  0
VERTEX
  5
2A8F
330
2A83
100
AcDbEntity
  8
AM_0
100
AcDbVertex
100
AcDb2dVertex
 10
-19.9932302995459
 20
-1.730461708348101
 30
0.0
 42
-0.0405798970953311
 70
     1
  0
VERTEX
  5
2A88
330
2A83
100
AcDbEntity
  8
AM_0
100
AcDbVertex
100
AcDb2dVertex
 10
-20.52000000000014
 20
-1.147763020163917
 30
0.0
 42
-0.0574888416133033
  0
VERTEX
  5
2A90
330
2A83
100
AcDbEntity
  8
AM_0
100
AcDbVertex
100
AcDb2dVertex
 10
-20.81853343360881
 20
-0.6486746862690041
 30
0.0
 42
-0.1108569244299674
 70
     1
  0
VERTEX
  5
2A89
330
2A83
100
AcDbEntity
  8
AM_0
100
AcDbVertex
100
AcDb2dVertex
 10
-20.88000000000014
 20
-0.3506583046218665
 30
0.0
 42
-0.1576957029240751
  0
VERTEX
  5
2A91
330
2A83
100
AcDbEntity
  8
AM_0
100
AcDbVertex
100
AcDb2dVertex
 10
-20.79956793932008
 20
-0.1160113752995926
 30
0.0
 42
-0.1036277984354372
 70
     1
  0
VERTEX
  5
2A8A
330
2A83
100
AcDbEntity
  8
AM_0
100
AcDbVertex
100
AcDb2dVertex
 10
-20.52000000000014
 20
0.1298002178681337
 30
0.0
 42
-0.1140006267273625
  0
VERTEX
  5
2A93
330
2A83
100
AcDbEntity
  8
AM_0
100
AcDbVertex
100
AcDb2dVertex
 10
-20.08965683471275
 20
0.2571407659747749
 30
0.0
 42
-0.0501092610720587
 70
     1
  0
VERTEX
  5
2A8B
330
2A83
100
AcDbEntity
  8
AM_0
100
AcDbVertex
100
AcDb2dVertex
 10
-19.08000000000014
 20
0.2172784497081892
 30
0.0
 42
-0.0523935066548299
  0
VERTEX
  5
2A92
330
2A83
100
AcDbEntity
  8
AM_0
100
AcDbVertex
100
AcDb2dVertex
 10
-18.55988406789616
 20
0.0876318423370535
 30
0.0
 42
-0.0453601863369411
 70
     1
  0
VERTEX
  5
2A8C
330
2A83
100
AcDbEntity
  8
AM_0
100
AcDbVertex
100
AcDb2dVertex
 10
-18.00000000000014
 20
-0.1757018409417554
 30
0.0
  0
SEQEND
  5
2A8D
330
2A83
100
AcDbEntity
  8
AM_0
  0
SPLINE
  5
2A97
330
1F
100
AcDbEntity
  8
AM_0
100
AcDbSpline
210
0.0
220
0.0
230
1.0
 70
     8
 71
     3
 72
     8
 73
     4
 74
     0
 42
0.0000000001
 43
0.0000000001
 40
0.0
 40
0.0
 40
0.0
 40
0.0
 40
5.291496149500158
 40
5.291496149500158
 40
5.291496149500158
 40
5.291496149500158
 10
-14.18656828217484
 20
-3.240388563398035
 30
0.0
 10
-15.72127055365246
 20
-3.379968704001868
 30
0.0
 10
-16.8055226701789
 20
-3.313283992782203
 30
0.0
 10
-18.00000000009908
 20
-3.058784312625363
 30
0.0
  0
SPLINE
  5
2A98
330
1F
100
AcDbEntity
  8
AM_0
100
AcDbSpline
210
0.0
220
0.0
230
1.0
 70
     8
 71
     3
 72
     8
 73
     4
 74
     0
 42
0.0000000001
 43
0.0000000001
 40
0.0
 40
0.0
 40
0.0
 40
0.0
 40
4.451443990518192
 40
4.451443990518192
 40
4.451443990518192
 40
4.451443990518192
 10
-14.18656828217484
 20
-3.240388563398035
 30
0.0
 10
-13.52727979869414
 20
-3.125364435462378
 30
0.0
 10
-12.74388932255422
 20
-3.033621267883784
 30
0.0
 10
-12.45346230875499
 20
-2.9386241249095
 30
0.0
  0
SPLINE
  5
2A99
330
1F
100
AcDbEntity
  8
AM_0
100
AcDbSpline
210
0.0
220
0.0
230
1.0
 70
     8
 71
     3
 72
     8
 73
     4
 74
     0
 42
0.0000000001
 43
0.0000000001
 40
0.0
 40
0.0
 40
0.0
 40
0.0
 40
1.412269715655734
 40
1.412269715655734
 40
1.412269715655734
 40
1.412269715655734
 10
-17.09000000000019
 20
-3.499999999999948
 30
0.0
 10
-17.39599177172559
 20
-3.499999999999948
 30
0.0
 10
-17.69923583650038
 20
-3.484563384247641
 30
0.0
 10
-18.00000000000007
 20
-3.455194684843114
 30
0.0
  0
SPLINE
  5
2A9A
330
1F
100
AcDbEntity
  8
AM_0
100
AcDbSpline
210
0.0
220
0.0
230
1.0
 70
     8
 71
     3
 72
     8
 73
     4
 74
     0
 42
0.0000000001
 43
0.0000000001
 40
0.0
 40
0.0
 40
0.0
 40
0.0
 40
2.764560748519282
 40
2.764560748519282
 40
2.764560748519282
 40
2.764560748519282
 10
-15.95545829170369
 20
-3.402684385718023
 30
0.0
 10
-15.35647012952452
 20
-3.402684385718023
 30
0.0
 10
-14.76747809447948
 20
-3.34489774653155
 30
0.0
 10
-14.18656828217484
 20
-3.240388563398035
 30
0.0
  0
SPLINE
  5
2A9B
330
1F
100
AcDbEntity
  8
AM_0
100
AcDbSpline
210
0.0
220
0.0
230
1.0
 70
     8
 71
     3
 72
     8
 73
     4
 74
     0
 42
0.0000000001
 43
0.0000000001
 40
0.0
 40
0.0
 40
0.0
 40
0.0
 40
2.130230809022907
 40
2.130230809022907
 40
2.130230809022907
 40
2.130230809022907
 10
-17.09000000000019
 20
-3.500000000000019
 30
0.0
 10
-16.62844999137855
 20
-3.500000000000019
 30
0.0
 10
-16.17315154331784
 20
-3.464878737083131
 30
0.0
 10
-15.72318558955977
 20
-3.399799524854181
 30
0.0
  0
SPLINE
  5
2A9C
330
1F
100
AcDbEntity
  8
AM_0
100
AcDbSpline
210
0.0
220
0.0
230
1.0
 70
     8
 71
     3
 72
     8
 73
     4
 74
     0
 42
0.0000000001
 43
0.0000000001
 40
0.0
 40
0.0
 40
0.0
 40
0.0
 40
3.20279236890966
 40
3.20279236890966
 40
3.20279236890966
 40
3.20279236890966
 10
-15.95545829170369
 20
-3.402684385717945
 30
0.0
 10
-16.64939663830079
 20
-3.402684385717945
 30
0.0
 10
-17.32991855190402
 20
-3.496848950818817
 30
0.0
 10
-18.00000000002632
 20
-3.35011236761915
 30
0.0
  0
LINE
  5
2A9D
330
1F
100
AcDbEntity
  8
AM_0
100
AcDbLine
 10
-18.00000000009908
 20
-3.058784312625363
 30
0.0
 11
-18.00000000000007
 21
-3.455194684843114
 31
0.0
  0
ARC
  5
2A9E
330
1F
100
AcDbEntity
  8
AM_0
100
AcDbCircle
 10
-10.21673525289659
 20
-203.1427578046046
 30
0.0
 40
199.8391905378728
100
AcDbArc
 50
92.2320999259376
 51
92.54062056902689
  0
VIEWPORT
  5
110
330
101
100
AcDbEntity
 67
     1
  8
0
100
AcDbViewport
 10
420.5
 20
297.0
 30
0.0
 40
948.9782706766916
 41
628.452
 68
     1
 69
     1
1001
ACAD
1000
MVIEW
1002
{
1070
    16
1010
0.0
1020
0.0
1030
0.0
1010
0.0
1020
0.0
1030
1.0
1040
0.0
1040
628.452
1040
420.5
1040
297.0
1040
50.0
1040
0.0
1040
0.0
1070
     0
1070
   100
1070
     1
1070
     1
1070
     0
1070
     0
1070
     0
1070
     0
1040
0.0
1040
0.0
1040
0.0
1040
10.0
1040
10.0
1040
10.0
1040
10.0
1070
     0
1002
{
1002
}
1002
}
  0
ENDSEC
  0
SECTION
  2
OBJECTS
  0
DICTIONARY
  5
C
330
0
100
AcDbDictionary
  3
ACAD_GROUP
350
D
  3
ACAD_LAYOUT
350
1A
  3
ACAD_MLINESTYLE
350
17
  3
ACAD_PLOTSETTINGS
350
19
  3
ACAD_PLOTSTYLENAME
350
E
  3
ACDBVARIABLEDICTIONARY
350
34
  3
ACMDICTIONARY
350
43
  3
AMG
350
2B
  3
AMGSNAPSETTINGS
350
6E
  3
DWGPROPS
350
2D67
  3
ACDBHEADERROUNDTRIPXREC
350
2D73
  0
DICTIONARY
  5
74
330
1F
100
AcDbDictionary
280
     1
  3
ACAD_INDEX
360
2D69
  3
ACAD_LAYOUTSELFREF
360
2D96
  0
DICTIONARY
  5
2D9B
330
101
100
AcDbDictionary
280
     1
  3
ACAD_LAYOUTSELFREF
360
2D9C
  0
DICTIONARY
  5
D
102
{ACAD_REACTORS
330
C
102
}
330
C
100
AcDbDictionary
  0
DICTIONARY
  5
1A
102
{ACAD_REACTORS
330
C
102
}
330
C
100
AcDbDictionary
  0
DICTIONARY
  5
17
102
{ACAD_REACTORS
330
C
102
}
330
C
100
AcDbDictionary
  3
STANDARD
350
18
  0
DICTIONARY
  5
19
102
{ACAD_REACTORS
330
C
102
}
330
C
100
AcDbDictionary
  0
ACDBDICTIONARYWDFLT
  5
E
102
{ACAD_REACTORS
330
C
102
}
330
C
100
AcDbDictionary
281
     1
  3
Normal
350
F
100
AcDbDictionaryWithDefault
340
F
  0
DICTIONARY
  5
34
102
{ACAD_REACTORS
330
C
102
}
330
C
100
AcDbDictionary
  3
INDEXCTL
350
35
  3
SORTENTS
350
B5E
  0
DICTIONARY
  5
43
102
{ACAD_REACTORS
330
C
102
}
330
C
100
AcDbDictionary
  3
ACMSTDDICTIONARY
350
260
  0
DICTIONARY
  5
2B
102
{ACAD_REACTORS
330
C
102
}
330
C
100
AcDbDictionary
  3
ACMGSETTINGS
350
2C
  0
DICTIONARY
  5
6E
102
{ACAD_REACTORS
330
C
102
}
330
C
100
AcDbDictionary
  0
XRECORD
  5
2D67
102
{ACAD_REACTORS
330
C
102
}
330
C
100
AcDbXrecord
  1
DWGPROPS COOKIE
  2

  3

  4

  6

  7

  8

  9

300
AmdtFileType=82
301
=
302
=
303
=
304
=
305
=
306
=
307
=
308
=
309
=
 40
0.0752282175925926
 41
2452836.771637361
 42
2452901.555318819
  1

 90
        1
  0
DICTIONARY
  5
2D73
102
{ACAD_REACTORS
330
C
102
}
330
C
100
AcDbDictionary
  3
TSTACKALIGN
350
2D74
  3
TSTACKSIZE
350
2D75
  3
HYPERLINKBASE
350
2D76
  3
STYLESHEET
350
2D77
  3
LAYOUTDICT
350
2D78
  3
PLOTSETDICT
350
2D79
  3
PLOTSTYLNAMDICT
350
2D7A
  3
LWETCUNION
350
2D7B
  3
INSUNITS
350
2D7C
  3
CEPSNTYPE
350
2D7D
  3
FINGERPRINTGUID
350
2D7E
  3
VERSIONGUID
350
2D7F
  3
PSVPSCALE
350
2D80
  3
DIMSTYLEDATA
350
2D81
  3
PUCSORTHOREF
350
2D82
  3
PUCSORTHOVIEW
350
2D83
  3
PUCSBASE
350
2D84
  3
PUCSORGTOP
350
2D85
  3
PUCSORGBOTTOM
350
2D86
  3
PUCSORGLEFT
350
2D87
  3
PUCSORGRIGHT
350
2D88
  3
PUCSORGFRONT
350
2D89
  3
PUCSORGBACK
350
2D8A
  3
UCSORTHOREF
350
2D8B
  3
UCSORTHOVIEW
350
2D8C
  3
UCSBASE
350
2D8D
  3
UCSORGTOP
350
2D8E
  3
UCSORGBOTTOM
350
2D8F
  3
UCSORGLEFT
350
2D90
  3
UCSORGRIGHT
350
2D91
  3
UCSORGFRONT
350
2D92
  3
UCSORGBACK
350
2D93
  0
DICTIONARY
  5
2D69
102
{ACAD_REACTORS
330
74
102
}
330
74
100
AcDbDictionary
  3
*A1
350
2D6A
  0
XRECORD
  5
2D96
102
{ACAD_REACTORS
330
74
102
}
330
74
100
AcDbXrecord
340
1F
  0
XRECORD
  5
2D9C
102
{ACAD_REACTORS
330
2D9B
102
}
330
2D9B
100
AcDbXrecord
340
101
  0
MLINESTYLE
  5
18
102
{ACAD_REACTORS
330
17
102
}
330
17
100
AcDbMlineStyle
  2
STANDARD
 70
     0
  3

 62
   256
 51
90.0
 52
90.0
 71
     2
 49
0.5
 62
   256
  6
BYLAYER
 49
-0.5
 62
   256
  6
BYLAYER
  0
ACDBPLACEHOLDER
  5
F
102
{ACAD_REACTORS
330
E
102
}
330
E
100
AcDbPlaceHolder
280
     0
  0
DICTIONARYVAR
  5
35
102
{ACAD_REACTORS
330
34
102
}
330
34
100
DictionaryVariables
280
     0
  1
1
  0
DICTIONARYVAR
  5
B5E
102
{ACAD_REACTORS
330
34
102
}
330
34
100
DictionaryVariables
280
     0
  1
96
  0
DICTIONARY
  5
260
102
{ACAD_REACTORS
330
43
102
}
330
43
100
AcDbDictionary
  0
DICTIONARY
  5
2C
102
{ACAD_REACTORS
330
2B
102
}
330
2B
100
AcDbDictionary
  3
DWGSETTINGS
350
2D
  0
XRECORD
  5
2D74
102
{ACAD_REACTORS
330
2D73
102
}
330
2D73
100
AcDbXrecord
 90
        1
  0
XRECORD
  5
2D75
102
{ACAD_REACTORS
330
2D73
102
}
330
2D73
100
AcDbXrecord
 90
       70
  0
XRECORD
  5
2D76
102
{ACAD_REACTORS
330
2D73
102
}
330
2D73
100
AcDbXrecord
  1

  0
XRECORD
  5
2D77
102
{ACAD_REACTORS
330
2D73
102
}
330
2D73
100
AcDbXrecord
  1
ASAMI.ctb
  0
XRECORD
  5
2D78
102
{ACAD_REACTORS
330
2D73
102
}
330
2D73
100
AcDbXrecord
340
1A
  0
XRECORD
  5
2D79
102
{ACAD_REACTORS
330
2D73
102
}
330
2D73
100
AcDbXrecord
340
19
  0
XRECORD
  5
2D7A
102
{ACAD_REACTORS
330
2D73
102
}
330
2D73
100
AcDbXrecord
340
E
  0
XRECORD
  5
2D7B
102
{ACAD_REACTORS
330
2D73
102
}
330
2D73
100
AcDbXrecord
 90
    10781
  0
XRECORD
  5
2D7C
102
{ACAD_REACTORS
330
2D73
102
}
330
2D73
100
AcDbXrecord
 90
        4
  0
XRECORD
  5
2D7D
102
{ACAD_REACTORS
330
2D73
102
}
330
2D73
100
AcDbXrecord
 90
        0
  0
XRECORD
  5
2D7E
102
{ACAD_REACTORS
330
2D73
102
}
330
2D73
100
AcDbXrecord
  1
{AFB28963-8C59-40AE-9337-C84526B81ACE}
  0
XRECORD
  5
2D7F
102
{ACAD_REACTORS
330
2D73
102
}
330
2D73
100
AcDbXrecord
  1
{97E0583C-D7FC-448D-BB2E-989841145156}
  0
XRECORD
  5
2D80
102
{ACAD_REACTORS
330
2D73
102
}
330
2D73
100
AcDbXrecord
 40
0.0
  0
XRECORD
  5
2D81
102
{ACAD_REACTORS
330
2D73
102
}
330
2D73
100
AcDbXrecord
1000
DSTYLE
1002
{
1070
    79
 70
     2
1070
   341
340
59
1070
   342
340
59
1070
   371
 70
    -1
1070
   372
 70
    -1
1002
}
  0
XRECORD
  5
2D82
102
{ACAD_REACTORS
330
2D73
102
}
330
2D73
100
AcDbXrecord
340
0
  0
XRECORD
  5
2D83
102
{ACAD_REACTORS
330
2D73
102
}
330
2D73
100
AcDbXrecord
 70
     0
  0
XRECORD
  5
2D84
102
{ACAD_REACTORS
330
2D73
102
}
330
2D73
100
AcDbXrecord
340
0
  0
XRECORD
  5
2D85
102
{ACAD_REACTORS
330
2D73
102
}
330
2D73
100
AcDbXrecord
 10
0.0
 20
0.0
 30
0.0
  0
XRECORD
  5
2D86
102
{ACAD_REACTORS
330
2D73
102
}
330
2D73
100
AcDbXrecord
 10
0.0
 20
0.0
 30
0.0
  0
XRECORD
  5
2D87
102
{ACAD_REACTORS
330
2D73
102
}
330
2D73
100
AcDbXrecord
 10
0.0
 20
0.0
 30
0.0
  0
XRECORD
  5
2D88
102
{ACAD_REACTORS
330
2D73
102
}
330
2D73
100
AcDbXrecord
 10
0.0
 20
0.0
 30
0.0
  0
XRECORD
  5
2D89
102
{ACAD_REACTORS
330
2D73
102
}
330
2D73
100
AcDbXrecord
 10
0.0
 20
0.0
 30
0.0
  0
XRECORD
  5
2D8A
102
{ACAD_REACTORS
330
2D73
102
}
330
2D73
100
AcDbXrecord
 10
0.0
 20
0.0
 30
0.0
  0
XRECORD
  5
2D8B
102
{ACAD_REACTORS
330
2D73
102
}
330
2D73
100
AcDbXrecord
340
0
  0
XRECORD
  5
2D8C
102
{ACAD_REACTORS
330
2D73
102
}
330
2D73
100
AcDbXrecord
 70
     0
  0
XRECORD
  5
2D8D
102
{ACAD_REACTORS
330
2D73
102
}
330
2D73
100
AcDbXrecord
340
0
  0
XRECORD
  5
2D8E
102
{ACAD_REACTORS
330
2D73
102
}
330
2D73
100
AcDbXrecord
 10
0.0
 20
0.0
 30
0.0
  0
XRECORD
  5
2D8F
102
{ACAD_REACTORS
330
2D73
102
}
330
2D73
100
AcDbXrecord
 10
0.0
 20
0.0
 30
0.0
  0
XRECORD
  5
2D90
102
{ACAD_REACTORS
330
2D73
102
}
330
2D73
100
AcDbXrecord
 10
0.0
 20
0.0
 30
0.0
  0
XRECORD
  5
2D91
102
{ACAD_REACTORS
330
2D73
102
}
330
2D73
100
AcDbXrecord
 10
0.0
 20
0.0
 30
0.0
  0
XRECORD
  5
2D92
102
{ACAD_REACTORS
330
2D73
102
}
330
2D73
100
AcDbXrecord
 10
0.0
 20
0.0
 30
0.0
  0
XRECORD
  5
2D93
102
{ACAD_REACTORS
330
2D73
102
}
330
2D73
100
AcDbXrecord
 10
0.0
 20
0.0
 30
0.0
  0
LAYER_INDEX
  5
2D6A
102
{ACAD_REACTORS
330
2D69
102
}
330
2D69
100
AcDbIndex
 40
2453152.455488865
100
AcDbLayerIndex
  8
0
360
2D6B
 90
        0
  8
AM_0
360
2D6C
 90
       60
  8
AM_11
360
2D6D
 90
        3
  8
AM_7
360
2D6E
 90
        1
  8
AM_5
360
2D6F
 90
        4
  8
Defpoints
360
2D70
 90
        0
  8
AM_6
360
2D71
 90
        1
  0
XRECORD
  5
2D
102
{ACAD_REACTORS
330
2C
102
}
330
2C
100
AcDbXrecord
  1
VERSION
140
15.0
  1
PRODUCT
  2
AutoCAD Mechanical 2000
  0
IDBUFFER
  5
2D6B
330
0
100
AcDbIdBuffer
  0
IDBUFFER
  5
2D6C
330
0
100
AcDbIdBuffer
330
2871
330
2872
330
2874
330
2A83
330
2A97
330
2A98
330
2A99
330
2A9A
330
2A9B
330
2A9C
330
2A9D
330
2A9E
330
23E8
330
23E9
330
23EC
330
23ED
330
2406
330
2409
330
241B
330
24A0
330
24A1
330
24C1
330
24C2
330
24C3
330
2837
330
284A
330
284B
330
284C
330
284D
330
284E
330
284F
330
2850
330
2851
330
2852
330
2853
330
2854
330
2855
330
2856
330
2857
330
2858
330
2859
330
285A
330
285B
330
285C
330
285D
330
285E
330
2860
330
2864
330
2865
330
2866
330
2867
330
2868
330
2869
330
286A
330
286B
330
286C
330
286D
330
286E
330
286F
330
2870
  0
IDBUFFER
  5
2D6D
330
0
100
AcDbIdBuffer
330
285F
330
2861
330
2873
  0
IDBUFFER
  5
2D6E
330
0
100
AcDbIdBuffer
330
178E
  0
IDBUFFER
  5
2D6F
330
0
100
AcDbIdBuffer
330
18AB
330
193F
330
19E5
330
23EE
  0
IDBUFFER
  5
2D70
330
0
100
AcDbIdBuffer
  0
IDBUFFER
  5
2D71
330
0
100
AcDbIdBuffer
330
E5A
  0
ENDSEC
  0
EOF
