  0
SECTION
  2
HEADER
  9
$ACADVER
  1
AC1014
  9
$ACADMAINTVER
 70
     9
  9
$DWGCODEPAGE
  3
ANSI_932
  9
$INSBASE
 10
0.0
 20
0.0
 30
0.0
  9
$EXTMIN
 10
-77.13823125971979
 20
-28.25000099999973
 30
-0.00000001
  9
$EXTMAX
 10
12.05776903085495
 20
4.23135052149184
 30
0.00000001
  9
$LIMMIN
 10
-78.49677780655667
 20
-35.85913699190518
  9
$LIMMAX
 10
14.76587554436906
 20
14.19178065495236
  9
$ORTHOMODE
 70
     0
  9
$REGENMODE
 70
     1
  9
$FILLMODE
 70
     1
  9
$QTEXTMODE
 70
     0
  9
$MIRRTEXT
 70
     0
  9
$DRAGMODE
 70
     2
  9
$LTSCALE
 40
1.0
  9
$OSMODE
 70
    55
  9
$ATTMODE
 70
     1
  9
$TEXTSIZE
 40
2.5
  9
$TRACEWID
 40
1.0
  9
$TEXTSTYLE
  7
STANDARD
  9
$CLAYER
  8
AM_0
  9
$CELTYPE
  6
BYLAYER
  9
$CECOLOR
 62
   256
  9
$CELTSCALE
 40
1.0
  9
$DELOBJ
 70
     1
  9
$DISPSILH
 70
     0
  9
$DIMSCALE
 40
0.5
  9
$DIMASZ
 40
2.5
  9
$DIMEXO
 40
1.0
  9
$DIMDLI
 40
12.0
  9
$DIMRND
 40
0.0
  9
$DIMDLE
 40
0.0
  9
$DIMEXE
 40
1.0
  9
$DIMTP
 40
0.1
  9
$DIMTM
 40
0.1
  9
$DIMTXT
 40
3.2
  9
$DIMCEN
 40
0.0
  9
$DIMTSZ
 40
0.0
  9
$DIMTOL
 70
     0
  9
$DIMLIM
 70
     0
  9
$DIMTIH
 70
     0
  9
$DIMTOH
 70
     0
  9
$DIMSE1
 70
     0
  9
$DIMSE2
 70
     0
  9
$DIMTAD
 70
     3
  9
$DIMZIN
 70
     8
  9
$DIMBLK
  1
OPEN30
  9
$DIMASO
 70
     1
  9
$DIMSHO
 70
     1
  9
$DIMPOST
  1

  9
$DIMAPOST
  1
"
  9
$DIMALT
 70
     0
  9
$DIMALTD
 70
     2
  9
$DIMALTF
 40
0.0393701
  9
$DIMLFAC
 40
1.0
  9
$DIMTOFL
 70
     1
  9
$DIMTVP
 40
0.0
  9
$DIMTIX
 70
     0
  9
$DIMSOXD
 70
     0
  9
$DIMSAH
 70
     0
  9
$DIMBLK1
  1

  9
$DIMBLK2
  1

  9
$DIMSTYLE
  2
AM_JIS
  9
$DIMCLRD
 70
   256
  9
$DIMCLRE
 70
   256
  9
$DIMCLRT
 70
     2
  9
$DIMTFAC
 40
0.71
  9
$DIMGAP
 40
1.5
  9
$DIMJUST
 70
     0
  9
$DIMSD1
 70
     0
  9
$DIMSD2
 70
     0
  9
$DIMTOLJ
 70
     0
  9
$DIMTZIN
 70
     0
  9
$DIMALTZ
 70
     0
  9
$DIMALTTZ
 70
     0
  9
$DIMFIT
 70
     3
  9
$DIMUPT
 70
     0
  9
$DIMUNIT
 70
     2
  9
$DIMDEC
 70
     3
  9
$DIMTDEC
 70
     3
  9
$DIMALTU
 70
     2
  9
$DIMALTTD
 70
     2
  9
$DIMTXSTY
  7
ASAMI
  9
$DIMAUNIT
 70
     0
  9
$LUNITS
 70
     2
  9
$LUPREC
 70
     2
  9
$SKETCHINC
 40
1.0
  9
$FILLETRAD
 40
2.5
  9
$AUNITS
 70
     0
  9
$AUPREC
 70
     0
  9
$MENU
  1
.
  9
$ELEVATION
 40
0.0
  9
$PELEVATION
 40
0.0
  9
$THICKNESS
 40
0.0
  9
$LIMCHECK
 70
     0
  9
$BLIPMODE
 70
     0
  9
$CHAMFERA
 40
0.75
  9
$CHAMFERB
 40
0.75
  9
$CHAMFERC
 40
20.0
  9
$CHAMFERD
 40
0.0
  9
$SKPOLY
 70
     0
  9
$TDCREATE
 40
2452836.771637361
  9
$TDUPDATE
 40
2453152.449231470
  9
$TDINDWG
 40
0.0229593403
  9
$TDUSRTIMER
 40
0.0229593403
  9
$USRTIMER
 70
     1
  9
$ANGBASE
 50
0.0
  9
$ANGDIR
 70
     0
  9
$PDMODE
 70
     0
  9
$PDSIZE
 40
0.0
  9
$PLINEWID
 40
0.0
  9
$COORDS
 70
     1
  9
$SPLFRAME
 70
     0
  9
$SPLINETYPE
 70
     6
  9
$SPLINESEGS
 70
     8
  9
$ATTDIA
 70
     1
  9
$ATTREQ
 70
     1
  9
$HANDLING
 70
 12289
  9
$HANDSEED
  5
197D
  9
$SURFTAB1
 70
     6
  9
$SURFTAB2
 70
     6
  9
$SURFTYPE
 70
     6
  9
$SURFU
 70
     6
  9
$SURFV
 70
     6
  9
$UCSNAME
  2

  9
$UCSORG
 10
0.0
 20
0.0
 30
0.0
  9
$UCSXDIR
 10
1.0
 20
0.0
 30
0.0
  9
$UCSYDIR
 10
0.0
 20
1.0
 30
0.0
  9
$PUCSNAME
  2

  9
$PUCSORG
 10
0.0
 20
0.0
 30
0.0
  9
$PUCSXDIR
 10
1.0
 20
0.0
 30
0.0
  9
$PUCSYDIR
 10
0.0
 20
1.0
 30
0.0
  9
$USERI1
 70
     0
  9
$USERI2
 70
     0
  9
$USERI3
 70
     0
  9
$USERI4
 70
     0
  9
$USERI5
 70
     0
  9
$USERR1
 40
0.0
  9
$USERR2
 40
0.0
  9
$USERR3
 40
0.0
  9
$USERR4
 40
0.0
  9
$USERR5
 40
0.0
  9
$WORLDVIEW
 70
     1
  9
$SHADEDGE
 70
     3
  9
$SHADEDIF
 70
    70
  9
$TILEMODE
 70
     1
  9
$MAXACTVP
 70
    64
  9
$PINSBASE
 10
0.0
 20
0.0
 30
0.0
  9
$PLIMCHECK
 70
     0
  9
$PEXTMIN
 10
1.000000000000000E+20
 20
1.000000000000000E+20
 30
1.000000000000000E+20
  9
$PEXTMAX
 10
-1.000000000000000E+20
 20
-1.000000000000000E+20
 30
-1.000000000000000E+20
  9
$PLIMMIN
 10
0.0
 20
0.0
  9
$PLIMMAX
 10
841.0
 20
594.0
  9
$UNITMODE
 70
     0
  9
$VISRETAIN
 70
     1
  9
$PLINEGEN
 70
     0
  9
$PSLTSCALE
 70
     0
  9
$TREEDEPTH
 70
  3020
  9
$PICKSTYLE
 70
     0
  9
$CMLSTYLE
  2
STANDARD
  9
$CMLJUST
 70
     0
  9
$CMLSCALE
 40
20.0
  9
$PROXYGRAPHICS
 70
     1
  9
$MEASUREMENT
 70
     1
  0
ENDSEC
  0
SECTION
  2
CLASSES
  0
CLASS
  1
ACDBDICTIONARYWDFLT
  2
AcDbDictionaryWithDefault
  3
AutoCAD 2000
 90
        0
280
     0
281
     0
  0
CLASS
  1
ACDBPLACEHOLDER
  2
AcDbPlaceHolder
  3
AutoCAD 2000
 90
        0
280
     0
281
     0
  0
CLASS
  1
LAYOUT
  2
AcDbLayout
  3
AutoCAD 2000
 90
        0
280
     0
281
     0
  0
CLASS
  1
AMGSETTINGSOBJ
  2
AmgSettingsObj
  3
"AcadM|Product Description: AutoCAD Mechanical 2000|Company: Autodesk"
 90
        0
280
     0
281
     0
  0
CLASS
  1
ACME_DOCUMENT
  2
AcMeDbDoc
  3
AcMeServices
 90
        0
280
     0
281
     0
  0
CLASS
  1
ACMESCOPE
  2
AcMeScope
  3
AcMeServices
 90
        0
280
     0
281
     0
  0
CLASS
  1
ACMECOMMANDHISTORY
  2
AcMeCommandHistory
  3
AcMeServices
 90
        0
280
     0
281
     0
  0
CLASS
  1
DICTIONARYVAR
  2
AcDbDictionaryVar
  3
AutoCAD 2000
 90
        0
280
     0
281
     0
  0
CLASS
  1
ACIMSYSVARMAN
  2
AcImSysVarManager
  3
AcMeServices
 90
        0
280
     0
281
     0
  0
CLASS
  1
ACIMREALSYSVAR
  2
AcImRealSysVar
  3
AcMeServices
 90
        0
280
     0
281
     0
  0
CLASS
  1
ACIMINTSYSVAR
  2
AcImIntSysVar
  3
AcMeServices
 90
        0
280
     0
281
     0
  0
CLASS
  1
ACMEDRAWINGMAN
  2
AcMeDrawingMan
  3
AcMeServices
 90
        0
280
     0
281
     0
  0
CLASS
  1
ACMEVIEW
  2
AcMeView
  3
AcMeServices
 90
        0
280
     0
281
     0
  0
CLASS
  1
ACDBENTITYCACHE
  2
AcMeEntityCache
  3
AcMeServices
 90
        0
280
     0
281
     0
  0
CLASS
  1
GSMANAGER
  2
AcMeGSManager
  3
AcMeServices
 90
        0
280
     0
281
     0
  0
CLASS
  1
AmdtInternalReactor
  2
AmdtInternalReactor
  3
AcMeServices
 90
        0
280
     0
281
     0
  0
CLASS
  1
ACMESTATEMGR
  2
AcMeStateMgr
  3
AcMeServices
 90
        0
280
     0
281
     0
  0
CLASS
  1
ACME_DATABASE
  2
AcMeDbDatabase
  3
AcMeServices
 90
        0
280
     0
281
     0
  0
CLASS
  1
ACRFINSADJUSTERMGR
  2
AcRfInsAdjusterMgr
  3
AcMeServices
 90
        0
280
     0
281
     0
  0
CLASS
  1
ACMDATADICTIONARY
  2
AcmDataDictionary
  3
"AcmSymBB|Product Description: AutoCAD Mechanical 2000|Company: Autodesk"
 90
        0
280
     0
281
     0
  0
CLASS
  1
ACMDATAENTRYBLOCK
  2
AcmDataEntryBlock
  3
"AcmSymBB|Product Description: AutoCAD Mechanical 2000|Company: Autodesk"
 90
        0
280
     0
281
     0
  0
CLASS
  1
AMGOBJPROPCFG
  2
AmgObjPropCfg
  3
"AmgLay|Product Description: AutoCAD Mechanical 2000|Company: Autodesk"
 90
        1
280
     0
281
     0
  0
CLASS
  1
ACAMGFILTERDAT
  2
AcAmgFilterDat
  3
"AcadM|Product Description: AutoCAD Mechanical 2000|Company: Autodesk"
 90
        0
280
     0
281
     0
  0
CLASS
  1
LAYER_INDEX
  2
AcDbLayerIndex
  3
AutoCAD 2000
 90
        0
280
     0
281
     0
  0
CLASS
  1
IDBUFFER
  2
AcDbIdBuffer
  3
AutoCAD 2000
 90
        0
280
     0
281
     0
  0
CLASS
  1
ACIMSTRSYSVAR
  2
AcImStrSysVar
  3
AcMeServices
 90
        0
280
     0
281
     0
  0
CLASS
  1
ACMSTANDARDJIS
  2
AcmStandardJIS
  3
"AcmSymBB|Product Description: AutoCAD Mechanical 2000|Company: Autodesk"
 90
        0
280
     0
281
     0
  0
CLASS
  1
ACMSURFSTANDARDJIS
  2
AcmSurfTextStdJIS
  3
"AcmSymBB|Product Description: AutoCAD Mechanical 2000|Company: Autodesk"
 90
        0
280
     0
281
     0
  0
CLASS
  1
ACMFCFSTANDARDJIS
  2
AcmFCFStdJIS
  3
"AcmSymBB|Product Description: AutoCAD Mechanical 2000|Company: Autodesk"
 90
        0
280
     0
281
     0
  0
CLASS
  1
ACMWELDSTANDARDJIS
  2
AcmWeldingStdJIS
  3
"AcmSymBB|Product Description: AutoCAD Mechanical 2000|Company: Autodesk"
 90
        0
280
     0
281
     0
  0
CLASS
  1
ACMIDSTANDARDJIS
  2
AcmIdStdJIS
  3
"AcmSymBB|Product Description: AutoCAD Mechanical 2000|Company: Autodesk"
 90
        0
280
     0
281
     0
  0
CLASS
  1
ACMDATUMSTANDARDJIS
  2
AcmDatumStdJIS
  3
"AcmSymBB|Product Description: AutoCAD Mechanical 2000|Company: Autodesk"
 90
        0
280
     0
281
     0
  0
CLASS
  1
ACMBOMSTANDARDJIS
  2
AcmBOMStdJIS
  3
"AcmSymBB|Product Description: AutoCAD Mechanical 2000|Company: Autodesk"
 90
        0
280
     0
281
     0
  0
CLASS
  1
ACMSTANDARDANSI
  2
AcmStandardANSI
  3
"AcmSymBB|Product Description: AutoCAD Mechanical 2000|Company: Autodesk"
 90
        0
280
     0
281
     0
  0
CLASS
  1
ACMSURFSTANDARDANSI
  2
AcmSurfTextStdANSI
  3
"AcmSymBB|Product Description: AutoCAD Mechanical 2000|Company: Autodesk"
 90
        0
280
     0
281
     0
  0
CLASS
  1
ACMFCFSTANDARDANSI
  2
AcmFCFStdANSI
  3
"AcmSymBB|Product Description: AutoCAD Mechanical 2000|Company: Autodesk"
 90
        0
280
     0
281
     0
  0
CLASS
  1
ACMWELDSTANDARDANSI
  2
AcmWeldingStdANSI
  3
"AcmSymBB|Product Description: AutoCAD Mechanical 2000|Company: Autodesk"
 90
        0
280
     0
281
     0
  0
CLASS
  1
ACMIDSTANDARDANSI
  2
AcmIdStdANSI
  3
"AcmSymBB|Product Description: AutoCAD Mechanical 2000|Company: Autodesk"
 90
        0
280
     0
281
     0
  0
CLASS
  1
ACMDATUMSTANDARDANSI
  2
AcmDatumStdANSI
  3
"AcmSymBB|Product Description: AutoCAD Mechanical 2000|Company: Autodesk"
 90
        0
280
     0
281
     0
  0
CLASS
  1
ACMBOMSTANDARDANSI
  2
AcmBOMStdANSI
  3
"AcmSymBB|Product Description: AutoCAD Mechanical 2000|Company: Autodesk"
 90
        0
280
     0
281
     0
  0
CLASS
  1
ACMSTANDARDBSI
  2
AcmStandardBSI
  3
"AcmSymBB|Product Description: AutoCAD Mechanical 2000|Company: Autodesk"
 90
        0
280
     0
281
     0
  0
CLASS
  1
ACMSURFSTANDARDBSI
  2
AcmSurfTextStdBSI
  3
"AcmSymBB|Product Description: AutoCAD Mechanical 2000|Company: Autodesk"
 90
        0
280
     0
281
     0
  0
CLASS
  1
ACMFCFSTANDARDBSI
  2
AcmFCFStdBSI
  3
"AcmSymBB|Product Description: AutoCAD Mechanical 2000|Company: Autodesk"
 90
        0
280
     0
281
     0
  0
CLASS
  1
ACMWELDSTANDARDBSI
  2
AcmWeldingStdBSI
  3
"AcmSymBB|Product Description: AutoCAD Mechanical 2000|Company: Autodesk"
 90
        0
280
     0
281
     0
  0
CLASS
  1
ACMIDSTANDARDBSI
  2
AcmIdStdBSI
  3
"AcmSymBB|Product Description: AutoCAD Mechanical 2000|Company: Autodesk"
 90
        0
280
     0
281
     0
  0
CLASS
  1
ACMDATUMSTANDARDBSI
  2
AcmDatumStdBSI
  3
"AcmSymBB|Product Description: AutoCAD Mechanical 2000|Company: Autodesk"
 90
        0
280
     0
281
     0
  0
CLASS
  1
ACMBOMSTANDARDBSI
  2
AcmBOMStdBSI
  3
"AcmSymBB|Product Description: AutoCAD Mechanical 2000|Company: Autodesk"
 90
        0
280
     0
281
     0
  0
CLASS
  1
LONG_TRANSACTION
  2
AcDbLongTransaction
  3
AutoCAD 2000
 90
        0
280
     0
281
     0
  0
CLASS
  1
LWPOLYLINE
  2
AcDbPolyline
  3
AutoCAD 2000
 90
        0
280
     0
281
     1
  0
CLASS
  1
HATCH
  2
AcDbHatch
  3
AutoCAD 2000
 90
        0
280
     0
281
     1
  0
CLASS
  1
XRECORD
  2
AcDbXrecord
  3
AutoCAD 2000
 90
        0
280
     0
281
     0
  0
ENDSEC
  0
SECTION
  2
TABLES
  0
TABLE
  2
VPORT
  5
8
330
0
100
AcDbSymbolTable
 70
     3
  0
VPORT
  5
1952
330
8
100
AcDbSymbolTableRecord
100
AcDbViewportTableRecord
  2
*ACTIVE
 70
     0
 10
0.0
 20
0.0
 11
1.0
 21
1.0
 12
-32.53785392541847
 22
-12.00789201024987
 13
0.0
 23
0.0
 14
2.5
 24
2.5
 15
10.0
 25
10.0
 16
0.0
 26
0.0
 36
1.0
 17
0.0
 27
0.0
 37
0.0
 40
57.19843960280628
 41
1.56570841889117
 42
50.0
 43
0.0
 44
0.0
 50
0.0
 51
0.0
 71
     0
 72
   100
 73
     1
 74
     3
 75
     0
 76
     0
 77
     0
 78
     0
  0
ENDTAB
  0
TABLE
  2
LTYPE
  5
5
330
0
100
AcDbSymbolTable
 70
    10
  0
LTYPE
  5
14
330
5
100
AcDbSymbolTableRecord
100
AcDbLinetypeTableRecord
  2
BYBLOCK
 70
     0
  3

 72
    65
 73
     0
 40
0.0
  0
LTYPE
  5
15
330
5
100
AcDbSymbolTableRecord
100
AcDbLinetypeTableRecord
  2
BYLAYER
 70
     0
  3

 72
    65
 73
     0
 40
0.0
  0
LTYPE
  5
16
330
5
100
AcDbSymbolTableRecord
100
AcDbLinetypeTableRecord
  2
CONTINUOUS
 70
     0
  3
Solid line
 72
    65
 73
     0
 40
0.0
  0
LTYPE
  5
4B
330
5
100
AcDbSymbolTableRecord
100
AcDbLinetypeTableRecord
  2
AM_ISO02W050
 70
     0
  3
__ __ __ __ __ __ __ __ __ __ __ __ __ __ __
 72
    65
 73
     2
 40
7.5
 49
6.0
 74
     0
 49
-1.5
 74
     0
  0
LTYPE
  5
4C
330
5
100
AcDbSymbolTableRecord
100
AcDbLinetypeTableRecord
  2
AM_ISO08W050
 70
     0
  3
____ . ____ . ____ . ____ . ____ . ____ . ____
 72
    65
 73
     4
 40
18.0
 49
12.0
 74
     0
 49
-1.5
 74
     0
 49
3.0
 74
     0
 49
-1.5
 74
     0
  0
LTYPE
  5
4D
330
5
100
AcDbSymbolTableRecord
100
AcDbLinetypeTableRecord
  2
AM_ISO09W050
 70
     0
  3
_____ . . _____ . . _____ . . ____ .. ____
 72
    65
 73
     6
 40
22.5
 49
12.0
 74
     0
 49
-1.5
 74
     0
 49
3.0
 74
     0
 49
-1.5
 74
     0
 49
3.0
 74
     0
 49
-1.5
 74
     0
  0
LTYPE
  5
4E
330
5
100
AcDbSymbolTableRecord
100
AcDbLinetypeTableRecord
  2
AMCONSTR
 70
     0
  3
_______________________
 72
    65
 73
     2
 40
9999.0
 49
9999.0
 74
     0
 49
0.0
 74
     0
  0
LTYPE
  5
4F
330
5
100
AcDbSymbolTableRecord
100
AcDbLinetypeTableRecord
  2
AM_ISO02W050X2
 70
     0
  3
 _ _ _ _ _ _ _ _ _ _ _ _
 72
    65
 73
     2
 40
3.75
 49
3.0
 74
     0
 49
-0.75
 74
     0
  0
LTYPE
  5
50
330
5
100
AcDbSymbolTableRecord
100
AcDbLinetypeTableRecord
  2
AM_ISO08W050X2
 70
     0
  3
__ . __ . __ . __ . __ . __
 72
    65
 73
     4
 40
9.0
 49
6.0
 74
     0
 49
-0.75
 74
     0
 49
1.5
 74
     0
 49
-0.75
 74
     0
  0
LTYPE
  5
53
330
5
100
AcDbSymbolTableRecord
100
AcDbLinetypeTableRecord
  2
AMZIGZAG
 70
     0
  3
/\/-/\/-/\/-/\/-/\/-/\/
 72
    65
 73
     2
 40
11.00009999999999
 49
0.0001
 74
     4
 75
   135
340
52
 46
0.04
 50
0.0
 44
0.0
 45
0.0
 49
-11.0
 74
     0
  0
LTYPE
  5
166
330
5
100
AcDbSymbolTableRecord
100
AcDbLinetypeTableRecord
  2
ACJISTGL
 70
     0
  3
_ _ _ _ _
 72
    65
 73
     2
 40
3.0
 49
2.0
 74
     0
 49
-1.0
 74
     0
  0
LTYPE
  5
26A
330
5
100
AcDbSymbolTableRecord
100
AcDbLinetypeTableRecord
  2
ACJISTGB
 70
     0
  3
__ . . __ . .
 72
    65
 73
     6
 40
9.0
 49
4.0
 74
     0
 49
-1.0
 74
     0
 49
1.0
 74
     0
 49
-1.0
 74
     0
 49
1.0
 74
     0
 49
-1.0
 74
     0
  0
ENDTAB
  0
TABLE
  2
LAYER
  5
2
330
0
100
AcDbSymbolTable
 70
     7
  0
LAYER
  5
10
330
2
100
AcDbSymbolTableRecord
100
AcDbLayerTableRecord
  2
0
 70
     0
 62
     7
  6
CONTINUOUS
  0
LAYER
  5
3F9
330
2
100
AcDbSymbolTableRecord
100
AcDbLayerTableRecord
  2
AM_0
 70
     0
 62
     7
  6
CONTINUOUS
  0
LAYER
  5
BD4
330
2
100
AcDbSymbolTableRecord
100
AcDbLayerTableRecord
  2
AM_11
 70
     0
 62
     3
  6
AM_ISO09W050
  0
LAYER
  5
BD5
330
2
100
AcDbSymbolTableRecord
100
AcDbLayerTableRecord
  2
AM_7
 70
     0
 62
     4
  6
AM_ISO08W050
  0
LAYER
  5
BD6
330
2
100
AcDbSymbolTableRecord
100
AcDbLayerTableRecord
  2
AM_5
 70
     0
 62
     3
  6
CONTINUOUS
  0
LAYER
  5
BD7
330
2
100
AcDbSymbolTableRecord
100
AcDbLayerTableRecord
  2
DEFPOINTS
 70
     0
 62
     7
  6
CONTINUOUS
  0
LAYER
  5
E59
330
2
100
AcDbSymbolTableRecord
100
AcDbLayerTableRecord
  2
AM_6
 70
     0
 62
     2
  6
CONTINUOUS
  0
ENDTAB
  0
TABLE
  2
STYLE
  5
3
330
0
100
AcDbSymbolTable
 70
     5
  0
STYLE
  5
11
330
3
100
AcDbSymbolTableRecord
100
AcDbTextStyleTableRecord
  2
STANDARD
 70
     0
 40
0.0
 41
1.0
 50
0.0
 71
     0
 42
2.5
  3
simplex.shx
  4
EXTFONT.SHX
  0
STYLE
  5
52
330
3
100
AcDbSymbolTableRecord
100
AcDbTextStyleTableRecord
  2

 70
     1
 40
0.0
 41
1.0
 50
0.0
 71
     0
 42
2.5
  3
ltypeshp.shx
  4

  0
STYLE
  5
6B
330
3
100
AcDbSymbolTableRecord
100
AcDbTextStyleTableRecord
  2
ASAMI
 70
     0
 40
0.0
 41
1.0
 50
0.0
 71
     0
 42
2.5
  3
simplex.shx
  4
EXTFONT.SHX
  0
STYLE
  5
262
330
3
100
AcDbSymbolTableRecord
100
AcDbTextStyleTableRecord
  2
ACJISTS
 70
     0
 40
1.0
 41
1.0
 50
0.0
 71
     0
 42
2.5
  3
simplex.shx
  4
bigfont.shx
  0
STYLE
  5
269
330
3
100
AcDbSymbolTableRecord
100
AcDbTextStyleTableRecord
  2
ACJISGDT
 70
     0
 40
0.0
 41
1.0
 50
0.0
 71
     0
 42
2.5
  3
amgdtans.shx
  4

  0
ENDTAB
  0
TABLE
  2
VIEW
  5
6
330
0
100
AcDbSymbolTable
 70
     0
  0
ENDTAB
  0
TABLE
  2
UCS
  5
7
330
0
100
AcDbSymbolTable
 70
     0
  0
ENDTAB
  0
TABLE
  2
APPID
  5
9
330
0
100
AcDbSymbolTable
 70
    12
  0
APPID
  5
12
330
9
100
AcDbSymbolTableRecord
100
AcDbRegAppTableRecord
  2
ACAD
 70
     0
  0
APPID
  5
30
330
9
100
AcDbSymbolTableRecord
100
AcDbRegAppTableRecord
  2
MCAD_NO_VIS
 70
     0
  0
APPID
  5
31
330
9
100
AcDbSymbolTableRecord
100
AcDbRegAppTableRecord
  2
ACAD_TEMP_GRAPHIC
 70
     0
  0
APPID
  5
2C2
330
9
100
AcDbSymbolTableRecord
100
AcDbRegAppTableRecord
  2
GENIUS_GENDTOL_13
 70
     0
  0
APPID
  5
339
330
9
100
AcDbSymbolTableRecord
100
AcDbRegAppTableRecord
  2
GENIUS_GENODEF_13
 70
     0
  0
APPID
  5
33A
330
9
100
AcDbSymbolTableRecord
100
AcDbRegAppTableRecord
  2
GENIUS_GENOBJ-N-RSBK_13
 70
     0
  0
APPID
  5
33B
330
9
100
AcDbSymbolTableRecord
100
AcDbRegAppTableRecord
  2
GENIUS_GENOBJ-N-LIB_13
 70
     0
  0
APPID
  5
33C
330
9
100
AcDbSymbolTableRecord
100
AcDbRegAppTableRecord
  2
GENIUS_GENSCALE_13
 70
     0
  0
APPID
  5
378
330
9
100
AcDbSymbolTableRecord
100
AcDbRegAppTableRecord
  2
GENIUS_GENDIMSH_14
 70
     0
  0
APPID
  5
BD8
330
9
100
AcDbSymbolTableRecord
100
AcDbRegAppTableRecord
  2
GENIUS_GENOBJ-N-CEN_13
 70
     0
  0
APPID
  5
BD9
330
9
100
AcDbSymbolTableRecord
100
AcDbRegAppTableRecord
  2
GENIUS_GENFIL_13
 70
     0
  0
APPID
  5
BDA
330
9
100
AcDbSymbolTableRecord
100
AcDbRegAppTableRecord
  2
GENIUS_GENOBJ-N-CHA_13
 70
     0
  0
ENDTAB
  0
TABLE
  2
DIMSTYLE
  5
A
330
0
100
AcDbSymbolTable
 70
     8
  0
DIMSTYLE
105
58
102
{ACAD_REACTORS
330
105F
330
10EF
330
1180
330
13A3
102
}
330
A
100
AcDbSymbolTableRecord
100
AcDbDimStyleTableRecord
  2
AM_JIS
 70
     0
  3

  4
"
  5
OPEN30
  6

  7

 40
0.5
 41
2.5
 42
1.0
 43
12.0
 44
1.0
 45
0.0
 46
0.0
 47
0.1
 48
0.1
140
3.2
141
0.0
142
0.0
143
0.0393701
144
1.0
145
0.0
146
0.71
147
1.5
 71
     0
 72
     0
 73
     0
 74
     0
 75
     0
 76
     0
 77
     3
 78
     8
170
     0
171
     2
172
     1
173
     0
174
     0
175
     0
176
   256
177
   256
178
     2
270
     2
271
     3
272
     3
273
     2
274
     2
340
6B
275
     0
280
     0
281
     0
282
     0
283
     0
284
     0
285
     0
286
     0
287
     3
288
     0
  0
DIMSTYLE
105
5F
330
A
100
AcDbSymbolTableRecord
100
AcDbDimStyleTableRecord
  2
AM_JIS$3
 70
     0
  3

  4
"
  5
OPEN30
  6

  7

 40
0.5
 41
2.5
 42
1.0
 43
10.0
 44
1.0
 45
0.0
 46
0.0
 47
0.1
 48
0.1
140
3.2
141
0.0
142
0.0
143
0.0393701
144
1.0
145
0.0
146
0.71
147
1.5
 71
     0
 72
     0
 73
     0
 74
     1
 75
     0
 76
     0
 77
     3
 78
     8
170
     0
171
     2
172
     0
173
     0
174
     0
175
     0
176
   256
177
   256
178
     2
270
     2
271
     2
272
     3
273
     2
274
     2
340
6B
275
     0
280
     0
281
     0
282
     0
283
     0
284
     0
285
     0
286
     0
287
     0
288
     1
  0
DIMSTYLE
105
60
330
A
100
AcDbSymbolTableRecord
100
AcDbDimStyleTableRecord
  2
AM_JIS$4
 70
     0
  3

  4
"
  5
OPEN30
  6

  7

 40
0.5
 41
2.5
 42
1.0
 43
10.0
 44
1.0
 45
0.0
 46
0.0
 47
0.1
 48
0.1
140
3.2
141
0.0
142
0.0
143
0.0393701
144
1.0
145
0.0
146
0.71
147
1.5
 71
     0
 72
     0
 73
     0
 74
     1
 75
     0
 76
     0
 77
     3
 78
     8
170
     0
171
     2
172
     0
173
     0
174
     0
175
     0
176
   256
177
   256
178
     2
270
     2
271
     2
272
     3
273
     2
274
     2
340
6B
275
     0
280
     0
281
     0
282
     0
283
     0
284
     0
285
     0
286
     0
287
     0
288
     1
  0
DIMSTYLE
105
61
330
A
100
AcDbSymbolTableRecord
100
AcDbDimStyleTableRecord
  2
AM_JIS$6
 70
     0
  3

  4
"
  5
OPEN30
  6

  7

 40
0.5
 41
2.5
 42
1.0
 43
10.0
 44
1.0
 45
0.0
 46
0.0
 47
0.1
 48
0.1
140
3.2
141
0.0
142
0.0
143
0.0393701
144
1.0
145
0.0
146
0.71
147
1.5
 71
     0
 72
     0
 73
     0
 74
     0
 75
     0
 76
     0
 77
     0
 78
     8
170
     0
171
     2
172
     1
173
     0
174
     0
175
     0
176
   256
177
   256
178
     2
270
     2
271
     2
272
     2
273
     2
274
     2
340
6B
275
     0
280
     0
281
     0
282
     0
283
     0
284
     0
285
     0
286
     0
287
     3
288
     0
  0
DIMSTYLE
105
62
330
A
100
AcDbSymbolTableRecord
100
AcDbDimStyleTableRecord
  2
AM_JIS$7
 70
     0
  3

  4
"
  5
OPEN30
  6

  7

 40
0.5
 41
2.5
 42
1.0
 43
10.0
 44
1.0
 45
0.0
 46
0.0
 47
0.1
 48
0.1
140
3.2
141
0.0
142
0.0
143
0.0393701
144
1.0
145
0.0
146
0.71
147
1.5
 71
     0
 72
     0
 73
     0
 74
     0
 75
     0
 76
     0
 77
     3
 78
     8
170
     0
171
     2
172
     1
173
     0
174
     0
175
     0
176
   256
177
   256
178
     2
270
     2
271
     2
272
     3
273
     2
274
     2
340
6B
275
     0
280
     0
281
     0
282
     0
283
     0
284
     0
285
     0
286
     0
287
     3
288
     0
  0
DIMSTYLE
105
63
330
A
100
AcDbSymbolTableRecord
100
AcDbDimStyleTableRecord
  2
AM_JIS$SF
 70
     0
  3

  4
"
  5
OPEN30
  6

  7

 40
0.5
 41
2.5
 42
1.0
 43
10.0
 44
1.0
 45
0.0
 46
0.0
 47
0.1
 48
0.1
140
3.2
141
0.0
142
0.0
143
0.0393701
144
1.0
145
0.0
146
0.71
147
1.5
 71
     0
 72
     0
 73
     0
 74
     0
 75
     1
 76
     1
 77
     3
 78
     8
170
     0
171
     2
172
     1
173
     0
174
     0
175
     0
176
   256
177
   256
178
     2
270
     2
271
     2
272
     2
273
     2
274
     2
340
6B
275
     0
280
     0
281
     0
282
     0
283
     0
284
     0
285
     0
286
     0
287
     3
288
     0
  0
DIMSTYLE
105
68
330
A
100
AcDbSymbolTableRecord
100
AcDbDimStyleTableRecord
  2
AM_JIS$SH
 70
     0
  3

  4
"
  5

  6
GENAXEH
  7
OPEN30
 40
0.5
 41
2.5
 42
1.0
 43
10.0
 44
1.0
 45
0.0
 46
0.0
 47
0.1
 48
0.1
140
3.2
141
0.0
142
0.0
143
0.0393701
144
2.0
145
0.0
146
0.71
147
1.5
 71
     0
 72
     0
 73
     0
 74
     0
 75
     1
 76
     1
 77
     3
 78
     8
170
     0
171
     2
172
     1
173
     1
174
     0
175
     0
176
   256
177
   256
178
     2
270
     2
271
     2
272
     2
273
     2
274
     2
340
6B
275
     0
280
     0
281
     0
282
     0
283
     0
284
     0
285
     0
286
     0
287
     3
288
     0
  0
DIMSTYLE
105
B34
330
A
100
AcDbSymbolTableRecord
100
AcDbDimStyleTableRecord
  2
AM_JIS$2
 70
     0
  3

  4
"
  5
OPEN30
  6

  7

 40
0.5
 41
2.5
 42
1.0
 43
12.0
 44
1.0
 45
0.0
 46
0.0
 47
0.1
 48
0.1
140
3.2
141
0.0
142
0.0
143
0.0393701
144
1.0
145
0.0
146
0.71
147
1.5
 71
     0
 72
     0
 73
     0
 74
     0
 75
     0
 76
     0
 77
     3
 78
     8
170
     0
171
     2
172
     1
173
     0
174
     0
175
     0
176
   256
177
   256
178
     2
270
     2
271
     3
272
     3
273
     2
274
     2
340
6B
275
     0
280
     0
281
     0
282
     0
283
     0
284
     0
285
     0
286
     0
287
     3
288
     0
  0
ENDTAB
  0
TABLE
  2
BLOCK_RECORD
  5
1
330
0
100
AcDbSymbolTable
 70
     9
  0
BLOCK_RECORD
  5
1F
102
{ACAD_XDICTIONARY
360
74
102
}
330
1
100
AcDbSymbolTableRecord
100
AcDbBlockTableRecord
  2
*MODEL_SPACE
  0
BLOCK_RECORD
  5
101
102
{ACAD_XDICTIONARY
360
197B
102
}
330
1
100
AcDbSymbolTableRecord
100
AcDbBlockTableRecord
  2
*PAPER_SPACE
  0
BLOCK_RECORD
  5
59
330
1
100
AcDbSymbolTableRecord
100
AcDbBlockTableRecord
  2
_OPEN30
  0
BLOCK_RECORD
  5
64
330
1
100
AcDbSymbolTableRecord
100
AcDbBlockTableRecord
  2
GENAXEH
  0
BLOCK_RECORD
  5
1060
330
1
100
AcDbSymbolTableRecord
100
AcDbBlockTableRecord
  2
*D5
  0
BLOCK_RECORD
  5
10F0
330
1
100
AcDbSymbolTableRecord
100
AcDbBlockTableRecord
  2
*D6
  0
BLOCK_RECORD
  5
1181
330
1
100
AcDbSymbolTableRecord
100
AcDbBlockTableRecord
  2
*D7
  0
BLOCK_RECORD
  5
13A4
330
1
100
AcDbSymbolTableRecord
100
AcDbBlockTableRecord
  2
*D8
  0
ENDTAB
  0
ENDSEC
  0
SECTION
  2
BLOCKS
  0
BLOCK
  5
20
330
1F
100
AcDbEntity
  8
0
100
AcDbBlockBegin
  2
*MODEL_SPACE
 70
     0
 10
0.0
 20
0.0
 30
0.0
  3
*MODEL_SPACE
  1

  0
ENDBLK
  5
21
330
1F
100
AcDbEntity
  8
0
100
AcDbBlockEnd
  0
BLOCK
  5
103
330
101
100
AcDbEntity
 67
     1
  8
0
100
AcDbBlockBegin
  2
*PAPER_SPACE
 70
     0
 10
0.0
 20
0.0
 30
0.0
  3
*PAPER_SPACE
  1

  0
ENDBLK
  5
104
330
101
100
AcDbEntity
 67
     1
  8
0
100
AcDbBlockEnd
  0
BLOCK
  5
5D
330
59
100
AcDbEntity
  8
0
100
AcDbBlockBegin
  2
_OPEN30
 70
     0
 10
0.0
 20
0.0
 30
0.0
  3
_OPEN30
  1

  0
LINE
  5
5A
330
59
100
AcDbEntity
  8
0
 62
     0
100
AcDbLine
 10
-1.0
 20
0.26794919
 30
0.0
 11
0.0
 21
0.0
 31
0.0
  0
LINE
  5
5B
330
59
100
AcDbEntity
  8
0
 62
     0
100
AcDbLine
 10
0.0
 20
0.0
 30
0.0
 11
-1.0
 21
-0.26794919
 31
0.0
  0
LINE
  5
5C
330
59
100
AcDbEntity
  8
0
 62
     0
100
AcDbLine
 10
0.0
 20
0.0
 30
0.0
 11
-1.0
 21
0.0
 31
0.0
  0
ENDBLK
  5
5E
330
59
100
AcDbEntity
  8
0
100
AcDbBlockEnd
  0
BLOCK
  5
66
330
64
100
AcDbEntity
  8
0
100
AcDbBlockBegin
  2
GENAXEH
 70
     0
 10
0.0
 20
0.0
 30
0.0
  3
GENAXEH
  1

  0
LINE
  5
65
330
64
100
AcDbEntity
  8
0
100
AcDbLine
 10
-1.0
 20
0.0
 30
0.0
 11
1.0
 21
0.0
 31
0.0
  0
ENDBLK
  5
67
330
64
100
AcDbEntity
  8
0
100
AcDbBlockEnd
  0
BLOCK
  5
106A
330
1060
100
AcDbEntity
  8
0
100
AcDbBlockBegin
  2
*D5
 70
     1
 10
0.0
 20
0.0
 30
0.0
  3
*D5
  1

  0
LINE
  5
1766
330
1060
100
AcDbEntity
  8
AM_5
100
AcDbLine
 10
-24.99998578771931
 20
-3.999999999999822
 30
0.0
 11
-24.99998578771931
 21
-11.50000099999973
 31
0.0
  0
LINE
  5
1767
330
1060
100
AcDbEntity
  8
AM_5
100
AcDbLine
 10
-0.0000000000007745
 20
-4.0
 30
0.0
 11
-0.000000000000775
 21
-11.50000099999973
 31
0.0
  0
LINE
  5
1768
330
1060
100
AcDbEntity
  8
AM_5
100
AcDbLine
 10
-23.74998578771931
 20
-11.00000099999973
 30
0.0
 11
-1.250000000000774
 21
-11.00000099999973
 31
0.0
  0
INSERT
  5
1769
330
1060
100
AcDbEntity
  8
AM_5
100
AcDbBlockReference
  2
_OPEN30
 10
-24.99998578771931
 20
-11.00000099999973
 30
0.0
 41
1.25
 42
1.25
 43
1.25
 50
180.0
  0
INSERT
  5
176A
330
1060
100
AcDbEntity
  8
AM_5
100
AcDbBlockReference
  2
_OPEN30
 10
-0.000000000000775
 20
-11.00000099999973
 30
0.0
 41
1.25
 42
1.25
 43
1.25
  0
MTEXT
  5
176B
330
1060
100
AcDbEntity
  8
AM_5
 62
     2
100
AcDbMText
 10
-12.49999289386004
 20
-9.450000999999733
 30
0.0
 40
1.6
 41
0.0
 71
     5
 72
     1
  1
25
  7
ASAMI
1001
ACAD
1000
MTEXTBEGIN
1070
    73
1070
     1
1070
    44
1040
1.0
1070
    74
1070
     0
1000
MTEXTEND
  0
POINT
  5
176C
330
1060
100
AcDbEntity
  8
DEFPOINTS
 62
     0
100
AcDbPoint
 10
-24.99998578771931
 20
-3.499999999999822
 30
0.0
  0
POINT
  5
176D
330
1060
100
AcDbEntity
  8
DEFPOINTS
 62
     0
100
AcDbPoint
 10
-0.0000000000007745
 20
-3.5
 30
0.0
  0
POINT
  5
176E
330
1060
100
AcDbEntity
  8
DEFPOINTS
 62
     0
100
AcDbPoint
 10
-0.000000000000775
 20
-11.00000099999973
 30
0.0
  0
ENDBLK
  5
106B
330
1060
100
AcDbEntity
  8
0
100
AcDbBlockEnd
  0
BLOCK
  5
10FA
330
10F0
100
AcDbEntity
  8
0
100
AcDbBlockBegin
  2
*D6
 70
     1
 10
0.0
 20
0.0
 30
0.0
  3
*D6
  1

  0
LINE
  5
175D
330
10F0
100
AcDbEntity
  8
AM_5
100
AcDbLine
 10
-65.00000000000001
 20
-3.749999999998925
 30
0.0
 11
-65.00000000000001
 21
-17.50000099999973
 31
0.0
  0
LINE
  5
175E
330
10F0
100
AcDbEntity
  8
AM_5
100
AcDbLine
 10
0.0000000000000035
 20
-4.0
 30
0.0
 11
0.0000000000000027
 21
-17.50000099999973
 31
0.0
  0
LINE
  5
175F
330
10F0
100
AcDbEntity
  8
AM_5
100
AcDbLine
 10
-63.75000000000001
 20
-17.00000099999973
 30
0.0
 11
-1.249999999999997
 21
-17.00000099999973
 31
0.0
  0
INSERT
  5
1760
330
10F0
100
AcDbEntity
  8
AM_5
100
AcDbBlockReference
  2
_OPEN30
 10
-65.00000000000001
 20
-17.00000099999973
 30
0.0
 41
1.25
 42
1.25
 43
1.25
 50
180.0
  0
INSERT
  5
1761
330
10F0
100
AcDbEntity
  8
AM_5
100
AcDbBlockReference
  2
_OPEN30
 10
0.0000000000000027
 20
-17.00000099999973
 30
0.0
 41
1.25
 42
1.25
 43
1.25
  0
MTEXT
  5
1762
330
10F0
100
AcDbEntity
  8
AM_5
 62
     2
100
AcDbMText
 10
-32.5
 20
-15.45000099999973
 30
0.0
 40
1.6
 41
0.0
 71
     5
 72
     1
  1
65
  7
ASAMI
1001
ACAD
1000
MTEXTBEGIN
1070
    73
1070
     1
1070
    44
1040
1.0
1070
    74
1070
     0
1000
MTEXTEND
  0
POINT
  5
1763
330
10F0
100
AcDbEntity
  8
DEFPOINTS
 62
     0
100
AcDbPoint
 10
-65.00000000000001
 20
-3.249999999998925
 30
0.0
  0
POINT
  5
1764
330
10F0
100
AcDbEntity
  8
DEFPOINTS
 62
     0
100
AcDbPoint
 10
0.0000000000000036
 20
-3.5
 30
0.0
  0
POINT
  5
1765
330
10F0
100
AcDbEntity
  8
DEFPOINTS
 62
     0
100
AcDbPoint
 10
0.0000000000000027
 20
-17.00000099999973
 30
0.0
  0
ENDBLK
  5
10FB
330
10F0
100
AcDbEntity
  8
0
100
AcDbBlockEnd
  0
BLOCK
  5
118B
330
1181
100
AcDbEntity
  8
0
100
AcDbBlockBegin
  2
*D7
 70
     1
 10
0.0
 20
0.0
 30
0.0
  3
*D7
  1

  0
LINE
  5
176F
330
1181
100
AcDbEntity
  8
AM_5
100
AcDbLine
 10
0.5000000000000013
 20
3.5
 30
0.0
 11
12.05776903085495
 21
3.499999999999996
 31
0.0
  0
LINE
  5
1770
330
1181
100
AcDbEntity
  8
AM_5
100
AcDbLine
 10
0.5
 20
-3.5
 30
0.0
 11
12.05776903085495
 21
-3.500000000000003
 31
0.0
  0
LINE
  5
1771
330
1181
100
AcDbEntity
  8
AM_5
100
AcDbLine
 10
11.55776903085494
 20
2.249999999999996
 30
0.0
 11
11.55776903085494
 21
-2.250000000000003
 31
0.0
  0
INSERT
  5
1772
330
1181
100
AcDbEntity
  8
AM_5
100
AcDbBlockReference
  2
_OPEN30
 10
11.55776903085494
 20
3.499999999999996
 30
0.0
 41
1.25
 42
1.25
 43
1.25
 50
90.0
  0
INSERT
  5
1773
330
1181
100
AcDbEntity
  8
AM_5
100
AcDbBlockReference
  2
_OPEN30
 10
11.55776903085494
 20
-3.500000000000003
 30
0.0
 41
1.25
 42
1.25
 43
1.25
 50
270.0
  0
MTEXT
  5
1774
330
1181
100
AcDbEntity
  8
AM_5
 62
     2
100
AcDbMText
 10
10.00776903085494
 20
-0.0000000000000014
 30
0.0
 40
1.6
 41
0.0
 71
     5
 72
     1
  1
%%c7
  7
ASAMI
 11
0.0000000000000001
 21
1.0
 31
0.0
1001
ACAD
1000
MTEXTBEGIN
1070
    73
1070
     1
1070
    44
1040
1.0
1070
    74
1070
     0
1000
MTEXTEND
  0
POINT
  5
1775
330
1181
100
AcDbEntity
  8
DEFPOINTS
 62
     0
100
AcDbPoint
 10
0.0000000000000012
 20
3.5
 30
0.0
  0
POINT
  5
1776
330
1181
100
AcDbEntity
  8
DEFPOINTS
 62
     0
100
AcDbPoint
 10
0.0
 20
-3.5
 30
0.0
  0
POINT
  5
1777
330
1181
100
AcDbEntity
  8
DEFPOINTS
 62
     0
100
AcDbPoint
 10
11.55776903085494
 20
-3.500000000000003
 30
0.0
  0
ENDBLK
  5
118C
330
1181
100
AcDbEntity
  8
0
100
AcDbBlockEnd
  0
BLOCK
  5
13AE
330
13A4
100
AcDbEntity
  8
0
100
AcDbBlockBegin
  2
*D8
 70
     1
 10
0.0
 20
0.0
 30
0.0
  3
*D8
  1

  0
LINE
  5
13B0
330
13A4
100
AcDbEntity
  8
AM_5
100
AcDbLine
 10
-64.75
 20
4.000000000000078
 30
0.0
 11
-75.28823125971979
 21
4.000000000000081
 31
0.0
  0
LINE
  5
13B1
330
13A4
100
AcDbEntity
  8
AM_5
100
AcDbLine
 10
-64.75
 20
-3.99999999999891
 30
0.0
 11
-75.28823125971979
 21
-3.999999999998907
 31
0.0
  0
LINE
  5
13B2
330
13A4
100
AcDbEntity
  8
AM_5
100
AcDbLine
 10
-74.78823125971979
 20
2.750000000000081
 30
0.0
 11
-74.78823125971979
 21
-2.749999999998907
 31
0.0
  0
INSERT
  5
13B3
330
13A4
100
AcDbEntity
  8
AM_5
100
AcDbBlockReference
  2
_OPEN30
 10
-74.78823125971979
 20
4.000000000000081
 30
0.0
 41
1.25
 42
1.25
 43
1.25
 50
90.0
  0
INSERT
  5
13B4
330
13A4
100
AcDbEntity
  8
AM_5
100
AcDbBlockReference
  2
_OPEN30
 10
-74.78823125971979
 20
-3.999999999998907
 30
0.0
 41
1.25
 42
1.25
 43
1.25
 50
270.0
  0
MTEXT
  5
13B5
330
13A4
100
AcDbEntity
  8
AM_5
 62
     2
100
AcDbMText
 10
-76.33823125971979
 20
0.000000000000575
 30
0.0
 40
1.6
 41
0.0
 71
     5
 72
     1
  1
%%c8
  7
ASAMI
 11
0.0000000000000001
 21
1.0
 31
0.0
1001
ACAD
1000
MTEXTBEGIN
1070
    73
1070
     1
1070
    44
1040
1.0
1070
    74
1070
     0
1000
MTEXTEND
  0
POINT
  5
13B6
330
13A4
100
AcDbEntity
  8
DEFPOINTS
 62
     0
100
AcDbPoint
 10
-64.25
 20
4.000000000000078
 30
0.0
  0
POINT
  5
13B7
330
13A4
100
AcDbEntity
  8
DEFPOINTS
 62
     0
100
AcDbPoint
 10
-64.25
 20
-3.99999999999891
 30
0.0
  0
POINT
  5
13B8
330
13A4
100
AcDbEntity
  8
DEFPOINTS
 62
     0
100
AcDbPoint
 10
-74.78823125971979
 20
-3.999999999998907
 30
0.0
  0
ENDBLK
  5
13AF
330
13A4
100
AcDbEntity
  8
0
100
AcDbBlockEnd
  0
ENDSEC
  0
SECTION
  2
ENTITIES
  0
TEXT
  5
E5A
330
1F
100
AcDbEntity
  8
AM_6
100
AcDbText
 10
-40.53571428571429
 20
-28.25000099999973
 30
0.0
 40
2.5
  1
LSM2070
 72
     4
 11
-32.5
 21
-27.00000099999973
 31
0.0
100
AcDbText
  0
LINE
  5
F47
330
1F
100
AcDbEntity
  8
AM_7
  6
AM_ISO08W050X2
100
AcDbLine
 10
4.557768030854958
 20
0.0
 30
0.0
 11
-67.7882302597198
 21
0.0000000000000058
 31
0.0
1001
GENIUS_GENODEF_13
1002
{
1000
HIER
1070
     0
1002
}
1002
{
1000
MANEDIT
1070
     0
1002
}
1002
{
1000
NOSEL
1070
     0
1002
}
1002
{
1000
BEHIND
1070
     0
1002
}
1002
{
1000
REACTOR
1002
}
1001
GENIUS_GENOBJ-N-CEN_13
1002
{
1000
OWNER
1000
GEN
1002
}
  0
DIMENSION
  5
105F
330
1F
100
AcDbEntity
  8
AM_5
100
AcDbDimension
  2
*D5
 10
-0.000000000000775
 20
-11.00000099999973
 30
0.0
 11
-12.49999289386004
 21
-9.450000999999733
 31
0.0
 70
    32
  1
<>
  3
AM_JIS
100
AcDbAlignedDimension
 13
-24.99998578771931
 23
-3.499999999999822
 33
0.0
 14
-0.0000000000007745
 24
-3.5
 34
0.0
 50
0.0000000000001132
100
AcDbRotatedDimension
1001
GENIUS_GENDTOL_13
1000

1000
h7
1000

1040
0.0
  0
DIMENSION
  5
10EF
330
1F
100
AcDbEntity
  8
AM_5
100
AcDbDimension
  2
*D6
 10
0.0000000000000027
 20
-17.00000099999973
 30
0.0
 11
-32.5
 21
-15.45000099999973
 31
0.0
 70
    32
  1
<>
  3
AM_JIS
100
AcDbAlignedDimension
 13
-65.00000000000001
 23
-3.249999999998925
 33
0.0
 14
0.0000000000000036
 24
-3.5
 34
0.0
 50
0.0000000000001132
100
AcDbRotatedDimension
1001
GENIUS_GENDTOL_13
1000

1000
h7
1000

1040
0.0
  0
DIMENSION
  5
1180
330
1F
100
AcDbEntity
  8
AM_5
100
AcDbDimension
  2
*D7
 10
11.55776903085494
 20
-3.500000000000003
 30
0.0
 11
10.00776903085494
 21
-0.0000000000000014
 31
0.0
 70
    32
  1
%%c<>
  3
AM_JIS
100
AcDbAlignedDimension
 13
0.0000000000000012
 23
3.5
 33
0.0
 14
0.0
 24
-3.5
 34
0.0
 50
90.0
100
AcDbRotatedDimension
1001
GENIUS_GENDTOL_13
1000

1000
h7
1000

1040
0.0
  0
LINE
  5
139D
330
1F
100
AcDbEntity
  8
AM_0
100
AcDbLine
 10
-34.99999999999999
 20
4.000000000000108
 30
0.0
 11
-64.25
 21
4.000000000000078
 31
0.0
  0
LINE
  5
139E
330
1F
100
AcDbEntity
  8
AM_0
100
AcDbLine
 10
-35.00000000000003
 20
-3.999999999999804
 30
0.0
 11
-64.25000000000003
 21
-3.999999999998911
 31
0.0
  0
LINE
  5
13A1
330
1F
100
AcDbEntity
  8
AM_0
100
AcDbLine
 10
-64.25
 20
4.000000000000078
 30
0.0
 11
-64.25000000000001
 21
-3.99999999999891
 31
0.0
  0
LINE
  5
13A2
330
1F
100
AcDbEntity
  8
AM_0
100
AcDbLine
 10
-65.0
 20
3.250000000000077
 30
0.0
 11
-65.00000000000003
 21
-3.249999999998911
 31
0.0
  0
DIMENSION
  5
13A3
330
1F
100
AcDbEntity
  8
AM_5
100
AcDbDimension
  2
*D8
 10
-74.78823125971979
 20
-3.999999999998907
 30
0.0
 11
-76.33823125971979
 21
0.000000000000575
 31
0.0
 70
    32
  1
%%c<>
  3
AM_JIS
100
AcDbAlignedDimension
 13
-64.25
 23
4.000000000000078
 33
0.0
 14
-64.25
 24
-3.99999999999891
 34
0.0
 50
270.0
100
AcDbRotatedDimension
1001
GENIUS_GENDTOL_13
1000

1000
h7
1000

1040
0.0
  0
LINE
  5
13BB
330
1F
100
AcDbEntity
  8
AM_0
100
AcDbLine
 10
-64.25
 20
4.000000000000078
 30
0.0
 11
-65.0
 21
3.250000000000077
 31
0.0
1001
GENIUS_GENFIL_13
1070
     0
1040
0.75
1040
0.75
1040
20.0
1040
0.0
1002
{
1002
}
1001
GENIUS_GENODEF_13
1002
{
1000
HIER
1070
     0
1002
}
1002
{
1000
MANEDIT
1070
     0
1002
}
1002
{
1000
NOSEL
1070
     0
1002
}
1002
{
1000
BEHIND
1070
     0
1002
}
1002
{
1000
REACTOR
1002
}
1001
GENIUS_GENOBJ-N-CHA_13
1002
{
1000
OWNER
1000
GEN
1002
}
  0
LINE
  5
13BE
330
1F
100
AcDbEntity
  8
AM_0
100
AcDbLine
 10
-65.00000000000003
 20
-3.249999999998911
 30
0.0
 11
-64.25000000000003
 21
-3.999999999998911
 31
0.0
1001
GENIUS_GENFIL_13
1070
     0
1040
0.75
1040
0.75
1040
20.0
1040
0.0
1002
{
1002
}
1001
GENIUS_GENODEF_13
1002
{
1000
HIER
1070
     0
1002
}
1002
{
1000
MANEDIT
1070
     0
1002
}
1002
{
1000
NOSEL
1070
     0
1002
}
1002
{
1000
BEHIND
1070
     0
1002
}
1002
{
1000
REACTOR
1002
}
1001
GENIUS_GENOBJ-N-CHA_13
1002
{
1000
OWNER
1000
GEN
1002
}
  0
LINE
  5
16F0
330
1F
100
AcDbEntity
  8
AM_0
100
AcDbLine
 10
-0.2237599016472807
 20
0.4200000000000195
 30
0.0
 11
0.0
 21
0.7000000000000633
 31
0.0
  0
LINE
  5
16F1
330
1F
100
AcDbEntity
  8
AM_0
100
AcDbLine
 10
0.0
 20
0.1400000000000752
 30
0.0
 11
-1.571048154014633
 21
2.105917395769697
 31
0.0
  0
LINE
  5
16F2
330
1F
100
AcDbEntity
  8
AM_0
100
AcDbLine
 10
0.0
 20
0.7000000000000633
 30
0.0
 11
0.0
 21
3.500000000000003
 31
0.0
  0
LINE
  5
16F3
330
1F
100
AcDbEntity
  8
AM_0
100
AcDbLine
 10
-12.72783637769824
 20
2.814596784246578
 30
0.0
 11
-1.571048154014633
 21
2.105917395769697
 31
0.0
  0
LINE
  5
16F4
330
1F
100
AcDbEntity
  8
AM_0
100
AcDbLine
 10
-0.0700000000000003
 20
-3.313408810335214
 30
0.0
 11
-0.2500000000000071
 21
-2.854754129159285
 31
0.0
  0
LINE
  5
16F5
330
1F
100
AcDbEntity
  8
AM_0
100
AcDbLine
 10
0.0000000000000036
 20
-3.499999999999996
 30
0.0
 11
-0.0700000000000003
 21
-3.313408810335214
 31
0.0
  0
LINE
  5
16F6
330
1F
100
AcDbEntity
  8
AM_0
100
AcDbLine
 10
-0.2500000000000071
 20
-2.854754129159285
 30
0.0
 11
-0.2500000000000071
 21
-2.81704880179279
 31
0.0
  0
ELLIPSE
  5
16F7
330
1F
100
AcDbEntity
  8
AM_0
100
AcDbEllipse
 10
9.471178961588433
 20
0.0147261181959557
 30
0.0
 11
-0.0000000000000708
 21
10.59276427293823
 31
0.0
210
0.0
220
0.0
230
1.0
 40
0.9523809523809577
 41
1.489874453283505
 42
1.84141854597479
  0
LINE
  5
16F8
330
1F
100
AcDbEntity
  8
AM_0
100
AcDbLine
 10
-0.0700000000000003
 20
-3.313408810335214
 30
0.0
 11
-0.0700000000000038
 21
0.2275938890556723
 31
0.0
  0
LINE
  5
16F9
330
1F
100
AcDbEntity
  8
AM_0
100
AcDbLine
 10
0.0000000000000036
 20
-3.499999999999996
 30
0.0
 11
0.0
 21
0.1400000000000752
 31
0.0
  0
SPLINE
  5
16FA
330
1F
100
AcDbEntity
  8
AM_0
100
AcDbSpline
210
0.0
220
0.0
230
1.0
 70
     8
 71
     3
 72
     8
 73
     4
 74
     0
 42
0.0000000001
 43
0.0000000001
 40
4.219358800530717
 40
4.219358800530717
 40
4.219358800530717
 40
4.219358800530717
 40
14.36247867694493
 40
14.36247867694493
 40
14.36247867694493
 40
14.36247867694493
 10
-0.2499999999999538
 20
-2.854754129159086
 30
0.0
 10
-2.414055837926785
 20
-2.282663454182081
 30
0.0
 10
-4.488589025304978
 20
-1.141331727091039
 30
0.0
 10
-6.563122212683129
 20
0.0000000000000888
 30
0.0
  0
SPLINE
  5
16FB
330
1F
100
AcDbEntity
  8
AM_0
100
AcDbSpline
210
0.0
220
0.0
230
1.0
 70
     8
 71
     3
 72
     8
 73
     4
 74
     0
 42
0.0000000001
 43
0.0000000001
 40
1.870660592686466
 40
1.870660592686466
 40
1.870660592686466
 40
1.870660592686466
 40
14.43901837670146
 40
14.43901837670146
 40
14.43901837670146
 40
14.43901837670146
 10
-0.0699999999999967
 20
-3.313408810335214
 30
0.0
 10
-2.803976394152549
 20
-2.955330428471011
 30
0.0
 10
-5.353505269744726
 20
-1.477665214235468
 30
0.0
 10
-7.903034145336913
 20
0.0000000000000888
 30
0.0
  0
SPLINE
  5
16FC
330
1F
100
AcDbEntity
  8
AM_0
100
AcDbSpline
210
0.0
220
0.0
230
1.0
 70
     8
 71
     3
 72
     8
 73
     4
 74
     0
 42
0.0000000001
 43
0.0000000001
 40
0.0
 40
0.0
 40
0.0
 40
0.0
 40
10.14299758454077
 40
10.14299758454077
 40
10.14299758454077
 40
10.14299758454077
 10
0.0000000000000071
 20
-3.499999999999996
 30
0.0
 10
-3.219999233187539
 20
-3.5
 30
0.0
 10
-6.143332949927099
 20
-1.750000000000007
 30
0.0
 10
-9.066666666666662
 20
-0.0000000000000107
 30
0.0
  0
SPLINE
  5
16FD
330
1F
100
AcDbEntity
  8
AM_0
100
AcDbSpline
210
0.0
220
0.0
230
1.0
 70
     8
 71
     3
 72
     8
 73
     4
 74
     0
 42
0.0000000001
 43
0.0000000001
 40
0.0
 40
0.0
 40
0.0
 40
0.0
 40
2.238610194515266
 40
2.238610194515266
 40
2.238610194515266
 40
2.238610194515266
 10
-7.686355668389989
 20
-2.685686821110945
 30
0.0
 10
-6.71092638959767
 20
-2.685686821110945
 30
0.0
 10
-5.753171573570806
 20
-2.554012634105429
 30
0.0
 10
-4.80761036960586
 20
-2.331496423992899
 30
0.0
  0
SPLINE
  5
16FE
330
1F
100
AcDbEntity
  8
AM_0
100
AcDbSpline
210
0.0
220
0.0
230
1.0
 70
     8
 71
     3
 72
     8
 73
     4
 74
     0
 42
0.0000000001
 43
0.0000000001
 40
0.0
 40
0.0
 40
0.0
 40
0.0
 40
7.57842115059705
 40
7.57842115059705
 40
7.57842115059705
 40
7.57842115059705
 10
0.0
 20
3.500000000000003
 30
0.0
 10
-1.684093589021575
 20
3.499999999999996
 30
0.0
 10
-3.287037280330576
 20
3.021304927187717
 30
0.0
 10
-4.851273327042758
 20
2.314277357712288
 30
0.0
  0
SPLINE
  5
16FF
330
1F
100
AcDbEntity
  8
AM_0
100
AcDbSpline
210
0.0
220
0.0
230
1.0
 70
     8
 71
     3
 72
     8
 73
     4
 74
     0
 42
0.0000000001
 43
0.0000000001
 40
0.0
 40
0.0
 40
0.0
 40
0.0
 40
1.810595726531744
 40
1.810595726531744
 40
1.810595726531744
 40
1.810595726531744
 10
0.0
 20
2.852291880678837
 30
0.0
 10
-0.3688449203353059
 20
2.389410237305757
 30
0.0
 10
-1.001946336477352
 20
2.190631657847092
 30
0.0
 10
-1.571048154014629
 20
2.105917395769697
 30
0.0
  0
LINE
  5
1700
330
1F
100
AcDbEntity
  8
AM_0
100
AcDbLine
 10
-25.51840279195658
 20
0.2056143937798609
 30
0.0
 11
-24.99998578771931
 21
0.5804160476200125
 31
0.0
  0
LINE
  5
1701
330
1F
100
AcDbEntity
  8
AM_0
100
AcDbLine
 10
-24.99998578771931
 20
-0.8017662941504752
 30
0.0
 11
-25.51840279195658
 21
0.2056143937798609
 31
0.0
  0
ELLIPSE
  5
1702
330
1F
100
AcDbEntity
  8
AM_0
100
AcDbEllipse
 10
-0.7558877767021457
 20
55.7540098939128
 30
0.0
 11
0.0000000000594334
 21
57.98655102480587
 31
0.0
210
0.0
220
0.0
230
1.0
 40
0.9523809523808514
 41
2.742776413022746
 42
2.799910305628909
  0
LINE
  5
1703
330
1F
100
AcDbEntity
  8
AM_0
100
AcDbLine
 10
-28.93678531877744
 20
2.745998327834108
 30
0.0
 11
-22.20139938084709
 21
2.318166492009162
 31
0.0
  0
LINE
  5
1704
330
1F
100
AcDbEntity
  8
AM_11
100
AcDbLine
 10
-24.99998578771931
 20
-3.499999999999822
 30
0.0
 11
-24.99998578771931
 21
3.499999999999879
 31
0.0
  0
ELLIPSE
  5
1705
330
1F
100
AcDbEntity
  8
AM_0
100
AcDbEllipse
 10
-26.76478769105056
 20
1.659210615632304
 30
0.0
 11
-0.0000000000000925
 21
5.163553113627564
 31
0.0
210
0.0
220
0.0
230
1.0
 40
0.9523809523809536
 41
2.029238341648224
 42
3.100577822440721
  0
ELLIPSE
  5
1706
330
1F
100
AcDbEntity
  8
AM_0
100
AcDbEllipse
 10
-26.96483810843247
 20
-0.401030255550694
 30
0.0
 11
-0.0000000000000382
 21
3.098970194393396
 31
0.0
210
0.0
220
0.0
230
1.0
 40
0.9523809523809495
 41
3.14105378146787
 42
3.883426327799668
  0
LINE
  5
1707
330
1F
100
AcDbEntity
  8
AM_0
100
AcDbLine
 10
-24.97075146644187
 20
-2.685686821110955
 30
0.0
 11
-27.0419334377676
 21
-2.825214039875113
 31
0.0
  0
SPLINE
  5
1708
330
1F
100
AcDbEntity
  8
AM_0
100
AcDbSpline
210
0.0
220
0.0
230
1.0
 70
     8
 71
     3
 72
     8
 73
     4
 74
     0
 42
0.0000000001
 43
0.0000000001
 40
0.0
 40
0.0
 40
0.0
 40
0.0
 40
10.14299758454076
 40
10.14299758454076
 40
10.14299758454076
 40
10.14299758454076
 10
-17.28439579805187
 20
-3.50000000000001
 30
0.0
 10
-20.50439503123941
 20
-3.500000000000014
 30
0.0
 10
-23.42772874797897
 20
-1.750000000000017
 30
0.0
 10
-26.35106246471853
 20
-0.0000000000000178
 30
0.0
  0
SPLINE
  5
1709
330
1F
100
AcDbEntity
  8
AM_0
100
AcDbSpline
210
0.0
220
0.0
230
1.0
 70
     8
 71
     3
 72
     8
 73
     4
 74
     0
 42
0.0000000001
 43
0.0000000001
 40
0.0
 40
0.0
 40
0.0
 40
0.0
 40
2.238610194515266
 40
2.238610194515266
 40
2.238610194515266
 40
2.238610194515266
 10
-24.97075146644186
 20
-2.685686821110952
 30
0.0
 10
-23.99532218764954
 20
-2.685686821110952
 30
0.0
 10
-23.03756737162268
 20
-2.554012634105436
 30
0.0
 10
-22.09200616765774
 20
-2.33149642399292
 30
0.0
  0
SPLINE
  5
170A
330
1F
100
AcDbEntity
  8
AM_0
100
AcDbSpline
210
0.0
220
0.0
230
1.0
 70
     8
 71
     3
 72
     8
 73
     4
 74
     0
 42
0.0000000001
 43
0.0000000001
 40
4.451443990596779
 40
4.451443990596779
 40
4.451443990596779
 40
4.451443990596779
 40
14.36247867694493
 40
14.36247867694493
 40
14.36247867694493
 40
14.36247867694493
 10
-31.147357612434
 20
3.499999999999882
 30
0.0
 10
-27.68980995518504
 20
2.54663689306265
 30
0.0
 10
-25.93464607002122
 20
1.115216863613294
 30
0.0
 10
-24.06686710828377
 20
-0.0000000000000178
 30
0.0
  0
SPLINE
  5
170B
330
1F
100
AcDbEntity
  8
AM_0
100
AcDbSpline
210
0.0
220
0.0
230
1.0
 70
     8
 71
     3
 72
     8
 73
     4
 74
     0
 42
0.0000000001
 43
0.0000000001
 40
1.870660592686466
 40
1.870660592686466
 40
1.870660592686466
 40
1.870660592686466
 40
14.13376641714041
 40
14.13376641714041
 40
14.13376641714041
 40
14.13376641714041
 10
-16.35994681908626
 20
-3.39519856923486
 30
0.0
 10
-19.05781470434835
 20
-3.535860770501837
 30
0.0
 10
-22.46770273631771
 20
-1.576510293852638
 30
0.0
 10
-25.51840279195658
 20
0.2056143937798645
 30
0.0
  0
SPLINE
  5
170C
330
1F
100
AcDbEntity
  8
AM_0
100
AcDbSpline
210
0.0
220
0.0
230
1.0
 70
     8
 71
     3
 72
     8
 73
     4
 74
     0
 42
0.0000000001
 43
0.0000000001
 40
0.0
 40
0.0
 40
0.0
 40
0.0
 40
11.27561433397658
 40
11.27561433397658
 40
11.27561433397658
 40
11.27561433397658
 10
-24.97075146644186
 20
-2.685686821110952
 30
0.0
 10
-28.55031157246618
 20
-2.685686821110955
 30
0.0
 10
-31.2830898850331
 20
0.3532024874429283
 30
0.0
 10
-34.01586819760004
 20
3.392091795996808
 30
0.0
  0
SPLINE
  5
170D
330
1F
100
AcDbEntity
  8
AM_0
100
AcDbSpline
210
0.0
220
0.0
230
1.0
 70
     8
 71
     3
 72
     8
 73
     4
 74
     0
 42
0.0000000001
 43
0.0000000001
 40
0.0
 40
0.0
 40
0.0
 40
0.0
 40
9.606030602698115
 40
9.606030602698115
 40
9.606030602698115
 40
9.606030602698115
 10
-27.04193343568499
 20
-2.825214039734749
 30
0.0
 10
-30.09146696035106
 20
-2.825214039734753
 30
0.0
 10
-32.05366757897556
 20
0.2834388781310295
 30
0.0
 10
-34.01586819760008
 20
3.392091795996808
 30
0.0
  0
SPLINE
  5
170E
330
1F
100
AcDbEntity
  8
AM_0
100
AcDbSpline
210
0.0
220
0.0
230
1.0
 70
     8
 71
     3
 72
     8
 73
     4
 74
     0
 42
0.0000000001
 43
0.0000000001
 40
0.8520923236092304
 40
0.8520923236092304
 40
0.8520923236092304
 40
0.8520923236092304
 40
5.795998619737583
 40
5.795998619737583
 40
5.795998619737583
 40
5.795998619737583
 10
-34.01586819760008
 20
3.392091795996709
 30
0.0
 10
-31.33818855500299
 20
2.985451372870141
 30
0.0
 10
-28.84462550986081
 20
1.492725686435061
 30
0.0
 10
-26.35106246471853
 20
-0.0000000000000178
 30
0.0
  0
SPLINE
  5
170F
330
1F
100
AcDbEntity
  8
AM_0
100
AcDbSpline
210
0.0
220
0.0
230
1.0
 70
     8
 71
     3
 72
     8
 73
     4
 74
     0
 42
0.0000000001
 43
0.0000000001
 40
5.297458184749251
 40
5.297458184749251
 40
5.297458184749251
 40
5.297458184749251
 40
7.218994763998551
 40
7.218994763998551
 40
7.218994763998551
 40
7.218994763998551
 10
-19.26037153420656
 20
1.119528575703004
 30
0.0
 10
-18.33204781833307
 20
0.7818561833183573
 30
0.0
 10
-17.54370015445389
 20
0.4173800673837356
 30
0.0
 10
-16.7553524905747
 20
0.0529039514491139
 30
0.0
  0
SPLINE
  5
1710
330
1F
100
AcDbEntity
  8
AM_0
100
AcDbSpline
210
0.0
220
0.0
230
1.0
 70
     8
 71
     3
 72
     8
 73
     4
 74
     0
 42
0.0000000001
 43
0.0000000001
 40
0.0
 40
0.0
 40
0.0
 40
0.0
 40
2.221495395472776
 40
2.221495395472776
 40
2.221495395472776
 40
2.221495395472776
 10
-15.62978887934978
 20
-3.232211152661971
 30
0.0
 10
-15.13612323591141
 20
-3.232211152661971
 30
0.0
 10
-14.64853808122171
 20
-3.193547598897051
 30
0.0
 10
-14.16609292457142
 20
-3.122200720030644
 30
0.0
  0
SPLINE
  5
1711
330
1F
100
AcDbEntity
  8
AM_0
100
AcDbSpline
210
0.0
220
0.0
230
1.0
 70
     8
 71
     3
 72
     8
 73
     4
 74
     0
 42
0.0000000001
 43
0.0000000001
 40
0.0
 40
0.0
 40
0.0
 40
0.0
 40
2.764560748519282
 40
2.764560748519282
 40
2.764560748519282
 40
2.764560748519282
 10
-17.28439579805187
 20
-3.50000000000001
 30
0.0
 10
-16.35535397899932
 20
-3.39519856923486
 30
0.0
 10
-15.7512595840813
 20
-3.332966803957088
 30
0.0
 10
-15.15545464838424
 20
-3.220418452890225
 30
0.0
  0
SPLINE
  5
1712
330
1F
100
AcDbEntity
  8
AM_0
100
AcDbSpline
210
0.0
220
0.0
230
1.0
 70
     8
 71
     3
 72
     8
 73
     4
 74
     0
 42
0.0000000001
 43
0.0000000001
 40
0.0
 40
0.0
 40
0.0
 40
0.0
 40
9.430157347746728
 40
9.430157347746728
 40
9.430157347746728
 40
9.430157347746728
 10
-15.62978887934978
 20
-3.232211152661871
 30
0.0
 10
-18.6234896246662
 20
-3.232211152661875
 30
0.0
 10
-21.34517836647498
 20
-1.616105576330944
 30
0.0
 10
-24.06686710828377
 20
-0.0000000000000178
 30
0.0
  0
SPLINE
  5
1713
330
1F
100
AcDbEntity
  8
AM_0
100
AcDbSpline
210
0.0
220
0.0
230
1.0
 70
     8
 71
     3
 72
     8
 73
     4
 74
     0
 42
0.0000000001
 43
0.0000000001
 40
0.0
 40
0.0
 40
0.0
 40
0.0
 40
5.192508374738713
 40
5.192508374738713
 40
5.192508374738713
 40
5.192508374738713
 10
-18.13333333333332
 20
3.499999999999989
 30
0.0
 10
-19.28722408327526
 20
3.499999999999989
 30
0.0
 10
-20.40301834748936
 20
3.275272667946172
 30
0.0
 10
-22.20139938084722
 20
2.318166492009165
 30
0.0
  0
LINE
  5
1714
330
1F
100
AcDbEntity
  8
AM_11
100
AcDbLine
 10
-0.0000000000005222
 20
3.500000000000003
 30
0.0
 11
-24.99998578771931
 21
3.499999999999879
 31
0.0
  0
LINE
  5
1715
330
1F
100
AcDbEntity
  8
AM_11
100
AcDbLine
 10
-24.99998578771931
 20
-3.499999999999822
 30
0.0
 11
0.0000000000000036
 21
-3.499999999999996
 31
0.0
  0
LINE
  5
1716
330
1F
100
AcDbEntity
  8
AM_7
  6
AM_ISO08W050X2
100
AcDbLine
 10
3.038512020569946
 20
0.0000000000000036
 30
0.0
 11
-27.19999999999998
 21
-0.0000000000000213
 31
0.0
1001
GENIUS_GENODEF_13
1002
{
1000
HIER
1070
     0
1002
}
1002
{
1000
MANEDIT
1070
     0
1002
}
1002
{
1000
NOSEL
1070
     0
1002
}
1002
{
1000
BEHIND
1070
     0
1002
}
1002
{
1000
REACTOR
1002
}
1001
GENIUS_GENOBJ-N-CEN_13
1002
{
1000
OWNER
1000
GEN
1002
}
  0
SPLINE
  5
1717
330
1F
100
AcDbEntity
  8
AM_0
100
AcDbSpline
210
0.0
220
0.0
230
1.0
 70
     8
 71
     3
 72
     8
 73
     4
 74
     0
 42
0.0000000001
 43
0.0000000001
 40
0.0
 40
0.0
 40
0.0
 40
0.0
 40
9.908424187267607
 40
9.908424187267607
 40
9.908424187267607
 40
9.908424187267607
 10
-7.686355668389989
 20
-2.685686821110945
 30
0.0
 10
-10.83188715641145
 20
-2.685686821110948
 30
0.0
 10
-13.79361982349307
 20
-1.316391434830865
 30
0.0
 10
-16.7553524905747
 20
0.0529039514492133
 30
0.0
  0
SPLINE
  5
1718
330
1F
100
AcDbEntity
  8
AM_0
100
AcDbSpline
210
0.0
220
0.0
230
1.0
 70
     8
 71
     3
 72
     8
 73
     4
 74
     0
 42
0.0000000001
 43
0.0000000001
 40
0.7142832446738512
 40
0.7142832446738512
 40
0.7142832446738512
 40
0.7142832446738512
 40
14.36247867694493
 40
14.36247867694493
 40
14.36247867694493
 40
14.36247867694493
 10
-15.15545464831404
 20
3.220418452877073
 30
0.0
 10
-12.145947756904
 20
3.071464924832941
 30
0.0
 10
-9.35453498479357
 20
1.535732462416465
 30
0.0
 10
-6.563122212683129
 20
0.0000000000000888
 30
0.0
  0
SPLINE
  5
1719
330
1F
100
AcDbEntity
  8
AM_0
100
AcDbSpline
210
0.0
220
0.0
230
1.0
 70
     8
 71
     3
 72
     8
 73
     4
 74
     0
 42
0.0000000001
 43
0.0000000001
 40
0.3581103616548037
 40
0.3581103616548037
 40
0.3581103616548037
 40
0.3581103616548037
 40
14.43901837670146
 40
14.43901837670146
 40
14.43901837670146
 40
14.43901837670146
 10
-16.73147239954815
 20
3.392091795996922
 30
0.0
 10
-13.61574255097731
 20
3.310992305637245
 30
0.0
 10
-10.75938834815711
 20
1.655496152818717
 30
0.0
 10
-7.903034145336913
 20
0.0000000000000888
 30
0.0
  0
SPLINE
  5
171A
330
1F
100
AcDbEntity
  8
AM_0
100
AcDbSpline
210
0.0
220
0.0
230
1.0
 70
     8
 71
     3
 72
     8
 73
     4
 74
     0
 42
0.0000000001
 43
0.0000000001
 40
0.0
 40
0.0
 40
0.0
 40
0.0
 40
10.14299758454076
 40
10.14299758454076
 40
10.14299758454076
 40
10.14299758454076
 10
-18.13333333333332
 20
3.500000000000088
 30
0.0
 10
-14.91333410014577
 20
3.500000000000092
 30
0.0
 10
-11.99000038340622
 20
1.750000000000088
 30
0.0
 10
-9.066666666666662
 20
0.0000000000000888
 30
0.0
  0
LINE
  5
171B
330
1F
100
AcDbEntity
  8
AM_0
100
AcDbLine
 10
-7.686355668389992
 20
-2.685686821110945
 30
0.0
 11
-14.16609292458261
 21
-3.122200720032335
 31
0.0
  0
LINE
  5
1725
330
1F
100
AcDbEntity
  8
AM_0
100
AcDbLine
 10
-34.99999999999999
 20
4.000000000000108
 30
0.0
 11
-35.00000000000003
 21
-3.999999999999803
 31
0.0
  0
LINE
  5
174C
330
1F
100
AcDbEntity
  8
AM_0
100
AcDbLine
 10
-31.14735761243258
 20
3.499999999999874
 30
0.0
 11
-33.62626129027204
 21
3.499999999999872
 31
0.0
  0
LINE
  5
174D
330
1F
100
AcDbEntity
  8
AM_0
100
AcDbLine
 10
-26.96324768141913
 20
-3.499999999999823
 30
0.0
 11
-33.62626129027279
 21
-3.499999999999829
 31
0.0
  0
LINE
  5
174E
330
1F
100
AcDbEntity
  8
AM_0
100
AcDbLine
 10
-34.99999999999999
 20
4.000000000000108
 30
0.0
 11
-33.62626129027203
 21
3.499999999999871
 31
0.0
  0
LINE
  5
174F
330
1F
100
AcDbEntity
  8
AM_0
100
AcDbLine
 10
-33.62626129027203
 20
3.499999999999872
 30
0.0
 11
-33.62626129027206
 21
3.325139553642986
 31
0.0
  0
LINE
  5
1750
330
1F
100
AcDbEntity
  8
AM_0
100
AcDbLine
 10
-33.62626129027304
 20
-3.499999999999922
 30
0.0
 11
-35.00000000000003
 21
-3.999999999999804
 31
0.0
  0
LINE
  5
175B
330
1F
100
AcDbEntity
  8
AM_0
100
AcDbLine
 10
-33.62626129027213
 20
2.776247109083032
 30
0.0
 11
-33.62626129027304
 21
-3.499999999999829
 31
0.0
  0
VIEWPORT
  5
110
330
101
100
AcDbEntity
 67
     1
  8
0
100
AcDbViewport
 10
420.5
 20
297.0
 30
0.0
 40
948.9782706766916
 41
628.452
 68
     1
 69
     1
1001
ACAD
1000
MVIEW
1002
{
1070
    16
1010
0.0
1020
0.0
1030
0.0
1010
0.0
1020
0.0
1030
1.0
1040
0.0
1040
628.452
1040
420.5
1040
297.0
1040
50.0
1040
0.0
1040
0.0
1070
     0
1070
   100
1070
     1
1070
     1
1070
     0
1070
     0
1070
     0
1070
     0
1040
0.0
1040
0.0
1040
0.0
1040
10.0
1040
10.0
1040
10.0
1040
10.0
1070
     0
1002
{
1002
}
1002
}
  0
ENDSEC
  0
SECTION
  2
OBJECTS
  0
DICTIONARY
  5
C
330
0
100
AcDbDictionary
  3
ACAD_GROUP
350
D
  3
ACAD_LAYOUT
350
1A
  3
ACAD_MLINESTYLE
350
17
  3
ACAD_PLOTSETTINGS
350
19
  3
ACAD_PLOTSTYLENAME
350
E
  3
ACDBVARIABLEDICTIONARY
350
34
  3
ACMDICTIONARY
350
43
  3
AMG
350
2B
  3
AMGSNAPSETTINGS
350
6E
  3
DWGPROPS
350
1947
  3
ACDBHEADERROUNDTRIPXREC
350
1953
  0
DICTIONARY
  5
74
330
1F
100
AcDbDictionary
280
     1
  3
ACAD_INDEX
360
1949
  3
ACAD_LAYOUTSELFREF
360
1976
  0
DICTIONARY
  5
197B
330
101
100
AcDbDictionary
280
     1
  3
ACAD_LAYOUTSELFREF
360
197C
  0
DICTIONARY
  5
D
102
{ACAD_REACTORS
330
C
102
}
330
C
100
AcDbDictionary
  0
DICTIONARY
  5
1A
102
{ACAD_REACTORS
330
C
102
}
330
C
100
AcDbDictionary
  0
DICTIONARY
  5
17
102
{ACAD_REACTORS
330
C
102
}
330
C
100
AcDbDictionary
  3
STANDARD
350
18
  0
DICTIONARY
  5
19
102
{ACAD_REACTORS
330
C
102
}
330
C
100
AcDbDictionary
  0
ACDBDICTIONARYWDFLT
  5
E
102
{ACAD_REACTORS
330
C
102
}
330
C
100
AcDbDictionary
281
     1
  3
Normal
350
F
100
AcDbDictionaryWithDefault
340
F
  0
DICTIONARY
  5
34
102
{ACAD_REACTORS
330
C
102
}
330
C
100
AcDbDictionary
  3
INDEXCTL
350
35
  3
SORTENTS
350
B5E
  0
DICTIONARY
  5
43
102
{ACAD_REACTORS
330
C
102
}
330
C
100
AcDbDictionary
  3
ACMSTDDICTIONARY
350
260
  0
DICTIONARY
  5
2B
102
{ACAD_REACTORS
330
C
102
}
330
C
100
AcDbDictionary
  3
ACMGSETTINGS
350
2C
  0
DICTIONARY
  5
6E
102
{ACAD_REACTORS
330
C
102
}
330
C
100
AcDbDictionary
  0
XRECORD
  5
1947
102
{ACAD_REACTORS
330
C
102
}
330
C
100
AcDbXrecord
  1
DWGPROPS COOKIE
  2

  3

  4

  6

  7

  8

  9

300
AmdtFileType=82
301
=
302
=
303
=
304
=
305
=
306
=
307
=
308
=
309
=
 40
0.0228325694444445
 41
2452836.771637361
 42
2452846.390156782
  1

 90
        1
  0
DICTIONARY
  5
1953
102
{ACAD_REACTORS
330
C
102
}
330
C
100
AcDbDictionary
  3
TSTACKALIGN
350
1954
  3
TSTACKSIZE
350
1955
  3
HYPERLINKBASE
350
1956
  3
STYLESHEET
350
1957
  3
LAYOUTDICT
350
1958
  3
PLOTSETDICT
350
1959
  3
PLOTSTYLNAMDICT
350
195A
  3
LWETCUNION
350
195B
  3
INSUNITS
350
195C
  3
CEPSNTYPE
350
195D
  3
FINGERPRINTGUID
350
195E
  3
VERSIONGUID
350
195F
  3
PSVPSCALE
350
1960
  3
DIMSTYLEDATA
350
1961
  3
PUCSORTHOREF
350
1962
  3
PUCSORTHOVIEW
350
1963
  3
PUCSBASE
350
1964
  3
PUCSORGTOP
350
1965
  3
PUCSORGBOTTOM
350
1966
  3
PUCSORGLEFT
350
1967
  3
PUCSORGRIGHT
350
1968
  3
PUCSORGFRONT
350
1969
  3
PUCSORGBACK
350
196A
  3
UCSORTHOREF
350
196B
  3
UCSORTHOVIEW
350
196C
  3
UCSBASE
350
196D
  3
UCSORGTOP
350
196E
  3
UCSORGBOTTOM
350
196F
  3
UCSORGLEFT
350
1970
  3
UCSORGRIGHT
350
1971
  3
UCSORGFRONT
350
1972
  3
UCSORGBACK
350
1973
  0
DICTIONARY
  5
1949
102
{ACAD_REACTORS
330
74
102
}
330
74
100
AcDbDictionary
  3
*A1
350
194A
  0
XRECORD
  5
1976
102
{ACAD_REACTORS
330
74
102
}
330
74
100
AcDbXrecord
340
1F
  0
XRECORD
  5
197C
102
{ACAD_REACTORS
330
197B
102
}
330
197B
100
AcDbXrecord
340
101
  0
MLINESTYLE
  5
18
102
{ACAD_REACTORS
330
17
102
}
330
17
100
AcDbMlineStyle
  2
STANDARD
 70
     0
  3

 62
   256
 51
90.0
 52
90.0
 71
     2
 49
0.5
 62
   256
  6
BYLAYER
 49
-0.5
 62
   256
  6
BYLAYER
  0
ACDBPLACEHOLDER
  5
F
102
{ACAD_REACTORS
330
E
102
}
330
E
100
AcDbPlaceHolder
280
     0
  0
DICTIONARYVAR
  5
35
102
{ACAD_REACTORS
330
34
102
}
330
34
100
DictionaryVariables
280
     0
  1
1
  0
DICTIONARYVAR
  5
B5E
102
{ACAD_REACTORS
330
34
102
}
330
34
100
DictionaryVariables
280
     0
  1
96
  0
DICTIONARY
  5
260
102
{ACAD_REACTORS
330
43
102
}
330
43
100
AcDbDictionary
  0
DICTIONARY
  5
2C
102
{ACAD_REACTORS
330
2B
102
}
330
2B
100
AcDbDictionary
  3
DWGSETTINGS
350
2D
  0
XRECORD
  5
1954
102
{ACAD_REACTORS
330
1953
102
}
330
1953
100
AcDbXrecord
 90
        1
  0
XRECORD
  5
1955
102
{ACAD_REACTORS
330
1953
102
}
330
1953
100
AcDbXrecord
 90
       70
  0
XRECORD
  5
1956
102
{ACAD_REACTORS
330
1953
102
}
330
1953
100
AcDbXrecord
  1

  0
XRECORD
  5
1957
102
{ACAD_REACTORS
330
1953
102
}
330
1953
100
AcDbXrecord
  1
ASAMI.ctb
  0
XRECORD
  5
1958
102
{ACAD_REACTORS
330
1953
102
}
330
1953
100
AcDbXrecord
340
1A
  0
XRECORD
  5
1959
102
{ACAD_REACTORS
330
1953
102
}
330
1953
100
AcDbXrecord
340
19
  0
XRECORD
  5
195A
102
{ACAD_REACTORS
330
1953
102
}
330
1953
100
AcDbXrecord
340
E
  0
XRECORD
  5
195B
102
{ACAD_REACTORS
330
1953
102
}
330
1953
100
AcDbXrecord
 90
    10781
  0
XRECORD
  5
195C
102
{ACAD_REACTORS
330
1953
102
}
330
1953
100
AcDbXrecord
 90
        4
  0
XRECORD
  5
195D
102
{ACAD_REACTORS
330
1953
102
}
330
1953
100
AcDbXrecord
 90
        0
  0
XRECORD
  5
195E
102
{ACAD_REACTORS
330
1953
102
}
330
1953
100
AcDbXrecord
  1
{AFB28963-8C59-40AE-9337-C84526B81ACE}
  0
XRECORD
  5
195F
102
{ACAD_REACTORS
330
1953
102
}
330
1953
100
AcDbXrecord
  1
{1E43FE6C-3BDE-483A-A545-64B6D72F405C}
  0
XRECORD
  5
1960
102
{ACAD_REACTORS
330
1953
102
}
330
1953
100
AcDbXrecord
 40
0.0
  0
XRECORD
  5
1961
102
{ACAD_REACTORS
330
1953
102
}
330
1953
100
AcDbXrecord
1000
DSTYLE
1002
{
1070
    79
 70
     2
1070
   341
340
59
1070
   342
340
59
1070
   371
 70
    -1
1070
   372
 70
    -1
1002
}
  0
XRECORD
  5
1962
102
{ACAD_REACTORS
330
1953
102
}
330
1953
100
AcDbXrecord
340
0
  0
XRECORD
  5
1963
102
{ACAD_REACTORS
330
1953
102
}
330
1953
100
AcDbXrecord
 70
     0
  0
XRECORD
  5
1964
102
{ACAD_REACTORS
330
1953
102
}
330
1953
100
AcDbXrecord
340
0
  0
XRECORD
  5
1965
102
{ACAD_REACTORS
330
1953
102
}
330
1953
100
AcDbXrecord
 10
0.0
 20
0.0
 30
0.0
  0
XRECORD
  5
1966
102
{ACAD_REACTORS
330
1953
102
}
330
1953
100
AcDbXrecord
 10
0.0
 20
0.0
 30
0.0
  0
XRECORD
  5
1967
102
{ACAD_REACTORS
330
1953
102
}
330
1953
100
AcDbXrecord
 10
0.0
 20
0.0
 30
0.0
  0
XRECORD
  5
1968
102
{ACAD_REACTORS
330
1953
102
}
330
1953
100
AcDbXrecord
 10
0.0
 20
0.0
 30
0.0
  0
XRECORD
  5
1969
102
{ACAD_REACTORS
330
1953
102
}
330
1953
100
AcDbXrecord
 10
0.0
 20
0.0
 30
0.0
  0
XRECORD
  5
196A
102
{ACAD_REACTORS
330
1953
102
}
330
1953
100
AcDbXrecord
 10
0.0
 20
0.0
 30
0.0
  0
XRECORD
  5
196B
102
{ACAD_REACTORS
330
1953
102
}
330
1953
100
AcDbXrecord
340
0
  0
XRECORD
  5
196C
102
{ACAD_REACTORS
330
1953
102
}
330
1953
100
AcDbXrecord
 70
     0
  0
XRECORD
  5
196D
102
{ACAD_REACTORS
330
1953
102
}
330
1953
100
AcDbXrecord
340
0
  0
XRECORD
  5
196E
102
{ACAD_REACTORS
330
1953
102
}
330
1953
100
AcDbXrecord
 10
0.0
 20
0.0
 30
0.0
  0
XRECORD
  5
196F
102
{ACAD_REACTORS
330
1953
102
}
330
1953
100
AcDbXrecord
 10
0.0
 20
0.0
 30
0.0
  0
XRECORD
  5
1970
102
{ACAD_REACTORS
330
1953
102
}
330
1953
100
AcDbXrecord
 10
0.0
 20
0.0
 30
0.0
  0
XRECORD
  5
1971
102
{ACAD_REACTORS
330
1953
102
}
330
1953
100
AcDbXrecord
 10
0.0
 20
0.0
 30
0.0
  0
XRECORD
  5
1972
102
{ACAD_REACTORS
330
1953
102
}
330
1953
100
AcDbXrecord
 10
0.0
 20
0.0
 30
0.0
  0
XRECORD
  5
1973
102
{ACAD_REACTORS
330
1953
102
}
330
1953
100
AcDbXrecord
 10
0.0
 20
0.0
 30
0.0
  0
LAYER_INDEX
  5
194A
102
{ACAD_REACTORS
330
1949
102
}
330
1949
100
AcDbIndex
 40
2453152.44923147
100
AcDbLayerIndex
  8
0
360
194B
 90
        0
  8
AM_0
360
194C
 90
       53
  8
AM_11
360
194D
 90
        3
  8
AM_7
360
194E
 90
        2
  8
AM_5
360
194F
 90
        4
  8
Defpoints
360
1950
 90
        0
  8
AM_6
360
1951
 90
        1
  0
XRECORD
  5
2D
102
{ACAD_REACTORS
330
2C
102
}
330
2C
100
AcDbXrecord
  1
VERSION
140
15.0
  1
PRODUCT
  2
AutoCAD Mechanical 2000
  0
IDBUFFER
  5
194B
330
0
100
AcDbIdBuffer
  0
IDBUFFER
  5
194C
330
0
100
AcDbIdBuffer
330
174D
330
174E
330
174F
330
1750
330
175B
330
139D
330
139E
330
13A1
330
13A2
330
13BB
330
13BE
330
16F0
330
16F1
330
16F2
330
16F3
330
16F4
330
16F5
330
16F6
330
16F7
330
16F8
330
16F9
330
16FA
330
16FB
330
16FC
330
16FD
330
16FE
330
16FF
330
1700
330
1701
330
1702
330
1703
330
1705
330
1706
330
1707
330
1708
330
1709
330
170A
330
170B
330
170C
330
170D
330
170E
330
170F
330
1710
330
1711
330
1712
330
1713
330
1717
330
1718
330
1719
330
171A
330
171B
330
1725
330
174C
  0
IDBUFFER
  5
194D
330
0
100
AcDbIdBuffer
330
1704
330
1714
330
1715
  0
IDBUFFER
  5
194E
330
0
100
AcDbIdBuffer
330
F47
330
1716
  0
IDBUFFER
  5
194F
330
0
100
AcDbIdBuffer
330
105F
330
10EF
330
1180
330
13A3
  0
IDBUFFER
  5
1950
330
0
100
AcDbIdBuffer
  0
IDBUFFER
  5
1951
330
0
100
AcDbIdBuffer
330
E5A
  0
ENDSEC
  0
EOF
