  0
SECTION
  2
HEADER
  9
$ACADVER
  1
AC1014
  9
$ACADMAINTVER
 70
     9
  9
$DWGCODEPAGE
  3
ANSI_932
  9
$INSBASE
 10
0.0
 20
0.0
 30
0.0
  9
$EXTMIN
 10
-116.4882312597197
 20
-56.50000099999793
 30
-0.00000001
  9
$EXTMAX
 10
19.55776903085494
 20
8.904410196432914
 30
0.00000001
  9
$LIMMIN
 10
-127.2151052491144
 20
-74.87452384220507
  9
$LIMMAX
 10
33.88325021764075
 20
31.27634774903237
  9
$ORTHOMODE
 70
     0
  9
$REGENMODE
 70
     1
  9
$FILLMODE
 70
     1
  9
$QTEXTMODE
 70
     0
  9
$MIRRTEXT
 70
     0
  9
$DRAGMODE
 70
     2
  9
$LTSCALE
 40
1.0
  9
$OSMODE
 70
    55
  9
$ATTMODE
 70
     1
  9
$TEXTSIZE
 40
2.5
  9
$TRACEWID
 40
1.0
  9
$TEXTSTYLE
  7
STANDARD
  9
$CLAYER
  8
AM_0
  9
$CELTYPE
  6
BYLAYER
  9
$CECOLOR
 62
   256
  9
$CELTSCALE
 40
1.0
  9
$DELOBJ
 70
     1
  9
$DISPSILH
 70
     0
  9
$DIMSCALE
 40
1.0
  9
$DIMASZ
 40
2.5
  9
$DIMEXO
 40
1.0
  9
$DIMDLI
 40
12.0
  9
$DIMRND
 40
0.0
  9
$DIMDLE
 40
0.0
  9
$DIMEXE
 40
1.0
  9
$DIMTP
 40
0.1
  9
$DIMTM
 40
0.1
  9
$DIMTXT
 40
3.2
  9
$DIMCEN
 40
0.0
  9
$DIMTSZ
 40
0.0
  9
$DIMTOL
 70
     0
  9
$DIMLIM
 70
     0
  9
$DIMTIH
 70
     0
  9
$DIMTOH
 70
     0
  9
$DIMSE1
 70
     0
  9
$DIMSE2
 70
     0
  9
$DIMTAD
 70
     3
  9
$DIMZIN
 70
     8
  9
$DIMBLK
  1
OPEN30
  9
$DIMASO
 70
     1
  9
$DIMSHO
 70
     1
  9
$DIMPOST
  1

  9
$DIMAPOST
  1
"
  9
$DIMALT
 70
     0
  9
$DIMALTD
 70
     2
  9
$DIMALTF
 40
0.0393701
  9
$DIMLFAC
 40
1.0
  9
$DIMTOFL
 70
     1
  9
$DIMTVP
 40
0.0
  9
$DIMTIX
 70
     0
  9
$DIMSOXD
 70
     0
  9
$DIMSAH
 70
     0
  9
$DIMBLK1
  1

  9
$DIMBLK2
  1

  9
$DIMSTYLE
  2
AM_JIS
  9
$DIMCLRD
 70
   256
  9
$DIMCLRE
 70
   256
  9
$DIMCLRT
 70
     2
  9
$DIMTFAC
 40
0.71
  9
$DIMGAP
 40
1.5
  9
$DIMJUST
 70
     0
  9
$DIMSD1
 70
     0
  9
$DIMSD2
 70
     0
  9
$DIMTOLJ
 70
     0
  9
$DIMTZIN
 70
     0
  9
$DIMALTZ
 70
     0
  9
$DIMALTTZ
 70
     0
  9
$DIMFIT
 70
     3
  9
$DIMUPT
 70
     0
  9
$DIMUNIT
 70
     2
  9
$DIMDEC
 70
     3
  9
$DIMTDEC
 70
     3
  9
$DIMALTU
 70
     2
  9
$DIMALTTD
 70
     2
  9
$DIMTXSTY
  7
ASAMI
  9
$DIMAUNIT
 70
     0
  9
$LUNITS
 70
     2
  9
$LUPREC
 70
     2
  9
$SKETCHINC
 40
1.0
  9
$FILLETRAD
 40
2.5
  9
$AUNITS
 70
     0
  9
$AUPREC
 70
     0
  9
$MENU
  1
.
  9
$ELEVATION
 40
0.0
  9
$PELEVATION
 40
0.0
  9
$THICKNESS
 40
0.0
  9
$LIMCHECK
 70
     0
  9
$BLIPMODE
 70
     0
  9
$CHAMFERA
 40
1.0
  9
$CHAMFERB
 40
1.0
  9
$CHAMFERC
 40
20.0
  9
$CHAMFERD
 40
0.0
  9
$SKPOLY
 70
     0
  9
$TDCREATE
 40
2452836.771637361
  9
$TDUPDATE
 40
2453152.450338634
  9
$TDINDWG
 40
0.0311988310
  9
$TDUSRTIMER
 40
0.0311988310
  9
$USRTIMER
 70
     1
  9
$ANGBASE
 50
0.0
  9
$ANGDIR
 70
     0
  9
$PDMODE
 70
     0
  9
$PDSIZE
 40
0.0
  9
$PLINEWID
 40
0.0
  9
$COORDS
 70
     1
  9
$SPLFRAME
 70
     0
  9
$SPLINETYPE
 70
     6
  9
$SPLINESEGS
 70
     8
  9
$ATTDIA
 70
     1
  9
$ATTREQ
 70
     1
  9
$HANDLING
 70
 12289
  9
$HANDSEED
  5
186D
  9
$SURFTAB1
 70
     6
  9
$SURFTAB2
 70
     6
  9
$SURFTYPE
 70
     6
  9
$SURFU
 70
     6
  9
$SURFV
 70
     6
  9
$UCSNAME
  2

  9
$UCSORG
 10
0.0
 20
0.0
 30
0.0
  9
$UCSXDIR
 10
1.0
 20
0.0
 30
0.0
  9
$UCSYDIR
 10
0.0
 20
1.0
 30
0.0
  9
$PUCSNAME
  2

  9
$PUCSORG
 10
0.0
 20
0.0
 30
0.0
  9
$PUCSXDIR
 10
1.0
 20
0.0
 30
0.0
  9
$PUCSYDIR
 10
0.0
 20
1.0
 30
0.0
  9
$USERI1
 70
     0
  9
$USERI2
 70
     0
  9
$USERI3
 70
     0
  9
$USERI4
 70
     0
  9
$USERI5
 70
     0
  9
$USERR1
 40
0.0
  9
$USERR2
 40
0.0
  9
$USERR3
 40
0.0
  9
$USERR4
 40
0.0
  9
$USERR5
 40
0.0
  9
$WORLDVIEW
 70
     1
  9
$SHADEDGE
 70
     3
  9
$SHADEDIF
 70
    70
  9
$TILEMODE
 70
     1
  9
$MAXACTVP
 70
    64
  9
$PINSBASE
 10
0.0
 20
0.0
 30
0.0
  9
$PLIMCHECK
 70
     0
  9
$PEXTMIN
 10
1.000000000000000E+20
 20
1.000000000000000E+20
 30
1.000000000000000E+20
  9
$PEXTMAX
 10
-1.000000000000000E+20
 20
-1.000000000000000E+20
 30
-1.000000000000000E+20
  9
$PLIMMIN
 10
0.0
 20
0.0
  9
$PLIMMAX
 10
841.0
 20
594.0
  9
$UNITMODE
 70
     0
  9
$VISRETAIN
 70
     1
  9
$PLINEGEN
 70
     0
  9
$PSLTSCALE
 70
     0
  9
$TREEDEPTH
 70
  3020
  9
$PICKSTYLE
 70
     0
  9
$CMLSTYLE
  2
STANDARD
  9
$CMLJUST
 70
     0
  9
$CMLSCALE
 40
20.0
  9
$PROXYGRAPHICS
 70
     1
  9
$MEASUREMENT
 70
     1
  0
ENDSEC
  0
SECTION
  2
CLASSES
  0
CLASS
  1
ACDBDICTIONARYWDFLT
  2
AcDbDictionaryWithDefault
  3
AutoCAD 2000
 90
        0
280
     0
281
     0
  0
CLASS
  1
ACDBPLACEHOLDER
  2
AcDbPlaceHolder
  3
AutoCAD 2000
 90
        0
280
     0
281
     0
  0
CLASS
  1
LAYOUT
  2
AcDbLayout
  3
AutoCAD 2000
 90
        0
280
     0
281
     0
  0
CLASS
  1
AMGSETTINGSOBJ
  2
AmgSettingsObj
  3
"AcadM|Product Description: AutoCAD Mechanical 2000|Company: Autodesk"
 90
        0
280
     0
281
     0
  0
CLASS
  1
ACME_DOCUMENT
  2
AcMeDbDoc
  3
AcMeServices
 90
        0
280
     0
281
     0
  0
CLASS
  1
ACMESCOPE
  2
AcMeScope
  3
AcMeServices
 90
        0
280
     0
281
     0
  0
CLASS
  1
ACMECOMMANDHISTORY
  2
AcMeCommandHistory
  3
AcMeServices
 90
        0
280
     0
281
     0
  0
CLASS
  1
DICTIONARYVAR
  2
AcDbDictionaryVar
  3
AutoCAD 2000
 90
        0
280
     0
281
     0
  0
CLASS
  1
ACIMSYSVARMAN
  2
AcImSysVarManager
  3
AcMeServices
 90
        0
280
     0
281
     0
  0
CLASS
  1
ACIMREALSYSVAR
  2
AcImRealSysVar
  3
AcMeServices
 90
        0
280
     0
281
     0
  0
CLASS
  1
ACIMINTSYSVAR
  2
AcImIntSysVar
  3
AcMeServices
 90
        0
280
     0
281
     0
  0
CLASS
  1
ACMEDRAWINGMAN
  2
AcMeDrawingMan
  3
AcMeServices
 90
        0
280
     0
281
     0
  0
CLASS
  1
ACMEVIEW
  2
AcMeView
  3
AcMeServices
 90
        0
280
     0
281
     0
  0
CLASS
  1
ACDBENTITYCACHE
  2
AcMeEntityCache
  3
AcMeServices
 90
        0
280
     0
281
     0
  0
CLASS
  1
GSMANAGER
  2
AcMeGSManager
  3
AcMeServices
 90
        0
280
     0
281
     0
  0
CLASS
  1
AmdtInternalReactor
  2
AmdtInternalReactor
  3
AcMeServices
 90
        0
280
     0
281
     0
  0
CLASS
  1
ACMESTATEMGR
  2
AcMeStateMgr
  3
AcMeServices
 90
        0
280
     0
281
     0
  0
CLASS
  1
ACME_DATABASE
  2
AcMeDbDatabase
  3
AcMeServices
 90
        0
280
     0
281
     0
  0
CLASS
  1
ACRFINSADJUSTERMGR
  2
AcRfInsAdjusterMgr
  3
AcMeServices
 90
        0
280
     0
281
     0
  0
CLASS
  1
ACMDATADICTIONARY
  2
AcmDataDictionary
  3
"AcmSymBB|Product Description: AutoCAD Mechanical 2000|Company: Autodesk"
 90
        0
280
     0
281
     0
  0
CLASS
  1
ACMDATAENTRYBLOCK
  2
AcmDataEntryBlock
  3
"AcmSymBB|Product Description: AutoCAD Mechanical 2000|Company: Autodesk"
 90
        0
280
     0
281
     0
  0
CLASS
  1
AMGOBJPROPCFG
  2
AmgObjPropCfg
  3
"AmgLay|Product Description: AutoCAD Mechanical 2000|Company: Autodesk"
 90
        1
280
     0
281
     0
  0
CLASS
  1
ACAMGFILTERDAT
  2
AcAmgFilterDat
  3
"AcadM|Product Description: AutoCAD Mechanical 2000|Company: Autodesk"
 90
        0
280
     0
281
     0
  0
CLASS
  1
LAYER_INDEX
  2
AcDbLayerIndex
  3
AutoCAD 2000
 90
        0
280
     0
281
     0
  0
CLASS
  1
IDBUFFER
  2
AcDbIdBuffer
  3
AutoCAD 2000
 90
        0
280
     0
281
     0
  0
CLASS
  1
ACIMSTRSYSVAR
  2
AcImStrSysVar
  3
AcMeServices
 90
        0
280
     0
281
     0
  0
CLASS
  1
ACMSTANDARDJIS
  2
AcmStandardJIS
  3
"AcmSymBB|Product Description: AutoCAD Mechanical 2000|Company: Autodesk"
 90
        0
280
     0
281
     0
  0
CLASS
  1
ACMSURFSTANDARDJIS
  2
AcmSurfTextStdJIS
  3
"AcmSymBB|Product Description: AutoCAD Mechanical 2000|Company: Autodesk"
 90
        0
280
     0
281
     0
  0
CLASS
  1
ACMFCFSTANDARDJIS
  2
AcmFCFStdJIS
  3
"AcmSymBB|Product Description: AutoCAD Mechanical 2000|Company: Autodesk"
 90
        0
280
     0
281
     0
  0
CLASS
  1
ACMWELDSTANDARDJIS
  2
AcmWeldingStdJIS
  3
"AcmSymBB|Product Description: AutoCAD Mechanical 2000|Company: Autodesk"
 90
        0
280
     0
281
     0
  0
CLASS
  1
ACMIDSTANDARDJIS
  2
AcmIdStdJIS
  3
"AcmSymBB|Product Description: AutoCAD Mechanical 2000|Company: Autodesk"
 90
        0
280
     0
281
     0
  0
CLASS
  1
ACMDATUMSTANDARDJIS
  2
AcmDatumStdJIS
  3
"AcmSymBB|Product Description: AutoCAD Mechanical 2000|Company: Autodesk"
 90
        0
280
     0
281
     0
  0
CLASS
  1
ACMBOMSTANDARDJIS
  2
AcmBOMStdJIS
  3
"AcmSymBB|Product Description: AutoCAD Mechanical 2000|Company: Autodesk"
 90
        0
280
     0
281
     0
  0
CLASS
  1
ACMSTANDARDANSI
  2
AcmStandardANSI
  3
"AcmSymBB|Product Description: AutoCAD Mechanical 2000|Company: Autodesk"
 90
        0
280
     0
281
     0
  0
CLASS
  1
ACMSURFSTANDARDANSI
  2
AcmSurfTextStdANSI
  3
"AcmSymBB|Product Description: AutoCAD Mechanical 2000|Company: Autodesk"
 90
        0
280
     0
281
     0
  0
CLASS
  1
ACMFCFSTANDARDANSI
  2
AcmFCFStdANSI
  3
"AcmSymBB|Product Description: AutoCAD Mechanical 2000|Company: Autodesk"
 90
        0
280
     0
281
     0
  0
CLASS
  1
ACMWELDSTANDARDANSI
  2
AcmWeldingStdANSI
  3
"AcmSymBB|Product Description: AutoCAD Mechanical 2000|Company: Autodesk"
 90
        0
280
     0
281
     0
  0
CLASS
  1
ACMIDSTANDARDANSI
  2
AcmIdStdANSI
  3
"AcmSymBB|Product Description: AutoCAD Mechanical 2000|Company: Autodesk"
 90
        0
280
     0
281
     0
  0
CLASS
  1
ACMDATUMSTANDARDANSI
  2
AcmDatumStdANSI
  3
"AcmSymBB|Product Description: AutoCAD Mechanical 2000|Company: Autodesk"
 90
        0
280
     0
281
     0
  0
CLASS
  1
ACMBOMSTANDARDANSI
  2
AcmBOMStdANSI
  3
"AcmSymBB|Product Description: AutoCAD Mechanical 2000|Company: Autodesk"
 90
        0
280
     0
281
     0
  0
CLASS
  1
ACMSTANDARDBSI
  2
AcmStandardBSI
  3
"AcmSymBB|Product Description: AutoCAD Mechanical 2000|Company: Autodesk"
 90
        0
280
     0
281
     0
  0
CLASS
  1
ACMSURFSTANDARDBSI
  2
AcmSurfTextStdBSI
  3
"AcmSymBB|Product Description: AutoCAD Mechanical 2000|Company: Autodesk"
 90
        0
280
     0
281
     0
  0
CLASS
  1
ACMFCFSTANDARDBSI
  2
AcmFCFStdBSI
  3
"AcmSymBB|Product Description: AutoCAD Mechanical 2000|Company: Autodesk"
 90
        0
280
     0
281
     0
  0
CLASS
  1
ACMWELDSTANDARDBSI
  2
AcmWeldingStdBSI
  3
"AcmSymBB|Product Description: AutoCAD Mechanical 2000|Company: Autodesk"
 90
        0
280
     0
281
     0
  0
CLASS
  1
ACMIDSTANDARDBSI
  2
AcmIdStdBSI
  3
"AcmSymBB|Product Description: AutoCAD Mechanical 2000|Company: Autodesk"
 90
        0
280
     0
281
     0
  0
CLASS
  1
ACMDATUMSTANDARDBSI
  2
AcmDatumStdBSI
  3
"AcmSymBB|Product Description: AutoCAD Mechanical 2000|Company: Autodesk"
 90
        0
280
     0
281
     0
  0
CLASS
  1
ACMBOMSTANDARDBSI
  2
AcmBOMStdBSI
  3
"AcmSymBB|Product Description: AutoCAD Mechanical 2000|Company: Autodesk"
 90
        0
280
     0
281
     0
  0
CLASS
  1
LONG_TRANSACTION
  2
AcDbLongTransaction
  3
AutoCAD 2000
 90
        0
280
     0
281
     0
  0
CLASS
  1
LWPOLYLINE
  2
AcDbPolyline
  3
AutoCAD 2000
 90
        0
280
     0
281
     1
  0
CLASS
  1
HATCH
  2
AcDbHatch
  3
AutoCAD 2000
 90
        0
280
     0
281
     1
  0
CLASS
  1
XRECORD
  2
AcDbXrecord
  3
AutoCAD 2000
 90
        0
280
     0
281
     0
  0
ENDSEC
  0
SECTION
  2
TABLES
  0
TABLE
  2
VPORT
  5
8
330
0
100
AcDbSymbolTable
 70
     3
  0
VPORT
  5
1842
330
8
100
AcDbSymbolTableRecord
100
AcDbViewportTableRecord
  2
*ACTIVE
 70
     0
 10
0.0
 20
0.0
 11
1.0
 21
1.0
 12
-43.56152383718066
 22
-13.16968024474563
 13
0.0
 23
0.0
 14
2.5
 24
2.5
 15
10.0
 25
10.0
 16
0.0
 26
0.0
 36
1.0
 17
0.0
 27
0.0
 37
0.0
 40
200.190171911538
 41
1.56570841889117
 42
50.0
 43
0.0
 44
0.0
 50
0.0
 51
0.0
 71
     0
 72
   100
 73
     1
 74
     3
 75
     0
 76
     0
 77
     0
 78
     0
  0
ENDTAB
  0
TABLE
  2
LTYPE
  5
5
330
0
100
AcDbSymbolTable
 70
    10
  0
LTYPE
  5
14
330
5
100
AcDbSymbolTableRecord
100
AcDbLinetypeTableRecord
  2
BYBLOCK
 70
     0
  3

 72
    65
 73
     0
 40
0.0
  0
LTYPE
  5
15
330
5
100
AcDbSymbolTableRecord
100
AcDbLinetypeTableRecord
  2
BYLAYER
 70
     0
  3

 72
    65
 73
     0
 40
0.0
  0
LTYPE
  5
16
330
5
100
AcDbSymbolTableRecord
100
AcDbLinetypeTableRecord
  2
CONTINUOUS
 70
     0
  3
Solid line
 72
    65
 73
     0
 40
0.0
  0
LTYPE
  5
4B
330
5
100
AcDbSymbolTableRecord
100
AcDbLinetypeTableRecord
  2
AM_ISO02W050
 70
     0
  3
__ __ __ __ __ __ __ __ __ __ __ __ __ __ __
 72
    65
 73
     2
 40
7.5
 49
6.0
 74
     0
 49
-1.5
 74
     0
  0
LTYPE
  5
4C
330
5
100
AcDbSymbolTableRecord
100
AcDbLinetypeTableRecord
  2
AM_ISO08W050
 70
     0
  3
____ . ____ . ____ . ____ . ____ . ____ . ____
 72
    65
 73
     4
 40
18.0
 49
12.0
 74
     0
 49
-1.5
 74
     0
 49
3.0
 74
     0
 49
-1.5
 74
     0
  0
LTYPE
  5
4D
330
5
100
AcDbSymbolTableRecord
100
AcDbLinetypeTableRecord
  2
AM_ISO09W050
 70
     0
  3
_____ . . _____ . . _____ . . ____ .. ____
 72
    65
 73
     6
 40
22.5
 49
12.0
 74
     0
 49
-1.5
 74
     0
 49
3.0
 74
     0
 49
-1.5
 74
     0
 49
3.0
 74
     0
 49
-1.5
 74
     0
  0
LTYPE
  5
4E
330
5
100
AcDbSymbolTableRecord
100
AcDbLinetypeTableRecord
  2
AMCONSTR
 70
     0
  3
_______________________
 72
    65
 73
     2
 40
9999.0
 49
9999.0
 74
     0
 49
0.0
 74
     0
  0
LTYPE
  5
4F
330
5
100
AcDbSymbolTableRecord
100
AcDbLinetypeTableRecord
  2
AM_ISO02W050X2
 70
     0
  3
 _ _ _ _ _ _ _ _ _ _ _ _
 72
    65
 73
     2
 40
3.75
 49
3.0
 74
     0
 49
-0.75
 74
     0
  0
LTYPE
  5
50
330
5
100
AcDbSymbolTableRecord
100
AcDbLinetypeTableRecord
  2
AM_ISO08W050X2
 70
     0
  3
__ . __ . __ . __ . __ . __
 72
    65
 73
     4
 40
9.0
 49
6.0
 74
     0
 49
-0.75
 74
     0
 49
1.5
 74
     0
 49
-0.75
 74
     0
  0
LTYPE
  5
53
330
5
100
AcDbSymbolTableRecord
100
AcDbLinetypeTableRecord
  2
AMZIGZAG
 70
     0
  3
/\/-/\/-/\/-/\/-/\/-/\/
 72
    65
 73
     2
 40
11.00009999999999
 49
0.0001
 74
     4
 75
   135
340
52
 46
0.04
 50
0.0
 44
0.0
 45
0.0
 49
-11.0
 74
     0
  0
LTYPE
  5
166
330
5
100
AcDbSymbolTableRecord
100
AcDbLinetypeTableRecord
  2
ACJISTGL
 70
     0
  3
_ _ _ _ _
 72
    65
 73
     2
 40
3.0
 49
2.0
 74
     0
 49
-1.0
 74
     0
  0
LTYPE
  5
26A
330
5
100
AcDbSymbolTableRecord
100
AcDbLinetypeTableRecord
  2
ACJISTGB
 70
     0
  3
__ . . __ . .
 72
    65
 73
     6
 40
9.0
 49
4.0
 74
     0
 49
-1.0
 74
     0
 49
1.0
 74
     0
 49
-1.0
 74
     0
 49
1.0
 74
     0
 49
-1.0
 74
     0
  0
ENDTAB
  0
TABLE
  2
LAYER
  5
2
330
0
100
AcDbSymbolTable
 70
     7
  0
LAYER
  5
10
330
2
100
AcDbSymbolTableRecord
100
AcDbLayerTableRecord
  2
0
 70
     0
 62
     7
  6
CONTINUOUS
  0
LAYER
  5
3F9
330
2
100
AcDbSymbolTableRecord
100
AcDbLayerTableRecord
  2
AM_0
 70
     0
 62
     7
  6
CONTINUOUS
  0
LAYER
  5
BD4
330
2
100
AcDbSymbolTableRecord
100
AcDbLayerTableRecord
  2
AM_11
 70
     0
 62
     3
  6
AM_ISO09W050
  0
LAYER
  5
BD5
330
2
100
AcDbSymbolTableRecord
100
AcDbLayerTableRecord
  2
AM_7
 70
     0
 62
     4
  6
AM_ISO08W050
  0
LAYER
  5
BD6
330
2
100
AcDbSymbolTableRecord
100
AcDbLayerTableRecord
  2
AM_5
 70
     0
 62
     3
  6
CONTINUOUS
  0
LAYER
  5
BD7
330
2
100
AcDbSymbolTableRecord
100
AcDbLayerTableRecord
  2
DEFPOINTS
 70
     0
 62
     7
  6
CONTINUOUS
  0
LAYER
  5
E59
330
2
100
AcDbSymbolTableRecord
100
AcDbLayerTableRecord
  2
AM_6
 70
     0
 62
     2
  6
CONTINUOUS
  0
ENDTAB
  0
TABLE
  2
STYLE
  5
3
330
0
100
AcDbSymbolTable
 70
     5
  0
STYLE
  5
11
330
3
100
AcDbSymbolTableRecord
100
AcDbTextStyleTableRecord
  2
STANDARD
 70
     0
 40
0.0
 41
1.0
 50
0.0
 71
     0
 42
2.5
  3
simplex.shx
  4
EXTFONT.SHX
  0
STYLE
  5
52
330
3
100
AcDbSymbolTableRecord
100
AcDbTextStyleTableRecord
  2

 70
     1
 40
0.0
 41
1.0
 50
0.0
 71
     0
 42
2.5
  3
ltypeshp.shx
  4

  0
STYLE
  5
6B
330
3
100
AcDbSymbolTableRecord
100
AcDbTextStyleTableRecord
  2
ASAMI
 70
     0
 40
0.0
 41
1.0
 50
0.0
 71
     0
 42
2.5
  3
simplex.shx
  4
EXTFONT.SHX
  0
STYLE
  5
262
330
3
100
AcDbSymbolTableRecord
100
AcDbTextStyleTableRecord
  2
ACJISTS
 70
     0
 40
1.0
 41
1.0
 50
0.0
 71
     0
 42
2.5
  3
simplex.shx
  4
bigfont.shx
  0
STYLE
  5
269
330
3
100
AcDbSymbolTableRecord
100
AcDbTextStyleTableRecord
  2
ACJISGDT
 70
     0
 40
0.0
 41
1.0
 50
0.0
 71
     0
 42
2.5
  3
amgdtans.shx
  4

  0
ENDTAB
  0
TABLE
  2
VIEW
  5
6
330
0
100
AcDbSymbolTable
 70
     0
  0
ENDTAB
  0
TABLE
  2
UCS
  5
7
330
0
100
AcDbSymbolTable
 70
     0
  0
ENDTAB
  0
TABLE
  2
APPID
  5
9
330
0
100
AcDbSymbolTable
 70
    12
  0
APPID
  5
12
330
9
100
AcDbSymbolTableRecord
100
AcDbRegAppTableRecord
  2
ACAD
 70
     0
  0
APPID
  5
30
330
9
100
AcDbSymbolTableRecord
100
AcDbRegAppTableRecord
  2
MCAD_NO_VIS
 70
     0
  0
APPID
  5
31
330
9
100
AcDbSymbolTableRecord
100
AcDbRegAppTableRecord
  2
ACAD_TEMP_GRAPHIC
 70
     0
  0
APPID
  5
2C2
330
9
100
AcDbSymbolTableRecord
100
AcDbRegAppTableRecord
  2
GENIUS_GENDTOL_13
 70
     0
  0
APPID
  5
339
330
9
100
AcDbSymbolTableRecord
100
AcDbRegAppTableRecord
  2
GENIUS_GENODEF_13
 70
     0
  0
APPID
  5
33A
330
9
100
AcDbSymbolTableRecord
100
AcDbRegAppTableRecord
  2
GENIUS_GENOBJ-N-RSBK_13
 70
     0
  0
APPID
  5
33B
330
9
100
AcDbSymbolTableRecord
100
AcDbRegAppTableRecord
  2
GENIUS_GENOBJ-N-LIB_13
 70
     0
  0
APPID
  5
33C
330
9
100
AcDbSymbolTableRecord
100
AcDbRegAppTableRecord
  2
GENIUS_GENSCALE_13
 70
     0
  0
APPID
  5
378
330
9
100
AcDbSymbolTableRecord
100
AcDbRegAppTableRecord
  2
GENIUS_GENDIMSH_14
 70
     0
  0
APPID
  5
BD8
330
9
100
AcDbSymbolTableRecord
100
AcDbRegAppTableRecord
  2
GENIUS_GENOBJ-N-CEN_13
 70
     0
  0
APPID
  5
BD9
330
9
100
AcDbSymbolTableRecord
100
AcDbRegAppTableRecord
  2
GENIUS_GENFIL_13
 70
     0
  0
APPID
  5
BDA
330
9
100
AcDbSymbolTableRecord
100
AcDbRegAppTableRecord
  2
GENIUS_GENOBJ-N-CHA_13
 70
     0
  0
ENDTAB
  0
TABLE
  2
DIMSTYLE
  5
A
330
0
100
AcDbSymbolTable
 70
     8
  0
DIMSTYLE
105
58
102
{ACAD_REACTORS
330
105F
330
10EF
330
14CC
330
1512
102
}
330
A
100
AcDbSymbolTableRecord
100
AcDbDimStyleTableRecord
  2
AM_JIS
 70
     0
  3

  4
"
  5
OPEN30
  6

  7

 40
1.0
 41
2.5
 42
1.0
 43
12.0
 44
1.0
 45
0.0
 46
0.0
 47
0.1
 48
0.1
140
3.2
141
0.0
142
0.0
143
0.0393701
144
1.0
145
0.0
146
0.71
147
1.5
 71
     0
 72
     0
 73
     0
 74
     0
 75
     0
 76
     0
 77
     3
 78
     8
170
     0
171
     2
172
     1
173
     0
174
     0
175
     0
176
   256
177
   256
178
     2
270
     2
271
     3
272
     3
273
     2
274
     2
340
6B
275
     0
280
     0
281
     0
282
     0
283
     0
284
     0
285
     0
286
     0
287
     3
288
     0
  0
DIMSTYLE
105
5F
330
A
100
AcDbSymbolTableRecord
100
AcDbDimStyleTableRecord
  2
AM_JIS$3
 70
     0
  3

  4
"
  5
OPEN30
  6

  7

 40
1.0
 41
2.5
 42
1.0
 43
10.0
 44
1.0
 45
0.0
 46
0.0
 47
0.1
 48
0.1
140
3.2
141
0.0
142
0.0
143
0.0393701
144
1.0
145
0.0
146
0.71
147
1.5
 71
     0
 72
     0
 73
     0
 74
     1
 75
     0
 76
     0
 77
     3
 78
     8
170
     0
171
     2
172
     0
173
     0
174
     0
175
     0
176
   256
177
   256
178
     2
270
     2
271
     2
272
     3
273
     2
274
     2
340
6B
275
     0
280
     0
281
     0
282
     0
283
     0
284
     0
285
     0
286
     0
287
     0
288
     1
  0
DIMSTYLE
105
60
330
A
100
AcDbSymbolTableRecord
100
AcDbDimStyleTableRecord
  2
AM_JIS$4
 70
     0
  3

  4
"
  5
OPEN30
  6

  7

 40
1.0
 41
2.5
 42
1.0
 43
10.0
 44
1.0
 45
0.0
 46
0.0
 47
0.1
 48
0.1
140
3.2
141
0.0
142
0.0
143
0.0393701
144
1.0
145
0.0
146
0.71
147
1.5
 71
     0
 72
     0
 73
     0
 74
     1
 75
     0
 76
     0
 77
     3
 78
     8
170
     0
171
     2
172
     0
173
     0
174
     0
175
     0
176
   256
177
   256
178
     2
270
     2
271
     2
272
     3
273
     2
274
     2
340
6B
275
     0
280
     0
281
     0
282
     0
283
     0
284
     0
285
     0
286
     0
287
     0
288
     1
  0
DIMSTYLE
105
61
330
A
100
AcDbSymbolTableRecord
100
AcDbDimStyleTableRecord
  2
AM_JIS$6
 70
     0
  3

  4
"
  5
OPEN30
  6

  7

 40
1.0
 41
2.5
 42
1.0
 43
10.0
 44
1.0
 45
0.0
 46
0.0
 47
0.1
 48
0.1
140
3.2
141
0.0
142
0.0
143
0.0393701
144
1.0
145
0.0
146
0.71
147
1.5
 71
     0
 72
     0
 73
     0
 74
     0
 75
     0
 76
     0
 77
     0
 78
     8
170
     0
171
     2
172
     1
173
     0
174
     0
175
     0
176
   256
177
   256
178
     2
270
     2
271
     2
272
     2
273
     2
274
     2
340
6B
275
     0
280
     0
281
     0
282
     0
283
     0
284
     0
285
     0
286
     0
287
     3
288
     0
  0
DIMSTYLE
105
62
330
A
100
AcDbSymbolTableRecord
100
AcDbDimStyleTableRecord
  2
AM_JIS$7
 70
     0
  3

  4
"
  5
OPEN30
  6

  7

 40
1.0
 41
2.5
 42
1.0
 43
10.0
 44
1.0
 45
0.0
 46
0.0
 47
0.1
 48
0.1
140
3.2
141
0.0
142
0.0
143
0.0393701
144
1.0
145
0.0
146
0.71
147
1.5
 71
     0
 72
     0
 73
     0
 74
     0
 75
     0
 76
     0
 77
     3
 78
     8
170
     0
171
     2
172
     1
173
     0
174
     0
175
     0
176
   256
177
   256
178
     2
270
     2
271
     2
272
     3
273
     2
274
     2
340
6B
275
     0
280
     0
281
     0
282
     0
283
     0
284
     0
285
     0
286
     0
287
     3
288
     0
  0
DIMSTYLE
105
63
330
A
100
AcDbSymbolTableRecord
100
AcDbDimStyleTableRecord
  2
AM_JIS$SF
 70
     0
  3

  4
"
  5
OPEN30
  6

  7

 40
1.0
 41
2.5
 42
1.0
 43
10.0
 44
1.0
 45
0.0
 46
0.0
 47
0.1
 48
0.1
140
3.2
141
0.0
142
0.0
143
0.0393701
144
1.0
145
0.0
146
0.71
147
1.5
 71
     0
 72
     0
 73
     0
 74
     0
 75
     1
 76
     1
 77
     3
 78
     8
170
     0
171
     2
172
     1
173
     0
174
     0
175
     0
176
   256
177
   256
178
     2
270
     2
271
     2
272
     2
273
     2
274
     2
340
6B
275
     0
280
     0
281
     0
282
     0
283
     0
284
     0
285
     0
286
     0
287
     3
288
     0
  0
DIMSTYLE
105
68
330
A
100
AcDbSymbolTableRecord
100
AcDbDimStyleTableRecord
  2
AM_JIS$SH
 70
     0
  3

  4
"
  5

  6
GENAXEH
  7
OPEN30
 40
1.0
 41
2.5
 42
1.0
 43
10.0
 44
1.0
 45
0.0
 46
0.0
 47
0.1
 48
0.1
140
3.2
141
0.0
142
0.0
143
0.0393701
144
2.0
145
0.0
146
0.71
147
1.5
 71
     0
 72
     0
 73
     0
 74
     0
 75
     1
 76
     1
 77
     3
 78
     8
170
     0
171
     2
172
     1
173
     1
174
     0
175
     0
176
   256
177
   256
178
     2
270
     2
271
     2
272
     2
273
     2
274
     2
340
6B
275
     0
280
     0
281
     0
282
     0
283
     0
284
     0
285
     0
286
     0
287
     3
288
     0
  0
DIMSTYLE
105
B34
330
A
100
AcDbSymbolTableRecord
100
AcDbDimStyleTableRecord
  2
AM_JIS$2
 70
     0
  3

  4
"
  5
OPEN30
  6

  7

 40
1.0
 41
2.5
 42
1.0
 43
12.0
 44
1.0
 45
0.0
 46
0.0
 47
0.1
 48
0.1
140
3.2
141
0.0
142
0.0
143
0.0393701
144
1.0
145
0.0
146
0.71
147
1.5
 71
     0
 72
     0
 73
     0
 74
     0
 75
     0
 76
     0
 77
     3
 78
     8
170
     0
171
     2
172
     1
173
     0
174
     0
175
     0
176
   256
177
   256
178
     2
270
     2
271
     3
272
     3
273
     2
274
     2
340
6B
275
     0
280
     0
281
     0
282
     0
283
     0
284
     0
285
     0
286
     0
287
     3
288
     0
  0
ENDTAB
  0
TABLE
  2
BLOCK_RECORD
  5
1
330
0
100
AcDbSymbolTable
 70
     9
  0
BLOCK_RECORD
  5
1F
102
{ACAD_XDICTIONARY
360
74
102
}
330
1
100
AcDbSymbolTableRecord
100
AcDbBlockTableRecord
  2
*MODEL_SPACE
  0
BLOCK_RECORD
  5
101
102
{ACAD_XDICTIONARY
360
186B
102
}
330
1
100
AcDbSymbolTableRecord
100
AcDbBlockTableRecord
  2
*PAPER_SPACE
  0
BLOCK_RECORD
  5
59
330
1
100
AcDbSymbolTableRecord
100
AcDbBlockTableRecord
  2
_OPEN30
  0
BLOCK_RECORD
  5
64
330
1
100
AcDbSymbolTableRecord
100
AcDbBlockTableRecord
  2
GENAXEH
  0
BLOCK_RECORD
  5
1060
330
1
100
AcDbSymbolTableRecord
100
AcDbBlockTableRecord
  2
*D5
  0
BLOCK_RECORD
  5
10F0
330
1
100
AcDbSymbolTableRecord
100
AcDbBlockTableRecord
  2
*D6
  0
BLOCK_RECORD
  5
14CD
330
1
100
AcDbSymbolTableRecord
100
AcDbBlockTableRecord
  2
*D7
  0
BLOCK_RECORD
  5
1513
330
1
100
AcDbSymbolTableRecord
100
AcDbBlockTableRecord
  2
*D8
  0
ENDTAB
  0
ENDSEC
  0
SECTION
  2
BLOCKS
  0
BLOCK
  5
20
330
1F
100
AcDbEntity
  8
0
100
AcDbBlockBegin
  2
*MODEL_SPACE
 70
     0
 10
0.0
 20
0.0
 30
0.0
  3
*MODEL_SPACE
  1

  0
ENDBLK
  5
21
330
1F
100
AcDbEntity
  8
0
100
AcDbBlockEnd
  0
BLOCK
  5
103
330
101
100
AcDbEntity
 67
     1
  8
0
100
AcDbBlockBegin
  2
*PAPER_SPACE
 70
     0
 10
0.0
 20
0.0
 30
0.0
  3
*PAPER_SPACE
  1

  0
ENDBLK
  5
104
330
101
100
AcDbEntity
 67
     1
  8
0
100
AcDbBlockEnd
  0
BLOCK
  5
5D
330
59
100
AcDbEntity
  8
0
100
AcDbBlockBegin
  2
_OPEN30
 70
     0
 10
0.0
 20
0.0
 30
0.0
  3
_OPEN30
  1

  0
LINE
  5
5A
330
59
100
AcDbEntity
  8
0
 62
     0
100
AcDbLine
 10
-1.0
 20
0.26794919
 30
0.0
 11
0.0
 21
0.0
 31
0.0
  0
LINE
  5
5B
330
59
100
AcDbEntity
  8
0
 62
     0
100
AcDbLine
 10
0.0
 20
0.0
 30
0.0
 11
-1.0
 21
-0.26794919
 31
0.0
  0
LINE
  5
5C
330
59
100
AcDbEntity
  8
0
 62
     0
100
AcDbLine
 10
0.0
 20
0.0
 30
0.0
 11
-1.0
 21
0.0
 31
0.0
  0
ENDBLK
  5
5E
330
59
100
AcDbEntity
  8
0
100
AcDbBlockEnd
  0
BLOCK
  5
66
330
64
100
AcDbEntity
  8
0
100
AcDbBlockBegin
  2
GENAXEH
 70
     0
 10
0.0
 20
0.0
 30
0.0
  3
GENAXEH
  1

  0
LINE
  5
65
330
64
100
AcDbEntity
  8
0
100
AcDbLine
 10
-1.0
 20
0.0
 30
0.0
 11
1.0
 21
0.0
 31
0.0
  0
ENDBLK
  5
67
330
64
100
AcDbEntity
  8
0
100
AcDbBlockEnd
  0
BLOCK
  5
106A
330
1060
100
AcDbEntity
  8
0
100
AcDbBlockBegin
  2
*D5
 70
     1
 10
0.0
 20
0.0
 30
0.0
  3
*D5
  1

  0
LINE
  5
1684
330
1060
100
AcDbEntity
  8
AM_5
100
AcDbLine
 10
-39.99999920151482
 20
-7.999999999999991
 30
0.0
 11
-39.99999920151482
 21
-23.00000099999793
 31
0.0
  0
LINE
  5
1685
330
1060
100
AcDbEntity
  8
AM_5
100
AcDbLine
 10
-0.0000000000007782
 20
-7.499999999997786
 30
0.0
 11
-0.0000000000007791
 21
-23.00000099999793
 31
0.0
  0
LINE
  5
1686
330
1060
100
AcDbEntity
  8
AM_5
100
AcDbLine
 10
-37.49999920151482
 20
-22.00000099999793
 30
0.0
 11
-2.500000000000778
 21
-22.00000099999793
 31
0.0
  0
INSERT
  5
1687
330
1060
100
AcDbEntity
  8
AM_5
100
AcDbBlockReference
  2
_OPEN30
 10
-39.99999920151482
 20
-22.00000099999793
 30
0.0
 41
2.5
 42
2.5
 43
2.5
 50
180.0
  0
INSERT
  5
1688
330
1060
100
AcDbEntity
  8
AM_5
100
AcDbBlockReference
  2
_OPEN30
 10
-0.0000000000007791
 20
-22.00000099999793
 30
0.0
 41
2.5
 42
2.5
 43
2.5
  0
MTEXT
  5
1689
330
1060
100
AcDbEntity
  8
AM_5
 62
     2
100
AcDbMText
 10
-19.9999996007578
 20
-18.90000099999793
 30
0.0
 40
3.2
 41
0.0
 71
     5
 72
     1
  1
40
  7
ASAMI
1001
ACAD
1000
MTEXTBEGIN
1070
    73
1070
     1
1070
    44
1040
1.0
1070
    74
1070
     0
1000
MTEXTEND
  0
POINT
  5
168A
330
1060
100
AcDbEntity
  8
DEFPOINTS
 62
     0
100
AcDbPoint
 10
-39.99999920151482
 20
-6.999999999999991
 30
0.0
  0
POINT
  5
168B
330
1060
100
AcDbEntity
  8
DEFPOINTS
 62
     0
100
AcDbPoint
 10
-0.0000000000007781
 20
-6.499999999997786
 30
0.0
  0
POINT
  5
168C
330
1060
100
AcDbEntity
  8
DEFPOINTS
 62
     0
100
AcDbPoint
 10
-0.0000000000007791
 20
-22.00000099999793
 30
0.0
  0
ENDBLK
  5
106B
330
1060
100
AcDbEntity
  8
0
100
AcDbBlockEnd
  0
BLOCK
  5
10FA
330
10F0
100
AcDbEntity
  8
0
100
AcDbBlockBegin
  2
*D6
 70
     1
 10
0.0
 20
0.0
 30
0.0
  3
*D6
  1

  0
LINE
  5
15AC
330
10F0
100
AcDbEntity
  8
AM_5
100
AcDbLine
 10
-95.00000000000001
 20
-7.999999999998077
 30
0.0
 11
-95.00000000000001
 21
-35.00000099999792
 31
0.0
  0
LINE
  5
15AD
330
10F0
100
AcDbEntity
  8
AM_5
100
AcDbLine
 10
-0.0000000000007782
 20
-7.499999999997786
 30
0.0
 11
-0.0000000000007799
 21
-35.00000099999792
 31
0.0
  0
LINE
  5
15AE
330
10F0
100
AcDbEntity
  8
AM_5
100
AcDbLine
 10
-92.50000000000001
 20
-34.00000099999792
 30
0.0
 11
-2.500000000000779
 21
-34.00000099999792
 31
0.0
  0
INSERT
  5
15AF
330
10F0
100
AcDbEntity
  8
AM_5
100
AcDbBlockReference
  2
_OPEN30
 10
-95.00000000000001
 20
-34.00000099999792
 30
0.0
 41
2.5
 42
2.5
 43
2.5
 50
180.0
  0
INSERT
  5
15B0
330
10F0
100
AcDbEntity
  8
AM_5
100
AcDbBlockReference
  2
_OPEN30
 10
-0.0000000000007798
 20
-34.00000099999792
 30
0.0
 41
2.5
 42
2.5
 43
2.5
  0
MTEXT
  5
15B1
330
10F0
100
AcDbEntity
  8
AM_5
 62
     2
100
AcDbMText
 10
-47.50000000000039
 20
-30.90000099999792
 30
0.0
 40
3.2
 41
0.0
 71
     5
 72
     1
  1
95
  7
ASAMI
1001
ACAD
1000
MTEXTBEGIN
1070
    73
1070
     1
1070
    44
1040
1.0
1070
    74
1070
     0
1000
MTEXTEND
  0
POINT
  5
15B2
330
10F0
100
AcDbEntity
  8
DEFPOINTS
 62
     0
100
AcDbPoint
 10
-95.00000000000001
 20
-6.999999999998077
 30
0.0
  0
POINT
  5
15B3
330
10F0
100
AcDbEntity
  8
DEFPOINTS
 62
     0
100
AcDbPoint
 10
-0.0000000000007781
 20
-6.499999999997786
 30
0.0
  0
POINT
  5
15B4
330
10F0
100
AcDbEntity
  8
DEFPOINTS
 62
     0
100
AcDbPoint
 10
-0.0000000000007798
 20
-34.00000099999792
 30
0.0
  0
ENDBLK
  5
10FB
330
10F0
100
AcDbEntity
  8
0
100
AcDbBlockEnd
  0
BLOCK
  5
14D7
330
14CD
100
AcDbEntity
  8
0
100
AcDbBlockBegin
  2
*D7
 70
     1
 10
0.0
 20
0.0
 30
0.0
  3
*D7
  1

  0
LINE
  5
1694
330
14CD
100
AcDbEntity
  8
AM_5
100
AcDbLine
 10
1.000000000000002
 20
7.0
 30
0.0
 11
19.55776903085494
 21
6.999999999999994
 31
0.0
  0
LINE
  5
1695
330
14CD
100
AcDbEntity
  8
AM_5
100
AcDbLine
 10
1.0
 20
-7.0
 30
0.0
 11
19.55776903085494
 21
-7.000000000000005
 31
0.0
  0
LINE
  5
1696
330
14CD
100
AcDbEntity
  8
AM_5
100
AcDbLine
 10
18.55776903085494
 20
4.499999999999994
 30
0.0
 11
18.55776903085494
 21
-4.500000000000005
 31
0.0
  0
INSERT
  5
1697
330
14CD
100
AcDbEntity
  8
AM_5
100
AcDbBlockReference
  2
_OPEN30
 10
18.55776903085494
 20
6.999999999999994
 30
0.0
 41
2.5
 42
2.5
 43
2.5
 50
90.0
  0
INSERT
  5
1698
330
14CD
100
AcDbEntity
  8
AM_5
100
AcDbBlockReference
  2
_OPEN30
 10
18.55776903085494
 20
-7.000000000000005
 30
0.0
 41
2.5
 42
2.5
 43
2.5
 50
270.0
  0
MTEXT
  5
1699
330
14CD
100
AcDbEntity
  8
AM_5
 62
     2
100
AcDbMText
 10
15.45776903085494
 20
-0.0000000000000016
 30
0.0
 40
3.2
 41
0.0
 71
     5
 72
     1
  1
%%c14
  7
ASAMI
 11
0.0000000000000001
 21
1.0
 31
0.0
1001
ACAD
1000
MTEXTBEGIN
1070
    73
1070
     1
1070
    44
1040
1.0
1070
    74
1070
     0
1000
MTEXTEND
  0
POINT
  5
169A
330
14CD
100
AcDbEntity
  8
DEFPOINTS
 62
     0
100
AcDbPoint
 10
0.0000000000000022
 20
7.0
 30
0.0
  0
POINT
  5
169B
330
14CD
100
AcDbEntity
  8
DEFPOINTS
 62
     0
100
AcDbPoint
 10
0.0
 20
-7.0
 30
0.0
  0
POINT
  5
169C
330
14CD
100
AcDbEntity
  8
DEFPOINTS
 62
     0
100
AcDbPoint
 10
18.55776903085494
 20
-7.000000000000005
 30
0.0
  0
ENDBLK
  5
14D8
330
14CD
100
AcDbEntity
  8
0
100
AcDbBlockEnd
  0
BLOCK
  5
151D
330
1513
100
AcDbEntity
  8
0
100
AcDbBlockBegin
  2
*D8
 70
     1
 10
0.0
 20
0.0
 30
0.0
  3
*D8
  1

  0
LINE
  5
15B5
330
1513
100
AcDbEntity
  8
AM_5
100
AcDbLine
 10
-95.0
 20
7.999999999999898
 30
0.0
 11
-112.7882312597197
 21
7.999999999999903
 31
0.0
  0
LINE
  5
15B6
330
1513
100
AcDbEntity
  8
AM_5
100
AcDbLine
 10
-95.00000000000001
 20
-7.999999999998077
 30
0.0
 11
-112.7882312597197
 21
-7.999999999998073
 31
0.0
  0
LINE
  5
15B7
330
1513
100
AcDbEntity
  8
AM_5
100
AcDbLine
 10
-111.7882312597197
 20
5.499999999999903
 30
0.0
 11
-111.7882312597197
 21
-5.499999999998073
 31
0.0
  0
INSERT
  5
15B8
330
1513
100
AcDbEntity
  8
AM_5
100
AcDbBlockReference
  2
_OPEN30
 10
-111.7882312597197
 20
7.999999999999903
 30
0.0
 41
2.5
 42
2.5
 43
2.5
 50
90.0
  0
INSERT
  5
15B9
330
1513
100
AcDbEntity
  8
AM_5
100
AcDbBlockReference
  2
_OPEN30
 10
-111.7882312597197
 20
-7.999999999998073
 30
0.0
 41
2.5
 42
2.5
 43
2.5
 50
270.0
  0
MTEXT
  5
15BA
330
1513
100
AcDbEntity
  8
AM_5
 62
     2
100
AcDbMText
 10
-114.8882312597197
 20
0.0000000000008972
 30
0.0
 40
3.2
 41
0.0
 71
     5
 72
     1
  1
%%c16
  7
ASAMI
 11
0.0000000000000001
 21
1.0
 31
0.0
1001
ACAD
1000
MTEXTBEGIN
1070
    73
1070
     1
1070
    44
1040
1.0
1070
    74
1070
     0
1000
MTEXTEND
  0
POINT
  5
15BB
330
1513
100
AcDbEntity
  8
DEFPOINTS
 62
     0
100
AcDbPoint
 10
-94.0
 20
7.999999999999898
 30
0.0
  0
POINT
  5
15BC
330
1513
100
AcDbEntity
  8
DEFPOINTS
 62
     0
100
AcDbPoint
 10
-94.00000000000002
 20
-7.999999999998077
 30
0.0
  0
POINT
  5
15BD
330
1513
100
AcDbEntity
  8
DEFPOINTS
 62
     0
100
AcDbPoint
 10
-111.7882312597197
 20
-7.999999999998073
 30
0.0
  0
ENDBLK
  5
151E
330
1513
100
AcDbEntity
  8
0
100
AcDbBlockEnd
  0
ENDSEC
  0
SECTION
  2
ENTITIES
  0
TEXT
  5
E5A
330
1F
100
AcDbEntity
  8
AM_6
100
AcDbText
 10
-63.09523809523847
 20
-56.50000099999792
 30
0.0
 40
5.0
  1
LSM2140
 72
     4
 11
-47.50000000000038
 21
-54.00000099999792
 31
0.0
100
AcDbText
  0
LINE
  5
F47
330
1F
100
AcDbEntity
  8
AM_7
  6
AM_ISO08W050X2
100
AcDbLine
 10
4.557768030854958
 20
0.0
 30
0.0
 11
-97.78823025971981
 21
-0.0000000000000155
 31
0.0
1001
GENIUS_GENODEF_13
1002
{
1000
HIER
1070
     0
1002
}
1002
{
1000
MANEDIT
1070
     0
1002
}
1002
{
1000
NOSEL
1070
     0
1002
}
1002
{
1000
BEHIND
1070
     0
1002
}
1002
{
1000
REACTOR
1002
}
1001
GENIUS_GENOBJ-N-CEN_13
1002
{
1000
OWNER
1000
GEN
1002
}
  0
DIMENSION
  5
105F
330
1F
100
AcDbEntity
  8
AM_5
100
AcDbDimension
  2
*D5
 10
-0.0000000000007791
 20
-22.00000099999793
 30
0.0
 11
-19.9999996007578
 21
-18.90000099999793
 31
0.0
 70
    32
  1
<>
  3
AM_JIS
100
AcDbAlignedDimension
 13
-39.99999920151482
 23
-6.999999999999991
 33
0.0
 14
-0.0000000000007781
 24
-6.499999999997786
 34
0.0
 50
0.0000000000001132
100
AcDbRotatedDimension
1001
GENIUS_GENDTOL_13
1000

1000
h7
1000

1040
0.0
  0
DIMENSION
  5
10EF
330
1F
100
AcDbEntity
  8
AM_5
100
AcDbDimension
  2
*D6
 10
-0.0000000000007798
 20
-34.00000099999792
 30
0.0
 11
-47.50000000000039
 21
-30.90000099999792
 31
0.0
 70
    32
  1
<>
  3
AM_JIS
100
AcDbAlignedDimension
 13
-95.00000000000001
 23
-6.999999999998077
 33
0.0
 14
-0.0000000000007781
 24
-6.499999999997786
 34
0.0
 50
0.0000000000001132
100
AcDbRotatedDimension
1001
GENIUS_GENDTOL_13
1000

1000
h7
1000

1040
0.0
  0
LINE
  5
1440
330
1F
100
AcDbEntity
  8
AM_0
100
AcDbLine
 10
-55.0
 20
7.999999999999955
 30
0.0
 11
-52.25252258054539
 21
6.999999999999968
 31
0.0
  0
LINE
  5
1442
330
1F
100
AcDbEntity
  8
AM_0
100
AcDbLine
 10
-52.25252258053801
 20
-6.999999999998332
 30
0.0
 11
-55.00000000000002
 21
-7.999999999998032
 31
0.0
  0
DIMENSION
  5
14CC
330
1F
100
AcDbEntity
  8
AM_5
100
AcDbDimension
  2
*D7
 10
18.55776903085494
 20
-7.000000000000005
 30
0.0
 11
15.45776903085494
 21
-0.0000000000000016
 31
0.0
 70
    32
  1
%%c<>
  3
AM_JIS
100
AcDbAlignedDimension
 13
0.0000000000000022
 23
7.0
 33
0.0
 14
0.0
 24
-7.0
 34
0.0
 50
90.0
100
AcDbRotatedDimension
1001
GENIUS_GENDTOL_13
1000

1000
h7
1000

1040
0.0
  0
LINE
  5
150E
330
1F
100
AcDbEntity
  8
AM_0
100
AcDbLine
 10
-55.00000000000001
 20
-7.999999999998037
 30
0.0
 11
-94.00000000000002
 21
-7.999999999998076
 31
0.0
  0
LINE
  5
1510
330
1F
100
AcDbEntity
  8
AM_0
100
AcDbLine
 10
-94.0
 20
7.999999999999898
 30
0.0
 11
-94.00000000000002
 21
-7.999999999998077
 31
0.0
  0
LINE
  5
1511
330
1F
100
AcDbEntity
  8
AM_0
100
AcDbLine
 10
-95.0
 20
6.999999999999897
 30
0.0
 11
-95.00000000000001
 21
-6.999999999998077
 31
0.0
  0
DIMENSION
  5
1512
330
1F
100
AcDbEntity
  8
AM_5
100
AcDbDimension
  2
*D8
 10
-111.7882312597197
 20
-7.999999999998073
 30
0.0
 11
-114.8882312597197
 21
0.0000000000008972
 31
0.0
 70
    32
  1
%%c<>
  3
AM_JIS
100
AcDbAlignedDimension
 13
-94.0
 23
7.999999999999898
 33
0.0
 14
-94.00000000000002
 24
-7.999999999998077
 34
0.0
 50
270.0
100
AcDbRotatedDimension
1001
GENIUS_GENDTOL_13
1000

1000
h7
1000

1040
0.0
  0
LINE
  5
151F
330
1F
100
AcDbEntity
  8
AM_0
100
AcDbLine
 10
-55.0
 20
7.999999999999951
 30
0.0
 11
-94.0
 21
7.999999999999898
 31
0.0
  0
LINE
  5
153D
330
1F
100
AcDbEntity
  8
AM_0
100
AcDbLine
 10
-94.0
 20
7.999999999999898
 30
0.0
 11
-95.0
 21
6.999999999999897
 31
0.0
1001
GENIUS_GENFIL_13
1070
     0
1040
1.0
1040
1.0
1040
20.0
1040
0.0
1002
{
1002
}
1001
GENIUS_GENODEF_13
1002
{
1000
HIER
1070
     0
1002
}
1002
{
1000
MANEDIT
1070
     0
1002
}
1002
{
1000
NOSEL
1070
     0
1002
}
1002
{
1000
BEHIND
1070
     0
1002
}
1002
{
1000
REACTOR
1002
}
1001
GENIUS_GENOBJ-N-CHA_13
1002
{
1000
OWNER
1000
GEN
1002
}
  0
LINE
  5
1540
330
1F
100
AcDbEntity
  8
AM_0
100
AcDbLine
 10
-95.00000000000001
 20
-6.999999999998077
 30
0.0
 11
-94.00000000000002
 21
-7.999999999998076
 31
0.0
1001
GENIUS_GENFIL_13
1070
     0
1040
1.0
1040
1.0
1040
20.0
1040
0.0
1002
{
1002
}
1001
GENIUS_GENODEF_13
1002
{
1000
HIER
1070
     0
1002
}
1002
{
1000
MANEDIT
1070
     0
1002
}
1002
{
1000
NOSEL
1070
     0
1002
}
1002
{
1000
BEHIND
1070
     0
1002
}
1002
{
1000
REACTOR
1002
}
1001
GENIUS_GENOBJ-N-CHA_13
1002
{
1000
OWNER
1000
GEN
1002
}
  0
LINE
  5
1565
330
1F
100
AcDbEntity
  8
AM_0
100
AcDbLine
 10
-55.0
 20
7.999999999999955
 30
0.0
 11
-55.00000000000002
 21
-7.999999999998032
 31
0.0
  0
LINE
  5
1568
330
1F
100
AcDbEntity
  8
AM_0
100
AcDbLine
 10
-52.25252258054539
 20
6.999999999999968
 30
0.0
 11
-52.25252258053799
 21
-6.999999999998327
 31
0.0
  0
LINE
  5
1647
330
1F
100
AcDbEntity
  8
AM_0
100
AcDbLine
 10
-0.4307413269267613
 20
0.8399999999999522
 30
0.0
 11
0.0
 21
1.4
 31
0.0
  0
LINE
  5
1648
330
1F
100
AcDbEntity
  8
AM_0
100
AcDbLine
 10
0.0
 20
0.2799999999999841
 30
0.0
 11
-3.024292384579222
 21
4.211834791539309
 31
0.0
  0
LINE
  5
1649
330
1F
100
AcDbEntity
  8
AM_0
100
AcDbLine
 10
0.0
 20
1.4
 30
0.0
 11
-0.0000000000000046
 21
7.0
 31
0.0
  0
LINE
  5
164A
330
1F
100
AcDbEntity
  8
AM_0
100
AcDbLine
 10
-0.1347511000089985
 20
-6.626817620670556
 30
0.0
 11
-0.4812539286034944
 21
-5.709508258318578
 31
0.0
  0
LINE
  5
164B
330
1F
100
AcDbEntity
  8
AM_0
100
AcDbLine
 10
-0.4812539286034944
 20
-5.709508258318578
 30
0.0
 11
-0.4812539286034944
 21
-5.634097603585667
 31
0.0
  0
LINE
  5
164C
330
1F
100
AcDbEntity
  8
AM_0
100
AcDbLine
 10
0.0000000000000046
 20
-7.0
 30
0.0
 11
-0.1347511000089985
 21
-6.626817620670556
 31
0.0
  0
LINE
  5
164D
330
1F
100
AcDbEntity
  8
AM_0
100
AcDbLine
 10
-0.1347511000089985
 20
-6.626817620670556
 30
0.0
 11
-0.134751100009003
 21
0.4551877781113377
 31
0.0
  0
LINE
  5
164E
330
1F
100
AcDbEntity
  8
AM_0
100
AcDbLine
 10
0.0000000000000046
 20
-7.0
 30
0.0
 11
0.0
 21
0.2799999999999841
 31
0.0
  0
LINE
  5
1652
330
1F
100
AcDbEntity
  8
AM_0
100
AcDbLine
 10
-14.79635544822583
 20
-5.371373642221918
 30
0.0
 11
-27.26995149167038
 21
-6.244401440064794
 31
0.0
  0
LINE
  5
1653
330
1F
100
AcDbEntity
  8
AM_11
100
AcDbLine
 10
-40.00000000000096
 20
-6.999999999999991
 30
0.0
 11
0.0000000000000046
 21
-7.0
 31
0.0
  0
LINE
  5
1654
330
1F
100
AcDbEntity
  8
AM_11
100
AcDbLine
 10
-0.0000000000009894
 20
7.0
 30
0.0
 11
-40.00000000000096
 21
6.999999999999968
 31
0.0
  0
LINE
  5
1655
330
1F
100
AcDbEntity
  8
AM_0
100
AcDbLine
 10
-24.50128503755919
 20
5.629193568493
 30
0.0
 11
-3.024292384579222
 21
4.211834791539309
 31
0.0
  0
ELLIPSE
  5
1657
330
1F
100
AcDbEntity
  8
AM_0
100
AcDbEllipse
 10
-2.955095848485078
 20
112.0080197878255
 30
0.0
 11
31.06381353945161
 21
110.7425072211133
 31
0.0
210
0.0
220
0.0
230
1.0
 40
0.7283732375584778
 41
2.964105706529437
 42
3.084429874893121
  0
ELLIPSE
  5
1658
330
1F
100
AcDbEntity
  8
AM_0
100
AcDbEllipse
 10
-46.21502956637404
 20
-66.66806657248374
 30
0.0
 11
-0.1809453524828016
 21
73.68672815356951
 31
0.0
210
0.0
220
0.0
230
1.0
 40
0.9171859188696965
 41
-0.4422615559361052
 42
0.0203664337829672
  0
SPLINE
  5
1659
330
1F
100
AcDbEntity
  8
AM_0
100
AcDbSpline
210
0.0
220
0.0
230
1.0
 70
     8
 71
     3
 72
     8
 73
     4
 74
     0
 42
0.0000000001
 43
0.0000000001
 40
0.0
 40
0.0
 40
0.0
 40
0.0
 40
13.29048144950165
 40
13.29048144950165
 40
13.29048144950165
 40
13.29048144950165
 10
-30.99658186495319
 20
-6.545365510353425
 30
0.0
 10
-37.27300823737
 20
-5.964422305323792
 30
0.0
 10
-42.42719139899841
 20
-2.732211152661876
 30
0.0
 10
-47.5813745606268
 20
0.5000000000000398
 30
0.0
  0
SPLINE
  5
165A
330
1F
100
AcDbEntity
  8
AM_0
100
AcDbSpline
210
0.0
220
0.0
230
1.0
 70
     8
 71
     3
 72
     8
 73
     4
 74
     0
 42
0.0000000001
 43
0.0000000001
 40
6.225830728781539
 40
6.225830728781539
 40
6.225830728781539
 40
6.225830728781539
 40
7.218994763998551
 40
7.218994763998551
 40
7.218994763998551
 40
7.218994763998551
 10
-48.99321721004855
 20
1.622895321426231
 30
0.0
 10
-48.78342739354022
 20
1.363073844792572
 30
0.0
 10
-48.34206646703981
 20
1.05231651809465
 30
0.0
 10
-47.58137456062644
 20
0.4999999999997702
 30
0.0
  0
SPLINE
  5
165B
330
1F
100
AcDbEntity
  8
AM_0
100
AcDbSpline
210
0.0
220
0.0
230
1.0
 70
     8
 71
     3
 72
     8
 73
     4
 74
     0
 42
0.0000000001
 43
0.0000000001
 40
0.0
 40
0.0
 40
0.0
 40
0.0
 40
3.000656968708724
 40
3.000656968708724
 40
3.000656968708724
 40
3.000656968708724
 10
-34.90695162137377
 20
6.99999999999997
 30
0.0
 10
-36.19057646989153
 20
6.99999999999997
 30
0.0
 10
-37.44971082789116
 20
6.849905706546444
 30
0.0
 10
-38.72313043595255
 20
6.559571429470127
 30
0.0
  0
ELLIPSE
  5
165C
330
1F
100
AcDbEntity
  8
AM_0
100
AcDbEllipse
 10
18.23216833508498
 20
0.0294522363917317
 30
0.0
 11
-0.0000000000000053
 21
21.18552854587659
 31
0.0
210
0.0
220
0.0
230
1.0
 40
0.91667414972095
 41
1.489874453283512
 42
1.841418545974794
  0
SPLINE
  5
165D
330
1F
100
AcDbEntity
  8
AM_0
100
AcDbSpline
210
0.0
220
0.0
230
1.0
 70
     8
 71
     3
 72
     8
 73
     4
 74
     0
 42
0.0000000001
 43
0.0000000001
 40
0.0
 40
0.0
 40
0.0
 40
0.0
 40
14.15489169609656
 40
14.15489169609656
 40
14.15489169609656
 40
14.15489169609656
 10
-14.79635544822583
 20
-5.371373642221918
 30
0.0
 10
-20.85155299285117
 20
-5.371373642221923
 30
0.0
 10
-26.55293491887656
 20
-2.63278286966175
 30
0.0
 10
-32.25431684490196
 20
0.1058079028984231
 30
0.0
  0
SPLINE
  5
165E
330
1F
100
AcDbEntity
  8
AM_0
100
AcDbSpline
210
0.0
220
0.0
230
1.0
 70
     8
 71
     3
 72
     8
 73
     4
 74
     0
 42
0.0000000001
 43
0.0000000001
 40
4.219358800530717
 40
4.219358800530717
 40
4.219358800530717
 40
4.219358800530717
 40
14.36247867694493
 40
14.36247867694493
 40
14.36247867694493
 40
14.36247867694493
 10
-0.4812539286034214
 20
-5.70950825831826
 30
0.0
 10
-4.647095423481877
 20
-4.565326908364334
 30
0.0
 10
-8.640604409258234
 20
-2.28266345418213
 30
0.0
 10
-12.6341133950346
 20
0.0000000000000696
 30
0.0
  0
SPLINE
  5
165F
330
1F
100
AcDbEntity
  8
AM_0
100
AcDbSpline
210
0.0
220
0.0
230
1.0
 70
     8
 71
     3
 72
     8
 73
     4
 74
     0
 42
0.0000000001
 43
0.0000000001
 40
1.870660592686466
 40
1.870660592686466
 40
1.870660592686466
 40
1.870660592686466
 40
14.43901837670146
 40
14.43901837670146
 40
14.43901837670146
 40
14.43901837670146
 10
-0.134751100008962
 20
-6.626817620670477
 30
0.0
 10
-5.397698621589539
 20
-5.910660856942075
 30
0.0
 10
-10.30558177145676
 20
-2.955330428471005
 30
0.0
 10
-15.21346492132395
 20
0.0000000000000696
 30
0.0
  0
SPLINE
  5
1660
330
1F
100
AcDbEntity
  8
AM_0
100
AcDbSpline
210
0.0
220
0.0
230
1.0
 70
     8
 71
     3
 72
     8
 73
     4
 74
     0
 42
0.0000000001
 43
0.0000000001
 40
0.0
 40
0.0
 40
0.0
 40
0.0
 40
14.48999654934395
 40
14.48999654934395
 40
14.48999654934395
 40
14.48999654934395
 10
0.0000000000000046
 20
-7.0
 30
0.0
 10
-6.198549124287035
 20
-7.000000000000005
 30
0.0
 10
-11.82601246748695
 20
-3.50000000000001
 30
0.0
 10
-17.45347581068688
 20
-0.0000000000000149
 30
0.0
  0
SPLINE
  5
1661
330
1F
100
AcDbEntity
  8
AM_0
100
AcDbSpline
210
0.0
220
0.0
230
1.0
 70
     8
 71
     3
 72
     8
 73
     4
 74
     0
 42
0.0000000001
 43
0.0000000001
 40
0.0
 40
0.0
 40
0.0
 40
0.0
 40
2.130230809022907
 40
2.130230809022907
 40
2.130230809022907
 40
2.130230809022907
 10
-38.18509604173161
 20
-6.999999999999991
 30
0.0
 10
-35.4956787807742
 20
-7.000000000122738
 30
0.0
 10
-34.59674886563044
 20
-6.924354203070971
 30
0.0
 10
-33.7881603919686
 20
-6.810784881410083
 30
0.0
  0
SPLINE
  5
1662
330
1F
100
AcDbEntity
  8
AM_0
100
AcDbSpline
210
0.0
220
0.0
230
1.0
 70
     8
 71
     3
 72
     8
 73
     4
 74
     0
 42
0.0000000001
 43
0.0000000001
 40
0.0
 40
0.0
 40
0.0
 40
0.0
 40
2.221495395472776
 40
2.221495395472776
 40
2.221495395472776
 40
2.221495395472776
 10
-30.99658186495319
 20
-6.545365510353425
 30
0.0
 10
-29.13727508443626
 20
-6.464422305323946
 30
0.0
 10
-28.1986659995436
 20
-6.387095197794147
 30
0.0
 10
-27.26995149164887
 20
-6.244401440061452
 30
0.0
  0
SPLINE
  5
1663
330
1F
100
AcDbEntity
  8
AM_0
100
AcDbSpline
210
0.0
220
0.0
230
1.0
 70
     8
 71
     3
 72
     8
 73
     4
 74
     0
 42
0.0000000001
 43
0.0000000001
 40
0.0
 40
0.0
 40
0.0
 40
0.0
 40
2.461287552250946
 40
2.461287552250946
 40
2.461287552250946
 40
2.461287552250946
 10
-34.16694073201083
 20
-6.790397138592273
 30
0.0
 10
-33.07053398056831
 20
-6.865765661217244
 30
0.0
 10
-31.9020330448951
 20
-6.803668162852366
 30
0.0
 10
-30.9965818649532
 20
-6.545365510353412
 30
0.0
  0
SPLINE
  5
1664
330
1F
100
AcDbEntity
  8
AM_0
100
AcDbSpline
210
0.0
220
0.0
230
1.0
 70
     8
 71
     3
 72
     8
 73
     4
 74
     0
 42
0.0000000001
 43
0.0000000001
 40
5.297458184749251
 40
5.297458184749251
 40
5.297458184749251
 40
5.297458184749251
 40
7.218994763998551
 40
7.218994763998551
 40
7.218994763998551
 40
7.218994763998551
 10
-38.5765178687821
 20
2.739057151399458
 30
0.0
 10
-35.28948012767991
 20
1.563712366636666
 30
0.0
 10
-33.77189848629092
 20
0.8347601347674229
 30
0.0
 10
-32.25431684490196
 20
0.1058079028981048
 30
0.0
  0
SPLINE
  5
1665
330
1F
100
AcDbEntity
  8
AM_0
100
AcDbSpline
210
0.0
220
0.0
230
1.0
 70
     8
 71
     3
 72
     8
 73
     4
 74
     0
 42
0.0000000001
 43
0.0000000001
 40
0.0
 40
0.0
 40
0.0
 40
0.0
 40
2.238610194515266
 40
2.238610194515266
 40
2.238610194515266
 40
2.238610194515266
 10
-14.79635544822583
 20
-5.371373642221918
 30
0.0
 10
-12.91863875825106
 20
-5.371373642221918
 30
0.0
 10
-11.07494568684367
 20
-5.108025268211007
 30
0.0
 10
-9.25472551027093
 20
-4.66299284798585
 30
0.0
  0
SPLINE
  5
1666
330
1F
100
AcDbEntity
  8
AM_0
100
AcDbSpline
210
0.0
220
0.0
230
1.0
 70
     8
 71
     3
 72
     8
 73
     4
 74
     0
 42
0.0000000001
 43
0.0000000001
 40
0.7142832446738512
 40
0.7142832446738512
 40
0.7142832446738512
 40
0.7142832446738512
 40
14.36247867694493
 40
14.36247867694493
 40
14.36247867694493
 40
14.36247867694493
 10
-29.17448835709318
 20
6.440836905753984
 30
0.0
 10
-23.38114029849161
 20
6.142929849665725
 30
0.0
 10
-18.0076268467631
 20
3.071464924832898
 30
0.0
 10
-12.6341133950346
 20
0.0000000000000696
 30
0.0
  0
SPLINE
  5
1667
330
1F
100
AcDbEntity
  8
AM_0
100
AcDbSpline
210
0.0
220
0.0
230
1.0
 70
     8
 71
     3
 72
     8
 73
     4
 74
     0
 42
0.0000000001
 43
0.0000000001
 40
0.0
 40
0.0
 40
0.0
 40
0.0
 40
7.57842115059705
 40
7.57842115059705
 40
7.57842115059705
 40
7.57842115059705
 10
-0.0000000000000046
 20
7.0
 30
0.0
 10
-3.241906623410386
 20
7.0
 30
0.0
 10
-6.327598418501003
 20
6.042609854375344
 30
0.0
 10
-9.338777389474794
 20
4.628554715424481
 30
0.0
  0
SPLINE
  5
1668
330
1F
100
AcDbEntity
  8
AM_0
100
AcDbSpline
210
0.0
220
0.0
230
1.0
 70
     8
 71
     3
 72
     8
 73
     4
 74
     0
 42
0.0000000001
 43
0.0000000001
 40
0.0
 40
0.0
 40
0.0
 40
0.0
 40
2.586565323616736
 40
2.586565323616736
 40
2.586565323616736
 40
2.586565323616736
 10
-0.0000000000000046
 20
5.704583761357548
 30
0.0
 10
-0.7100322678272341
 20
4.778820474611403
 30
0.0
 10
-1.92876244271842
 20
4.381263315694094
 30
0.0
 10
-3.024292384579222
 20
4.211834791539309
 30
0.0
  0
SPLINE
  5
1669
330
1F
100
AcDbEntity
  8
AM_0
100
AcDbSpline
210
0.0
220
0.0
230
1.0
 70
     8
 71
     3
 72
     8
 73
     4
 74
     0
 42
0.0000000001
 43
0.0000000001
 40
0.3581103616548037
 40
0.3581103616548037
 40
0.3581103616548037
 40
0.3581103616548037
 40
14.43901837670146
 40
14.43901837670146
 40
14.43901837670146
 40
14.43901837670146
 10
-32.20834729441418
 20
6.784183591993722
 30
0.0
 10
-26.21051837404661
 20
6.621984611274493
 30
0.0
 10
-20.71199164768528
 20
3.310992305637281
 30
0.0
 10
-15.21346492132395
 20
0.0000000000000696
 30
0.0
  0
SPLINE
  5
166A
330
1F
100
AcDbEntity
  8
AM_0
100
AcDbSpline
210
0.0
220
0.0
230
1.0
 70
     8
 71
     3
 72
     8
 73
     4
 74
     0
 42
0.0000000001
 43
0.0000000001
 40
0.0
 40
0.0
 40
0.0
 40
0.0
 40
14.48999654934396
 40
14.48999654934396
 40
14.48999654934396
 40
14.48999654934396
 10
-34.90695162137377
 20
7.000000000000129
 30
0.0
 10
-28.70840249708672
 20
7.000000000000133
 30
0.0
 10
-23.0809391538868
 20
3.500000000000138
 30
0.0
 10
-17.45347581068688
 20
0.0000000000001442
 30
0.0
  0
ELLIPSE
  5
166B
330
1F
100
AcDbEntity
  8
AM_0
100
AcDbEllipse
 10
-33.10628313991935
 20
16.56020531915533
 30
0.0
 11
-9.902859005743952
 21
21.76915418651161
 31
0.0
210
0.0
220
0.0
230
1.0
 40
0.9030447100806421
 41
1.868637529443619
 42
2.626750126294045
  0
LINE
  5
166C
330
1F
100
AcDbEntity
  8
AM_11
100
AcDbLine
 10
-40.00000000000096
 20
-6.99999999999999
 30
0.0
 11
-40.00000000000096
 21
6.99999999999997
 31
0.0
  0
LINE
  5
1682
330
1F
100
AcDbEntity
  8
AM_0
100
AcDbLine
 10
-52.25252258054539
 20
6.999999999999968
 30
0.0
 11
-47.77229604546165
 21
6.999999999999968
 31
0.0
  0
LINE
  5
1683
330
1F
100
AcDbEntity
  8
AM_0
100
AcDbLine
 10
-46.64563800767616
 20
-7.000000000122743
 30
0.0
 11
-52.25252258087984
 21
-7.000000000122748
 31
0.0
  0
ARC
  5
1812
330
1F
100
AcDbEntity
  8
AM_0
100
AcDbCircle
 10
-37.89629224324146
 20
3.616634809302297
 30
0.0
 40
10.62056224067781
100
AcDbArc
 50
243.3780784562688
 51
271.5582300054608
  0
ARC
  5
1813
330
1F
100
AcDbEntity
  8
AM_0
100
AcDbCircle
 10
-47.11678413321151
 20
2.38781726546939
 30
0.0
 40
9.392939330121956
100
AcDbArc
 50
271.8922526923565
 51
298.3576824945689
  0
LINE
  5
1814
330
1F
100
AcDbEntity
  8
AM_0
100
AcDbLine
 10
-39.99994793536032
 20
-6.801378912448887
 30
0.0
 11
-39.99994793536036
 21
-3.905917471860139
 31
0.0
  0
ARC
  5
1815
330
1F
100
AcDbEntity
  8
AM_0
100
AcDbCircle
 10
-39.53467824806965
 20
-4.136514502477258
 30
0.0
 40
11.07405801027582
100
AcDbArc
 50
119.4275399019641
 51
148.6622989138227
  0
VIEWPORT
  5
110
330
101
100
AcDbEntity
 67
     1
  8
0
100
AcDbViewport
 10
420.5
 20
297.0
 30
0.0
 40
948.9782706766916
 41
628.452
 68
     1
 69
     1
1001
ACAD
1000
MVIEW
1002
{
1070
    16
1010
0.0
1020
0.0
1030
0.0
1010
0.0
1020
0.0
1030
1.0
1040
0.0
1040
628.452
1040
420.5
1040
297.0
1040
50.0
1040
0.0
1040
0.0
1070
     0
1070
   100
1070
     1
1070
     1
1070
     0
1070
     0
1070
     0
1070
     0
1040
0.0
1040
0.0
1040
0.0
1040
10.0
1040
10.0
1040
10.0
1040
10.0
1070
     0
1002
{
1002
}
1002
}
  0
ENDSEC
  0
SECTION
  2
OBJECTS
  0
DICTIONARY
  5
C
330
0
100
AcDbDictionary
  3
ACAD_GROUP
350
D
  3
ACAD_LAYOUT
350
1A
  3
ACAD_MLINESTYLE
350
17
  3
ACAD_PLOTSETTINGS
350
19
  3
ACAD_PLOTSTYLENAME
350
E
  3
ACDBVARIABLEDICTIONARY
350
34
  3
ACMDICTIONARY
350
43
  3
AMG
350
2B
  3
AMGSNAPSETTINGS
350
6E
  3
DWGPROPS
350
1837
  3
ACDBHEADERROUNDTRIPXREC
350
1843
  0
DICTIONARY
  5
74
330
1F
100
AcDbDictionary
280
     1
  3
ACAD_INDEX
360
1839
  3
ACAD_LAYOUTSELFREF
360
1866
  0
DICTIONARY
  5
186B
330
101
100
AcDbDictionary
280
     1
  3
ACAD_LAYOUTSELFREF
360
186C
  0
DICTIONARY
  5
D
102
{ACAD_REACTORS
330
C
102
}
330
C
100
AcDbDictionary
  0
DICTIONARY
  5
1A
102
{ACAD_REACTORS
330
C
102
}
330
C
100
AcDbDictionary
  0
DICTIONARY
  5
17
102
{ACAD_REACTORS
330
C
102
}
330
C
100
AcDbDictionary
  3
STANDARD
350
18
  0
DICTIONARY
  5
19
102
{ACAD_REACTORS
330
C
102
}
330
C
100
AcDbDictionary
  0
ACDBDICTIONARYWDFLT
  5
E
102
{ACAD_REACTORS
330
C
102
}
330
C
100
AcDbDictionary
281
     1
  3
Normal
350
F
100
AcDbDictionaryWithDefault
340
F
  0
DICTIONARY
  5
34
102
{ACAD_REACTORS
330
C
102
}
330
C
100
AcDbDictionary
  3
INDEXCTL
350
35
  3
SORTENTS
350
B5E
  0
DICTIONARY
  5
43
102
{ACAD_REACTORS
330
C
102
}
330
C
100
AcDbDictionary
  3
ACMSTDDICTIONARY
350
260
  0
DICTIONARY
  5
2B
102
{ACAD_REACTORS
330
C
102
}
330
C
100
AcDbDictionary
  3
ACMGSETTINGS
350
2C
  0
DICTIONARY
  5
6E
102
{ACAD_REACTORS
330
C
102
}
330
C
100
AcDbDictionary
  0
XRECORD
  5
1837
102
{ACAD_REACTORS
330
C
102
}
330
C
100
AcDbXrecord
  1
DWGPROPS COOKIE
  2

  3

  4

  6

  7

  8

  9

300
AmdtFileType=82
301
=
302
=
303
=
304
=
305
=
306
=
307
=
308
=
309
=
 40
0.0310725925925926
 41
2452836.771637361
 42
2453045.528995879
  1

 90
        1
  0
DICTIONARY
  5
1843
102
{ACAD_REACTORS
330
C
102
}
330
C
100
AcDbDictionary
  3
TSTACKALIGN
350
1844
  3
TSTACKSIZE
350
1845
  3
HYPERLINKBASE
350
1846
  3
STYLESHEET
350
1847
  3
LAYOUTDICT
350
1848
  3
PLOTSETDICT
350
1849
  3
PLOTSTYLNAMDICT
350
184A
  3
LWETCUNION
350
184B
  3
INSUNITS
350
184C
  3
CEPSNTYPE
350
184D
  3
FINGERPRINTGUID
350
184E
  3
VERSIONGUID
350
184F
  3
PSVPSCALE
350
1850
  3
DIMSTYLEDATA
350
1851
  3
PUCSORTHOREF
350
1852
  3
PUCSORTHOVIEW
350
1853
  3
PUCSBASE
350
1854
  3
PUCSORGTOP
350
1855
  3
PUCSORGBOTTOM
350
1856
  3
PUCSORGLEFT
350
1857
  3
PUCSORGRIGHT
350
1858
  3
PUCSORGFRONT
350
1859
  3
PUCSORGBACK
350
185A
  3
UCSORTHOREF
350
185B
  3
UCSORTHOVIEW
350
185C
  3
UCSBASE
350
185D
  3
UCSORGTOP
350
185E
  3
UCSORGBOTTOM
350
185F
  3
UCSORGLEFT
350
1860
  3
UCSORGRIGHT
350
1861
  3
UCSORGFRONT
350
1862
  3
UCSORGBACK
350
1863
  0
DICTIONARY
  5
1839
102
{ACAD_REACTORS
330
74
102
}
330
74
100
AcDbDictionary
  3
*A1
350
183A
  0
XRECORD
  5
1866
102
{ACAD_REACTORS
330
74
102
}
330
74
100
AcDbXrecord
340
1F
  0
XRECORD
  5
186C
102
{ACAD_REACTORS
330
186B
102
}
330
186B
100
AcDbXrecord
340
101
  0
MLINESTYLE
  5
18
102
{ACAD_REACTORS
330
17
102
}
330
17
100
AcDbMlineStyle
  2
STANDARD
 70
     0
  3

 62
   256
 51
90.0
 52
90.0
 71
     2
 49
0.5
 62
   256
  6
BYLAYER
 49
-0.5
 62
   256
  6
BYLAYER
  0
ACDBPLACEHOLDER
  5
F
102
{ACAD_REACTORS
330
E
102
}
330
E
100
AcDbPlaceHolder
280
     0
  0
DICTIONARYVAR
  5
35
102
{ACAD_REACTORS
330
34
102
}
330
34
100
DictionaryVariables
280
     0
  1
1
  0
DICTIONARYVAR
  5
B5E
102
{ACAD_REACTORS
330
34
102
}
330
34
100
DictionaryVariables
280
     0
  1
96
  0
DICTIONARY
  5
260
102
{ACAD_REACTORS
330
43
102
}
330
43
100
AcDbDictionary
  0
DICTIONARY
  5
2C
102
{ACAD_REACTORS
330
2B
102
}
330
2B
100
AcDbDictionary
  3
DWGSETTINGS
350
2D
  0
XRECORD
  5
1844
102
{ACAD_REACTORS
330
1843
102
}
330
1843
100
AcDbXrecord
 90
        1
  0
XRECORD
  5
1845
102
{ACAD_REACTORS
330
1843
102
}
330
1843
100
AcDbXrecord
 90
       70
  0
XRECORD
  5
1846
102
{ACAD_REACTORS
330
1843
102
}
330
1843
100
AcDbXrecord
  1

  0
XRECORD
  5
1847
102
{ACAD_REACTORS
330
1843
102
}
330
1843
100
AcDbXrecord
  1
ASAMI.ctb
  0
XRECORD
  5
1848
102
{ACAD_REACTORS
330
1843
102
}
330
1843
100
AcDbXrecord
340
1A
  0
XRECORD
  5
1849
102
{ACAD_REACTORS
330
1843
102
}
330
1843
100
AcDbXrecord
340
19
  0
XRECORD
  5
184A
102
{ACAD_REACTORS
330
1843
102
}
330
1843
100
AcDbXrecord
340
E
  0
XRECORD
  5
184B
102
{ACAD_REACTORS
330
1843
102
}
330
1843
100
AcDbXrecord
 90
    10781
  0
XRECORD
  5
184C
102
{ACAD_REACTORS
330
1843
102
}
330
1843
100
AcDbXrecord
 90
        4
  0
XRECORD
  5
184D
102
{ACAD_REACTORS
330
1843
102
}
330
1843
100
AcDbXrecord
 90
        0
  0
XRECORD
  5
184E
102
{ACAD_REACTORS
330
1843
102
}
330
1843
100
AcDbXrecord
  1
{AFB28963-8C59-40AE-9337-C84526B81ACE}
  0
XRECORD
  5
184F
102
{ACAD_REACTORS
330
1843
102
}
330
1843
100
AcDbXrecord
  1
{209E7755-850B-4C7F-9812-509000FAF1A7}
  0
XRECORD
  5
1850
102
{ACAD_REACTORS
330
1843
102
}
330
1843
100
AcDbXrecord
 40
0.0
  0
XRECORD
  5
1851
102
{ACAD_REACTORS
330
1843
102
}
330
1843
100
AcDbXrecord
1000
DSTYLE
1002
{
1070
    79
 70
     2
1070
   341
340
59
1070
   342
340
59
1070
   371
 70
    -1
1070
   372
 70
    -1
1002
}
  0
XRECORD
  5
1852
102
{ACAD_REACTORS
330
1843
102
}
330
1843
100
AcDbXrecord
340
0
  0
XRECORD
  5
1853
102
{ACAD_REACTORS
330
1843
102
}
330
1843
100
AcDbXrecord
 70
     0
  0
XRECORD
  5
1854
102
{ACAD_REACTORS
330
1843
102
}
330
1843
100
AcDbXrecord
340
0
  0
XRECORD
  5
1855
102
{ACAD_REACTORS
330
1843
102
}
330
1843
100
AcDbXrecord
 10
0.0
 20
0.0
 30
0.0
  0
XRECORD
  5
1856
102
{ACAD_REACTORS
330
1843
102
}
330
1843
100
AcDbXrecord
 10
0.0
 20
0.0
 30
0.0
  0
XRECORD
  5
1857
102
{ACAD_REACTORS
330
1843
102
}
330
1843
100
AcDbXrecord
 10
0.0
 20
0.0
 30
0.0
  0
XRECORD
  5
1858
102
{ACAD_REACTORS
330
1843
102
}
330
1843
100
AcDbXrecord
 10
0.0
 20
0.0
 30
0.0
  0
XRECORD
  5
1859
102
{ACAD_REACTORS
330
1843
102
}
330
1843
100
AcDbXrecord
 10
0.0
 20
0.0
 30
0.0
  0
XRECORD
  5
185A
102
{ACAD_REACTORS
330
1843
102
}
330
1843
100
AcDbXrecord
 10
0.0
 20
0.0
 30
0.0
  0
XRECORD
  5
185B
102
{ACAD_REACTORS
330
1843
102
}
330
1843
100
AcDbXrecord
340
0
  0
XRECORD
  5
185C
102
{ACAD_REACTORS
330
1843
102
}
330
1843
100
AcDbXrecord
 70
     0
  0
XRECORD
  5
185D
102
{ACAD_REACTORS
330
1843
102
}
330
1843
100
AcDbXrecord
340
0
  0
XRECORD
  5
185E
102
{ACAD_REACTORS
330
1843
102
}
330
1843
100
AcDbXrecord
 10
0.0
 20
0.0
 30
0.0
  0
XRECORD
  5
185F
102
{ACAD_REACTORS
330
1843
102
}
330
1843
100
AcDbXrecord
 10
0.0
 20
0.0
 30
0.0
  0
XRECORD
  5
1860
102
{ACAD_REACTORS
330
1843
102
}
330
1843
100
AcDbXrecord
 10
0.0
 20
0.0
 30
0.0
  0
XRECORD
  5
1861
102
{ACAD_REACTORS
330
1843
102
}
330
1843
100
AcDbXrecord
 10
0.0
 20
0.0
 30
0.0
  0
XRECORD
  5
1862
102
{ACAD_REACTORS
330
1843
102
}
330
1843
100
AcDbXrecord
 10
0.0
 20
0.0
 30
0.0
  0
XRECORD
  5
1863
102
{ACAD_REACTORS
330
1843
102
}
330
1843
100
AcDbXrecord
 10
0.0
 20
0.0
 30
0.0
  0
LAYER_INDEX
  5
183A
102
{ACAD_REACTORS
330
1839
102
}
330
1839
100
AcDbIndex
 40
2453152.450338634
100
AcDbLayerIndex
  8
0
360
183B
 90
        0
  8
AM_0
360
183C
 90
       47
  8
AM_11
360
183D
 90
        3
  8
AM_7
360
183E
 90
        1
  8
AM_5
360
183F
 90
        4
  8
Defpoints
360
1840
 90
        0
  8
AM_6
360
1841
 90
        1
  0
XRECORD
  5
2D
102
{ACAD_REACTORS
330
2C
102
}
330
2C
100
AcDbXrecord
  1
VERSION
140
15.0
  1
PRODUCT
  2
AutoCAD Mechanical 2000
  0
IDBUFFER
  5
183B
330
0
100
AcDbIdBuffer
  0
IDBUFFER
  5
183C
330
0
100
AcDbIdBuffer
330
164D
330
164E
330
1652
330
1655
330
1657
330
1658
330
1659
330
165A
330
165B
330
165C
330
165D
330
165E
330
165F
330
1660
330
1661
330
1662
330
1663
330
1664
330
1665
330
1666
330
1667
330
1668
330
1669
330
166A
330
166B
330
1682
330
1683
330
1812
330
1813
330
1814
330
1815
330
1440
330
1442
330
150E
330
1510
330
1511
330
151F
330
153D
330
1540
330
1565
330
1568
330
1647
330
1648
330
1649
330
164A
330
164B
330
164C
  0
IDBUFFER
  5
183D
330
0
100
AcDbIdBuffer
330
1653
330
1654
330
166C
  0
IDBUFFER
  5
183E
330
0
100
AcDbIdBuffer
330
F47
  0
IDBUFFER
  5
183F
330
0
100
AcDbIdBuffer
330
105F
330
10EF
330
14CC
330
1512
  0
IDBUFFER
  5
1840
330
0
100
AcDbIdBuffer
  0
IDBUFFER
  5
1841
330
0
100
AcDbIdBuffer
330
E5A
  0
ENDSEC
  0
EOF
