  0
SECTION
  2
HEADER
  9
$ACADVER
  1
AC1014
  9
$ACADMAINTVER
 70
     9
  9
$DWGCODEPAGE
  3
ANSI_932
  9
$INSBASE
 10
0.0
 20
0.0
 30
0.0
  9
$EXTMIN
 10
-67.08320585933191
 20
-27.25000101000001
 30
-0.00000001
  9
$EXTMAX
 10
12.05776903085497
 20
3.634019605725226
 30
0.00000001
  9
$LIMMIN
 10
-73.50225851964268
 20
-30.86743023081584
  9
$LIMMAX
 10
15.5054099913143
 20
11.84348068200804
  9
$ORTHOMODE
 70
     0
  9
$REGENMODE
 70
     1
  9
$FILLMODE
 70
     1
  9
$QTEXTMODE
 70
     0
  9
$MIRRTEXT
 70
     0
  9
$DRAGMODE
 70
     2
  9
$LTSCALE
 40
1.0
  9
$OSMODE
 70
    55
  9
$ATTMODE
 70
     1
  9
$TEXTSIZE
 40
2.5
  9
$TRACEWID
 40
1.0
  9
$TEXTSTYLE
  7
STANDARD
  9
$CLAYER
  8
AM_0
  9
$CELTYPE
  6
BYLAYER
  9
$CECOLOR
 62
   256
  9
$CELTSCALE
 40
1.0
  9
$DELOBJ
 70
     1
  9
$DISPSILH
 70
     0
  9
$DIMSCALE
 40
0.5
  9
$DIMASZ
 40
2.5
  9
$DIMEXO
 40
1.0
  9
$DIMDLI
 40
12.0
  9
$DIMRND
 40
0.0
  9
$DIMDLE
 40
0.0
  9
$DIMEXE
 40
1.0
  9
$DIMTP
 40
0.1
  9
$DIMTM
 40
0.1
  9
$DIMTXT
 40
3.2
  9
$DIMCEN
 40
0.0
  9
$DIMTSZ
 40
0.0
  9
$DIMTOL
 70
     0
  9
$DIMLIM
 70
     0
  9
$DIMTIH
 70
     0
  9
$DIMTOH
 70
     0
  9
$DIMSE1
 70
     0
  9
$DIMSE2
 70
     0
  9
$DIMTAD
 70
     3
  9
$DIMZIN
 70
     8
  9
$DIMBLK
  1
OPEN30
  9
$DIMASO
 70
     1
  9
$DIMSHO
 70
     1
  9
$DIMPOST
  1

  9
$DIMAPOST
  1
"
  9
$DIMALT
 70
     0
  9
$DIMALTD
 70
     2
  9
$DIMALTF
 40
0.0393701
  9
$DIMLFAC
 40
1.0
  9
$DIMTOFL
 70
     1
  9
$DIMTVP
 40
0.0
  9
$DIMTIX
 70
     0
  9
$DIMSOXD
 70
     0
  9
$DIMSAH
 70
     0
  9
$DIMBLK1
  1

  9
$DIMBLK2
  1

  9
$DIMSTYLE
  2
AM_JIS
  9
$DIMCLRD
 70
   256
  9
$DIMCLRE
 70
   256
  9
$DIMCLRT
 70
     2
  9
$DIMTFAC
 40
0.71
  9
$DIMGAP
 40
1.5
  9
$DIMJUST
 70
     0
  9
$DIMSD1
 70
     0
  9
$DIMSD2
 70
     0
  9
$DIMTOLJ
 70
     0
  9
$DIMTZIN
 70
     0
  9
$DIMALTZ
 70
     0
  9
$DIMALTTZ
 70
     0
  9
$DIMFIT
 70
     3
  9
$DIMUPT
 70
     0
  9
$DIMUNIT
 70
     2
  9
$DIMDEC
 70
     3
  9
$DIMTDEC
 70
     3
  9
$DIMALTU
 70
     2
  9
$DIMALTTD
 70
     2
  9
$DIMTXSTY
  7
ASAMI
  9
$DIMAUNIT
 70
     0
  9
$LUNITS
 70
     2
  9
$LUPREC
 70
     2
  9
$SKETCHINC
 40
1.0
  9
$FILLETRAD
 40
2.5
  9
$AUNITS
 70
     0
  9
$AUPREC
 70
     0
  9
$MENU
  1
.
  9
$ELEVATION
 40
0.0
  9
$PELEVATION
 40
0.0
  9
$THICKNESS
 40
0.0
  9
$LIMCHECK
 70
     0
  9
$BLIPMODE
 70
     0
  9
$CHAMFERA
 40
0.5
  9
$CHAMFERB
 40
0.5
  9
$CHAMFERC
 40
20.0
  9
$CHAMFERD
 40
0.0
  9
$SKPOLY
 70
     0
  9
$TDCREATE
 40
2452836.771637361
  9
$TDUPDATE
 40
2453152.443763854
  9
$TDINDWG
 40
0.0450965625
  9
$TDUSRTIMER
 40
0.0450965625
  9
$USRTIMER
 70
     1
  9
$ANGBASE
 50
0.0
  9
$ANGDIR
 70
     0
  9
$PDMODE
 70
     0
  9
$PDSIZE
 40
0.0
  9
$PLINEWID
 40
0.0
  9
$COORDS
 70
     1
  9
$SPLFRAME
 70
     0
  9
$SPLINETYPE
 70
     6
  9
$SPLINESEGS
 70
     8
  9
$ATTDIA
 70
     1
  9
$ATTREQ
 70
     1
  9
$HANDLING
 70
 12289
  9
$HANDSEED
  5
1BC2
  9
$SURFTAB1
 70
     6
  9
$SURFTAB2
 70
     6
  9
$SURFTYPE
 70
     6
  9
$SURFU
 70
     6
  9
$SURFV
 70
     6
  9
$UCSNAME
  2

  9
$UCSORG
 10
0.0
 20
0.0
 30
0.0
  9
$UCSXDIR
 10
1.0
 20
0.0
 30
0.0
  9
$UCSYDIR
 10
0.0
 20
1.0
 30
0.0
  9
$PUCSNAME
  2

  9
$PUCSORG
 10
0.0
 20
0.0
 30
0.0
  9
$PUCSXDIR
 10
1.0
 20
0.0
 30
0.0
  9
$PUCSYDIR
 10
0.0
 20
1.0
 30
0.0
  9
$USERI1
 70
     0
  9
$USERI2
 70
     0
  9
$USERI3
 70
     0
  9
$USERI4
 70
     0
  9
$USERI5
 70
     0
  9
$USERR1
 40
0.0
  9
$USERR2
 40
0.0
  9
$USERR3
 40
0.0
  9
$USERR4
 40
0.0
  9
$USERR5
 40
0.0
  9
$WORLDVIEW
 70
     1
  9
$SHADEDGE
 70
     3
  9
$SHADEDIF
 70
    70
  9
$TILEMODE
 70
     1
  9
$MAXACTVP
 70
    64
  9
$PINSBASE
 10
0.0
 20
0.0
 30
0.0
  9
$PLIMCHECK
 70
     0
  9
$PEXTMIN
 10
1.000000000000000E+20
 20
1.000000000000000E+20
 30
1.000000000000000E+20
  9
$PEXTMAX
 10
-1.000000000000000E+20
 20
-1.000000000000000E+20
 30
-1.000000000000000E+20
  9
$PLIMMIN
 10
0.0
 20
0.0
  9
$PLIMMAX
 10
841.0
 20
594.0
  9
$UNITMODE
 70
     0
  9
$VISRETAIN
 70
     1
  9
$PLINEGEN
 70
     0
  9
$PSLTSCALE
 70
     0
  9
$TREEDEPTH
 70
  3020
  9
$PICKSTYLE
 70
     0
  9
$CMLSTYLE
  2
STANDARD
  9
$CMLJUST
 70
     0
  9
$CMLSCALE
 40
20.0
  9
$PROXYGRAPHICS
 70
     1
  9
$MEASUREMENT
 70
     1
  0
ENDSEC
  0
SECTION
  2
CLASSES
  0
CLASS
  1
ACDBDICTIONARYWDFLT
  2
AcDbDictionaryWithDefault
  3
AutoCAD 2000
 90
        0
280
     0
281
     0
  0
CLASS
  1
ACDBPLACEHOLDER
  2
AcDbPlaceHolder
  3
AutoCAD 2000
 90
        0
280
     0
281
     0
  0
CLASS
  1
LAYOUT
  2
AcDbLayout
  3
AutoCAD 2000
 90
        0
280
     0
281
     0
  0
CLASS
  1
AMGSETTINGSOBJ
  2
AmgSettingsObj
  3
"AcadM|Product Description: AutoCAD Mechanical 2000|Company: Autodesk"
 90
        0
280
     0
281
     0
  0
CLASS
  1
ACME_DOCUMENT
  2
AcMeDbDoc
  3
AcMeServices
 90
        0
280
     0
281
     0
  0
CLASS
  1
ACMESCOPE
  2
AcMeScope
  3
AcMeServices
 90
        0
280
     0
281
     0
  0
CLASS
  1
ACMECOMMANDHISTORY
  2
AcMeCommandHistory
  3
AcMeServices
 90
        0
280
     0
281
     0
  0
CLASS
  1
DICTIONARYVAR
  2
AcDbDictionaryVar
  3
AutoCAD 2000
 90
        0
280
     0
281
     0
  0
CLASS
  1
ACIMSYSVARMAN
  2
AcImSysVarManager
  3
AcMeServices
 90
        0
280
     0
281
     0
  0
CLASS
  1
ACIMREALSYSVAR
  2
AcImRealSysVar
  3
AcMeServices
 90
        0
280
     0
281
     0
  0
CLASS
  1
ACIMINTSYSVAR
  2
AcImIntSysVar
  3
AcMeServices
 90
        0
280
     0
281
     0
  0
CLASS
  1
ACMEDRAWINGMAN
  2
AcMeDrawingMan
  3
AcMeServices
 90
        0
280
     0
281
     0
  0
CLASS
  1
ACMEVIEW
  2
AcMeView
  3
AcMeServices
 90
        0
280
     0
281
     0
  0
CLASS
  1
ACDBENTITYCACHE
  2
AcMeEntityCache
  3
AcMeServices
 90
        0
280
     0
281
     0
  0
CLASS
  1
GSMANAGER
  2
AcMeGSManager
  3
AcMeServices
 90
        0
280
     0
281
     0
  0
CLASS
  1
AmdtInternalReactor
  2
AmdtInternalReactor
  3
AcMeServices
 90
        0
280
     0
281
     0
  0
CLASS
  1
ACMESTATEMGR
  2
AcMeStateMgr
  3
AcMeServices
 90
        0
280
     0
281
     0
  0
CLASS
  1
ACME_DATABASE
  2
AcMeDbDatabase
  3
AcMeServices
 90
        0
280
     0
281
     0
  0
CLASS
  1
ACRFINSADJUSTERMGR
  2
AcRfInsAdjusterMgr
  3
AcMeServices
 90
        0
280
     0
281
     0
  0
CLASS
  1
ACMDATADICTIONARY
  2
AcmDataDictionary
  3
"AcmSymBB|Product Description: AutoCAD Mechanical 2000|Company: Autodesk"
 90
        0
280
     0
281
     0
  0
CLASS
  1
ACMDATAENTRYBLOCK
  2
AcmDataEntryBlock
  3
"AcmSymBB|Product Description: AutoCAD Mechanical 2000|Company: Autodesk"
 90
        0
280
     0
281
     0
  0
CLASS
  1
AMGOBJPROPCFG
  2
AmgObjPropCfg
  3
"AmgLay|Product Description: AutoCAD Mechanical 2000|Company: Autodesk"
 90
        1
280
     0
281
     0
  0
CLASS
  1
ACAMGFILTERDAT
  2
AcAmgFilterDat
  3
"AcadM|Product Description: AutoCAD Mechanical 2000|Company: Autodesk"
 90
        0
280
     0
281
     0
  0
CLASS
  1
LAYER_INDEX
  2
AcDbLayerIndex
  3
AutoCAD 2000
 90
        0
280
     0
281
     0
  0
CLASS
  1
IDBUFFER
  2
AcDbIdBuffer
  3
AutoCAD 2000
 90
        0
280
     0
281
     0
  0
CLASS
  1
ACIMSTRSYSVAR
  2
AcImStrSysVar
  3
AcMeServices
 90
        0
280
     0
281
     0
  0
CLASS
  1
ACMSTANDARDJIS
  2
AcmStandardJIS
  3
"AcmSymBB|Product Description: AutoCAD Mechanical 2000|Company: Autodesk"
 90
        0
280
     0
281
     0
  0
CLASS
  1
ACMSURFSTANDARDJIS
  2
AcmSurfTextStdJIS
  3
"AcmSymBB|Product Description: AutoCAD Mechanical 2000|Company: Autodesk"
 90
        0
280
     0
281
     0
  0
CLASS
  1
ACMFCFSTANDARDJIS
  2
AcmFCFStdJIS
  3
"AcmSymBB|Product Description: AutoCAD Mechanical 2000|Company: Autodesk"
 90
        0
280
     0
281
     0
  0
CLASS
  1
ACMWELDSTANDARDJIS
  2
AcmWeldingStdJIS
  3
"AcmSymBB|Product Description: AutoCAD Mechanical 2000|Company: Autodesk"
 90
        0
280
     0
281
     0
  0
CLASS
  1
ACMIDSTANDARDJIS
  2
AcmIdStdJIS
  3
"AcmSymBB|Product Description: AutoCAD Mechanical 2000|Company: Autodesk"
 90
        0
280
     0
281
     0
  0
CLASS
  1
ACMDATUMSTANDARDJIS
  2
AcmDatumStdJIS
  3
"AcmSymBB|Product Description: AutoCAD Mechanical 2000|Company: Autodesk"
 90
        0
280
     0
281
     0
  0
CLASS
  1
ACMBOMSTANDARDJIS
  2
AcmBOMStdJIS
  3
"AcmSymBB|Product Description: AutoCAD Mechanical 2000|Company: Autodesk"
 90
        0
280
     0
281
     0
  0
CLASS
  1
ACMSTANDARDANSI
  2
AcmStandardANSI
  3
"AcmSymBB|Product Description: AutoCAD Mechanical 2000|Company: Autodesk"
 90
        0
280
     0
281
     0
  0
CLASS
  1
ACMSURFSTANDARDANSI
  2
AcmSurfTextStdANSI
  3
"AcmSymBB|Product Description: AutoCAD Mechanical 2000|Company: Autodesk"
 90
        0
280
     0
281
     0
  0
CLASS
  1
ACMFCFSTANDARDANSI
  2
AcmFCFStdANSI
  3
"AcmSymBB|Product Description: AutoCAD Mechanical 2000|Company: Autodesk"
 90
        0
280
     0
281
     0
  0
CLASS
  1
ACMWELDSTANDARDANSI
  2
AcmWeldingStdANSI
  3
"AcmSymBB|Product Description: AutoCAD Mechanical 2000|Company: Autodesk"
 90
        0
280
     0
281
     0
  0
CLASS
  1
ACMIDSTANDARDANSI
  2
AcmIdStdANSI
  3
"AcmSymBB|Product Description: AutoCAD Mechanical 2000|Company: Autodesk"
 90
        0
280
     0
281
     0
  0
CLASS
  1
ACMDATUMSTANDARDANSI
  2
AcmDatumStdANSI
  3
"AcmSymBB|Product Description: AutoCAD Mechanical 2000|Company: Autodesk"
 90
        0
280
     0
281
     0
  0
CLASS
  1
ACMBOMSTANDARDANSI
  2
AcmBOMStdANSI
  3
"AcmSymBB|Product Description: AutoCAD Mechanical 2000|Company: Autodesk"
 90
        0
280
     0
281
     0
  0
CLASS
  1
ACMSTANDARDBSI
  2
AcmStandardBSI
  3
"AcmSymBB|Product Description: AutoCAD Mechanical 2000|Company: Autodesk"
 90
        0
280
     0
281
     0
  0
CLASS
  1
ACMSURFSTANDARDBSI
  2
AcmSurfTextStdBSI
  3
"AcmSymBB|Product Description: AutoCAD Mechanical 2000|Company: Autodesk"
 90
        0
280
     0
281
     0
  0
CLASS
  1
ACMFCFSTANDARDBSI
  2
AcmFCFStdBSI
  3
"AcmSymBB|Product Description: AutoCAD Mechanical 2000|Company: Autodesk"
 90
        0
280
     0
281
     0
  0
CLASS
  1
ACMWELDSTANDARDBSI
  2
AcmWeldingStdBSI
  3
"AcmSymBB|Product Description: AutoCAD Mechanical 2000|Company: Autodesk"
 90
        0
280
     0
281
     0
  0
CLASS
  1
ACMIDSTANDARDBSI
  2
AcmIdStdBSI
  3
"AcmSymBB|Product Description: AutoCAD Mechanical 2000|Company: Autodesk"
 90
        0
280
     0
281
     0
  0
CLASS
  1
ACMDATUMSTANDARDBSI
  2
AcmDatumStdBSI
  3
"AcmSymBB|Product Description: AutoCAD Mechanical 2000|Company: Autodesk"
 90
        0
280
     0
281
     0
  0
CLASS
  1
ACMBOMSTANDARDBSI
  2
AcmBOMStdBSI
  3
"AcmSymBB|Product Description: AutoCAD Mechanical 2000|Company: Autodesk"
 90
        0
280
     0
281
     0
  0
CLASS
  1
LONG_TRANSACTION
  2
AcDbLongTransaction
  3
AutoCAD 2000
 90
        0
280
     0
281
     0
  0
CLASS
  1
LWPOLYLINE
  2
AcDbPolyline
  3
AutoCAD 2000
 90
        0
280
     0
281
     1
  0
CLASS
  1
HATCH
  2
AcDbHatch
  3
AutoCAD 2000
 90
        0
280
     0
281
     1
  0
CLASS
  1
XRECORD
  2
AcDbXrecord
  3
AutoCAD 2000
 90
        0
280
     0
281
     0
  0
ENDSEC
  0
SECTION
  2
TABLES
  0
TABLE
  2
VPORT
  5
8
330
0
100
AcDbSymbolTable
 70
     3
  0
VPORT
  5
1B97
330
8
100
AcDbSymbolTableRecord
100
AcDbViewportTableRecord
  2
*ACTIVE
 70
     0
 10
0.0
 20
0.0
 11
1.0
 21
1.0
 12
-27.51464601186139
 22
-11.80764703618979
 13
0.0
 23
0.0
 14
2.5
 24
2.5
 15
10.0
 25
10.0
 16
0.0
 26
0.0
 36
1.0
 17
0.0
 27
0.0
 37
0.0
 40
50.75246374450537
 41
1.56570841889117
 42
50.0
 43
0.0
 44
0.0
 50
0.0
 51
0.0
 71
     0
 72
   100
 73
     1
 74
     3
 75
     0
 76
     0
 77
     0
 78
     0
  0
ENDTAB
  0
TABLE
  2
LTYPE
  5
5
330
0
100
AcDbSymbolTable
 70
    10
  0
LTYPE
  5
14
330
5
100
AcDbSymbolTableRecord
100
AcDbLinetypeTableRecord
  2
BYBLOCK
 70
     0
  3

 72
    65
 73
     0
 40
0.0
  0
LTYPE
  5
15
330
5
100
AcDbSymbolTableRecord
100
AcDbLinetypeTableRecord
  2
BYLAYER
 70
     0
  3

 72
    65
 73
     0
 40
0.0
  0
LTYPE
  5
16
330
5
100
AcDbSymbolTableRecord
100
AcDbLinetypeTableRecord
  2
CONTINUOUS
 70
     0
  3
Solid line
 72
    65
 73
     0
 40
0.0
  0
LTYPE
  5
4B
330
5
100
AcDbSymbolTableRecord
100
AcDbLinetypeTableRecord
  2
AM_ISO02W050
 70
     0
  3
__ __ __ __ __ __ __ __ __ __ __ __ __ __ __
 72
    65
 73
     2
 40
7.5
 49
6.0
 74
     0
 49
-1.5
 74
     0
  0
LTYPE
  5
4C
330
5
100
AcDbSymbolTableRecord
100
AcDbLinetypeTableRecord
  2
AM_ISO08W050
 70
     0
  3
____ . ____ . ____ . ____ . ____ . ____ . ____
 72
    65
 73
     4
 40
18.0
 49
12.0
 74
     0
 49
-1.5
 74
     0
 49
3.0
 74
     0
 49
-1.5
 74
     0
  0
LTYPE
  5
4D
330
5
100
AcDbSymbolTableRecord
100
AcDbLinetypeTableRecord
  2
AM_ISO09W050
 70
     0
  3
_____ . . _____ . . _____ . . ____ .. ____
 72
    65
 73
     6
 40
22.5
 49
12.0
 74
     0
 49
-1.5
 74
     0
 49
3.0
 74
     0
 49
-1.5
 74
     0
 49
3.0
 74
     0
 49
-1.5
 74
     0
  0
LTYPE
  5
4E
330
5
100
AcDbSymbolTableRecord
100
AcDbLinetypeTableRecord
  2
AMCONSTR
 70
     0
  3
_______________________
 72
    65
 73
     2
 40
9999.0
 49
9999.0
 74
     0
 49
0.0
 74
     0
  0
LTYPE
  5
4F
330
5
100
AcDbSymbolTableRecord
100
AcDbLinetypeTableRecord
  2
AM_ISO02W050X2
 70
     0
  3
 _ _ _ _ _ _ _ _ _ _ _ _
 72
    65
 73
     2
 40
3.75
 49
3.0
 74
     0
 49
-0.75
 74
     0
  0
LTYPE
  5
50
330
5
100
AcDbSymbolTableRecord
100
AcDbLinetypeTableRecord
  2
AM_ISO08W050X2
 70
     0
  3
__ . __ . __ . __ . __ . __
 72
    65
 73
     4
 40
9.0
 49
6.0
 74
     0
 49
-0.75
 74
     0
 49
1.5
 74
     0
 49
-0.75
 74
     0
  0
LTYPE
  5
53
330
5
100
AcDbSymbolTableRecord
100
AcDbLinetypeTableRecord
  2
AMZIGZAG
 70
     0
  3
/\/-/\/-/\/-/\/-/\/-/\/
 72
    65
 73
     2
 40
11.00009999999999
 49
0.0001
 74
     4
 75
   135
340
52
 46
0.04
 50
0.0
 44
0.0
 45
0.0
 49
-11.0
 74
     0
  0
LTYPE
  5
166
330
5
100
AcDbSymbolTableRecord
100
AcDbLinetypeTableRecord
  2
ACJISTGL
 70
     0
  3
_ _ _ _ _
 72
    65
 73
     2
 40
3.0
 49
2.0
 74
     0
 49
-1.0
 74
     0
  0
LTYPE
  5
26A
330
5
100
AcDbSymbolTableRecord
100
AcDbLinetypeTableRecord
  2
ACJISTGB
 70
     0
  3
__ . . __ . .
 72
    65
 73
     6
 40
9.0
 49
4.0
 74
     0
 49
-1.0
 74
     0
 49
1.0
 74
     0
 49
-1.0
 74
     0
 49
1.0
 74
     0
 49
-1.0
 74
     0
  0
ENDTAB
  0
TABLE
  2
LAYER
  5
2
330
0
100
AcDbSymbolTable
 70
     7
  0
LAYER
  5
10
330
2
100
AcDbSymbolTableRecord
100
AcDbLayerTableRecord
  2
0
 70
     0
 62
     7
  6
CONTINUOUS
  0
LAYER
  5
3F9
330
2
100
AcDbSymbolTableRecord
100
AcDbLayerTableRecord
  2
AM_0
 70
     0
 62
     7
  6
CONTINUOUS
  0
LAYER
  5
BD4
330
2
100
AcDbSymbolTableRecord
100
AcDbLayerTableRecord
  2
AM_11
 70
     0
 62
     3
  6
AM_ISO09W050
  0
LAYER
  5
BD5
330
2
100
AcDbSymbolTableRecord
100
AcDbLayerTableRecord
  2
AM_7
 70
     0
 62
     4
  6
AM_ISO08W050
  0
LAYER
  5
BD6
330
2
100
AcDbSymbolTableRecord
100
AcDbLayerTableRecord
  2
AM_5
 70
     0
 62
     3
  6
CONTINUOUS
  0
LAYER
  5
BD7
330
2
100
AcDbSymbolTableRecord
100
AcDbLayerTableRecord
  2
DEFPOINTS
 70
     0
 62
     7
  6
CONTINUOUS
  0
LAYER
  5
E59
330
2
100
AcDbSymbolTableRecord
100
AcDbLayerTableRecord
  2
AM_6
 70
     0
 62
     2
  6
CONTINUOUS
  0
ENDTAB
  0
TABLE
  2
STYLE
  5
3
330
0
100
AcDbSymbolTable
 70
     5
  0
STYLE
  5
11
330
3
100
AcDbSymbolTableRecord
100
AcDbTextStyleTableRecord
  2
STANDARD
 70
     0
 40
0.0
 41
1.0
 50
0.0
 71
     0
 42
2.5
  3
simplex.shx
  4
EXTFONT.SHX
  0
STYLE
  5
52
330
3
100
AcDbSymbolTableRecord
100
AcDbTextStyleTableRecord
  2

 70
     1
 40
0.0
 41
1.0
 50
0.0
 71
     0
 42
2.5
  3
ltypeshp.shx
  4

  0
STYLE
  5
6B
330
3
100
AcDbSymbolTableRecord
100
AcDbTextStyleTableRecord
  2
ASAMI
 70
     0
 40
0.0
 41
1.0
 50
0.0
 71
     0
 42
2.5
  3
simplex.shx
  4
EXTFONT.SHX
  0
STYLE
  5
262
330
3
100
AcDbSymbolTableRecord
100
AcDbTextStyleTableRecord
  2
ACJISTS
 70
     0
 40
1.0
 41
1.0
 50
0.0
 71
     0
 42
2.5
  3
simplex.shx
  4
bigfont.shx
  0
STYLE
  5
269
330
3
100
AcDbSymbolTableRecord
100
AcDbTextStyleTableRecord
  2
ACJISGDT
 70
     0
 40
0.0
 41
1.0
 50
0.0
 71
     0
 42
2.5
  3
amgdtans.shx
  4

  0
ENDTAB
  0
TABLE
  2
VIEW
  5
6
330
0
100
AcDbSymbolTable
 70
     0
  0
ENDTAB
  0
TABLE
  2
UCS
  5
7
330
0
100
AcDbSymbolTable
 70
     0
  0
ENDTAB
  0
TABLE
  2
APPID
  5
9
330
0
100
AcDbSymbolTable
 70
    12
  0
APPID
  5
12
330
9
100
AcDbSymbolTableRecord
100
AcDbRegAppTableRecord
  2
ACAD
 70
     0
  0
APPID
  5
30
330
9
100
AcDbSymbolTableRecord
100
AcDbRegAppTableRecord
  2
MCAD_NO_VIS
 70
     0
  0
APPID
  5
31
330
9
100
AcDbSymbolTableRecord
100
AcDbRegAppTableRecord
  2
ACAD_TEMP_GRAPHIC
 70
     0
  0
APPID
  5
2C2
330
9
100
AcDbSymbolTableRecord
100
AcDbRegAppTableRecord
  2
GENIUS_GENDTOL_13
 70
     0
  0
APPID
  5
339
330
9
100
AcDbSymbolTableRecord
100
AcDbRegAppTableRecord
  2
GENIUS_GENODEF_13
 70
     0
  0
APPID
  5
33A
330
9
100
AcDbSymbolTableRecord
100
AcDbRegAppTableRecord
  2
GENIUS_GENOBJ-N-RSBK_13
 70
     0
  0
APPID
  5
33B
330
9
100
AcDbSymbolTableRecord
100
AcDbRegAppTableRecord
  2
GENIUS_GENOBJ-N-LIB_13
 70
     0
  0
APPID
  5
33C
330
9
100
AcDbSymbolTableRecord
100
AcDbRegAppTableRecord
  2
GENIUS_GENSCALE_13
 70
     0
  0
APPID
  5
378
330
9
100
AcDbSymbolTableRecord
100
AcDbRegAppTableRecord
  2
GENIUS_GENDIMSH_14
 70
     0
  0
APPID
  5
BD8
330
9
100
AcDbSymbolTableRecord
100
AcDbRegAppTableRecord
  2
GENIUS_GENOBJ-N-CEN_13
 70
     0
  0
APPID
  5
BD9
330
9
100
AcDbSymbolTableRecord
100
AcDbRegAppTableRecord
  2
GENIUS_GENFIL_13
 70
     0
  0
APPID
  5
BDA
330
9
100
AcDbSymbolTableRecord
100
AcDbRegAppTableRecord
  2
GENIUS_GENOBJ-N-CHA_13
 70
     0
  0
ENDTAB
  0
TABLE
  2
DIMSTYLE
  5
A
330
0
100
AcDbSymbolTable
 70
     8
  0
DIMSTYLE
105
58
102
{ACAD_REACTORS
330
13B3
330
145B
330
14F3
330
1986
102
}
330
A
100
AcDbSymbolTableRecord
100
AcDbDimStyleTableRecord
  2
AM_JIS
 70
     0
  3

  4
"
  5
OPEN30
  6

  7

 40
0.5
 41
2.5
 42
1.0
 43
12.0
 44
1.0
 45
0.0
 46
0.0
 47
0.1
 48
0.1
140
3.2
141
0.0
142
0.0
143
0.0393701
144
1.0
145
0.0
146
0.71
147
1.5
 71
     0
 72
     0
 73
     0
 74
     0
 75
     0
 76
     0
 77
     3
 78
     8
170
     0
171
     2
172
     1
173
     0
174
     0
175
     0
176
   256
177
   256
178
     2
270
     2
271
     3
272
     3
273
     2
274
     2
340
6B
275
     0
280
     0
281
     0
282
     0
283
     0
284
     0
285
     0
286
     0
287
     3
288
     0
  0
DIMSTYLE
105
5F
330
A
100
AcDbSymbolTableRecord
100
AcDbDimStyleTableRecord
  2
AM_JIS$3
 70
     0
  3

  4
"
  5
OPEN30
  6

  7

 40
0.5
 41
2.5
 42
1.0
 43
10.0
 44
1.0
 45
0.0
 46
0.0
 47
0.1
 48
0.1
140
3.2
141
0.0
142
0.0
143
0.0393701
144
1.0
145
0.0
146
0.71
147
1.5
 71
     0
 72
     0
 73
     0
 74
     1
 75
     0
 76
     0
 77
     3
 78
     8
170
     0
171
     2
172
     0
173
     0
174
     0
175
     0
176
   256
177
   256
178
     2
270
     2
271
     2
272
     3
273
     2
274
     2
340
6B
275
     0
280
     0
281
     0
282
     0
283
     0
284
     0
285
     0
286
     0
287
     0
288
     1
  0
DIMSTYLE
105
60
330
A
100
AcDbSymbolTableRecord
100
AcDbDimStyleTableRecord
  2
AM_JIS$4
 70
     0
  3

  4
"
  5
OPEN30
  6

  7

 40
0.5
 41
2.5
 42
1.0
 43
10.0
 44
1.0
 45
0.0
 46
0.0
 47
0.1
 48
0.1
140
3.2
141
0.0
142
0.0
143
0.0393701
144
1.0
145
0.0
146
0.71
147
1.5
 71
     0
 72
     0
 73
     0
 74
     1
 75
     0
 76
     0
 77
     3
 78
     8
170
     0
171
     2
172
     0
173
     0
174
     0
175
     0
176
   256
177
   256
178
     2
270
     2
271
     2
272
     3
273
     2
274
     2
340
6B
275
     0
280
     0
281
     0
282
     0
283
     0
284
     0
285
     0
286
     0
287
     0
288
     1
  0
DIMSTYLE
105
61
330
A
100
AcDbSymbolTableRecord
100
AcDbDimStyleTableRecord
  2
AM_JIS$6
 70
     0
  3

  4
"
  5
OPEN30
  6

  7

 40
0.5
 41
2.5
 42
1.0
 43
10.0
 44
1.0
 45
0.0
 46
0.0
 47
0.1
 48
0.1
140
3.2
141
0.0
142
0.0
143
0.0393701
144
1.0
145
0.0
146
0.71
147
1.5
 71
     0
 72
     0
 73
     0
 74
     0
 75
     0
 76
     0
 77
     0
 78
     8
170
     0
171
     2
172
     1
173
     0
174
     0
175
     0
176
   256
177
   256
178
     2
270
     2
271
     2
272
     2
273
     2
274
     2
340
6B
275
     0
280
     0
281
     0
282
     0
283
     0
284
     0
285
     0
286
     0
287
     3
288
     0
  0
DIMSTYLE
105
62
330
A
100
AcDbSymbolTableRecord
100
AcDbDimStyleTableRecord
  2
AM_JIS$7
 70
     0
  3

  4
"
  5
OPEN30
  6

  7

 40
0.5
 41
2.5
 42
1.0
 43
10.0
 44
1.0
 45
0.0
 46
0.0
 47
0.1
 48
0.1
140
3.2
141
0.0
142
0.0
143
0.0393701
144
1.0
145
0.0
146
0.71
147
1.5
 71
     0
 72
     0
 73
     0
 74
     0
 75
     0
 76
     0
 77
     3
 78
     8
170
     0
171
     2
172
     1
173
     0
174
     0
175
     0
176
   256
177
   256
178
     2
270
     2
271
     2
272
     3
273
     2
274
     2
340
6B
275
     0
280
     0
281
     0
282
     0
283
     0
284
     0
285
     0
286
     0
287
     3
288
     0
  0
DIMSTYLE
105
63
330
A
100
AcDbSymbolTableRecord
100
AcDbDimStyleTableRecord
  2
AM_JIS$SF
 70
     0
  3

  4
"
  5
OPEN30
  6

  7

 40
0.5
 41
2.5
 42
1.0
 43
10.0
 44
1.0
 45
0.0
 46
0.0
 47
0.1
 48
0.1
140
3.2
141
0.0
142
0.0
143
0.0393701
144
1.0
145
0.0
146
0.71
147
1.5
 71
     0
 72
     0
 73
     0
 74
     0
 75
     1
 76
     1
 77
     3
 78
     8
170
     0
171
     2
172
     1
173
     0
174
     0
175
     0
176
   256
177
   256
178
     2
270
     2
271
     2
272
     2
273
     2
274
     2
340
6B
275
     0
280
     0
281
     0
282
     0
283
     0
284
     0
285
     0
286
     0
287
     3
288
     0
  0
DIMSTYLE
105
68
330
A
100
AcDbSymbolTableRecord
100
AcDbDimStyleTableRecord
  2
AM_JIS$SH
 70
     0
  3

  4
"
  5

  6
GENAXEH
  7
OPEN30
 40
0.5
 41
2.5
 42
1.0
 43
10.0
 44
1.0
 45
0.0
 46
0.0
 47
0.1
 48
0.1
140
3.2
141
0.0
142
0.0
143
0.0393701
144
2.0
145
0.0
146
0.71
147
1.5
 71
     0
 72
     0
 73
     0
 74
     0
 75
     1
 76
     1
 77
     3
 78
     8
170
     0
171
     2
172
     1
173
     1
174
     0
175
     0
176
   256
177
   256
178
     2
270
     2
271
     2
272
     2
273
     2
274
     2
340
6B
275
     0
280
     0
281
     0
282
     0
283
     0
284
     0
285
     0
286
     0
287
     3
288
     0
  0
DIMSTYLE
105
B34
330
A
100
AcDbSymbolTableRecord
100
AcDbDimStyleTableRecord
  2
AM_JIS$2
 70
     0
  3

  4
"
  5
OPEN30
  6

  7

 40
0.5
 41
2.5
 42
1.0
 43
12.0
 44
1.0
 45
0.0
 46
0.0
 47
0.1
 48
0.1
140
3.2
141
0.0
142
0.0
143
0.0393701
144
1.0
145
0.0
146
0.71
147
1.5
 71
     0
 72
     0
 73
     0
 74
     0
 75
     0
 76
     0
 77
     3
 78
     8
170
     0
171
     2
172
     1
173
     0
174
     0
175
     0
176
   256
177
   256
178
     2
270
     2
271
     3
272
     3
273
     2
274
     2
340
6B
275
     0
280
     0
281
     0
282
     0
283
     0
284
     0
285
     0
286
     0
287
     3
288
     0
  0
ENDTAB
  0
TABLE
  2
BLOCK_RECORD
  5
1
330
0
100
AcDbSymbolTable
 70
     9
  0
BLOCK_RECORD
  5
1F
102
{ACAD_XDICTIONARY
360
74
102
}
330
1
100
AcDbSymbolTableRecord
100
AcDbBlockTableRecord
  2
*MODEL_SPACE
  0
BLOCK_RECORD
  5
101
102
{ACAD_XDICTIONARY
360
1BC0
102
}
330
1
100
AcDbSymbolTableRecord
100
AcDbBlockTableRecord
  2
*PAPER_SPACE
  0
BLOCK_RECORD
  5
59
330
1
100
AcDbSymbolTableRecord
100
AcDbBlockTableRecord
  2
_OPEN30
  0
BLOCK_RECORD
  5
64
330
1
100
AcDbSymbolTableRecord
100
AcDbBlockTableRecord
  2
GENAXEH
  0
BLOCK_RECORD
  5
13C0
330
1
100
AcDbSymbolTableRecord
100
AcDbBlockTableRecord
  2
*D5
  0
BLOCK_RECORD
  5
145C
330
1
100
AcDbSymbolTableRecord
100
AcDbBlockTableRecord
  2
*D6
  0
BLOCK_RECORD
  5
14F4
330
1
100
AcDbSymbolTableRecord
100
AcDbBlockTableRecord
  2
*D7
  0
BLOCK_RECORD
  5
1987
330
1
100
AcDbSymbolTableRecord
100
AcDbBlockTableRecord
  2
*D8
  0
ENDTAB
  0
ENDSEC
  0
SECTION
  2
BLOCKS
  0
BLOCK
  5
20
330
1F
100
AcDbEntity
  8
0
100
AcDbBlockBegin
  2
*MODEL_SPACE
 70
     0
 10
0.0
 20
0.0
 30
0.0
  3
*MODEL_SPACE
  1

  0
ENDBLK
  5
21
330
1F
100
AcDbEntity
  8
0
100
AcDbBlockEnd
  0
BLOCK
  5
103
330
101
100
AcDbEntity
 67
     1
  8
0
100
AcDbBlockBegin
  2
*PAPER_SPACE
 70
     0
 10
0.0
 20
0.0
 30
0.0
  3
*PAPER_SPACE
  1

  0
ENDBLK
  5
104
330
101
100
AcDbEntity
 67
     1
  8
0
100
AcDbBlockEnd
  0
BLOCK
  5
5D
330
59
100
AcDbEntity
  8
0
100
AcDbBlockBegin
  2
_OPEN30
 70
     0
 10
0.0
 20
0.0
 30
0.0
  3
_OPEN30
  1

  0
LINE
  5
5A
330
59
100
AcDbEntity
  8
0
 62
     0
100
AcDbLine
 10
-1.0
 20
0.26794919
 30
0.0
 11
0.0
 21
0.0
 31
0.0
  0
LINE
  5
5B
330
59
100
AcDbEntity
  8
0
 62
     0
100
AcDbLine
 10
0.0
 20
0.0
 30
0.0
 11
-1.0
 21
-0.26794919
 31
0.0
  0
LINE
  5
5C
330
59
100
AcDbEntity
  8
0
 62
     0
100
AcDbLine
 10
0.0
 20
0.0
 30
0.0
 11
-1.0
 21
0.0
 31
0.0
  0
ENDBLK
  5
5E
330
59
100
AcDbEntity
  8
0
100
AcDbBlockEnd
  0
BLOCK
  5
66
330
64
100
AcDbEntity
  8
0
100
AcDbBlockBegin
  2
GENAXEH
 70
     0
 10
0.0
 20
0.0
 30
0.0
  3
GENAXEH
  1

  0
LINE
  5
65
330
64
100
AcDbEntity
  8
0
100
AcDbLine
 10
-1.0
 20
0.0
 30
0.0
 11
1.0
 21
0.0
 31
0.0
  0
ENDBLK
  5
67
330
64
100
AcDbEntity
  8
0
100
AcDbBlockEnd
  0
BLOCK
  5
13CA
330
13C0
100
AcDbEntity
  8
0
100
AcDbBlockBegin
  2
*D5
 70
     1
 10
0.0
 20
0.0
 30
0.0
  3
*D5
  1

  0
LINE
  5
1B09
330
13C0
100
AcDbEntity
  8
AM_5
100
AcDbLine
 10
-54.99999999999979
 20
-2.99999999999915
 30
0.0
 11
-54.99999999999979
 21
-16.50000101
 31
0.0
  0
LINE
  5
1B0A
330
13C0
100
AcDbEntity
  8
AM_5
100
AcDbLine
 10
0.0000000000000886
 20
-3.500000000000394
 30
0.0
 11
0.0000000000000878
 21
-16.50000101
 31
0.0
  0
LINE
  5
1B0B
330
13C0
100
AcDbEntity
  8
AM_5
100
AcDbLine
 10
-53.74999999999979
 20
-16.00000101
 30
0.0
 11
-1.249999999999912
 21
-16.00000101
 31
0.0
  0
INSERT
  5
1B0C
330
13C0
100
AcDbEntity
  8
AM_5
100
AcDbBlockReference
  2
_OPEN30
 10
-54.99999999999979
 20
-16.00000101
 30
0.0
 41
1.25
 42
1.25
 43
1.25
 50
180.0
  0
INSERT
  5
1B0D
330
13C0
100
AcDbEntity
  8
AM_5
100
AcDbBlockReference
  2
_OPEN30
 10
0.0000000000000878
 20
-16.00000101
 30
0.0
 41
1.25
 42
1.25
 43
1.25
  0
MTEXT
  5
1B0E
330
13C0
100
AcDbEntity
  8
AM_5
 62
     2
100
AcDbMText
 10
-27.49999999999985
 20
-14.45000101
 30
0.0
 40
1.6
 41
0.0
 71
     5
 72
     1
  1
55
  7
ASAMI
1001
ACAD
1000
MTEXTBEGIN
1070
    73
1070
     1
1070
    44
1040
1.0
1070
    74
1070
     0
1000
MTEXTEND
  0
POINT
  5
1B0F
330
13C0
100
AcDbEntity
  8
DEFPOINTS
 62
     0
100
AcDbPoint
 10
-54.99999999999979
 20
-2.49999999999915
 30
0.0
  0
POINT
  5
1B10
330
13C0
100
AcDbEntity
  8
DEFPOINTS
 62
     0
100
AcDbPoint
 10
0.0000000000000886
 20
-3.000000000000394
 30
0.0
  0
POINT
  5
1B11
330
13C0
100
AcDbEntity
  8
DEFPOINTS
 62
     0
100
AcDbPoint
 10
0.0000000000000878
 20
-16.00000101
 30
0.0
  0
ENDBLK
  5
13CB
330
13C0
100
AcDbEntity
  8
0
100
AcDbBlockEnd
  0
BLOCK
  5
1466
330
145C
100
AcDbEntity
  8
0
100
AcDbBlockBegin
  2
*D6
 70
     1
 10
0.0
 20
0.0
 30
0.0
  3
*D6
  1

  0
LINE
  5
1AFE
330
145C
100
AcDbEntity
  8
AM_5
100
AcDbLine
 10
-18.00000000000016
 20
-3.500000000000013
 30
0.0
 11
-18.00000000000016
 21
-10.50000101000103
 31
0.0
  0
LINE
  5
1AFF
330
145C
100
AcDbEntity
  8
AM_5
100
AcDbLine
 10
-0.0000000000001104
 20
-3.500000000000394
 30
0.0
 11
-0.0000000000001108
 21
-10.50000101000103
 31
0.0
  0
LINE
  5
1B00
330
145C
100
AcDbEntity
  8
AM_5
100
AcDbLine
 10
-16.75000000000016
 20
-10.00000101000103
 30
0.0
 11
-1.25000000000011
 21
-10.00000101000103
 31
0.0
  0
INSERT
  5
1B01
330
145C
100
AcDbEntity
  8
AM_5
100
AcDbBlockReference
  2
_OPEN30
 10
-18.00000000000016
 20
-10.00000101000103
 30
0.0
 41
1.25
 42
1.25
 43
1.25
 50
180.0
  0
INSERT
  5
1B02
330
145C
100
AcDbEntity
  8
AM_5
100
AcDbBlockReference
  2
_OPEN30
 10
-0.0000000000001108
 20
-10.00000101000103
 30
0.0
 41
1.25
 42
1.25
 43
1.25
  0
MTEXT
  5
1B03
330
145C
100
AcDbEntity
  8
AM_5
 62
     2
100
AcDbMText
 10
-9.000000000000138
 20
-8.450001010001034
 30
0.0
 40
1.6
 41
0.0
 71
     5
 72
     1
  1
18
  7
ASAMI
1001
ACAD
1000
MTEXTBEGIN
1070
    73
1070
     1
1070
    44
1040
1.0
1070
    74
1070
     0
1000
MTEXTEND
  0
POINT
  5
1B04
330
145C
100
AcDbEntity
  8
DEFPOINTS
 62
     0
100
AcDbPoint
 10
-18.00000000000016
 20
-3.000000000000013
 30
0.0
  0
POINT
  5
1B05
330
145C
100
AcDbEntity
  8
DEFPOINTS
 62
     0
100
AcDbPoint
 10
-0.0000000000001103
 20
-3.000000000000394
 30
0.0
  0
POINT
  5
1B06
330
145C
100
AcDbEntity
  8
DEFPOINTS
 62
     0
100
AcDbPoint
 10
-0.0000000000001108
 20
-10.00000101000103
 30
0.0
  0
ENDBLK
  5
1467
330
145C
100
AcDbEntity
  8
0
100
AcDbBlockEnd
  0
BLOCK
  5
14FE
330
14F4
100
AcDbEntity
  8
0
100
AcDbBlockBegin
  2
*D7
 70
     1
 10
0.0
 20
0.0
 30
0.0
  3
*D7
  1

  0
LINE
  5
1ADF
330
14F4
100
AcDbEntity
  8
AM_5
100
AcDbLine
 10
0.4999999999991892
 20
3.0
 30
0.0
 11
12.05776903085497
 21
2.999999999999996
 31
0.0
  0
LINE
  5
1AE0
330
14F4
100
AcDbEntity
  8
AM_5
100
AcDbLine
 10
0.499999999999881
 20
-3.0
 30
0.0
 11
12.05776903085497
 21
-3.000000000000003
 31
0.0
  0
LINE
  5
1AE1
330
14F4
100
AcDbEntity
  8
AM_5
100
AcDbLine
 10
11.55776903085497
 20
1.749999999999996
 30
0.0
 11
11.55776903085497
 21
-1.750000000000003
 31
0.0
  0
INSERT
  5
1AE2
330
14F4
100
AcDbEntity
  8
AM_5
100
AcDbBlockReference
  2
_OPEN30
 10
11.55776903085497
 20
2.999999999999996
 30
0.0
 41
1.25
 42
1.25
 43
1.25
 50
90.0
  0
INSERT
  5
1AE3
330
14F4
100
AcDbEntity
  8
AM_5
100
AcDbBlockReference
  2
_OPEN30
 10
11.55776903085497
 20
-3.000000000000003
 30
0.0
 41
1.25
 42
1.25
 43
1.25
 50
270.0
  0
MTEXT
  5
1AE4
330
14F4
100
AcDbEntity
  8
AM_5
 62
     2
100
AcDbMText
 10
10.00776903085496
 20
-0.0000000000000014
 30
0.0
 40
1.6
 41
0.0
 71
     5
 72
     1
  1
%%c6
  7
ASAMI
 11
0.0000000000000001
 21
1.0
 31
0.0
1001
ACAD
1000
MTEXTBEGIN
1070
    73
1070
     1
1070
    44
1040
1.0
1070
    74
1070
     0
1000
MTEXTEND
  0
POINT
  5
1AE5
330
14F4
100
AcDbEntity
  8
DEFPOINTS
 62
     0
100
AcDbPoint
 10
-0.0000000000008109
 20
3.0
 30
0.0
  0
POINT
  5
1AE6
330
14F4
100
AcDbEntity
  8
DEFPOINTS
 62
     0
100
AcDbPoint
 10
-0.000000000000119
 20
-3.0
 30
0.0
  0
POINT
  5
1AE7
330
14F4
100
AcDbEntity
  8
DEFPOINTS
 62
     0
100
AcDbPoint
 10
11.55776903085497
 20
-3.000000000000003
 30
0.0
  0
ENDBLK
  5
14FF
330
14F4
100
AcDbEntity
  8
0
100
AcDbBlockEnd
  0
BLOCK
  5
1991
330
1987
100
AcDbEntity
  8
0
100
AcDbBlockBegin
  2
*D8
 70
     1
 10
0.0
 20
0.0
 30
0.0
  3
*D8
  1

  0
LINE
  5
1B12
330
1987
100
AcDbEntity
  8
AM_5
100
AcDbLine
 10
-54.99999999999978
 20
3.000000000000078
 30
0.0
 11
-65.23320585933191
 21
3.000000000000081
 31
0.0
  0
LINE
  5
1B13
330
1987
100
AcDbEntity
  8
AM_5
100
AcDbLine
 10
-54.99999999999978
 20
-2.999999999999169
 30
0.0
 11
-65.23320585933191
 21
-2.999999999999166
 31
0.0
  0
LINE
  5
1B14
330
1987
100
AcDbEntity
  8
AM_5
100
AcDbLine
 10
-64.73320585933191
 20
1.750000000000081
 30
0.0
 11
-64.73320585933191
 21
-1.749999999999166
 31
0.0
  0
INSERT
  5
1B15
330
1987
100
AcDbEntity
  8
AM_5
100
AcDbBlockReference
  2
_OPEN30
 10
-64.73320585933191
 20
3.00000000000008
 30
0.0
 41
1.25
 42
1.25
 43
1.25
 50
90.0
  0
INSERT
  5
1B16
330
1987
100
AcDbEntity
  8
AM_5
100
AcDbBlockReference
  2
_OPEN30
 10
-64.73320585933191
 20
-2.999999999999166
 30
0.0
 41
1.25
 42
1.25
 43
1.25
 50
270.0
  0
MTEXT
  5
1B17
330
1987
100
AcDbEntity
  8
AM_5
 62
     2
100
AcDbMText
 10
-66.28320585933192
 20
0.0000000000004471
 30
0.0
 40
1.6
 41
0.0
 71
     5
 72
     1
  1
%%c6
  7
ASAMI
 11
0.0000000000000001
 21
1.0
 31
0.0
1001
ACAD
1000
MTEXTBEGIN
1070
    73
1070
     1
1070
    44
1040
1.0
1070
    74
1070
     0
1000
MTEXTEND
  0
POINT
  5
1B18
330
1987
100
AcDbEntity
  8
DEFPOINTS
 62
     0
100
AcDbPoint
 10
-54.49999999999977
 20
3.000000000000078
 30
0.0
  0
POINT
  5
1B19
330
1987
100
AcDbEntity
  8
DEFPOINTS
 62
     0
100
AcDbPoint
 10
-54.49999999999978
 20
-2.999999999999169
 30
0.0
  0
POINT
  5
1B1A
330
1987
100
AcDbEntity
  8
DEFPOINTS
 62
     0
100
AcDbPoint
 10
-64.73320585933191
 20
-2.999999999999166
 30
0.0
  0
ENDBLK
  5
1992
330
1987
100
AcDbEntity
  8
0
100
AcDbBlockEnd
  0
ENDSEC
  0
SECTION
  2
ENTITIES
  0
TEXT
  5
E5A
330
1F
100
AcDbEntity
  8
AM_6
100
AcDbText
 10
-35.53571428571412
 20
-27.25000101
 30
0.0
 40
2.5
  1
LSM4060
 72
     4
 11
-27.49999999999984
 21
-26.00000101
 31
0.0
100
AcDbText
  0
LINE
  5
132B
330
1F
100
AcDbEntity
  8
AM_7
  6
AM_ISO08W050X2
100
AcDbLine
 10
4.557768030854969
 20
-0.0000000000001137
 30
0.0
 11
-57.73320485933165
 21
-0.0000000000001457
 31
0.0
1001
GENIUS_GENODEF_13
1002
{
1000
HIER
1070
     0
1002
}
1002
{
1000
MANEDIT
1070
     0
1002
}
1002
{
1000
NOSEL
1070
     0
1002
}
1002
{
1000
BEHIND
1070
     0
1002
}
1002
{
1000
REACTOR
1002
}
1001
GENIUS_GENOBJ-N-CEN_13
1002
{
1000
OWNER
1000
GEN
1002
}
  0
DIMENSION
  5
13B3
330
1F
100
AcDbEntity
  8
AM_5
100
AcDbDimension
  2
*D5
 10
0.0000000000000878
 20
-16.00000101
 30
0.0
 11
-27.49999999999985
 21
-14.45000101
 31
0.0
 70
    32
  1
<>
  3
AM_JIS
100
AcDbAlignedDimension
 13
-54.99999999999979
 23
-2.49999999999915
 33
0.0
 14
0.0000000000000886
 24
-3.000000000000394
 34
0.0
100
AcDbRotatedDimension
1001
GENIUS_GENDTOL_13
1000

1000
h7
1000

1040
0.0
  0
DIMENSION
  5
145B
330
1F
100
AcDbEntity
  8
AM_5
100
AcDbDimension
  2
*D6
 10
-0.0000000000001108
 20
-10.00000101000103
 30
0.0
 11
-9.000000000000138
 21
-8.450001010001034
 31
0.0
 70
    32
  1
<>
  3
AM_JIS
100
AcDbAlignedDimension
 13
-18.00000000000016
 23
-3.000000000000013
 33
0.0
 14
-0.0000000000001103
 24
-3.000000000000394
 34
0.0
 50
359.9999999999967
100
AcDbRotatedDimension
1001
GENIUS_GENDTOL_13
1000

1000
h7
1000

1040
0.0
  0
DIMENSION
  5
14F3
330
1F
100
AcDbEntity
  8
AM_5
100
AcDbDimension
  2
*D7
 10
11.55776903085497
 20
-3.000000000000003
 30
0.0
 11
10.00776903085496
 21
-0.0000000000000014
 31
0.0
 70
    32
  1
%%c<>
  3
AM_JIS
100
AcDbAlignedDimension
 13
-0.0000000000008109
 23
3.0
 33
0.0
 14
-0.000000000000119
 24
-3.0
 34
0.0
 50
90.0
100
AcDbRotatedDimension
1001
GENIUS_GENDTOL_13
1000

1000
h7
1000

1040
0.0
  0
LINE
  5
1980
330
1F
100
AcDbEntity
  8
AM_0
100
AcDbLine
 10
-16.32000000000011
 20
3.000000000000056
 30
0.0
 11
-54.49999999999978
 21
3.000000000000071
 31
0.0
  0
LINE
  5
1981
330
1F
100
AcDbEntity
  8
AM_0
100
AcDbLine
 10
-19.0163152192848
 20
-3.000000000000137
 30
0.0
 11
-54.49999999999979
 21
-2.999999999999162
 31
0.0
  0
LINE
  5
1984
330
1F
100
AcDbEntity
  8
AM_0
100
AcDbLine
 10
-54.99999999999978
 20
2.500000000000069
 30
0.0
 11
-54.99999999999979
 21
-2.49999999999915
 31
0.0
  0
LINE
  5
1985
330
1F
100
AcDbEntity
  8
AM_0
100
AcDbLine
 10
-54.49999999999977
 20
3.000000000000071
 30
0.0
 11
-54.49999999999979
 21
-2.999999999999168
 31
0.0
  0
DIMENSION
  5
1986
330
1F
100
AcDbEntity
  8
AM_5
100
AcDbDimension
  2
*D8
 10
-64.73320585933191
 20
-2.999999999999166
 30
0.0
 11
-66.28320585933192
 21
0.0000000000004471
 31
0.0
 70
    32
  1
%%c<>
  3
AM_JIS
100
AcDbAlignedDimension
 13
-54.49999999999977
 23
3.000000000000078
 33
0.0
 14
-54.49999999999978
 24
-2.999999999999169
 34
0.0
 50
270.0
100
AcDbRotatedDimension
1001
GENIUS_GENDTOL_13
1000

1000
h7
1000

1040
0.0
  0
LINE
  5
19B8
330
1F
100
AcDbEntity
  8
AM_0
100
AcDbLine
 10
-54.49999999999978
 20
3.000000000000071
 30
0.0
 11
-54.99999999999978
 21
2.500000000000069
 31
0.0
1001
GENIUS_GENFIL_13
1070
     0
1040
0.5
1040
0.5
1040
20.0
1040
0.0
1002
{
1002
}
1001
GENIUS_GENODEF_13
1002
{
1000
HIER
1070
     0
1002
}
1002
{
1000
MANEDIT
1070
     0
1002
}
1002
{
1000
NOSEL
1070
     0
1002
}
1002
{
1000
BEHIND
1070
     0
1002
}
1002
{
1000
REACTOR
1002
}
1001
GENIUS_GENOBJ-N-CHA_13
1002
{
1000
OWNER
1000
GEN
1002
}
  0
LINE
  5
19BB
330
1F
100
AcDbEntity
  8
AM_0
100
AcDbLine
 10
-54.99999999999979
 20
-2.49999999999915
 30
0.0
 11
-54.49999999999979
 21
-2.999999999999162
 31
0.0
1001
GENIUS_GENFIL_13
1070
     0
1040
0.5
1040
0.5
1040
20.0
1040
0.0
1002
{
1002
}
1001
GENIUS_GENODEF_13
1002
{
1000
HIER
1070
     0
1002
}
1002
{
1000
MANEDIT
1070
     0
1002
}
1002
{
1000
NOSEL
1070
     0
1002
}
1002
{
1000
BEHIND
1070
     0
1002
}
1002
{
1000
REACTOR
1002
}
1001
GENIUS_GENOBJ-N-CHA_13
1002
{
1000
OWNER
1000
GEN
1002
}
  0
SPLINE
  5
1A21
330
1F
100
AcDbEntity
  8
AM_0
100
AcDbSpline
210
0.0
220
0.0
230
1.0
 70
     8
 71
     3
 72
     8
 73
     4
 74
     0
 42
0.0000000001
 43
0.0000000001
 40
0.0
 40
0.0
 40
0.0
 40
0.0
 40
1.412269715655734
 40
1.412269715655734
 40
1.412269715655734
 40
1.412269715655734
 10
-17.16000000000021
 20
-2.958641247547468
 30
0.0
 10
-17.44245394313137
 20
-2.958641247547468
 30
0.0
 10
-17.72237154138502
 20
-2.944392063776092
 30
0.0
 10
-18.00000000000009
 20
-2.917282495095008
 30
0.0
  0
SPLINE
  5
1A22
330
1F
100
AcDbEntity
  8
AM_0
100
AcDbSpline
210
0.0
220
0.0
230
1.0
 70
     8
 71
     3
 72
     8
 73
     4
 74
     2
 42
0.0000000001
 43
0.0000000001
 44
0.0000000001
 12
-1.0
 22
-0.0000000000000008
 32
0.0
 40
0.0
 40
0.0
 40
0.0
 40
0.0
 40
8.693997929606375
 40
8.693997929606375
 40
8.693997929606375
 40
8.693997929606375
 10
-8.160000000000231
 20
-2.999999999999936
 30
0.0
 10
-11.05799930986902
 20
-2.999999999999938
 30
0.0
 10
-13.68899965493462
 20
-1.49999999999994
 30
0.0
 10
-16.32000000000023
 20
0.0000000000000568
 30
0.0
 11
-8.160000000000231
 21
-2.999999999999936
 31
0.0
 11
-16.32000000000023
 21
0.0000000000000568
 31
0.0
  0
SPLINE
  5
1A23
330
1F
100
AcDbEntity
  8
AM_0
100
AcDbSpline
210
0.0
220
0.0
230
1.0
 70
     8
 71
     3
 72
     8
 73
     4
 74
     2
 42
0.0000000001
 43
0.0000000001
 44
0.0000000001
 12
1.0
 22
0.0000000000000006
 32
0.0
 40
0.0
 40
0.0
 40
0.0
 40
0.0
 40
8.693997929606375
 40
8.693997929606375
 40
8.693997929606375
 40
8.693997929606375
 10
-16.32000000000011
 20
3.000000000000056
 30
0.0
 10
-13.42200069013132
 20
3.000000000000058
 30
0.0
 10
-10.79100034506571
 20
1.500000000000061
 30
0.0
 10
-8.160000000000113
 20
0.0000000000000639
 30
0.0
 11
-16.32000000000011
 21
3.000000000000056
 31
0.0
 11
-8.160000000000113
 21
0.0000000000000639
 31
0.0
  0
SPLINE
  5
1A24
330
1F
100
AcDbEntity
  8
AM_0
100
AcDbSpline
210
0.0
220
0.0
230
1.0
 70
     8
 71
     3
 72
     8
 73
     4
 74
     0
 42
0.0000000001
 43
0.0000000001
 40
0.0
 40
0.0
 40
0.0
 40
0.0
 40
2.130230809022907
 40
2.130230809022907
 40
2.130230809022907
 40
2.130230809022907
 10
-16.32000000000022
 20
-3.000000000000014
 30
0.0
 10
-15.89395383819564
 20
-3.000000000000014
 30
0.0
 10
-15.47367834767806
 20
-2.967580372692111
 30
0.0
 10
-15.05832515959368
 20
-2.90750725371155
 30
0.0
  0
SPLINE
  5
1A25
330
1F
100
AcDbEntity
  8
AM_0
100
AcDbSpline
210
0.0
220
0.0
230
1.0
 70
     8
 71
     3
 72
     8
 73
     4
 74
     0
 42
0.0000000001
 43
0.0000000001
 40
0.0
 40
0.0
 40
0.0
 40
0.0
 40
6.769478140335353
 40
6.769478140335353
 40
6.769478140335353
 40
6.769478140335353
 10
-14.06680999141505
 20
-2.770466702281552
 30
0.0
 10
-15.42070561948212
 20
-2.770466702281556
 30
0.0
 10
-16.72378523962123
 20
-2.462733379885818
 30
0.0
 10
-18.00000000000009
 20
-1.992310919031389
 30
0.0
  0
SPLINE
  5
1A26
330
1F
100
AcDbEntity
  8
AM_0
100
AcDbSpline
210
0.0
220
0.0
230
1.0
 70
     8
 71
     3
 72
     8
 73
     4
 74
     0
 42
0.0000000001
 43
0.0000000001
 40
0.0
 40
0.0
 40
0.0
 40
0.0
 40
4.662554012798695
 40
4.662554012798695
 40
4.662554012798695
 40
4.662554012798695
 10
-15.27273073080346
 20
-2.910170202201175
 30
0.0
 10
-16.20524153336318
 20
-2.910170202201175
 30
0.0
 10
-17.11150621403725
 20
-2.758443923103286
 30
0.0
 10
-18.00000000000009
 20
-2.503985829281635
 30
0.0
  0
SPLINE
  5
1A27
330
1F
100
AcDbEntity
  8
AM_0
100
AcDbSpline
210
0.0
220
0.0
230
1.0
 70
     8
 71
     3
 72
     8
 73
     4
 74
     0
 42
0.0000000001
 43
0.0000000001
 40
4.48458745047074
 40
4.48458745047074
 40
4.48458745047074
 40
4.48458745047074
 40
14.36247867694493
 40
14.36247867694493
 40
14.36247867694493
 40
14.36247867694493
 10
-19.59606754382673
 20
2.407449288103009
 30
0.0
 10
-17.70332658163194
 20
1.905407092136275
 30
0.0
 10
-15.88506828652348
 20
0.9527035460681396
 30
0.0
 10
-14.06680999141506
 20
0.0000000000000249
 30
0.0
  0
SPLINE
  5
1A28
330
1F
100
AcDbEntity
  8
AM_0
100
AcDbSpline
210
0.0
220
0.0
230
1.0
 70
     8
 71
     3
 72
     8
 73
     4
 74
     0
 42
0.0000000001
 43
0.0000000001
 40
9.094138221207366
 40
9.094138221207366
 40
9.094138221207366
 40
9.094138221207366
 40
14.43901837670146
 40
14.43901837670146
 40
14.43901837670146
 40
14.43901837670146
 10
-18.21290506504202
 20
1.542077548582117
 30
0.0
 10
-17.22433552666772
 20
1.077255430878494
 30
0.0
 10
-16.24853312873558
 20
0.5386277154392581
 30
0.0
 10
-15.27273073080348
 20
0.0000000000000213
 30
0.0
  0
SPLINE
  5
1A29
330
1F
100
AcDbEntity
  8
AM_0
100
AcDbSpline
210
0.0
220
0.0
230
1.0
 70
     8
 71
     3
 72
     8
 73
     4
 74
     0
 42
0.0000000001
 43
0.0000000001
 40
0.0
 40
0.0
 40
0.0
 40
0.0
 40
2.764560748519282
 40
2.764560748519282
 40
2.764560748519282
 40
2.764560748519282
 10
-7.112730730803465
 20
-2.910170202201236
 30
0.0
 10
-6.559818581099616
 20
-2.910170202201236
 30
0.0
 10
-6.016133625673418
 20
-2.856828689106038
 30
0.0
 10
-5.479909183546064
 20
-2.760358673905869
 30
0.0
  0
SPLINE
  5
1A2A
330
1F
100
AcDbEntity
  8
AM_0
100
AcDbSpline
210
0.0
220
0.0
230
1.0
 70
     8
 71
     3
 72
     8
 73
     4
 74
     0
 42
0.0000000001
 43
0.0000000001
 40
1.870660592686466
 40
1.870660592686466
 40
1.870660592686466
 40
1.870660592686466
 40
14.43901837670146
 40
14.43901837670146
 40
14.43901837670146
 40
14.43901837670146
 10
-0.0630000000001125
 20
-2.840064694573062
 30
0.0
 10
-2.52357875473741
 20
-2.533140367260887
 30
0.0
 10
-4.818154742770388
 20
-1.266570183630431
 30
0.0
 10
-7.112730730803365
 20
0.0000000000000284
 30
0.0
  0
SPLINE
  5
1A2B
330
1F
100
AcDbEntity
  8
AM_0
100
AcDbSpline
210
0.0
220
0.0
230
1.0
 70
     8
 71
     3
 72
     8
 73
     4
 74
     0
 42
0.0000000001
 43
0.0000000001
 40
0.7142832446738512
 40
0.7142832446738512
 40
0.7142832446738512
 40
0.7142832446738512
 40
14.36247867694493
 40
14.36247867694493
 40
14.36247867694493
 40
14.36247867694493
 10
-13.63990918348274
 20
2.760358673894565
 30
0.0
 10
-10.93135298121372
 20
2.632684221285309
 30
0.0
 10
-8.419081486314333
 20
1.316342110642672
 30
0.0
 10
-5.906809991414944
 20
0.0000000000000284
 30
0.0
  0
SPLINE
  5
1A2C
330
1F
100
AcDbEntity
  8
AM_0
100
AcDbSpline
210
0.0
220
0.0
230
1.0
 70
     8
 71
     3
 72
     8
 73
     4
 74
     2
 42
0.0000000001
 43
0.0000000001
 44
0.0000000001
 12
-1.0
 22
-0.0000000000000008
 32
0.0
 40
0.0
 40
0.0
 40
0.0
 40
0.0
 40
8.617487206166963
 40
8.617487206166963
 40
8.617487206166963
 40
8.617487206166963
 10
-5.906809991415062
 20
-2.770466702281549
 30
0.0
 10
-8.77930572680405
 20
-2.770466702281551
 30
0.0
 10
-11.42305785910955
 20
-1.385233351140729
 30
0.0
 10
-14.06680999141506
 20
0.0000000000000924
 30
0.0
 11
-5.906809991415062
 21
-2.770466702281549
 31
0.0
 11
-14.06680999141506
 21
0.0000000000000924
 31
0.0
  0
SPLINE
  5
1A2D
330
1F
100
AcDbEntity
  8
AM_0
100
AcDbSpline
210
0.0
220
0.0
230
1.0
 70
     8
 71
     3
 72
     8
 73
     4
 74
     2
 42
0.0000000001
 43
0.0000000001
 44
0.0000000001
 12
-1.0
 22
-0.0000000000000008
 32
0.0
 40
0.0
 40
0.0
 40
0.0
 40
0.0
 40
8.693997929606371
 40
8.693997929606371
 40
8.693997929606371
 40
8.693997929606371
 10
-0.000000000000119
 20
-3.0
 30
0.0
 10
-2.897999309868909
 20
-3.000000000000002
 30
0.0
 10
-5.528999654934511
 20
-1.500000000000002
 30
0.0
 10
-8.160000000000113
 20
-0.0000000000000036
 30
0.0
 11
-0.000000000000119
 21
-3.0
 31
0.0
 11
-8.160000000000113
 21
-0.0000000000000036
 31
0.0
  0
SPLINE
  5
1A2E
330
1F
100
AcDbEntity
  8
AM_0
100
AcDbSpline
210
0.0
220
0.0
230
1.0
 70
     8
 71
     3
 72
     8
 73
     4
 74
     2
 42
0.0000000001
 43
0.0000000001
 44
0.0000000001
 12
1.0
 22
0.0000000000000006
 32
0.0
 40
0.0
 40
0.0
 40
0.0
 40
0.0
 40
8.693997929606375
 40
8.693997929606375
 40
8.693997929606375
 40
8.693997929606375
 10
-8.160000000000117
 20
3.000000000000063
 30
0.0
 10
-5.262000690131325
 20
3.000000000000065
 30
0.0
 10
-2.631000345065722
 20
1.500000000000066
 30
0.0
 10
-0.000000000000119
 20
0.0000000000000675
 30
0.0
 11
-8.160000000000117
 21
3.000000000000063
 31
0.0
 11
-0.000000000000119
 21
0.0000000000000675
 31
0.0
  0
SPLINE
  5
1A2F
330
1F
100
AcDbEntity
  8
AM_0
100
AcDbSpline
210
0.0
220
0.0
230
1.0
 70
     8
 71
     3
 72
     8
 73
     4
 74
     0
 42
0.0000000001
 43
0.0000000001
 40
0.3581103616548037
 40
0.3581103616548037
 40
0.3581103616548037
 40
0.3581103616548037
 40
12.40023413887867
 40
12.40023413887867
 40
12.40023413887867
 40
12.40023413887867
 10
-6.898325159593452
 20
2.9075072537116
 30
0.0
 10
-4.500184073272244
 20
2.848058362237701
 30
0.0
 10
-2.27277562689013
 20
1.801620677091001
 30
0.0
 10
-0.0700876754376108
 20
0.6122762139653802
 30
0.0
  0
SPLINE
  5
1A30
330
1F
100
AcDbEntity
  8
AM_0
100
AcDbSpline
210
0.0
220
0.0
230
1.0
 70
     8
 71
     3
 72
     8
 73
     4
 74
     0
 42
0.0000000001
 43
0.0000000001
 40
4.542668862435135
 40
4.542668862435135
 40
4.542668862435135
 40
4.542668862435135
 40
14.36247867694493
 40
14.36247867694493
 40
14.36247867694493
 40
14.36247867694493
 10
-0.4109999999992838
 20
-2.398569993273973
 30
0.0
 10
-2.291675902113444
 20
-1.894203411943713
 30
0.0
 10
-4.099242946764194
 20
-0.9471017059718462
 30
0.0
 10
-5.906809991414944
 20
0.0000000000000284
 30
0.0
  0
SPLINE
  5
1A31
330
1F
100
AcDbEntity
  8
AM_0
100
AcDbSpline
210
0.0
220
0.0
230
1.0
 70
     8
 71
     3
 72
     8
 73
     4
 74
     0
 42
0.0000000001
 43
0.0000000001
 40
0.0
 40
0.0
 40
0.0
 40
0.0
 40
5.635889483499127
 40
5.635889483499127
 40
5.635889483499127
 40
5.635889483499127
 10
-0.0000000000001226
 20
3.0
 30
0.0
 10
-1.127177896699945
 20
3.0
 30
0.0
 10
-2.213963552301791
 20
2.773076417387478
 30
0.0
 10
-3.27606754382642
 20
2.407491263022741
 30
0.0
  0
SPLINE
  5
1A32
330
1F
100
AcDbEntity
  8
AM_0
100
AcDbSpline
210
0.0
220
0.0
230
1.0
 70
     8
 71
     3
 72
     8
 73
     4
 74
     2
 42
0.0000000001
 43
0.0000000001
 44
0.0000000001
 12
-0.6417012268563095
 22
-0.7669547153848835
 32
0.0
 13
-0.990099942783104
 23
-0.140364180975397
 33
0.0
 40
0.0
 40
0.0
 40
0.0
 40
0.0
 40
1.551939194170026
 40
1.551939194170026
 40
1.551939194170026
 40
1.551939194170026
 10
-0.0000000000001226
 20
2.444821612010379
 30
0.0
 10
-0.3319604283018886
 20
2.048065917690606
 30
0.0
 10
-0.9017517028297175
 20
1.877684278154609
 30
0.0
 10
-1.41394333861325
 20
1.805072053516845
 30
0.0
 11
-0.0000000000001226
 21
2.444821612010379
 31
0.0
 11
-1.41394333861325
 21
1.805072053516845
 31
0.0
  0
SPLINE
  5
1A33
330
1F
100
AcDbEntity
  8
AM_0
100
AcDbSpline
210
0.0
220
0.0
230
1.0
 70
     8
 71
     3
 72
     8
 73
     4
 74
     0
 42
0.0000000001
 43
0.0000000001
 40
0.7142832446738512
 40
0.7142832446738512
 40
0.7142832446738512
 40
0.7142832446738512
 40
9.361146747480315
 40
9.361146747480315
 40
9.361146747480315
 40
9.361146747480315
 10
-5.47990918348275
 20
2.760358673894572
 30
0.0
 10
-3.763893620332
 20
2.67947006338295
 30
0.0
 10
-2.126664810868939
 20
2.121461929679774
 30
0.0
 10
-0.5183071227780989
 20
1.388615069688569
 30
0.0
  0
SPLINE
  5
1A34
330
1F
100
AcDbEntity
  8
AM_0
100
AcDbSpline
210
0.0
220
0.0
230
1.0
 70
     8
 71
     3
 72
     8
 73
     4
 74
     0
 42
0.0000000001
 43
0.0000000001
 40
0.0
 40
0.0
 40
0.0
 40
0.0
 40
4.451443990518192
 40
4.451443990518192
 40
4.451443990518192
 40
4.451443990518192
 10
-5.906809991415062
 20
-2.770466702281616
 30
0.0
 10
-5.016521193311413
 20
-2.770466702281616
 30
0.0
 10
-4.148205528511638
 20
-2.637401048548468
 30
0.0
 10
-3.295052739928609
 20
-2.412511529354084
 30
0.0
  0
SPLINE
  5
1A35
330
1F
100
AcDbEntity
  8
AM_0
100
AcDbSpline
210
0.0
220
0.0
230
1.0
 70
     8
 71
     3
 72
     8
 73
     4
 74
     2
 42
0.0000000001
 43
0.0000000001
 44
0.0000000001
 12
-1.0
 22
-0.0000000000000008
 32
0.0
 40
0.0
 40
0.0
 40
0.0
 40
0.0
 40
8.663411026020892
 40
8.663411026020892
 40
8.663411026020892
 40
8.663411026020892
 10
-7.112730730803465
 20
-2.910170202201168
 30
0.0
 10
-10.00053440614376
 20
-2.91017020220117
 30
0.0
 10
-12.63663256847362
 20
-1.45508510110054
 30
0.0
 10
-15.27273073080348
 20
0.0000000000000888
 30
0.0
 11
-7.112730730803465
 21
-2.910170202201168
 31
0.0
 11
-15.27273073080348
 21
0.0000000000000888
 31
0.0
  0
SPLINE
  5
1A36
330
1F
100
AcDbEntity
  8
AM_0
100
AcDbSpline
210
0.0
220
0.0
230
1.0
 70
     8
 71
     3
 72
     8
 73
     4
 74
     0
 42
0.0000000001
 43
0.0000000001
 40
0.3581103616548037
 40
0.3581103616548037
 40
0.3581103616548037
 40
0.3581103616548037
 40
14.43901837670146
 40
14.43901837670146
 40
14.43901837670146
 40
14.43901837670146
 10
-15.05832515959345
 20
2.907507253711592
 30
0.0
 10
-12.25416829587969
 20
2.837993404831927
 30
0.0
 10
-9.683449513341521
 20
1.418996702415974
 30
0.0
 10
-7.112730730803365
 20
0.0000000000000284
 30
0.0
  0
SPLINE
  5
1A37
330
1F
100
AcDbEntity
  8
AM_0
100
AcDbSpline
210
0.0
220
0.0
230
1.0
 70
     8
 71
     3
 72
     8
 73
     4
 74
     0
 42
0.0000000001
 43
0.0000000001
 40
0.0
 40
0.0
 40
0.0
 40
0.0
 40
5.635889483499305
 40
5.635889483499305
 40
5.635889483499305
 40
5.635889483499305
 10
-8.160000000000236
 20
3.000000000000063
 30
0.0
 10
-9.287177896700111
 20
3.000000000000063
 30
0.0
 10
-10.37396355230197
 20
2.773076417387542
 30
0.0
 10
-11.43606754382662
 20
2.40749126302277
 30
0.0
  0
SPLINE
  5
1A38
330
1F
100
AcDbEntity
  8
AM_0
100
AcDbSpline
210
0.0
220
0.0
230
1.0
 70
     8
 71
     3
 72
     8
 73
     4
 74
     0
 42
0.0000000001
 43
0.0000000001
 40
0.0
 40
0.0
 40
0.0
 40
0.0
 40
2.130230809022907
 40
2.130230809022907
 40
2.130230809022907
 40
2.130230809022907
 10
-8.160000000000231
 20
-3.000000000000003
 30
0.0
 10
-7.733953838195643
 20
-3.000000000000003
 30
0.0
 10
-7.313678347678066
 20
-2.967580372692104
 30
0.0
 10
-6.898325159593687
 20
-2.907507253711543
 30
0.0
  0
SPLINE
  5
1A39
330
1F
100
AcDbEntity
  8
AM_0
100
AcDbSpline
210
0.0
220
0.0
230
1.0
 70
     8
 71
     3
 72
     8
 73
     4
 74
     0
 42
0.0000000001
 43
0.0000000001
 40
0.0
 40
0.0
 40
0.0
 40
0.0
 40
4.451443990518192
 40
4.451443990518192
 40
4.451443990518192
 40
4.451443990518192
 10
-14.06680999141505
 20
-2.77046670228162
 30
0.0
 10
-13.17652119331141
 20
-2.77046670228162
 30
0.0
 10
-12.30820552851163
 20
-2.637401048548472
 30
0.0
 10
-11.4550527399286
 20
-2.412511529354091
 30
0.0
  0
SPLINE
  5
1A3A
330
1F
100
AcDbEntity
  8
AM_0
100
AcDbSpline
210
0.0
220
0.0
230
1.0
 70
     8
 71
     3
 72
     8
 73
     4
 74
     0
 42
0.0000000001
 43
0.0000000001
 40
0.0
 40
0.0
 40
0.0
 40
0.0
 40
2.764560748519282
 40
2.764560748519282
 40
2.764560748519282
 40
2.764560748519282
 10
-15.27273073080346
 20
-2.910170202201243
 30
0.0
 10
-14.71981858109961
 20
-2.910170202201243
 30
0.0
 10
-14.17613362567341
 20
-2.856828689106041
 30
0.0
 10
-13.63990918354606
 20
-2.760358673905873
 30
0.0
  0
SPLINE
  5
1A3B
330
1F
100
AcDbEntity
  8
AM_0
100
AcDbSpline
210
0.0
220
0.0
230
1.0
 70
     8
 71
     3
 72
     8
 73
     4
 74
     0
 42
0.0000000001
 43
0.0000000001
 40
0.0
 40
0.0
 40
0.0
 40
0.0
 40
1.412269715655931
 40
1.412269715655931
 40
1.412269715655931
 40
1.412269715655931
 10
-16.32000000000022
 20
-2.999999999999943
 30
0.0
 10
-16.60245394313141
 20
-2.999999999999943
 30
0.0
 10
-16.8823715413851
 20
-2.98575081622857
 30
0.0
 10
-17.16000000000023
 20
-2.958641247547468
 30
0.0
  0
SPLINE
  5
1A3C
330
1F
100
AcDbEntity
  8
AM_0
100
AcDbSpline
210
0.0
220
0.0
230
1.0
 70
     8
 71
     3
 72
     8
 73
     4
 74
     0
 42
0.0000000001
 43
0.0000000001
 40
11.41055204919593
 40
11.41055204919593
 40
11.41055204919593
 40
11.41055204919593
 40
14.48999654934393
 40
14.48999654934393
 40
14.48999654934393
 40
14.48999654934393
 10
-18.00000000000013
 20
0.9419514053874635
 30
0.0
 10
-17.43829143849841
 20
0.6375663009293789
 30
0.0
 10
-16.87914571924932
 20
0.3187831504647178
 30
0.0
 10
-16.32000000000023
 20
0.0000000000000568
 30
0.0
  0
LINE
  5
1A40
330
1F
100
AcDbEntity
  8
AM_11
100
AcDbLine
 10
-18.00000000000016
 20
-3.000000000000013
 30
0.0
 11
-0.000000000000119
 21
-3.0
 31
0.0
  0
LINE
  5
1A41
330
1F
100
AcDbEntity
  8
AM_11
100
AcDbLine
 10
-0.0000000000005826
 20
3.0
 30
0.0
 11
-18.00000000000027
 21
2.999999999999985
 31
0.0
  0
LINE
  5
1A42
330
1F
100
AcDbEntity
  8
AM_0
100
AcDbLine
 10
-0.000000000000119
 20
0.0
 30
0.0
 11
-0.0000000000001243
 21
3.0
 31
0.0
  0
ARC
  5
1A43
330
1F
100
AcDbEntity
  8
AM_0
100
AcDbCircle
 10
1.1914039092162
 20
-1.526328098830742
 30
0.0
 40
1.82441886930963
100
AcDbArc
 50
159.3923269732582
 51
208.5609268810354
  0
LINE
  5
1A44
330
1F
100
AcDbEntity
  8
AM_0
100
AcDbLine
 10
-0.0630000000001125
 20
-2.840064694573094
 30
0.0
 11
-0.0630000000001125
 21
-0.7961387127379105
 31
0.0
  0
LINE
  5
1A45
330
1F
100
AcDbEntity
  8
AM_0
100
AcDbLine
 10
-0.000000000000119
 20
-3.0
 30
0.0
 11
-0.000000000000119
 21
-0.6000000000000015
 31
0.0
  0
LINE
  5
1A46
330
1F
100
AcDbEntity
  8
AM_0
100
AcDbLine
 10
-0.5162747914148209
 20
-0.8841928590999259
 30
0.0
 11
-0.0630000000001125
 21
-0.7961387127379105
 31
0.0
  0
LINE
  5
1A47
330
1F
100
AcDbEntity
  8
AM_0
100
AcDbLine
 10
-0.000000000000119
 20
0.0
 30
0.0
 11
-1.41394333861325
 21
0.0
 31
0.0
  0
LINE
  5
1A48
330
1F
100
AcDbEntity
  8
AM_0
100
AcDbLine
 10
-1.41394333861325
 20
-0.4800000000000076
 30
0.0
 11
-0.0692820323028727
 21
-0.4800000000000076
 31
0.0
  0
LINE
  5
1A49
330
1F
100
AcDbEntity
  8
AM_0
100
AcDbLine
 10
-0.000000000000119
 20
-0.6000000000000015
 30
0.0
 11
-0.3464101615139086
 21
0.0000000000000355
 31
0.0
  0
LINE
  5
1A4A
330
1F
100
AcDbEntity
  8
AM_0
100
AcDbLine
 10
-0.000000000000119
 20
0.0
 30
0.0
 11
-0.0630000000001125
 21
0.600000000000069
 31
0.0
  0
LINE
  5
1A4B
330
1F
100
AcDbEntity
  8
AM_0
100
AcDbLine
 10
-0.000000000000119
 20
0.0
 30
0.0
 11
-0.0533055654865002
 21
-0.5076720522514507
 31
0.0
  0
LINE
  5
1A4C
330
1F
100
AcDbEntity
  8
AM_0
100
AcDbLine
 10
-1.41394333861325
 20
0.0
 30
0.0
 11
-1.41394333861325
 21
-0.4800000000000076
 31
0.0
  0
LINE
  5
1A4D
330
1F
100
AcDbEntity
  8
AM_0
100
AcDbLine
 10
-1.41394333861325
 20
-0.4800000000000076
 30
0.0
 11
-0.5162747914148209
 21
-0.8841928590999259
 31
0.0
  0
LINE
  5
1A4E
330
1F
100
AcDbEntity
  8
AM_0
100
AcDbLine
 10
-0.0630000000001125
 20
-0.7961387127379105
 30
0.0
 11
-0.000000000000119
 21
-0.6000000000000015
 31
0.0
  0
LINE
  5
1A4F
330
1F
100
AcDbEntity
  8
AM_0
100
AcDbLine
 10
-0.6405145186476311
 20
1.600284488406238
 30
0.0
 11
-1.41394333861325
 21
1.805072053516845
 31
0.0
  0
LINE
  5
1A50
330
1F
100
AcDbEntity
  8
AM_0
100
AcDbLine
 10
-0.0630000000001125
 20
0.600000000000069
 30
0.0
 11
-0.6405145186476311
 21
1.600284488406238
 31
0.0
  0
LINE
  5
1A51
330
1F
100
AcDbEntity
  8
AM_0
100
AcDbLine
 10
-0.000000000000119
 20
-3.0
 30
0.0
 11
-0.0630000000001125
 21
-2.840064694573094
 31
0.0
  0
LINE
  5
1A52
330
1F
100
AcDbEntity
  8
AM_0
100
AcDbLine
 10
-0.0630000000001125
 20
-2.840064694573062
 30
0.0
 11
-0.4110000000001204
 21
-2.398569993277146
 31
0.0
  0
POLYLINE
  5
1A53
330
1F
100
AcDbEntity
  8
AM_0
100
AcDb2dPolyline
 66
     1
 10
0.0
 20
0.0
 30
0.0
 70
     2
  0
VERTEX
  5
1A54
330
1A53
100
AcDbEntity
  8
AM_0
100
AcDbVertex
100
AcDb2dVertex
 10
-19.59606754382673
 20
2.407449288103009
 30
0.0
 42
-0.0080850818469205
  0
VERTEX
  5
1A55
330
1A53
100
AcDbEntity
  8
AM_0
100
AcDbVertex
100
AcDb2dVertex
 10
-19.89689278406505
 20
2.501677672416615
 30
0.0
 42
-0.0113772357485858
 70
     1
  0
VERTEX
  5
1A56
330
1A53
100
AcDbEntity
  8
AM_0
100
AcDbVertex
100
AcDb2dVertex
 10
-20.11122237584133
 20
2.578122361015033
 30
0.0
 42
-0.0082896290467094
  0
VERTEX
  5
1A57
330
1A53
100
AcDbEntity
  8
AM_0
100
AcDbVertex
100
AcDb2dVertex
 10
-20.79432519217568
 20
2.85249685540672
 30
0.0
 42
-0.2726804491113656
 70
     1
  0
VERTEX
  5
1A58
330
1A53
100
AcDbEntity
  8
AM_0
100
AcDbVertex
100
AcDb2dVertex
 10
-20.80868009810612
 20
2.871782439641378
 30
0.0
 42
-0.4014058829339297
  0
VERTEX
  5
1A59
330
1A53
100
AcDbEntity
  8
AM_0
100
AcDbVertex
100
AcDb2dVertex
 10
-20.78265669002958
 20
2.905592425572127
 30
0.0
 42
-0.0313656446754737
 70
     1
  0
VERTEX
  5
1A5A
330
1A53
100
AcDbEntity
  8
AM_0
100
AcDbVertex
100
AcDb2dVertex
 10
-20.31379674191659
 20
2.947271894802334
 30
0.0
 42
-0.0039726403541645
  0
VERTEX
  5
1A5B
330
1A53
100
AcDbEntity
  8
AM_0
100
AcDbVertex
100
AcDb2dVertex
 10
-19.88681472553235
 20
2.954961102270527
 30
0.0
 42
0.0019401889352083
 70
     1
  0
VERTEX
  5
1A5C
330
1A53
100
AcDbEntity
  8
AM_0
100
AcDbVertex
100
AcDb2dVertex
 10
-19.0125000000001
 20
2.967151113952997
 30
0.0
 42
0.0036525506412497
  0
VERTEX
  5
1A5D
330
1A53
100
AcDbEntity
  8
AM_0
100
AcDbVertex
100
AcDb2dVertex
 10
-18.66868795468678
 20
2.975791863271929
 30
0.0
 42
0.0018773371428962
 70
     1
  0
VERTEX
  5
1A5E
330
1A53
100
AcDbEntity
  8
AM_0
100
AcDbVertex
100
AcDb2dVertex
 10
-17.97628774404442
 20
2.986309722641054
 30
0.0
  0
SEQEND
  5
1A5F
330
1A53
100
AcDbEntity
  8
AM_0
  0
LINE
  5
1A60
330
1F
100
AcDbEntity
  8
AM_11
100
AcDbLine
 10
-18.00000000000016
 20
-3.000000000000014
 30
0.0
 11
-18.0000000000001
 21
2.999999999999985
 31
0.0
  0
POLYLINE
  5
1A61
330
1F
100
AcDbEntity
  8
AM_0
100
AcDb2dPolyline
 66
     1
 10
0.0
 20
0.0
 30
0.0
 70
     2
  0
VERTEX
  5
1B6F
330
1A61
100
AcDbEntity
  8
AM_0
100
AcDbVertex
100
AcDb2dVertex
 10
-18.00000000000009
 20
0.9419514053875133
 30
0.0
 42
0.0282874143909207
  0
VERTEX
  5
1B77
330
1A61
100
AcDbEntity
  8
AM_0
100
AcDbVertex
100
AcDb2dVertex
 10
-18.54176130527475
 20
1.089241093423765
 30
0.0
 42
0.03340744634969
 70
     1
  0
VERTEX
  5
1B70
330
1A61
100
AcDbEntity
  8
AM_0
100
AcDbVertex
100
AcDb2dVertex
 10
-19.0125000000001
 20
1.156589820740983
 30
0.0
 42
0.0318888583378956
  0
VERTEX
  5
1B78
330
1A61
100
AcDbEntity
  8
AM_0
100
AcDbVertex
100
AcDb2dVertex
 10
-20.00185276882052
 20
1.168027030811038
 30
0.0
 42
0.0858515004804046
 70
     1
  0
VERTEX
  5
1B71
330
1A61
100
AcDbEntity
  8
AM_0
100
AcDbVertex
100
AcDb2dVertex
 10
-20.3625000000001
 20
1.086060710972546
 30
0.0
 42
0.1198883322212128
  0
VERTEX
  5
1B79
330
1A61
100
AcDbEntity
  8
AM_0
100
AcDbVertex
100
AcDb2dVertex
 10
-20.61960942810255
 20
0.8972562026244865
 30
0.0
 42
0.1704800302433787
 70
     1
  0
VERTEX
  5
1B72
330
1A61
100
AcDbEntity
  8
AM_0
100
AcDbVertex
100
AcDb2dVertex
 10
-20.7000000000001
 20
0.6843555724925637
 30
0.0
 42
0.1172295991725474
  0
VERTEX
  5
1B7A
330
1A61
100
AcDbEntity
  8
AM_0
100
AcDbVertex
100
AcDb2dVertex
 10
-20.64326531441149
 20
0.4182544700492912
 30
0.0
 42
0.0600702127063946
 70
     1
  0
VERTEX
  5
1B73
330
1A61
100
AcDbEntity
  8
AM_0
100
AcDbVertex
100
AcDb2dVertex
 10
-20.3625000000001
 20
-0.0261568373403023
 30
0.0
 42
0.0296604585274419
  0
VERTEX
  5
1B7C
330
1A61
100
AcDbEntity
  8
AM_0
100
AcDbVertex
100
AcDb2dVertex
 10
-19.90231981545132
 20
-0.5273613458969493
 30
0.0
 42
0.0168132859575163
 70
     1
  0
VERTEX
  5
1B74
330
1A61
100
AcDbEntity
  8
AM_0
100
AcDbVertex
100
AcDb2dVertex
 10
-19.0125000000001
 20
-1.33191503252026
 30
0.0
 42
0.0308957679148705
  0
VERTEX
  5
1B7B
330
1A61
100
AcDbEntity
  8
AM_0
100
AcDbVertex
100
AcDb2dVertex
 10
-18.64670498196344
 20
-1.604107529815507
 30
0.0
 42
0.018665024272643
 70
     1
  0
VERTEX
  5
1B75
330
1A61
100
AcDbEntity
  8
AM_0
100
AcDbVertex
100
AcDb2dVertex
 10
-18.00000000000009
 20
-1.992310919031389
 30
0.0
  0
SEQEND
  5
1B76
330
1A61
100
AcDbEntity
  8
AM_0
  0
LINE
  5
1A62
330
1F
100
AcDbEntity
  8
AM_0
100
AcDbLine
 10
-18.0000000000001
 20
1.881095203342152
 30
0.0
 11
-18.21290506504206
 21
1.542077548582117
 31
0.0
  0
LINE
  5
1A63
330
1F
100
AcDbEntity
  8
AM_0
100
AcDbLine
 10
-18.21290506504206
 20
1.542077548582117
 30
0.0
 11
-18.0000000000001
 21
0.9419514053875133
 31
0.0
  0
ARC
  5
1A64
330
1F
100
AcDbEntity
  8
AM_0
100
AcDbCircle
 10
-17.99025982357911
 20
-9.321833689266318
 30
0.0
 40
6.404558600699786
100
AcDbArc
 50
90.08713656171535
 51
99.21891394236292
  0
LINE
  5
1A65
330
1F
100
AcDbEntity
  8
AM_0
100
AcDbLine
 10
-18.0000000000001
 20
-1.992310919031389
 30
0.0
 11
-18.00000000000016
 21
-2.917282495095026
 31
0.0
  0
SPLINE
  5
1AF3
330
1F
100
AcDbEntity
  8
AM_0
100
AcDbSpline
210
0.0
220
0.0
230
1.0
 70
    24
 71
     3
 72
     8
 73
     4
 74
     2
 42
0.0000000001
 43
0.0000000001
 44
0.0000000001
 40
0.0
 40
0.0
 40
0.0
 40
0.0
 40
1.656344322527333
 40
1.656344322527333
 40
1.656344322527333
 40
1.656344322527333
 10
-17.97628774404444
 20
2.986309722641053
 30
0.0
 10
-17.4241918293627
 20
2.990873148427364
 30
0.0
 10
-16.87209591468097
 20
2.995436574213675
 30
0.0
 10
-16.31999999999923
 20
2.999999999999987
 30
0.0
 11
-17.97628774404444
 21
2.986309722641053
 31
0.0
 11
-16.31999999999923
 21
2.999999999999987
 31
0.0
  0
VIEWPORT
  5
110
330
101
100
AcDbEntity
 67
     1
  8
0
100
AcDbViewport
 10
420.5
 20
297.0
 30
0.0
 40
948.9782706766916
 41
628.452
 68
     1
 69
     1
1001
ACAD
1000
MVIEW
1002
{
1070
    16
1010
0.0
1020
0.0
1030
0.0
1010
0.0
1020
0.0
1030
1.0
1040
0.0
1040
628.452
1040
420.5
1040
297.0
1040
50.0
1040
0.0
1040
0.0
1070
     0
1070
   100
1070
     1
1070
     1
1070
     0
1070
     0
1070
     0
1070
     0
1040
0.0
1040
0.0
1040
0.0
1040
10.0
1040
10.0
1040
10.0
1040
10.0
1070
     0
1002
{
1002
}
1002
}
  0
ENDSEC
  0
SECTION
  2
OBJECTS
  0
DICTIONARY
  5
C
330
0
100
AcDbDictionary
  3
ACAD_GROUP
350
D
  3
ACAD_LAYOUT
350
1A
  3
ACAD_MLINESTYLE
350
17
  3
ACAD_PLOTSETTINGS
350
19
  3
ACAD_PLOTSTYLENAME
350
E
  3
ACDBVARIABLEDICTIONARY
350
34
  3
ACMDICTIONARY
350
43
  3
AMG
350
2B
  3
AMGSNAPSETTINGS
350
6E
  3
DWGPROPS
350
1B8C
  3
ACDBHEADERROUNDTRIPXREC
350
1B98
  0
DICTIONARY
  5
74
330
1F
100
AcDbDictionary
280
     1
  3
ACAD_INDEX
360
1B8E
  3
ACAD_LAYOUTSELFREF
360
1BBB
  0
DICTIONARY
  5
1BC0
330
101
100
AcDbDictionary
280
     1
  3
ACAD_LAYOUTSELFREF
360
1BC1
  0
DICTIONARY
  5
D
102
{ACAD_REACTORS
330
C
102
}
330
C
100
AcDbDictionary
  0
DICTIONARY
  5
1A
102
{ACAD_REACTORS
330
C
102
}
330
C
100
AcDbDictionary
  0
DICTIONARY
  5
17
102
{ACAD_REACTORS
330
C
102
}
330
C
100
AcDbDictionary
  3
STANDARD
350
18
  0
DICTIONARY
  5
19
102
{ACAD_REACTORS
330
C
102
}
330
C
100
AcDbDictionary
  0
ACDBDICTIONARYWDFLT
  5
E
102
{ACAD_REACTORS
330
C
102
}
330
C
100
AcDbDictionary
281
     1
  3
Normal
350
F
100
AcDbDictionaryWithDefault
340
F
  0
DICTIONARY
  5
34
102
{ACAD_REACTORS
330
C
102
}
330
C
100
AcDbDictionary
  3
INDEXCTL
350
35
  3
SORTENTS
350
B5E
  0
DICTIONARY
  5
43
102
{ACAD_REACTORS
330
C
102
}
330
C
100
AcDbDictionary
  3
ACMSTDDICTIONARY
350
260
  0
DICTIONARY
  5
2B
102
{ACAD_REACTORS
330
C
102
}
330
C
100
AcDbDictionary
  3
ACMGSETTINGS
350
2C
  0
DICTIONARY
  5
6E
102
{ACAD_REACTORS
330
C
102
}
330
C
100
AcDbDictionary
  0
XRECORD
  5
1B8C
102
{ACAD_REACTORS
330
C
102
}
330
C
100
AcDbXrecord
  1
DWGPROPS COOKIE
  2

  3

  4

  6

  7

  8

  9

300
AmdtFileType=82
301
=
302
=
303
=
304
=
305
=
306
=
307
=
308
=
309
=
 40
0.0449743055555556
 41
2452836.771637361
 42
2452846.460166007
  1

 90
        1
  0
DICTIONARY
  5
1B98
102
{ACAD_REACTORS
330
C
102
}
330
C
100
AcDbDictionary
  3
TSTACKALIGN
350
1B99
  3
TSTACKSIZE
350
1B9A
  3
HYPERLINKBASE
350
1B9B
  3
STYLESHEET
350
1B9C
  3
LAYOUTDICT
350
1B9D
  3
PLOTSETDICT
350
1B9E
  3
PLOTSTYLNAMDICT
350
1B9F
  3
LWETCUNION
350
1BA0
  3
INSUNITS
350
1BA1
  3
CEPSNTYPE
350
1BA2
  3
FINGERPRINTGUID
350
1BA3
  3
VERSIONGUID
350
1BA4
  3
PSVPSCALE
350
1BA5
  3
DIMSTYLEDATA
350
1BA6
  3
PUCSORTHOREF
350
1BA7
  3
PUCSORTHOVIEW
350
1BA8
  3
PUCSBASE
350
1BA9
  3
PUCSORGTOP
350
1BAA
  3
PUCSORGBOTTOM
350
1BAB
  3
PUCSORGLEFT
350
1BAC
  3
PUCSORGRIGHT
350
1BAD
  3
PUCSORGFRONT
350
1BAE
  3
PUCSORGBACK
350
1BAF
  3
UCSORTHOREF
350
1BB0
  3
UCSORTHOVIEW
350
1BB1
  3
UCSBASE
350
1BB2
  3
UCSORGTOP
350
1BB3
  3
UCSORGBOTTOM
350
1BB4
  3
UCSORGLEFT
350
1BB5
  3
UCSORGRIGHT
350
1BB6
  3
UCSORGFRONT
350
1BB7
  3
UCSORGBACK
350
1BB8
  0
DICTIONARY
  5
1B8E
102
{ACAD_REACTORS
330
74
102
}
330
74
100
AcDbDictionary
  3
*A1
350
1B8F
  0
XRECORD
  5
1BBB
102
{ACAD_REACTORS
330
74
102
}
330
74
100
AcDbXrecord
340
1F
  0
XRECORD
  5
1BC1
102
{ACAD_REACTORS
330
1BC0
102
}
330
1BC0
100
AcDbXrecord
340
101
  0
MLINESTYLE
  5
18
102
{ACAD_REACTORS
330
17
102
}
330
17
100
AcDbMlineStyle
  2
STANDARD
 70
     0
  3

 62
   256
 51
90.0
 52
90.0
 71
     2
 49
0.5
 62
   256
  6
BYLAYER
 49
-0.5
 62
   256
  6
BYLAYER
  0
ACDBPLACEHOLDER
  5
F
102
{ACAD_REACTORS
330
E
102
}
330
E
100
AcDbPlaceHolder
280
     0
  0
DICTIONARYVAR
  5
35
102
{ACAD_REACTORS
330
34
102
}
330
34
100
DictionaryVariables
280
     0
  1
1
  0
DICTIONARYVAR
  5
B5E
102
{ACAD_REACTORS
330
34
102
}
330
34
100
DictionaryVariables
280
     0
  1
96
  0
DICTIONARY
  5
260
102
{ACAD_REACTORS
330
43
102
}
330
43
100
AcDbDictionary
  0
DICTIONARY
  5
2C
102
{ACAD_REACTORS
330
2B
102
}
330
2B
100
AcDbDictionary
  3
DWGSETTINGS
350
2D
  0
XRECORD
  5
1B99
102
{ACAD_REACTORS
330
1B98
102
}
330
1B98
100
AcDbXrecord
 90
        1
  0
XRECORD
  5
1B9A
102
{ACAD_REACTORS
330
1B98
102
}
330
1B98
100
AcDbXrecord
 90
       70
  0
XRECORD
  5
1B9B
102
{ACAD_REACTORS
330
1B98
102
}
330
1B98
100
AcDbXrecord
  1

  0
XRECORD
  5
1B9C
102
{ACAD_REACTORS
330
1B98
102
}
330
1B98
100
AcDbXrecord
  1
ASAMI.ctb
  0
XRECORD
  5
1B9D
102
{ACAD_REACTORS
330
1B98
102
}
330
1B98
100
AcDbXrecord
340
1A
  0
XRECORD
  5
1B9E
102
{ACAD_REACTORS
330
1B98
102
}
330
1B98
100
AcDbXrecord
340
19
  0
XRECORD
  5
1B9F
102
{ACAD_REACTORS
330
1B98
102
}
330
1B98
100
AcDbXrecord
340
E
  0
XRECORD
  5
1BA0
102
{ACAD_REACTORS
330
1B98
102
}
330
1B98
100
AcDbXrecord
 90
    10781
  0
XRECORD
  5
1BA1
102
{ACAD_REACTORS
330
1B98
102
}
330
1B98
100
AcDbXrecord
 90
        4
  0
XRECORD
  5
1BA2
102
{ACAD_REACTORS
330
1B98
102
}
330
1B98
100
AcDbXrecord
 90
        0
  0
XRECORD
  5
1BA3
102
{ACAD_REACTORS
330
1B98
102
}
330
1B98
100
AcDbXrecord
  1
{AFB28963-8C59-40AE-9337-C84526B81ACE}
  0
XRECORD
  5
1BA4
102
{ACAD_REACTORS
330
1B98
102
}
330
1B98
100
AcDbXrecord
  1
{B677756F-58DC-42E3-83DE-C11240BDF286}
  0
XRECORD
  5
1BA5
102
{ACAD_REACTORS
330
1B98
102
}
330
1B98
100
AcDbXrecord
 40
0.0
  0
XRECORD
  5
1BA6
102
{ACAD_REACTORS
330
1B98
102
}
330
1B98
100
AcDbXrecord
1000
DSTYLE
1002
{
1070
    79
 70
     2
1070
   341
340
59
1070
   342
340
59
1070
   371
 70
    -1
1070
   372
 70
    -1
1002
}
  0
XRECORD
  5
1BA7
102
{ACAD_REACTORS
330
1B98
102
}
330
1B98
100
AcDbXrecord
340
0
  0
XRECORD
  5
1BA8
102
{ACAD_REACTORS
330
1B98
102
}
330
1B98
100
AcDbXrecord
 70
     0
  0
XRECORD
  5
1BA9
102
{ACAD_REACTORS
330
1B98
102
}
330
1B98
100
AcDbXrecord
340
0
  0
XRECORD
  5
1BAA
102
{ACAD_REACTORS
330
1B98
102
}
330
1B98
100
AcDbXrecord
 10
0.0
 20
0.0
 30
0.0
  0
XRECORD
  5
1BAB
102
{ACAD_REACTORS
330
1B98
102
}
330
1B98
100
AcDbXrecord
 10
0.0
 20
0.0
 30
0.0
  0
XRECORD
  5
1BAC
102
{ACAD_REACTORS
330
1B98
102
}
330
1B98
100
AcDbXrecord
 10
0.0
 20
0.0
 30
0.0
  0
XRECORD
  5
1BAD
102
{ACAD_REACTORS
330
1B98
102
}
330
1B98
100
AcDbXrecord
 10
0.0
 20
0.0
 30
0.0
  0
XRECORD
  5
1BAE
102
{ACAD_REACTORS
330
1B98
102
}
330
1B98
100
AcDbXrecord
 10
0.0
 20
0.0
 30
0.0
  0
XRECORD
  5
1BAF
102
{ACAD_REACTORS
330
1B98
102
}
330
1B98
100
AcDbXrecord
 10
0.0
 20
0.0
 30
0.0
  0
XRECORD
  5
1BB0
102
{ACAD_REACTORS
330
1B98
102
}
330
1B98
100
AcDbXrecord
340
0
  0
XRECORD
  5
1BB1
102
{ACAD_REACTORS
330
1B98
102
}
330
1B98
100
AcDbXrecord
 70
     0
  0
XRECORD
  5
1BB2
102
{ACAD_REACTORS
330
1B98
102
}
330
1B98
100
AcDbXrecord
340
0
  0
XRECORD
  5
1BB3
102
{ACAD_REACTORS
330
1B98
102
}
330
1B98
100
AcDbXrecord
 10
0.0
 20
0.0
 30
0.0
  0
XRECORD
  5
1BB4
102
{ACAD_REACTORS
330
1B98
102
}
330
1B98
100
AcDbXrecord
 10
0.0
 20
0.0
 30
0.0
  0
XRECORD
  5
1BB5
102
{ACAD_REACTORS
330
1B98
102
}
330
1B98
100
AcDbXrecord
 10
0.0
 20
0.0
 30
0.0
  0
XRECORD
  5
1BB6
102
{ACAD_REACTORS
330
1B98
102
}
330
1B98
100
AcDbXrecord
 10
0.0
 20
0.0
 30
0.0
  0
XRECORD
  5
1BB7
102
{ACAD_REACTORS
330
1B98
102
}
330
1B98
100
AcDbXrecord
 10
0.0
 20
0.0
 30
0.0
  0
XRECORD
  5
1BB8
102
{ACAD_REACTORS
330
1B98
102
}
330
1B98
100
AcDbXrecord
 10
0.0
 20
0.0
 30
0.0
  0
LAYER_INDEX
  5
1B8F
102
{ACAD_REACTORS
330
1B8E
102
}
330
1B8E
100
AcDbIndex
 40
2453152.443763854
100
AcDbLayerIndex
  8
0
360
1B90
 90
        0
  8
AM_0
360
1B91
 90
       58
  8
AM_11
360
1B92
 90
        3
  8
AM_7
360
1B93
 90
        1
  8
AM_5
360
1B94
 90
        4
  8
Defpoints
360
1B95
 90
        0
  8
AM_6
360
1B96
 90
        1
  0
XRECORD
  5
2D
102
{ACAD_REACTORS
330
2C
102
}
330
2C
100
AcDbXrecord
  1
VERSION
140
15.0
  1
PRODUCT
  2
AutoCAD Mechanical 2000
  0
IDBUFFER
  5
1B90
330
0
100
AcDbIdBuffer
  0
IDBUFFER
  5
1B91
330
0
100
AcDbIdBuffer
330
1A50
330
1A51
330
1A52
330
1A53
330
1A61
330
1A62
330
1A63
330
1A64
330
1A65
330
1AF3
330
1980
330
1981
330
1984
330
1985
330
19B8
330
19BB
330
1A21
330
1A22
330
1A23
330
1A24
330
1A25
330
1A26
330
1A27
330
1A28
330
1A29
330
1A2A
330
1A2B
330
1A2C
330
1A2D
330
1A2E
330
1A2F
330
1A30
330
1A31
330
1A32
330
1A33
330
1A34
330
1A35
330
1A36
330
1A37
330
1A38
330
1A39
330
1A3A
330
1A3B
330
1A3C
330
1A42
330
1A43
330
1A44
330
1A45
330
1A46
330
1A47
330
1A48
330
1A49
330
1A4A
330
1A4B
330
1A4C
330
1A4D
330
1A4E
330
1A4F
  0
IDBUFFER
  5
1B92
330
0
100
AcDbIdBuffer
330
1A40
330
1A41
330
1A60
  0
IDBUFFER
  5
1B93
330
0
100
AcDbIdBuffer
330
132B
  0
IDBUFFER
  5
1B94
330
0
100
AcDbIdBuffer
330
13B3
330
145B
330
14F3
330
1986
  0
IDBUFFER
  5
1B95
330
0
100
AcDbIdBuffer
  0
IDBUFFER
  5
1B96
330
0
100
AcDbIdBuffer
330
E5A
  0
ENDSEC
  0
EOF
