  0
SECTION
  2
HEADER
  9
$ACADVER
  1
AC1014
  9
$ACADMAINTVER
 70
     9
  9
$DWGCODEPAGE
  3
ANSI_932
  9
$INSBASE
 10
0.0
 20
0.0
 30
0.0
  9
$EXTMIN
 10
-74.34999999999999
 20
-28.25000099999895
 30
-0.00000001
  9
$EXTMAX
 10
7.500000000000019
 20
4.223135071207917
 30
0.00000001
  9
$LIMMIN
 10
-81.80771716101089
 20
-32.9876927392369
  9
$LIMMAX
 10
17.75636958186743
 20
13.16197148632773
  9
$ORTHOMODE
 70
     0
  9
$REGENMODE
 70
     1
  9
$FILLMODE
 70
     1
  9
$QTEXTMODE
 70
     0
  9
$MIRRTEXT
 70
     0
  9
$DRAGMODE
 70
     2
  9
$LTSCALE
 40
1.0
  9
$OSMODE
 70
    55
  9
$ATTMODE
 70
     1
  9
$TEXTSIZE
 40
2.5
  9
$TRACEWID
 40
1.0
  9
$TEXTSTYLE
  7
STANDARD
  9
$CLAYER
  8
AM_0
  9
$CELTYPE
  6
BYLAYER
  9
$CECOLOR
 62
   256
  9
$CELTSCALE
 40
1.0
  9
$DELOBJ
 70
     1
  9
$DISPSILH
 70
     0
  9
$DIMSCALE
 40
0.5
  9
$DIMASZ
 40
2.5
  9
$DIMEXO
 40
1.0
  9
$DIMDLI
 40
12.0
  9
$DIMRND
 40
0.0
  9
$DIMDLE
 40
0.0
  9
$DIMEXE
 40
1.0
  9
$DIMTP
 40
0.1
  9
$DIMTM
 40
0.1
  9
$DIMTXT
 40
3.2
  9
$DIMCEN
 40
0.0
  9
$DIMTSZ
 40
0.0
  9
$DIMTOL
 70
     0
  9
$DIMLIM
 70
     0
  9
$DIMTIH
 70
     0
  9
$DIMTOH
 70
     0
  9
$DIMSE1
 70
     0
  9
$DIMSE2
 70
     0
  9
$DIMTAD
 70
     3
  9
$DIMZIN
 70
     8
  9
$DIMBLK
  1
OPEN30
  9
$DIMASO
 70
     1
  9
$DIMSHO
 70
     1
  9
$DIMPOST
  1

  9
$DIMAPOST
  1
"
  9
$DIMALT
 70
     0
  9
$DIMALTD
 70
     2
  9
$DIMALTF
 40
0.0393701
  9
$DIMLFAC
 40
1.0
  9
$DIMTOFL
 70
     1
  9
$DIMTVP
 40
0.0
  9
$DIMTIX
 70
     0
  9
$DIMSOXD
 70
     0
  9
$DIMSAH
 70
     0
  9
$DIMBLK1
  1

  9
$DIMBLK2
  1

  9
$DIMSTYLE
  2
AM_JIS
  9
$DIMCLRD
 70
   256
  9
$DIMCLRE
 70
   256
  9
$DIMCLRT
 70
     2
  9
$DIMTFAC
 40
0.71
  9
$DIMGAP
 40
1.5
  9
$DIMJUST
 70
     0
  9
$DIMSD1
 70
     0
  9
$DIMSD2
 70
     0
  9
$DIMTOLJ
 70
     0
  9
$DIMTZIN
 70
     0
  9
$DIMALTZ
 70
     0
  9
$DIMALTTZ
 70
     0
  9
$DIMFIT
 70
     3
  9
$DIMUPT
 70
     0
  9
$DIMUNIT
 70
     2
  9
$DIMDEC
 70
     3
  9
$DIMTDEC
 70
     3
  9
$DIMALTU
 70
     2
  9
$DIMALTTD
 70
     2
  9
$DIMTXSTY
  7
ASAMI
  9
$DIMAUNIT
 70
     0
  9
$LUNITS
 70
     2
  9
$LUPREC
 70
     2
  9
$SKETCHINC
 40
1.0
  9
$FILLETRAD
 40
2.5
  9
$AUNITS
 70
     0
  9
$AUPREC
 70
     0
  9
$MENU
  1
.
  9
$ELEVATION
 40
0.0
  9
$PELEVATION
 40
0.0
  9
$THICKNESS
 40
0.0
  9
$LIMCHECK
 70
     0
  9
$BLIPMODE
 70
     0
  9
$CHAMFERA
 40
0.5
  9
$CHAMFERB
 40
0.5
  9
$CHAMFERC
 40
20.0
  9
$CHAMFERD
 40
0.0
  9
$SKPOLY
 70
     0
  9
$TDCREATE
 40
2452836.771637361
  9
$TDUPDATE
 40
2453152.441314248
  9
$TDINDWG
 40
0.1264189699
  9
$TDUSRTIMER
 40
0.1264189699
  9
$USRTIMER
 70
     1
  9
$ANGBASE
 50
0.0
  9
$ANGDIR
 70
     0
  9
$PDMODE
 70
     0
  9
$PDSIZE
 40
0.0
  9
$PLINEWID
 40
0.0
  9
$COORDS
 70
     1
  9
$SPLFRAME
 70
     0
  9
$SPLINETYPE
 70
     6
  9
$SPLINESEGS
 70
     8
  9
$ATTDIA
 70
     1
  9
$ATTREQ
 70
     1
  9
$HANDLING
 70
 12289
  9
$HANDSEED
  5
2664
  9
$SURFTAB1
 70
     6
  9
$SURFTAB2
 70
     6
  9
$SURFTYPE
 70
     6
  9
$SURFU
 70
     6
  9
$SURFV
 70
     6
  9
$UCSNAME
  2

  9
$UCSORG
 10
0.0
 20
0.0
 30
0.0
  9
$UCSXDIR
 10
1.0
 20
0.0
 30
0.0
  9
$UCSYDIR
 10
0.0
 20
1.0
 30
0.0
  9
$PUCSNAME
  2

  9
$PUCSORG
 10
0.0
 20
0.0
 30
0.0
  9
$PUCSXDIR
 10
1.0
 20
0.0
 30
0.0
  9
$PUCSYDIR
 10
0.0
 20
1.0
 30
0.0
  9
$USERI1
 70
     0
  9
$USERI2
 70
     0
  9
$USERI3
 70
     0
  9
$USERI4
 70
     0
  9
$USERI5
 70
     0
  9
$USERR1
 40
0.0
  9
$USERR2
 40
0.0
  9
$USERR3
 40
0.0
  9
$USERR4
 40
0.0
  9
$USERR5
 40
0.0
  9
$WORLDVIEW
 70
     1
  9
$SHADEDGE
 70
     3
  9
$SHADEDIF
 70
    70
  9
$TILEMODE
 70
     1
  9
$MAXACTVP
 70
    64
  9
$PINSBASE
 10
0.0
 20
0.0
 30
0.0
  9
$PLIMCHECK
 70
     0
  9
$PEXTMIN
 10
1.000000000000000E+20
 20
1.000000000000000E+20
 30
1.000000000000000E+20
  9
$PEXTMAX
 10
-1.000000000000000E+20
 20
-1.000000000000000E+20
 30
-1.000000000000000E+20
  9
$PLIMMIN
 10
0.0
 20
0.0
  9
$PLIMMAX
 10
841.0
 20
594.0
  9
$UNITMODE
 70
     0
  9
$VISRETAIN
 70
     1
  9
$PLINEGEN
 70
     0
  9
$PSLTSCALE
 70
     0
  9
$TREEDEPTH
 70
  3020
  9
$PICKSTYLE
 70
     0
  9
$CMLSTYLE
  2
STANDARD
  9
$CMLJUST
 70
     0
  9
$CMLSCALE
 40
20.0
  9
$PROXYGRAPHICS
 70
     1
  9
$MEASUREMENT
 70
     1
  0
ENDSEC
  0
SECTION
  2
CLASSES
  0
CLASS
  1
ACDBDICTIONARYWDFLT
  2
AcDbDictionaryWithDefault
  3
AutoCAD 2000
 90
        0
280
     0
281
     0
  0
CLASS
  1
ACDBPLACEHOLDER
  2
AcDbPlaceHolder
  3
AutoCAD 2000
 90
        0
280
     0
281
     0
  0
CLASS
  1
LAYOUT
  2
AcDbLayout
  3
AutoCAD 2000
 90
        0
280
     0
281
     0
  0
CLASS
  1
AMGSETTINGSOBJ
  2
AmgSettingsObj
  3
"AcadM|Product Description: AutoCAD Mechanical 2000|Company: Autodesk"
 90
        0
280
     0
281
     0
  0
CLASS
  1
ACME_DOCUMENT
  2
AcMeDbDoc
  3
AcMeServices
 90
        0
280
     0
281
     0
  0
CLASS
  1
ACMESCOPE
  2
AcMeScope
  3
AcMeServices
 90
        0
280
     0
281
     0
  0
CLASS
  1
ACMECOMMANDHISTORY
  2
AcMeCommandHistory
  3
AcMeServices
 90
        0
280
     0
281
     0
  0
CLASS
  1
DICTIONARYVAR
  2
AcDbDictionaryVar
  3
AutoCAD 2000
 90
        0
280
     0
281
     0
  0
CLASS
  1
ACIMSYSVARMAN
  2
AcImSysVarManager
  3
AcMeServices
 90
        0
280
     0
281
     0
  0
CLASS
  1
ACIMREALSYSVAR
  2
AcImRealSysVar
  3
AcMeServices
 90
        0
280
     0
281
     0
  0
CLASS
  1
ACIMINTSYSVAR
  2
AcImIntSysVar
  3
AcMeServices
 90
        0
280
     0
281
     0
  0
CLASS
  1
ACMEDRAWINGMAN
  2
AcMeDrawingMan
  3
AcMeServices
 90
        0
280
     0
281
     0
  0
CLASS
  1
ACMEVIEW
  2
AcMeView
  3
AcMeServices
 90
        0
280
     0
281
     0
  0
CLASS
  1
ACDBENTITYCACHE
  2
AcMeEntityCache
  3
AcMeServices
 90
        0
280
     0
281
     0
  0
CLASS
  1
GSMANAGER
  2
AcMeGSManager
  3
AcMeServices
 90
        0
280
     0
281
     0
  0
CLASS
  1
AmdtInternalReactor
  2
AmdtInternalReactor
  3
AcMeServices
 90
        0
280
     0
281
     0
  0
CLASS
  1
ACMESTATEMGR
  2
AcMeStateMgr
  3
AcMeServices
 90
        0
280
     0
281
     0
  0
CLASS
  1
ACME_DATABASE
  2
AcMeDbDatabase
  3
AcMeServices
 90
        0
280
     0
281
     0
  0
CLASS
  1
ACRFINSADJUSTERMGR
  2
AcRfInsAdjusterMgr
  3
AcMeServices
 90
        0
280
     0
281
     0
  0
CLASS
  1
ACMDATADICTIONARY
  2
AcmDataDictionary
  3
"AcmSymBB|Product Description: AutoCAD Mechanical 2000|Company: Autodesk"
 90
        0
280
     0
281
     0
  0
CLASS
  1
ACMDATAENTRYBLOCK
  2
AcmDataEntryBlock
  3
"AcmSymBB|Product Description: AutoCAD Mechanical 2000|Company: Autodesk"
 90
        0
280
     0
281
     0
  0
CLASS
  1
AMGOBJPROPCFG
  2
AmgObjPropCfg
  3
"AmgLay|Product Description: AutoCAD Mechanical 2000|Company: Autodesk"
 90
        1
280
     0
281
     0
  0
CLASS
  1
ACAMGFILTERDAT
  2
AcAmgFilterDat
  3
"AcadM|Product Description: AutoCAD Mechanical 2000|Company: Autodesk"
 90
        0
280
     0
281
     0
  0
CLASS
  1
LAYER_INDEX
  2
AcDbLayerIndex
  3
AutoCAD 2000
 90
        0
280
     0
281
     0
  0
CLASS
  1
IDBUFFER
  2
AcDbIdBuffer
  3
AutoCAD 2000
 90
        0
280
     0
281
     0
  0
CLASS
  1
ACIMSTRSYSVAR
  2
AcImStrSysVar
  3
AcMeServices
 90
        0
280
     0
281
     0
  0
CLASS
  1
ACMSTANDARDJIS
  2
AcmStandardJIS
  3
"AcmSymBB|Product Description: AutoCAD Mechanical 2000|Company: Autodesk"
 90
        0
280
     0
281
     0
  0
CLASS
  1
ACMSURFSTANDARDJIS
  2
AcmSurfTextStdJIS
  3
"AcmSymBB|Product Description: AutoCAD Mechanical 2000|Company: Autodesk"
 90
        0
280
     0
281
     0
  0
CLASS
  1
ACMFCFSTANDARDJIS
  2
AcmFCFStdJIS
  3
"AcmSymBB|Product Description: AutoCAD Mechanical 2000|Company: Autodesk"
 90
        0
280
     0
281
     0
  0
CLASS
  1
ACMWELDSTANDARDJIS
  2
AcmWeldingStdJIS
  3
"AcmSymBB|Product Description: AutoCAD Mechanical 2000|Company: Autodesk"
 90
        0
280
     0
281
     0
  0
CLASS
  1
ACMIDSTANDARDJIS
  2
AcmIdStdJIS
  3
"AcmSymBB|Product Description: AutoCAD Mechanical 2000|Company: Autodesk"
 90
        0
280
     0
281
     0
  0
CLASS
  1
ACMDATUMSTANDARDJIS
  2
AcmDatumStdJIS
  3
"AcmSymBB|Product Description: AutoCAD Mechanical 2000|Company: Autodesk"
 90
        0
280
     0
281
     0
  0
CLASS
  1
ACMBOMSTANDARDJIS
  2
AcmBOMStdJIS
  3
"AcmSymBB|Product Description: AutoCAD Mechanical 2000|Company: Autodesk"
 90
        0
280
     0
281
     0
  0
CLASS
  1
ACMSTANDARDANSI
  2
AcmStandardANSI
  3
"AcmSymBB|Product Description: AutoCAD Mechanical 2000|Company: Autodesk"
 90
        0
280
     0
281
     0
  0
CLASS
  1
ACMSURFSTANDARDANSI
  2
AcmSurfTextStdANSI
  3
"AcmSymBB|Product Description: AutoCAD Mechanical 2000|Company: Autodesk"
 90
        0
280
     0
281
     0
  0
CLASS
  1
ACMFCFSTANDARDANSI
  2
AcmFCFStdANSI
  3
"AcmSymBB|Product Description: AutoCAD Mechanical 2000|Company: Autodesk"
 90
        0
280
     0
281
     0
  0
CLASS
  1
ACMWELDSTANDARDANSI
  2
AcmWeldingStdANSI
  3
"AcmSymBB|Product Description: AutoCAD Mechanical 2000|Company: Autodesk"
 90
        0
280
     0
281
     0
  0
CLASS
  1
ACMIDSTANDARDANSI
  2
AcmIdStdANSI
  3
"AcmSymBB|Product Description: AutoCAD Mechanical 2000|Company: Autodesk"
 90
        0
280
     0
281
     0
  0
CLASS
  1
ACMDATUMSTANDARDANSI
  2
AcmDatumStdANSI
  3
"AcmSymBB|Product Description: AutoCAD Mechanical 2000|Company: Autodesk"
 90
        0
280
     0
281
     0
  0
CLASS
  1
ACMBOMSTANDARDANSI
  2
AcmBOMStdANSI
  3
"AcmSymBB|Product Description: AutoCAD Mechanical 2000|Company: Autodesk"
 90
        0
280
     0
281
     0
  0
CLASS
  1
ACMSTANDARDBSI
  2
AcmStandardBSI
  3
"AcmSymBB|Product Description: AutoCAD Mechanical 2000|Company: Autodesk"
 90
        0
280
     0
281
     0
  0
CLASS
  1
ACMSURFSTANDARDBSI
  2
AcmSurfTextStdBSI
  3
"AcmSymBB|Product Description: AutoCAD Mechanical 2000|Company: Autodesk"
 90
        0
280
     0
281
     0
  0
CLASS
  1
ACMFCFSTANDARDBSI
  2
AcmFCFStdBSI
  3
"AcmSymBB|Product Description: AutoCAD Mechanical 2000|Company: Autodesk"
 90
        0
280
     0
281
     0
  0
CLASS
  1
ACMWELDSTANDARDBSI
  2
AcmWeldingStdBSI
  3
"AcmSymBB|Product Description: AutoCAD Mechanical 2000|Company: Autodesk"
 90
        0
280
     0
281
     0
  0
CLASS
  1
ACMIDSTANDARDBSI
  2
AcmIdStdBSI
  3
"AcmSymBB|Product Description: AutoCAD Mechanical 2000|Company: Autodesk"
 90
        0
280
     0
281
     0
  0
CLASS
  1
ACMDATUMSTANDARDBSI
  2
AcmDatumStdBSI
  3
"AcmSymBB|Product Description: AutoCAD Mechanical 2000|Company: Autodesk"
 90
        0
280
     0
281
     0
  0
CLASS
  1
ACMBOMSTANDARDBSI
  2
AcmBOMStdBSI
  3
"AcmSymBB|Product Description: AutoCAD Mechanical 2000|Company: Autodesk"
 90
        0
280
     0
281
     0
  0
CLASS
  1
LONG_TRANSACTION
  2
AcDbLongTransaction
  3
AutoCAD 2000
 90
        0
280
     0
281
     0
  0
CLASS
  1
LWPOLYLINE
  2
AcDbPolyline
  3
AutoCAD 2000
 90
        0
280
     0
281
     1
  0
CLASS
  1
HATCH
  2
AcDbHatch
  3
AutoCAD 2000
 90
        0
280
     0
281
     1
  0
CLASS
  1
XRECORD
  2
AcDbXrecord
  3
AutoCAD 2000
 90
        0
280
     0
281
     0
  0
ENDSEC
  0
SECTION
  2
TABLES
  0
TABLE
  2
VPORT
  5
8
330
0
100
AcDbSymbolTable
 70
     3
  0
VPORT
  5
2639
330
8
100
AcDbSymbolTableRecord
100
AcDbViewportTableRecord
  2
*ACTIVE
 70
     0
 10
0.0
 20
0.0
 11
1.0
 21
1.0
 12
-26.27278123088207
 22
-8.233976560627027
 13
0.0
 23
0.0
 14
2.5
 24
2.5
 15
10.0
 25
10.0
 16
0.0
 26
0.0
 36
1.0
 17
0.0
 27
0.0
 37
0.0
 40
86.60206932794915
 41
1.56570841889117
 42
50.0
 43
0.0
 44
0.0
 50
0.0
 51
0.0
 71
     0
 72
   100
 73
     1
 74
     3
 75
     0
 76
     0
 77
     0
 78
     0
  0
ENDTAB
  0
TABLE
  2
LTYPE
  5
5
330
0
100
AcDbSymbolTable
 70
    10
  0
LTYPE
  5
14
330
5
100
AcDbSymbolTableRecord
100
AcDbLinetypeTableRecord
  2
BYBLOCK
 70
     0
  3

 72
    65
 73
     0
 40
0.0
  0
LTYPE
  5
15
330
5
100
AcDbSymbolTableRecord
100
AcDbLinetypeTableRecord
  2
BYLAYER
 70
     0
  3

 72
    65
 73
     0
 40
0.0
  0
LTYPE
  5
16
330
5
100
AcDbSymbolTableRecord
100
AcDbLinetypeTableRecord
  2
CONTINUOUS
 70
     0
  3
Solid line
 72
    65
 73
     0
 40
0.0
  0
LTYPE
  5
4B
330
5
100
AcDbSymbolTableRecord
100
AcDbLinetypeTableRecord
  2
AM_ISO02W050
 70
     0
  3
__ __ __ __ __ __ __ __ __ __ __ __ __ __ __
 72
    65
 73
     2
 40
7.5
 49
6.0
 74
     0
 49
-1.5
 74
     0
  0
LTYPE
  5
4C
330
5
100
AcDbSymbolTableRecord
100
AcDbLinetypeTableRecord
  2
AM_ISO08W050
 70
     0
  3
____ . ____ . ____ . ____ . ____ . ____ . ____
 72
    65
 73
     4
 40
18.0
 49
12.0
 74
     0
 49
-1.5
 74
     0
 49
3.0
 74
     0
 49
-1.5
 74
     0
  0
LTYPE
  5
4D
330
5
100
AcDbSymbolTableRecord
100
AcDbLinetypeTableRecord
  2
AM_ISO09W050
 70
     0
  3
_____ . . _____ . . _____ . . ____ .. ____
 72
    65
 73
     6
 40
22.5
 49
12.0
 74
     0
 49
-1.5
 74
     0
 49
3.0
 74
     0
 49
-1.5
 74
     0
 49
3.0
 74
     0
 49
-1.5
 74
     0
  0
LTYPE
  5
4E
330
5
100
AcDbSymbolTableRecord
100
AcDbLinetypeTableRecord
  2
AMCONSTR
 70
     0
  3
_______________________
 72
    65
 73
     2
 40
9999.0
 49
9999.0
 74
     0
 49
0.0
 74
     0
  0
LTYPE
  5
4F
330
5
100
AcDbSymbolTableRecord
100
AcDbLinetypeTableRecord
  2
AM_ISO02W050X2
 70
     0
  3
 _ _ _ _ _ _ _ _ _ _ _ _
 72
    65
 73
     2
 40
3.75
 49
3.0
 74
     0
 49
-0.75
 74
     0
  0
LTYPE
  5
50
330
5
100
AcDbSymbolTableRecord
100
AcDbLinetypeTableRecord
  2
AM_ISO08W050X2
 70
     0
  3
__ . __ . __ . __ . __ . __
 72
    65
 73
     4
 40
9.0
 49
6.0
 74
     0
 49
-0.75
 74
     0
 49
1.5
 74
     0
 49
-0.75
 74
     0
  0
LTYPE
  5
53
330
5
100
AcDbSymbolTableRecord
100
AcDbLinetypeTableRecord
  2
AMZIGZAG
 70
     0
  3
/\/-/\/-/\/-/\/-/\/-/\/
 72
    65
 73
     2
 40
11.00009999999999
 49
0.0001
 74
     4
 75
   135
340
52
 46
0.04
 50
0.0
 44
0.0
 45
0.0
 49
-11.0
 74
     0
  0
LTYPE
  5
166
330
5
100
AcDbSymbolTableRecord
100
AcDbLinetypeTableRecord
  2
ACJISTGL
 70
     0
  3
_ _ _ _ _
 72
    65
 73
     2
 40
3.0
 49
2.0
 74
     0
 49
-1.0
 74
     0
  0
LTYPE
  5
26A
330
5
100
AcDbSymbolTableRecord
100
AcDbLinetypeTableRecord
  2
ACJISTGB
 70
     0
  3
__ . . __ . .
 72
    65
 73
     6
 40
9.0
 49
4.0
 74
     0
 49
-1.0
 74
     0
 49
1.0
 74
     0
 49
-1.0
 74
     0
 49
1.0
 74
     0
 49
-1.0
 74
     0
  0
ENDTAB
  0
TABLE
  2
LAYER
  5
2
330
0
100
AcDbSymbolTable
 70
     7
  0
LAYER
  5
10
330
2
100
AcDbSymbolTableRecord
100
AcDbLayerTableRecord
  2
0
 70
     0
 62
     7
  6
CONTINUOUS
  0
LAYER
  5
3F9
330
2
100
AcDbSymbolTableRecord
100
AcDbLayerTableRecord
  2
AM_0
 70
     0
 62
     7
  6
CONTINUOUS
  0
LAYER
  5
BD4
330
2
100
AcDbSymbolTableRecord
100
AcDbLayerTableRecord
  2
AM_11
 70
     0
 62
     3
  6
AM_ISO09W050
  0
LAYER
  5
BD5
330
2
100
AcDbSymbolTableRecord
100
AcDbLayerTableRecord
  2
AM_7
 70
     0
 62
     4
  6
AM_ISO08W050
  0
LAYER
  5
BD6
330
2
100
AcDbSymbolTableRecord
100
AcDbLayerTableRecord
  2
AM_5
 70
     0
 62
     3
  6
CONTINUOUS
  0
LAYER
  5
BD7
330
2
100
AcDbSymbolTableRecord
100
AcDbLayerTableRecord
  2
DEFPOINTS
 70
     0
 62
     7
  6
CONTINUOUS
  0
LAYER
  5
E59
330
2
100
AcDbSymbolTableRecord
100
AcDbLayerTableRecord
  2
AM_6
 70
     0
 62
     2
  6
CONTINUOUS
  0
ENDTAB
  0
TABLE
  2
STYLE
  5
3
330
0
100
AcDbSymbolTable
 70
     5
  0
STYLE
  5
11
330
3
100
AcDbSymbolTableRecord
100
AcDbTextStyleTableRecord
  2
STANDARD
 70
     0
 40
0.0
 41
1.0
 50
0.0
 71
     0
 42
2.5
  3
simplex.shx
  4
EXTFONT.SHX
  0
STYLE
  5
52
330
3
100
AcDbSymbolTableRecord
100
AcDbTextStyleTableRecord
  2

 70
     1
 40
0.0
 41
1.0
 50
0.0
 71
     0
 42
2.5
  3
ltypeshp.shx
  4

  0
STYLE
  5
6B
330
3
100
AcDbSymbolTableRecord
100
AcDbTextStyleTableRecord
  2
ASAMI
 70
     0
 40
0.0
 41
1.0
 50
0.0
 71
     0
 42
2.5
  3
simplex.shx
  4
EXTFONT.SHX
  0
STYLE
  5
262
330
3
100
AcDbSymbolTableRecord
100
AcDbTextStyleTableRecord
  2
ACJISTS
 70
     0
 40
1.0
 41
1.0
 50
0.0
 71
     0
 42
2.5
  3
simplex.shx
  4
bigfont.shx
  0
STYLE
  5
269
330
3
100
AcDbSymbolTableRecord
100
AcDbTextStyleTableRecord
  2
ACJISGDT
 70
     0
 40
0.0
 41
1.0
 50
0.0
 71
     0
 42
2.5
  3
amgdtans.shx
  4

  0
ENDTAB
  0
TABLE
  2
VIEW
  5
6
330
0
100
AcDbSymbolTable
 70
     0
  0
ENDTAB
  0
TABLE
  2
UCS
  5
7
330
0
100
AcDbSymbolTable
 70
     0
  0
ENDTAB
  0
TABLE
  2
APPID
  5
9
330
0
100
AcDbSymbolTable
 70
    12
  0
APPID
  5
12
330
9
100
AcDbSymbolTableRecord
100
AcDbRegAppTableRecord
  2
ACAD
 70
     0
  0
APPID
  5
30
330
9
100
AcDbSymbolTableRecord
100
AcDbRegAppTableRecord
  2
MCAD_NO_VIS
 70
     0
  0
APPID
  5
31
330
9
100
AcDbSymbolTableRecord
100
AcDbRegAppTableRecord
  2
ACAD_TEMP_GRAPHIC
 70
     0
  0
APPID
  5
2C2
330
9
100
AcDbSymbolTableRecord
100
AcDbRegAppTableRecord
  2
GENIUS_GENDTOL_13
 70
     0
  0
APPID
  5
339
330
9
100
AcDbSymbolTableRecord
100
AcDbRegAppTableRecord
  2
GENIUS_GENODEF_13
 70
     0
  0
APPID
  5
33A
330
9
100
AcDbSymbolTableRecord
100
AcDbRegAppTableRecord
  2
GENIUS_GENOBJ-N-RSBK_13
 70
     0
  0
APPID
  5
33B
330
9
100
AcDbSymbolTableRecord
100
AcDbRegAppTableRecord
  2
GENIUS_GENOBJ-N-LIB_13
 70
     0
  0
APPID
  5
33C
330
9
100
AcDbSymbolTableRecord
100
AcDbRegAppTableRecord
  2
GENIUS_GENSCALE_13
 70
     0
  0
APPID
  5
378
330
9
100
AcDbSymbolTableRecord
100
AcDbRegAppTableRecord
  2
GENIUS_GENDIMSH_14
 70
     0
  0
APPID
  5
BD8
330
9
100
AcDbSymbolTableRecord
100
AcDbRegAppTableRecord
  2
GENIUS_GENOBJ-N-CEN_13
 70
     0
  0
APPID
  5
BD9
330
9
100
AcDbSymbolTableRecord
100
AcDbRegAppTableRecord
  2
GENIUS_GENFIL_13
 70
     0
  0
APPID
  5
BDA
330
9
100
AcDbSymbolTableRecord
100
AcDbRegAppTableRecord
  2
GENIUS_GENOBJ-N-CHA_13
 70
     0
  0
ENDTAB
  0
TABLE
  2
DIMSTYLE
  5
A
330
0
100
AcDbSymbolTable
 70
     8
  0
DIMSTYLE
105
58
102
{ACAD_REACTORS
330
105F
330
10EF
330
224C
330
231E
102
}
330
A
100
AcDbSymbolTableRecord
100
AcDbDimStyleTableRecord
  2
AM_JIS
 70
     0
  3

  4
"
  5
OPEN30
  6

  7

 40
0.5
 41
2.5
 42
1.0
 43
12.0
 44
1.0
 45
0.0
 46
0.0
 47
0.1
 48
0.1
140
3.2
141
0.0
142
0.0
143
0.0393701
144
1.0
145
0.0
146
0.71
147
1.5
 71
     0
 72
     0
 73
     0
 74
     0
 75
     0
 76
     0
 77
     3
 78
     8
170
     0
171
     2
172
     1
173
     0
174
     0
175
     0
176
   256
177
   256
178
     2
270
     2
271
     3
272
     3
273
     2
274
     2
340
6B
275
     0
280
     0
281
     0
282
     0
283
     0
284
     0
285
     0
286
     0
287
     3
288
     0
  0
DIMSTYLE
105
5F
330
A
100
AcDbSymbolTableRecord
100
AcDbDimStyleTableRecord
  2
AM_JIS$3
 70
     0
  3

  4
"
  5
OPEN30
  6

  7

 40
0.5
 41
2.5
 42
1.0
 43
10.0
 44
1.0
 45
0.0
 46
0.0
 47
0.1
 48
0.1
140
3.2
141
0.0
142
0.0
143
0.0393701
144
1.0
145
0.0
146
0.71
147
1.5
 71
     0
 72
     0
 73
     0
 74
     1
 75
     0
 76
     0
 77
     3
 78
     8
170
     0
171
     2
172
     0
173
     0
174
     0
175
     0
176
   256
177
   256
178
     2
270
     2
271
     2
272
     3
273
     2
274
     2
340
6B
275
     0
280
     0
281
     0
282
     0
283
     0
284
     0
285
     0
286
     0
287
     0
288
     1
  0
DIMSTYLE
105
60
330
A
100
AcDbSymbolTableRecord
100
AcDbDimStyleTableRecord
  2
AM_JIS$4
 70
     0
  3

  4
"
  5
OPEN30
  6

  7

 40
0.5
 41
2.5
 42
1.0
 43
10.0
 44
1.0
 45
0.0
 46
0.0
 47
0.1
 48
0.1
140
3.2
141
0.0
142
0.0
143
0.0393701
144
1.0
145
0.0
146
0.71
147
1.5
 71
     0
 72
     0
 73
     0
 74
     1
 75
     0
 76
     0
 77
     3
 78
     8
170
     0
171
     2
172
     0
173
     0
174
     0
175
     0
176
   256
177
   256
178
     2
270
     2
271
     2
272
     3
273
     2
274
     2
340
6B
275
     0
280
     0
281
     0
282
     0
283
     0
284
     0
285
     0
286
     0
287
     0
288
     1
  0
DIMSTYLE
105
61
330
A
100
AcDbSymbolTableRecord
100
AcDbDimStyleTableRecord
  2
AM_JIS$6
 70
     0
  3

  4
"
  5
OPEN30
  6

  7

 40
0.5
 41
2.5
 42
1.0
 43
10.0
 44
1.0
 45
0.0
 46
0.0
 47
0.1
 48
0.1
140
3.2
141
0.0
142
0.0
143
0.0393701
144
1.0
145
0.0
146
0.71
147
1.5
 71
     0
 72
     0
 73
     0
 74
     0
 75
     0
 76
     0
 77
     0
 78
     8
170
     0
171
     2
172
     1
173
     0
174
     0
175
     0
176
   256
177
   256
178
     2
270
     2
271
     2
272
     2
273
     2
274
     2
340
6B
275
     0
280
     0
281
     0
282
     0
283
     0
284
     0
285
     0
286
     0
287
     3
288
     0
  0
DIMSTYLE
105
62
330
A
100
AcDbSymbolTableRecord
100
AcDbDimStyleTableRecord
  2
AM_JIS$7
 70
     0
  3

  4
"
  5
OPEN30
  6

  7

 40
0.5
 41
2.5
 42
1.0
 43
10.0
 44
1.0
 45
0.0
 46
0.0
 47
0.1
 48
0.1
140
3.2
141
0.0
142
0.0
143
0.0393701
144
1.0
145
0.0
146
0.71
147
1.5
 71
     0
 72
     0
 73
     0
 74
     0
 75
     0
 76
     0
 77
     3
 78
     8
170
     0
171
     2
172
     1
173
     0
174
     0
175
     0
176
   256
177
   256
178
     2
270
     2
271
     2
272
     3
273
     2
274
     2
340
6B
275
     0
280
     0
281
     0
282
     0
283
     0
284
     0
285
     0
286
     0
287
     3
288
     0
  0
DIMSTYLE
105
63
330
A
100
AcDbSymbolTableRecord
100
AcDbDimStyleTableRecord
  2
AM_JIS$SF
 70
     0
  3

  4
"
  5
OPEN30
  6

  7

 40
0.5
 41
2.5
 42
1.0
 43
10.0
 44
1.0
 45
0.0
 46
0.0
 47
0.1
 48
0.1
140
3.2
141
0.0
142
0.0
143
0.0393701
144
1.0
145
0.0
146
0.71
147
1.5
 71
     0
 72
     0
 73
     0
 74
     0
 75
     1
 76
     1
 77
     3
 78
     8
170
     0
171
     2
172
     1
173
     0
174
     0
175
     0
176
   256
177
   256
178
     2
270
     2
271
     2
272
     2
273
     2
274
     2
340
6B
275
     0
280
     0
281
     0
282
     0
283
     0
284
     0
285
     0
286
     0
287
     3
288
     0
  0
DIMSTYLE
105
68
330
A
100
AcDbSymbolTableRecord
100
AcDbDimStyleTableRecord
  2
AM_JIS$SH
 70
     0
  3

  4
"
  5

  6
GENAXEH
  7
OPEN30
 40
0.5
 41
2.5
 42
1.0
 43
10.0
 44
1.0
 45
0.0
 46
0.0
 47
0.1
 48
0.1
140
3.2
141
0.0
142
0.0
143
0.0393701
144
2.0
145
0.0
146
0.71
147
1.5
 71
     0
 72
     0
 73
     0
 74
     0
 75
     1
 76
     1
 77
     3
 78
     8
170
     0
171
     2
172
     1
173
     1
174
     0
175
     0
176
   256
177
   256
178
     2
270
     2
271
     2
272
     2
273
     2
274
     2
340
6B
275
     0
280
     0
281
     0
282
     0
283
     0
284
     0
285
     0
286
     0
287
     3
288
     0
  0
DIMSTYLE
105
B34
330
A
100
AcDbSymbolTableRecord
100
AcDbDimStyleTableRecord
  2
AM_JIS$2
 70
     0
  3

  4
"
  5
OPEN30
  6

  7

 40
0.5
 41
2.5
 42
1.0
 43
12.0
 44
1.0
 45
0.0
 46
0.0
 47
0.1
 48
0.1
140
3.2
141
0.0
142
0.0
143
0.0393701
144
1.0
145
0.0
146
0.71
147
1.5
 71
     0
 72
     0
 73
     0
 74
     0
 75
     0
 76
     0
 77
     3
 78
     8
170
     0
171
     2
172
     1
173
     0
174
     0
175
     0
176
   256
177
   256
178
     2
270
     2
271
     3
272
     3
273
     2
274
     2
340
6B
275
     0
280
     0
281
     0
282
     0
283
     0
284
     0
285
     0
286
     0
287
     3
288
     0
  0
ENDTAB
  0
TABLE
  2
BLOCK_RECORD
  5
1
330
0
100
AcDbSymbolTable
 70
     9
  0
BLOCK_RECORD
  5
1F
102
{ACAD_XDICTIONARY
360
74
102
}
330
1
100
AcDbSymbolTableRecord
100
AcDbBlockTableRecord
  2
*MODEL_SPACE
  0
BLOCK_RECORD
  5
101
102
{ACAD_XDICTIONARY
360
2662
102
}
330
1
100
AcDbSymbolTableRecord
100
AcDbBlockTableRecord
  2
*PAPER_SPACE
  0
BLOCK_RECORD
  5
59
330
1
100
AcDbSymbolTableRecord
100
AcDbBlockTableRecord
  2
_OPEN30
  0
BLOCK_RECORD
  5
64
330
1
100
AcDbSymbolTableRecord
100
AcDbBlockTableRecord
  2
GENAXEH
  0
BLOCK_RECORD
  5
1060
330
1
100
AcDbSymbolTableRecord
100
AcDbBlockTableRecord
  2
*D5
  0
BLOCK_RECORD
  5
10F0
330
1
100
AcDbSymbolTableRecord
100
AcDbBlockTableRecord
  2
*D6
  0
BLOCK_RECORD
  5
224D
330
1
100
AcDbSymbolTableRecord
100
AcDbBlockTableRecord
  2
*D7
  0
BLOCK_RECORD
  5
231F
330
1
100
AcDbSymbolTableRecord
100
AcDbBlockTableRecord
  2
*D8
  0
ENDTAB
  0
ENDSEC
  0
SECTION
  2
BLOCKS
  0
BLOCK
  5
20
330
1F
100
AcDbEntity
  8
0
100
AcDbBlockBegin
  2
*MODEL_SPACE
 70
     0
 10
0.0
 20
0.0
 30
0.0
  3
*MODEL_SPACE
  1

  0
ENDBLK
  5
21
330
1F
100
AcDbEntity
  8
0
100
AcDbBlockEnd
  0
BLOCK
  5
103
330
101
100
AcDbEntity
 67
     1
  8
0
100
AcDbBlockBegin
  2
*PAPER_SPACE
 70
     0
 10
0.0
 20
0.0
 30
0.0
  3
*PAPER_SPACE
  1

  0
ENDBLK
  5
104
330
101
100
AcDbEntity
 67
     1
  8
0
100
AcDbBlockEnd
  0
BLOCK
  5
5D
330
59
100
AcDbEntity
  8
0
100
AcDbBlockBegin
  2
_OPEN30
 70
     0
 10
0.0
 20
0.0
 30
0.0
  3
_OPEN30
  1

  0
LINE
  5
5A
330
59
100
AcDbEntity
  8
0
 62
     0
100
AcDbLine
 10
-1.0
 20
0.26794919
 30
0.0
 11
0.0
 21
0.0
 31
0.0
  0
LINE
  5
5B
330
59
100
AcDbEntity
  8
0
 62
     0
100
AcDbLine
 10
0.0
 20
0.0
 30
0.0
 11
-1.0
 21
-0.26794919
 31
0.0
  0
LINE
  5
5C
330
59
100
AcDbEntity
  8
0
 62
     0
100
AcDbLine
 10
0.0
 20
0.0
 30
0.0
 11
-1.0
 21
0.0
 31
0.0
  0
ENDBLK
  5
5E
330
59
100
AcDbEntity
  8
0
100
AcDbBlockEnd
  0
BLOCK
  5
66
330
64
100
AcDbEntity
  8
0
100
AcDbBlockBegin
  2
GENAXEH
 70
     0
 10
0.0
 20
0.0
 30
0.0
  3
GENAXEH
  1

  0
LINE
  5
65
330
64
100
AcDbEntity
  8
0
100
AcDbLine
 10
-1.0
 20
0.0
 30
0.0
 11
1.0
 21
0.0
 31
0.0
  0
ENDBLK
  5
67
330
64
100
AcDbEntity
  8
0
100
AcDbBlockEnd
  0
BLOCK
  5
106A
330
1060
100
AcDbEntity
  8
0
100
AcDbBlockBegin
  2
*D5
 70
     1
 10
0.0
 20
0.0
 30
0.0
  3
*D5
  1

  0
LINE
  5
2382
330
1060
100
AcDbEntity
  8
AM_5
100
AcDbLine
 10
-25.00000000000018
 20
-3.999999999998566
 30
0.0
 11
-25.00000000000018
 21
-11.50000099999894
 31
0.0
  0
LINE
  5
2383
330
1060
100
AcDbEntity
  8
AM_5
100
AcDbLine
 10
-0.0000000000001386
 20
-3.999999999998548
 30
0.0
 11
-0.000000000000139
 21
-11.50000099999894
 31
0.0
  0
LINE
  5
2384
330
1060
100
AcDbEntity
  8
AM_5
100
AcDbLine
 10
-23.75000000000018
 20
-11.00000099999894
 30
0.0
 11
-1.250000000000138
 21
-11.00000099999894
 31
0.0
  0
INSERT
  5
2385
330
1060
100
AcDbEntity
  8
AM_5
100
AcDbBlockReference
  2
_OPEN30
 10
-25.00000000000018
 20
-11.00000099999894
 30
0.0
 41
1.25
 42
1.25
 43
1.25
 50
180.0
  0
INSERT
  5
2386
330
1060
100
AcDbEntity
  8
AM_5
100
AcDbBlockReference
  2
_OPEN30
 10
-0.000000000000139
 20
-11.00000099999894
 30
0.0
 41
1.25
 42
1.25
 43
1.25
  0
MTEXT
  5
2387
330
1060
100
AcDbEntity
  8
AM_5
 62
     2
100
AcDbMText
 10
-12.50000000000015
 20
-9.450000999998941
 30
0.0
 40
1.6
 41
0.0
 71
     5
 72
     1
  1
25
  7
ASAMI
1001
ACAD
1000
MTEXTBEGIN
1070
    73
1070
     1
1070
    44
1040
1.0
1070
    74
1070
     0
1000
MTEXTEND
  0
POINT
  5
2388
330
1060
100
AcDbEntity
  8
DEFPOINTS
 62
     0
100
AcDbPoint
 10
-25.00000000000018
 20
-3.499999999998566
 30
0.0
  0
POINT
  5
2389
330
1060
100
AcDbEntity
  8
DEFPOINTS
 62
     0
100
AcDbPoint
 10
-0.0000000000001386
 20
-3.499999999998548
 30
0.0
  0
POINT
  5
238A
330
1060
100
AcDbEntity
  8
DEFPOINTS
 62
     0
100
AcDbPoint
 10
-0.000000000000139
 20
-11.00000099999894
 30
0.0
  0
ENDBLK
  5
106B
330
1060
100
AcDbEntity
  8
0
100
AcDbBlockEnd
  0
BLOCK
  5
10FA
330
10F0
100
AcDbEntity
  8
0
100
AcDbBlockBegin
  2
*D6
 70
     1
 10
0.0
 20
0.0
 30
0.0
  3
*D6
  1

  0
LINE
  5
238B
330
10F0
100
AcDbEntity
  8
AM_5
100
AcDbLine
 10
-65.0
 20
-3.999999999999037
 30
0.0
 11
-65.0
 21
-17.50000099999894
 31
0.0
  0
LINE
  5
238C
330
10F0
100
AcDbEntity
  8
AM_5
100
AcDbLine
 10
0.0000000000000161
 20
-4.000000000000542
 30
0.0
 11
0.0000000000000153
 21
-17.50000099999894
 31
0.0
  0
LINE
  5
238D
330
10F0
100
AcDbEntity
  8
AM_5
100
AcDbLine
 10
-63.75
 20
-17.00000099999894
 30
0.0
 11
-1.249999999999984
 21
-17.00000099999894
 31
0.0
  0
INSERT
  5
238E
330
10F0
100
AcDbEntity
  8
AM_5
100
AcDbBlockReference
  2
_OPEN30
 10
-65.0
 20
-17.00000099999894
 30
0.0
 41
1.25
 42
1.25
 43
1.25
 50
180.0
  0
INSERT
  5
238F
330
10F0
100
AcDbEntity
  8
AM_5
100
AcDbBlockReference
  2
_OPEN30
 10
0.0000000000000154
 20
-17.00000099999894
 30
0.0
 41
1.25
 42
1.25
 43
1.25
  0
MTEXT
  5
2390
330
10F0
100
AcDbEntity
  8
AM_5
 62
     2
100
AcDbMText
 10
-32.49999999999999
 20
-15.45000099999894
 30
0.0
 40
1.6
 41
0.0
 71
     5
 72
     1
  1
65
  7
ASAMI
1001
ACAD
1000
MTEXTBEGIN
1070
    73
1070
     1
1070
    44
1040
1.0
1070
    74
1070
     0
1000
MTEXTEND
  0
POINT
  5
2391
330
10F0
100
AcDbEntity
  8
DEFPOINTS
 62
     0
100
AcDbPoint
 10
-65.0
 20
-3.499999999999037
 30
0.0
  0
POINT
  5
2392
330
10F0
100
AcDbEntity
  8
DEFPOINTS
 62
     0
100
AcDbPoint
 10
0.0000000000000162
 20
-3.500000000000542
 30
0.0
  0
POINT
  5
2393
330
10F0
100
AcDbEntity
  8
DEFPOINTS
 62
     0
100
AcDbPoint
 10
0.0000000000000154
 20
-17.00000099999894
 30
0.0
  0
ENDBLK
  5
10FB
330
10F0
100
AcDbEntity
  8
0
100
AcDbBlockEnd
  0
BLOCK
  5
2257
330
224D
100
AcDbEntity
  8
0
100
AcDbBlockBegin
  2
*D7
 70
     1
 10
0.0
 20
0.0
 30
0.0
  3
*D7
  1

  0
LINE
  5
258F
330
224D
100
AcDbEntity
  8
AM_5
100
AcDbLine
 10
-65.0
 20
3.999999999999952
 30
0.0
 11
-72.5
 21
3.999999999999953
 31
0.0
  0
LINE
  5
2590
330
224D
100
AcDbEntity
  8
AM_5
100
AcDbLine
 10
-65.0
 20
-3.999999999999036
 30
0.0
 11
-72.5
 21
-3.999999999999034
 31
0.0
  0
LINE
  5
2591
330
224D
100
AcDbEntity
  8
AM_5
100
AcDbLine
 10
-72.0
 20
2.749999999999953
 30
0.0
 11
-72.0
 21
-2.749999999999034
 31
0.0
  0
INSERT
  5
2592
330
224D
100
AcDbEntity
  8
AM_5
100
AcDbBlockReference
  2
_OPEN30
 10
-72.0
 20
3.999999999999953
 30
0.0
 41
1.25
 42
1.25
 43
1.25
 50
90.0
  0
INSERT
  5
2593
330
224D
100
AcDbEntity
  8
AM_5
100
AcDbBlockReference
  2
_OPEN30
 10
-72.0
 20
-3.999999999999034
 30
0.0
 41
1.25
 42
1.25
 43
1.25
 50
270.0
  0
MTEXT
  5
2594
330
224D
100
AcDbEntity
  8
AM_5
 62
     2
100
AcDbMText
 10
-73.55
 20
0.0000000000004485
 30
0.0
 40
1.6
 41
0.0
 71
     5
 72
     1
  1
%%c8
  7
ASAMI
 11
0.0000000000000001
 21
1.0
 31
0.0
1001
ACAD
1000
MTEXTBEGIN
1070
    73
1070
     1
1070
    44
1040
1.0
1070
    74
1070
     0
1000
MTEXTEND
  0
POINT
  5
2595
330
224D
100
AcDbEntity
  8
DEFPOINTS
 62
     0
100
AcDbPoint
 10
-64.5
 20
3.999999999999951
 30
0.0
  0
POINT
  5
2596
330
224D
100
AcDbEntity
  8
DEFPOINTS
 62
     0
100
AcDbPoint
 10
-64.5
 20
-3.999999999999036
 30
0.0
  0
POINT
  5
2597
330
224D
100
AcDbEntity
  8
DEFPOINTS
 62
     0
100
AcDbPoint
 10
-72.0
 20
-3.999999999999034
 30
0.0
  0
ENDBLK
  5
2258
330
224D
100
AcDbEntity
  8
0
100
AcDbBlockEnd
  0
BLOCK
  5
2329
330
231F
100
AcDbEntity
  8
0
100
AcDbBlockBegin
  2
*D8
 70
     1
 10
0.0
 20
0.0
 30
0.0
  3
*D8
  1

  0
LINE
  5
2598
330
231F
100
AcDbEntity
  8
AM_5
100
AcDbLine
 10
0.4999999999989245
 20
3.500000000000002
 30
0.0
 11
7.500000000000019
 21
3.5
 31
0.0
  0
LINE
  5
2599
330
231F
100
AcDbEntity
  8
AM_5
100
AcDbLine
 10
0.4999999999999997
 20
-3.49999999999651
 30
0.0
 11
7.500000000000017
 21
-3.499999999996513
 31
0.0
  0
LINE
  5
259A
330
231F
100
AcDbEntity
  8
AM_5
100
AcDbLine
 10
7.000000000000019
 20
2.25
 30
0.0
 11
7.000000000000017
 21
-2.249999999996513
 31
0.0
  0
INSERT
  5
259B
330
231F
100
AcDbEntity
  8
AM_5
100
AcDbBlockReference
  2
_OPEN30
 10
7.000000000000019
 20
3.5
 30
0.0
 41
1.25
 42
1.25
 43
1.25
 50
90.0
  0
INSERT
  5
259C
330
231F
100
AcDbEntity
  8
AM_5
100
AcDbBlockReference
  2
_OPEN30
 10
7.000000000000017
 20
-3.499999999996513
 30
0.0
 41
1.25
 42
1.25
 43
1.25
 50
270.0
  0
MTEXT
  5
259D
330
231F
100
AcDbEntity
  8
AM_5
 62
     2
100
AcDbMText
 10
5.450000000000018
 20
0.0000000000017453
 30
0.0
 40
1.6
 41
0.0
 71
     5
 72
     1
  1
%%c7
  7
ASAMI
 11
0.0000000000000001
 21
1.0
 31
0.0
1001
ACAD
1000
MTEXTBEGIN
1070
    73
1070
     1
1070
    44
1040
1.0
1070
    74
1070
     0
1000
MTEXTEND
  0
POINT
  5
259E
330
231F
100
AcDbEntity
  8
DEFPOINTS
 62
     0
100
AcDbPoint
 10
-0.0000000000010755
 20
3.500000000000002
 30
0.0
  0
POINT
  5
259F
330
231F
100
AcDbEntity
  8
DEFPOINTS
 62
     0
100
AcDbPoint
 10
-0.0000000000000003
 20
-3.49999999999651
 30
0.0
  0
POINT
  5
25A0
330
231F
100
AcDbEntity
  8
DEFPOINTS
 62
     0
100
AcDbPoint
 10
7.000000000000017
 20
-3.499999999996513
 30
0.0
  0
ENDBLK
  5
232A
330
231F
100
AcDbEntity
  8
0
100
AcDbBlockEnd
  0
ENDSEC
  0
SECTION
  2
ENTITIES
  0
TEXT
  5
E5A
330
1F
100
AcDbEntity
  8
AM_6
100
AcDbText
 10
-42.91666666666666
 20
-28.25000099999894
 30
0.0
 40
2.5
  1
LSM4070ZX
 72
     4
 11
-32.49999999999999
 21
-27.00000099999894
 31
0.0
100
AcDbText
  0
LINE
  5
F47
330
1F
100
AcDbEntity
  8
AM_7
  6
AM_ISO08W050X2
100
AcDbLine
 10
2.905577119669892
 20
-0.0000000000000013
 30
0.0
 11
-67.7882302597198
 21
-0.0000000000000048
 31
0.0
1001
GENIUS_GENODEF_13
1002
{
1000
HIER
1070
     0
1002
}
1002
{
1000
MANEDIT
1070
     0
1002
}
1002
{
1000
NOSEL
1070
     0
1002
}
1002
{
1000
BEHIND
1070
     0
1002
}
1002
{
1000
REACTOR
1002
}
1001
GENIUS_GENOBJ-N-CEN_13
1002
{
1000
OWNER
1000
GEN
1002
}
  0
DIMENSION
  5
105F
330
1F
100
AcDbEntity
  8
AM_5
100
AcDbDimension
  2
*D5
 10
-0.000000000000139
 20
-11.00000099999894
 30
0.0
 11
-12.50000000000015
 21
-9.450000999998941
 31
0.0
 70
    32
  1
<>
  3
AM_JIS
100
AcDbAlignedDimension
 13
-25.00000000000018
 23
-3.499999999998566
 33
0.0
 14
-0.0000000000001386
 24
-3.499999999998548
 34
0.0
 50
0.0000000000001132
100
AcDbRotatedDimension
1001
GENIUS_GENDTOL_13
1000

1000
h7
1000

1040
0.0
  0
DIMENSION
  5
10EF
330
1F
100
AcDbEntity
  8
AM_5
100
AcDbDimension
  2
*D6
 10
0.0000000000000154
 20
-17.00000099999894
 30
0.0
 11
-32.49999999999999
 21
-15.45000099999894
 31
0.0
 70
    32
  1
<>
  3
AM_JIS
100
AcDbAlignedDimension
 13
-65.0
 23
-3.499999999999037
 33
0.0
 14
0.0000000000000162
 24
-3.500000000000542
 34
0.0
 50
0.0000000000001132
100
AcDbRotatedDimension
1001
GENIUS_GENDTOL_13
1000

1000
h7
1000

1040
0.0
  0
LINE
  5
2247
330
1F
100
AcDbEntity
  8
AM_0
100
AcDbLine
 10
-31.5
 20
-3.999999999999005
 30
0.0
 11
-64.5
 21
-3.999999999999036
 31
0.0
  0
LINE
  5
224A
330
1F
100
AcDbEntity
  8
AM_0
100
AcDbLine
 10
-64.5
 20
3.999999999999952
 30
0.0
 11
-64.50000000000002
 21
-3.999999999999036
 31
0.0
  0
LINE
  5
224B
330
1F
100
AcDbEntity
  8
AM_0
100
AcDbLine
 10
-65.0
 20
3.49999999999995
 30
0.0
 11
-65.0
 21
-3.499999999999037
 31
0.0
  0
DIMENSION
  5
224C
330
1F
100
AcDbEntity
  8
AM_5
100
AcDbDimension
  2
*D7
 10
-72.0
 20
-3.999999999999034
 30
0.0
 11
-73.55
 21
0.0000000000004485
 31
0.0
 70
    32
  1
%%c<>
  3
AM_JIS
100
AcDbAlignedDimension
 13
-64.5
 23
3.999999999999951
 33
0.0
 14
-64.5
 24
-3.999999999999036
 34
0.0
 50
270.0
100
AcDbRotatedDimension
1001
GENIUS_GENDTOL_13
1000

1000
h7
1000

1040
0.0
  0
LINE
  5
2259
330
1F
100
AcDbEntity
  8
AM_0
100
AcDbLine
 10
-31.49999999999999
 20
4.000000000000013
 30
0.0
 11
-64.5
 21
3.999999999999951
 31
0.0
  0
LINE
  5
2265
330
1F
100
AcDbEntity
  8
AM_0
100
AcDbLine
 10
-64.5
 20
3.999999999999951
 30
0.0
 11
-65.0
 21
3.49999999999995
 31
0.0
1001
GENIUS_GENFIL_13
1070
     0
1040
0.5
1040
0.5
1040
20.0
1040
0.0
1002
{
1002
}
1001
GENIUS_GENODEF_13
1002
{
1000
HIER
1070
     0
1002
}
1002
{
1000
MANEDIT
1070
     0
1002
}
1002
{
1000
NOSEL
1070
     0
1002
}
1002
{
1000
BEHIND
1070
     0
1002
}
1002
{
1000
REACTOR
1002
}
1001
GENIUS_GENOBJ-N-CHA_13
1002
{
1000
OWNER
1000
GEN
1002
}
  0
LINE
  5
2268
330
1F
100
AcDbEntity
  8
AM_0
100
AcDbLine
 10
-64.5
 20
-3.999999999999036
 30
0.0
 11
-65.0
 21
-3.499999999999037
 31
0.0
1001
GENIUS_GENFIL_13
1070
     0
1040
0.5
1040
0.5
1040
20.0
1040
0.0
1002
{
1002
}
1001
GENIUS_GENODEF_13
1002
{
1000
HIER
1070
     0
1002
}
1002
{
1000
MANEDIT
1070
     0
1002
}
1002
{
1000
NOSEL
1070
     0
1002
}
1002
{
1000
BEHIND
1070
     0
1002
}
1002
{
1000
REACTOR
1002
}
1001
GENIUS_GENOBJ-N-CHA_13
1002
{
1000
OWNER
1000
GEN
1002
}
  0
LINE
  5
227A
330
1F
100
AcDbEntity
  8
AM_0
100
AcDbLine
 10
-31.49999999999999
 20
4.000000000000013
 30
0.0
 11
-31.5
 21
-3.999999999999005
 31
0.0
  0
LINE
  5
22F4
330
1F
100
AcDbEntity
  8
AM_0
100
AcDbLine
 10
-0.6805466760631224
 20
1.866998569808728
 30
0.0
 11
-1.502314797276597
 21
2.105917395771102
 31
0.0
  0
LINE
  5
22F5
330
1F
100
AcDbEntity
  8
AM_0
100
AcDbLine
 10
-0.000000000000139
 20
0.000000000001459
 30
0.0
 11
-0.066937500000134
 21
0.7000000000015352
 31
0.0
  0
LINE
  5
22F6
330
1F
100
AcDbEntity
  8
AM_0
100
AcDbLine
 10
-0.000000000000139
 20
0.000000000001459
 30
0.0
 11
-0.0566371633294209
 21
-0.5922840609585667
 31
0.0
  0
LINE
  5
22F7
330
1F
100
AcDbEntity
  8
AM_0
100
AcDbLine
 10
-0.000000000000139
 20
-0.6999999999985509
 30
0.0
 11
-0.368060796608546
 21
0.0000000000014921
 31
0.0
  0
LINE
  5
22F8
330
1F
100
AcDbEntity
  8
AM_0
100
AcDbLine
 10
-1.502314797276597
 20
0.000000000001459
 30
0.0
 11
-1.502314797276597
 21
-0.5599999999985457
 31
0.0
  0
LINE
  5
22F9
330
1F
100
AcDbEntity
  8
AM_0
100
AcDbLine
 10
-1.502314797276597
 20
-0.5599999999985457
 30
0.0
 11
-0.0736121593218204
 21
-0.5599999999985457
 31
0.0
  0
LINE
  5
22FB
330
1F
100
AcDbEntity
  8
AM_0
100
AcDbLine
 10
-0.5485419658782597
 20
-1.031558335615129
 30
0.0
 11
-0.066937500000134
 21
-0.9288284981927738
 31
0.0
  0
LINE
  5
22FC
330
1F
100
AcDbEntity
  8
AM_0
100
AcDbLine
 10
-1.502314797276597
 20
-0.5599999999985457
 30
0.0
 11
-0.5485419658782597
 21
-1.031558335615129
 31
0.0
  0
LINE
  5
22FD
330
1F
100
AcDbEntity
  8
AM_0
100
AcDbLine
 10
-0.066937500000134
 20
-0.9288284981927738
 30
0.0
 11
-0.000000000000139
 21
-0.6999999999985509
 31
0.0
  0
LINE
  5
22FE
330
1F
100
AcDbEntity
  8
AM_0
100
AcDbLine
 10
-0.066937500000134
 20
0.7000000000015352
 30
0.0
 11
-0.6805466760631224
 21
1.866998569808728
 31
0.0
  0
LINE
  5
22FF
330
1F
100
AcDbEntity
  8
AM_0
100
AcDbLine
 10
-0.000000000000139
 20
0.000000000001459
 30
0.0
 11
-0.000000000000139
 21
3.500000000001458
 31
0.0
  0
LINE
  5
2300
330
1F
100
AcDbEntity
  8
AM_0
100
AcDbLine
 10
-0.000000000000139
 20
-3.499999999998548
 30
0.0
 11
-0.066937500000134
 21
-3.313408810333833
 31
0.0
  0
LINE
  5
2301
330
1F
100
AcDbEntity
  8
AM_0
100
AcDbLine
 10
-0.066937500000134
 20
-3.313408810333833
 30
0.0
 11
-0.066937500000134
 21
-0.9288284981927738
 31
0.0
  0
LINE
  5
2302
330
1F
100
AcDbEntity
  8
AM_0
100
AcDbLine
 10
-0.066937500000134
 20
-3.313408810333783
 30
0.0
 11
-0.4366875000001404
 21
-2.79833165882189
 31
0.0
  0
LINE
  5
2303
330
1F
100
AcDbEntity
  8
AM_0
100
AcDbLine
 10
-0.000000000000139
 20
-3.499999999998548
 30
0.0
 11
-0.000000000000139
 21
-0.6999999999985509
 31
0.0
  0
LINE
  5
2305
330
1F
100
AcDbEntity
  8
AM_0
100
AcDbLine
 10
-25.22621163160716
 20
1.577392222542635
 30
0.0
 11
-25.00000000000008
 21
0.8772450554822681
 31
0.0
  0
LINE
  5
2307
330
1F
100
AcDbEntity
  8
AM_0
100
AcDbLine
 10
-25.00000000000011
 20
1.985689139478845
 30
0.0
 11
-25.22621163160716
 21
1.577392222542635
 31
0.0
  0
POLYLINE
  5
230A
330
1F
100
AcDbEntity
  8
AM_0
100
AcDb2dPolyline
 66
     1
 10
0.0
 20
0.0
 30
0.0
 70
     2
  0
VERTEX
  5
230B
330
230A
100
AcDbEntity
  8
AM_0
100
AcDbVertex
100
AcDb2dVertex
 10
-26.6958217653159
 20
2.708558397740273
 30
0.0
 42
-0.0081187699035253
  0
VERTEX
  5
230C
330
230A
100
AcDbEntity
  8
AM_0
100
AcDbVertex
100
AcDb2dVertex
 10
-27.01187669250949
 20
2.824987543497538
 30
0.0
 42
-0.0114464127740034
 70
     1
  0
VERTEX
  5
230D
330
230A
100
AcDbEntity
  8
AM_0
100
AcDbVertex
100
AcDb2dVertex
 10
-27.23455400131534
 20
2.923353361858501
 30
0.0
 42
-0.0078685702839493
  0
VERTEX
  5
230E
330
230A
100
AcDbEntity
  8
AM_0
100
AcDbVertex
100
AcDb2dVertex
 10
-27.96897051668663
 20
3.327912997975973
 30
0.0
 42
-0.2726804491113656
 70
     1
  0
VERTEX
  5
230F
330
230A
100
AcDbEntity
  8
AM_0
100
AcDbVertex
100
AcDb2dVertex
 10
-27.98422260423773
 20
3.350412846249749
 30
0.0
 42
-0.4014058829339297
  0
VERTEX
  5
2310
330
230A
100
AcDbEntity
  8
AM_0
100
AcDbVertex
100
AcDb2dVertex
 10
-27.95657273315641
 20
3.389857829835619
 30
0.0
 42
-0.0313656446754737
 70
     1
  0
VERTEX
  5
2311
330
230A
100
AcDbEntity
  8
AM_0
100
AcDbVertex
100
AcDb2dVertex
 10
-27.45840903828636
 20
3.438483877270856
 30
0.0
 42
-0.0039726403541645
  0
VERTEX
  5
2312
330
230A
100
AcDbEntity
  8
AM_0
100
AcDbVertex
100
AcDb2dVertex
 10
-27.00474064587811
 20
3.447454619317077
 30
0.0
 42
0.0019401889352083
 70
     1
  0
VERTEX
  5
2313
330
230A
100
AcDbEntity
  8
AM_0
100
AcDbVertex
100
AcDb2dVertex
 10
-26.07578125000009
 20
3.461676299613301
 30
0.0
 42
0.0036525506412497
  0
VERTEX
  5
2314
330
230A
100
AcDbEntity
  8
AM_0
100
AcDbVertex
100
AcDb2dVertex
 10
-25.71048095185469
 20
3.471757173818717
 30
0.0
 42
0.0018773371428962
 70
     1
  0
VERTEX
  5
2315
330
230A
100
AcDbEntity
  8
AM_0
100
AcDbVertex
100
AcDb2dVertex
 10
-25.0000000000001
 20
3.500000000001441
 30
0.0
  0
SEQEND
  5
2316
330
230A
100
AcDbEntity
  8
AM_0
  0
LINE
  5
2319
330
1F
100
AcDbEntity
  8
AM_0
100
AcDbLine
 10
-25.00000000000007
 20
-2.324362738868519
 30
0.0
 11
-25.00000000000014
 21
-3.403496244276084
 31
0.0
  0
LINE
  5
231A
330
1F
100
AcDbEntity
  8
AM_11
100
AcDbLine
 10
-25.00000000000018
 20
-3.499999999998566
 30
0.0
 11
-25.0000000000001
 21
3.500000000001441
 31
0.0
  0
LINE
  5
231C
330
1F
100
AcDbEntity
  8
AM_11
100
AcDbLine
 10
-25.00000000000018
 20
-3.499999999998565
 30
0.0
 11
-0.000000000000139
 21
-3.499999999998548
 31
0.0
  0
LINE
  5
231D
330
1F
100
AcDbEntity
  8
AM_11
100
AcDbLine
 10
-0.0000000000006297
 20
3.500000000001458
 30
0.0
 11
-25.0000000000001
 21
3.500000000001441
 31
0.0
  0
DIMENSION
  5
231E
330
1F
100
AcDbEntity
  8
AM_5
100
AcDbDimension
  2
*D8
 10
7.000000000000017
 20
-3.499999999996513
 30
0.0
 11
5.450000000000018
 21
0.0000000000017453
 31
0.0
 70
    32
  1
%%c<>
  3
AM_JIS
100
AcDbAlignedDimension
 13
-0.0000000000010755
 23
3.500000000000002
 33
0.0
 14
-0.0000000000000003
 24
-3.49999999999651
 34
0.0
 50
90.0
100
AcDbRotatedDimension
1001
GENIUS_GENDTOL_13
1000

1000
h7
1000

1040
0.0
  0
SPLINE
  5
232B
330
1F
100
AcDbEntity
  8
AM_0
100
AcDbSpline
210
0.0
220
0.0
230
1.0
 70
     8
 71
     3
 72
     8
 73
     4
 74
     0
 42
0.0000000001
 43
0.0000000001
 40
0.7699064471122945
 40
0.7699064471122945
 40
0.7699064471122945
 40
0.7699064471122945
 40
14.43901837670146
 40
14.43901837670146
 40
14.43901837670146
 40
14.43901837670146
 10
-24.48767887576305
 20
3.431044215069476
 30
0.0
 10
-21.53029491587291
 20
3.214162351989162
 30
0.0
 10
-18.8787856586758
 20
1.607081175995352
 30
0.0
 10
-16.2272764014787
 20
0.0000000000015585
 30
0.0
  0
SPLINE
  5
232C
330
1F
100
AcDbEntity
  8
AM_0
100
AcDbSpline
210
0.0
220
0.0
230
1.0
 70
     8
 71
     3
 72
     8
 73
     4
 74
     0
 42
0.0000000001
 43
0.0000000001
 40
0.0
 40
0.0
 40
0.0
 40
0.0
 40
5.635889483499305
 40
5.635889483499305
 40
5.635889483499305
 40
5.635889483499305
 10
-17.34000000000021
 20
3.500000000001516
 30
0.0
 10
-18.53762651524382
 20
3.500000000001516
 30
0.0
 10
-19.69233627432081
 20
3.235255820286917
 30
0.0
 10
-20.82413317309052
 20
2.802441973830239
 30
0.0
  0
SPLINE
  5
232D
330
1F
100
AcDbEntity
  8
AM_0
100
AcDbSpline
210
0.0
220
0.0
230
1.0
 70
     8
 71
     3
 72
     8
 73
     4
 74
     0
 42
0.0000000001
 43
0.0000000001
 40
1.090140354492627
 40
1.090140354492627
 40
1.090140354492627
 40
1.090140354492627
 40
14.36247867694493
 40
14.36247867694493
 40
14.36247867694493
 40
14.36247867694493
 10
-22.94419588067934
 20
3.192890034779258
 30
0.0
 10
-20.13754368541992
 20
2.986879974737036
 30
0.0
 10
-17.54176465064922
 20
1.493439987369296
 30
0.0
 10
-14.94598561587851
 20
0.0000000000015585
 30
0.0
  0
SPLINE
  5
232E
330
1F
100
AcDbEntity
  8
AM_0
100
AcDbSpline
210
0.0
220
0.0
230
1.0
 70
     8
 71
     3
 72
     8
 73
     4
 74
     0
 42
0.0000000001
 43
0.0000000001
 40
0.7142832446738512
 40
0.7142832446738512
 40
0.7142832446738512
 40
0.7142832446738512
 40
9.361146747480315
 40
9.361146747480315
 40
9.361146747480315
 40
9.361146747480315
 10
-5.822403507450435
 20
3.220418452878459
 30
0.0
 10
-3.999136971602765
 20
3.126048407281551
 30
0.0
 10
-2.259581361548256
 20
2.475038917961187
 30
0.0
 10
-0.5507013179517463
 20
1.620050914638123
 30
0.0
  0
SPLINE
  5
232F
330
1F
100
AcDbEntity
  8
AM_0
100
AcDbSpline
210
0.0
220
0.0
230
1.0
 70
     8
 71
     3
 72
     8
 73
     4
 74
     0
 42
0.0000000001
 43
0.0000000001
 40
0.0
 40
0.0
 40
0.0
 40
0.0
 40
5.635889483499127
 40
5.635889483499127
 40
5.635889483499127
 40
5.635889483499127
 10
-0.000000000000139
 20
3.500000000001458
 30
0.0
 10
-1.197626515243697
 20
3.500000000001458
 30
0.0
 10
-2.352336274320663
 20
3.235255820286842
 30
0.0
 10
-3.480821765315582
 20
2.808739806861315
 30
0.0
  0
SPLINE
  5
2330
330
1F
100
AcDbEntity
  8
AM_0
100
AcDbSpline
210
0.0
220
0.0
230
1.0
 70
     8
 71
     3
 72
     8
 73
     4
 74
     0
 42
0.0000000001
 43
0.0000000001
 40
4.542668862435135
 40
4.542668862435135
 40
4.542668862435135
 40
4.542668862435135
 40
14.36247867694493
 40
14.36247867694493
 40
14.36247867694493
 40
14.36247867694493
 10
-0.4366874999992496
 20
-2.798331658818193
 30
0.0
 10
-2.434905645995547
 20
-2.209903980599556
 30
0.0
 10
-4.355445630936972
 20
-1.104951990299036
 30
0.0
 10
-6.275985615878397
 20
0.0000000000014921
 30
0.0
  0
SPLINE
  5
2331
330
1F
100
AcDbEntity
  8
AM_0
100
AcDbSpline
210
0.0
220
0.0
230
1.0
 70
     8
 71
     3
 72
     8
 73
     4
 74
     0
 42
0.0000000001
 43
0.0000000001
 40
0.3581103616548037
 40
0.3581103616548037
 40
0.3581103616548037
 40
0.3581103616548037
 40
12.40023413887867
 40
12.40023413887867
 40
12.40023413887867
 40
12.40023413887867
 10
-7.329470482068046
 20
3.392091795998325
 30
0.0
 10
-4.781445577851769
 20
3.322734755945434
 30
0.0
 10
-2.414824103570773
 20
2.101890789940952
 30
0.0
 10
-0.074468155152474
 20
0.7143222496277275
 30
0.0
  0
SPLINE
  5
2332
330
1F
100
AcDbEntity
  8
AM_0
100
AcDbSpline
210
0.0
220
0.0
230
1.0
 70
     8
 71
     3
 72
     8
 73
     4
 74
     0
 42
0.0000000001
 43
0.0000000001
 40
0.0
 40
0.0
 40
0.0
 40
0.0
 40
5.79599861973758
 40
5.79599861973758
 40
5.79599861973758
 40
5.79599861973758
 10
-8.670000000000134
 20
3.500000000001524
 30
0.0
 10
-5.590875733264545
 20
3.500000000001526
 30
0.0
 10
-2.795437866632341
 20
1.750000000001534
 30
0.0
 10
-0.000000000000139
 20
0.0000000000015419
 30
0.0
  0
SPLINE
  5
2333
330
1F
100
AcDbEntity
  8
AM_0
100
AcDbSpline
210
0.0
220
0.0
230
1.0
 70
     8
 71
     3
 72
     8
 73
     4
 74
     0
 42
0.0000000001
 43
0.0000000001
 40
0.0
 40
0.0
 40
0.0
 40
0.0
 40
5.795998619737582
 40
5.795998619737582
 40
5.795998619737582
 40
5.795998619737582
 10
-0.000000000000139
 20
-3.499999999998548
 30
0.0
 10
-3.079124266735728
 20
-3.499999999998551
 30
0.0
 10
-5.874562133367931
 20
-1.749999999998554
 30
0.0
 10
-8.670000000000134
 20
0.0000000000014424
 30
0.0
  0
SPLINE
  5
2334
330
1F
100
AcDbEntity
  8
AM_0
100
AcDbSpline
210
0.0
220
0.0
230
1.0
 70
     8
 71
     3
 72
     8
 73
     4
 74
     0
 42
0.0000000001
 43
0.0000000001
 40
1.870660592686466
 40
1.870660592686466
 40
1.870660592686466
 40
1.870660592686466
 40
14.43901837670146
 40
14.43901837670146
 40
14.43901837670146
 40
14.43901837670146
 10
-0.0669375000001265
 20
-3.313408810333783
 30
0.0
 10
-2.681302426908505
 20
-2.955330428469597
 30
0.0
 10
-5.119289414193555
 20
-1.477665214234056
 30
0.0
 10
-7.557276401478591
 20
0.0000000000014921
 30
0.0
  0
SPLINE
  5
2335
330
1F
100
AcDbEntity
  8
AM_0
100
AcDbSpline
210
0.0
220
0.0
230
1.0
 70
     8
 71
     3
 72
     8
 73
     4
 74
     0
 42
0.0000000001
 43
0.0000000001
 40
0.0
 40
0.0
 40
0.0
 40
0.0
 40
1.034626129446689
 40
1.034626129446689
 40
1.034626129446689
 40
1.034626129446689
 10
-0.000000000000139
 20
2.852291880680226
 30
0.0
 10
-0.3527079550707673
 20
2.389410237307155
 30
0.0
 10
-0.9581111842565901
 20
2.190631657848495
 30
0.0
 10
-1.502314797276597
 20
2.105917395771102
 30
0.0
  0
SPLINE
  5
2336
330
1F
100
AcDbEntity
  8
AM_0
100
AcDbSpline
210
0.0
220
0.0
230
1.0
 70
     8
 71
     3
 72
     8
 73
     4
 74
     0
 42
0.0000000001
 43
0.0000000001
 40
0.0
 40
0.0
 40
0.0
 40
0.0
 40
2.130230809022907
 40
2.130230809022907
 40
2.130230809022907
 40
2.130230809022907
 10
-8.670000000000255
 20
-3.499999999998565
 30
0.0
 10
-8.217325953082889
 20
-3.499999999998565
 30
0.0
 10
-7.77078324440796
 20
-3.462177101472679
 30
0.0
 10
-7.329470482068304
 20
-3.392091795995349
 30
0.0
  0
SPLINE
  5
2337
330
1F
100
AcDbEntity
  8
AM_0
100
AcDbSpline
210
0.0
220
0.0
230
1.0
 70
     8
 71
     3
 72
     8
 73
     4
 74
     0
 42
0.0000000001
 43
0.0000000001
 40
0.0
 40
0.0
 40
0.0
 40
0.0
 40
5.635889483499305
 40
5.635889483499305
 40
5.635889483499305
 40
5.635889483499305
 10
-8.670000000000255
 20
3.500000000001524
 30
0.0
 10
-9.867626515243875
 20
3.500000000001524
 30
0.0
 10
-11.02233627432086
 20
3.235255820286925
 30
0.0
 10
-12.1508217653158
 20
2.808739806861348
 30
0.0
  0
SPLINE
  5
2338
330
1F
100
AcDbEntity
  8
AM_0
100
AcDbSpline
210
0.0
220
0.0
230
1.0
 70
     8
 71
     3
 72
     8
 73
     4
 74
     0
 42
0.0000000001
 43
0.0000000001
 40
0.3581103616548037
 40
0.3581103616548037
 40
0.3581103616548037
 40
0.3581103616548037
 40
14.43901837670146
 40
14.43901837670146
 40
14.43901837670146
 40
14.43901837670146
 10
-15.99947048206804
 20
3.392091795998308
 30
0.0
 10
-13.02005381437217
 20
3.310992305638698
 30
0.0
 10
-10.28866510792537
 20
1.655496152820103
 30
0.0
 10
-7.557276401478591
 20
0.0000000000014921
 30
0.0
  0
SPLINE
  5
2339
330
1F
100
AcDbEntity
  8
AM_0
100
AcDbSpline
210
0.0
220
0.0
230
1.0
 70
     8
 71
     3
 72
     8
 73
     4
 74
     0
 42
0.0000000001
 43
0.0000000001
 40
0.0
 40
0.0
 40
0.0
 40
0.0
 40
5.775607350680602
 40
5.775607350680602
 40
5.775607350680602
 40
5.775607350680602
 10
-7.557276401478697
 20
-3.395198569233249
 30
0.0
 10
-10.62556780652776
 20
-3.395198569233252
 30
0.0
 10
-13.42642210400324
 20
-1.697599284615846
 30
0.0
 10
-16.22727640147872
 20
0.0000000000015585
 30
0.0
  0
SPLINE
  5
233A
330
1F
100
AcDbEntity
  8
AM_0
100
AcDbSpline
210
0.0
220
0.0
230
1.0
 70
     8
 71
     3
 72
     8
 73
     4
 74
     0
 42
0.0000000001
 43
0.0000000001
 40
0.0
 40
0.0
 40
0.0
 40
0.0
 40
4.451443990518192
 40
4.451443990518192
 40
4.451443990518192
 40
4.451443990518192
 10
-6.275985615878517
 20
-3.232211152660443
 30
0.0
 10
-5.330053767893384
 20
-3.232211152660443
 30
0.0
 10
-4.407468374043634
 20
-3.076967889971762
 30
0.0
 10
-3.500993536174162
 20
-2.814596784244988
 30
0.0
  0
SPLINE
  5
233B
330
1F
100
AcDbEntity
  8
AM_0
100
AcDbSpline
210
0.0
220
0.0
230
1.0
 70
     8
 71
     3
 72
     8
 73
     4
 74
     0
 42
0.0000000001
 43
0.0000000001
 40
0.0
 40
0.0
 40
0.0
 40
0.0
 40
5.744991470777974
 40
5.744991470777974
 40
5.744991470777974
 40
5.744991470777974
 10
-6.275985615878517
 20
-3.23221115266036
 30
0.0
 10
-9.328012334729313
 20
-3.232211152660363
 30
0.0
 10
-12.13699897530391
 20
-1.616105576329402
 30
0.0
 10
-14.94598561587851
 20
0.0000000000015585
 30
0.0
  0
SPLINE
  5
233C
330
1F
100
AcDbEntity
  8
AM_0
100
AcDbSpline
210
0.0
220
0.0
230
1.0
 70
     8
 71
     3
 72
     8
 73
     4
 74
     0
 42
0.0000000001
 43
0.0000000001
 40
0.7142832446738512
 40
0.7142832446738512
 40
0.7142832446738512
 40
0.7142832446738512
 40
14.36247867694493
 40
14.36247867694493
 40
14.36247867694493
 40
14.36247867694493
 10
-14.49240350745043
 20
3.220418452878442
 30
0.0
 10
-11.61456254253958
 20
3.071464924834311
 30
0.0
 10
-8.945274079208989
 20
1.535732462417901
 30
0.0
 10
-6.275985615878397
 20
0.0000000000014921
 30
0.0
  0
SPLINE
  5
233D
330
1F
100
AcDbEntity
  8
AM_0
100
AcDbSpline
210
0.0
220
0.0
230
1.0
 70
     8
 71
     3
 72
     8
 73
     4
 74
     0
 42
0.0000000001
 43
0.0000000001
 40
0.0
 40
0.0
 40
0.0
 40
0.0
 40
2.764560748519282
 40
2.764560748519282
 40
2.764560748519282
 40
2.764560748519282
 10
-7.557276401478697
 20
-3.395198569233333
 30
0.0
 10
-6.969807242418363
 20
-3.395198569233333
 30
0.0
 10
-6.392141977278024
 20
-3.332966803955593
 30
0.0
 10
-5.822403507517701
 20
-3.22041845288873
 30
0.0
  0
SPLINE
  5
233E
330
1F
100
AcDbEntity
  8
AM_0
100
AcDbSpline
210
0.0
220
0.0
230
1.0
 70
     8
 71
     3
 72
     8
 73
     4
 74
     0
 42
0.0000000001
 43
0.0000000001
 40
0.0
 40
0.0
 40
0.0
 40
0.0
 40
5.79599861973758
 40
5.79599861973758
 40
5.79599861973758
 40
5.79599861973758
 10
-17.34000000000013
 20
3.500000000001508
 30
0.0
 10
-14.26087573326454
 20
3.50000000000151
 30
0.0
 10
-11.46543786663233
 20
1.750000000001518
 30
0.0
 10
-8.670000000000134
 20
0.0000000000015253
 30
0.0
  0
SPLINE
  5
233F
330
1F
100
AcDbEntity
  8
AM_0
100
AcDbSpline
210
0.0
220
0.0
230
1.0
 70
     8
 71
     3
 72
     8
 73
     4
 74
     0
 42
0.0000000001
 43
0.0000000001
 40
0.0
 40
0.0
 40
0.0
 40
0.0
 40
5.795998619737585
 40
5.795998619737585
 40
5.795998619737585
 40
5.795998619737585
 10
-8.670000000000255
 20
-3.499999999998482
 30
0.0
 10
-11.74912426673585
 20
-3.499999999998485
 30
0.0
 10
-14.54456213336804
 20
-1.74999999999848
 30
0.0
 10
-17.34000000000025
 20
0.0000000000015253
 30
0.0
  0
SPLINE
  5
2340
330
1F
100
AcDbEntity
  8
AM_0
100
AcDbSpline
210
0.0
220
0.0
230
1.0
 70
     8
 71
     3
 72
     8
 73
     4
 74
     0
 42
0.0000000001
 43
0.0000000001
 40
0.0
 40
0.0
 40
0.0
 40
0.0
 40
5.795998619737575
 40
5.795998619737575
 40
5.795998619737575
 40
5.795998619737575
 10
-15.04500000000025
 20
-3.49999999999849
 30
0.0
 10
-18.12412426673583
 20
-3.49999999999849
 30
0.0
 10
-20.91956213336803
 20
-1.74999999999849
 30
0.0
 10
-23.71500000000023
 20
0.0000000000015087
 30
0.0
  0
SPLINE
  5
2341
330
1F
100
AcDbEntity
  8
AM_0
100
AcDbSpline
210
0.0
220
0.0
230
1.0
 70
     8
 71
     3
 72
     8
 73
     4
 74
     0
 42
0.0000000001
 43
0.0000000001
 40
0.0
 40
0.0
 40
0.0
 40
0.0
 40
5.744991470777963
 40
5.744991470777963
 40
5.744991470777963
 40
5.744991470777963
 10
-12.6509856158785
 20
-3.232211152660369
 30
0.0
 10
-15.70301233472929
 20
-3.232211152660368
 30
0.0
 10
-18.51199897530388
 20
-1.616105576329413
 30
0.0
 10
-21.32098561587847
 20
0.0000000000015419
 30
0.0
  0
SPLINE
  5
2342
330
1F
100
AcDbEntity
  8
AM_0
100
AcDbSpline
210
0.0
220
0.0
230
1.0
 70
     8
 71
     3
 72
     8
 73
     4
 74
     0
 42
0.0000000001
 43
0.0000000001
 40
0.0
 40
0.0
 40
0.0
 40
0.0
 40
5.775607350680592
 40
5.775607350680592
 40
5.775607350680592
 40
5.775607350680592
 10
-13.93227640147867
 20
-3.395198569233258
 30
0.0
 10
-17.00056780652774
 20
-3.395198569233257
 30
0.0
 10
-19.80142210400321
 20
-1.697599284615857
 30
0.0
 10
-22.60227640147868
 20
0.0000000000015419
 30
0.0
  0
SPLINE
  5
2343
330
1F
100
AcDbEntity
  8
AM_0
100
AcDbSpline
210
0.0
220
0.0
230
1.0
 70
     8
 71
     3
 72
     8
 73
     4
 74
     0
 42
0.0000000001
 43
0.0000000001
 40
0.0
 40
0.0
 40
0.0
 40
0.0
 40
2.764560748519282
 40
2.764560748519282
 40
2.764560748519282
 40
2.764560748519282
 10
-13.93227640147869
 20
-3.395198569233333
 30
0.0
 10
-13.34480724241836
 20
-3.395198569233333
 30
0.0
 10
-12.76714197727801
 20
-3.33296680395561
 30
0.0
 10
-12.19740350751771
 20
-3.220418452888747
 30
0.0
  0
SPLINE
  5
2344
330
1F
100
AcDbEntity
  8
AM_0
100
AcDbSpline
210
0.0
220
0.0
230
1.0
 70
     8
 71
     3
 72
     8
 73
     4
 74
     0
 42
0.0000000001
 43
0.0000000001
 40
0.0
 40
0.0
 40
0.0
 40
0.0
 40
2.130230809022907
 40
2.130230809022907
 40
2.130230809022907
 40
2.130230809022907
 10
-15.04500000000026
 20
-3.499999999998565
 30
0.0
 10
-14.59232595308287
 20
-3.499999999998565
 30
0.0
 10
-14.14578324440795
 20
-3.462177101472679
 30
0.0
 10
-13.7044704820683
 20
-3.392091795995366
 30
0.0
  0
SPLINE
  5
2345
330
1F
100
AcDbEntity
  8
AM_0
100
AcDbSpline
210
0.0
220
0.0
230
1.0
 70
     8
 71
     3
 72
     8
 73
     4
 74
     0
 42
0.0000000001
 43
0.0000000001
 40
0.0
 40
0.0
 40
0.0
 40
0.0
 40
2.262448627968059
 40
2.262448627968059
 40
2.262448627968059
 40
2.262448627968059
 10
-12.65098561587851
 20
-3.232211152660443
 30
0.0
 10
-12.1702152824353
 20
-3.232211152660443
 30
0.0
 10
-11.69547577162477
 20
-3.192108935134489
 30
0.0
 10
-11.22581707845841
 20
-3.118221599593109
 30
0.0
  0
SPLINE
  5
2346
330
1F
100
AcDbEntity
  8
AM_0
100
AcDbSpline
210
0.0
220
0.0
230
1.0
 70
     8
 71
     3
 72
     8
 73
     4
 74
     0
 42
0.0000000001
 43
0.0000000001
 40
0.0
 40
0.0
 40
0.0
 40
0.0
 40
1.412269715655931
 40
1.412269715655931
 40
1.412269715655931
 40
1.412269715655931
 10
-23.21500000000019
 20
-3.49999999999849
 30
0.0
 10
-23.51510731457708
 20
-3.49999999999849
 30
0.0
 10
-23.81251976272163
 20
-3.483375952265227
 30
0.0
 10
-24.1075000000002
 20
-3.451748122137279
 30
0.0
  0
SPLINE
  5
2347
330
1F
100
AcDbEntity
  8
AM_0
100
AcDbSpline
210
0.0
220
0.0
230
1.0
 70
     8
 71
     3
 72
     8
 73
     4
 74
     0
 42
0.0000000001
 43
0.0000000001
 40
0.0
 40
0.0
 40
0.0
 40
0.0
 40
2.764560748519282
 40
2.764560748519282
 40
2.764560748519282
 40
2.764560748519282
 10
-22.10227640147862
 20
-3.395198569233341
 30
0.0
 10
-21.51480724241829
 20
-3.395198569233341
 30
0.0
 10
-20.93714197727796
 20
-3.332966803955618
 30
0.0
 10
-20.36740350751764
 20
-3.220418452888755
 30
0.0
  0
SPLINE
  5
2348
330
1F
100
AcDbEntity
  8
AM_0
100
AcDbSpline
210
0.0
220
0.0
230
1.0
 70
     8
 71
     3
 72
     8
 73
     4
 74
     0
 42
0.0000000001
 43
0.0000000001
 40
0.0
 40
0.0
 40
0.0
 40
0.0
 40
4.662554012798695
 40
4.662554012798695
 40
4.662554012798695
 40
4.662554012798695
 10
-22.10227640147862
 20
-3.395198569233258
 30
0.0
 10
-23.09306912919833
 20
-3.395198569233258
 30
0.0
 10
-24.05597535241454
 20
-3.21818457695239
 30
0.0
 10
-25.00000000000007
 20
-2.921316800827128
 30
0.0
  0
SPLINE
  5
2349
330
1F
100
AcDbEntity
  8
AM_0
100
AcDbSpline
210
0.0
220
0.0
230
1.0
 70
     8
 71
     3
 72
     8
 73
     4
 74
     0
 42
0.0000000001
 43
0.0000000001
 40
0.0
 40
0.0
 40
0.0
 40
0.0
 40
6.769478140335353
 40
6.769478140335353
 40
6.769478140335353
 40
6.769478140335353
 10
-20.82098561587844
 20
-3.232211152660369
 30
0.0
 10
-22.25949972069972
 20
-3.232211152660369
 30
0.0
 10
-23.64402181709751
 20
-2.873188943198679
 30
0.0
 10
-25.00000000000007
 20
-2.324362738868519
 30
0.0
  0
SPLINE
  5
234A
330
1F
100
AcDbEntity
  8
AM_0
100
AcDbSpline
210
0.0
220
0.0
230
1.0
 70
     8
 71
     3
 72
     8
 73
     4
 74
     0
 42
0.0000000001
 43
0.0000000001
 40
0.0
 40
0.0
 40
0.0
 40
0.0
 40
2.130230809022907
 40
2.130230809022907
 40
2.130230809022907
 40
2.130230809022907
 10
-23.21500000000019
 20
-3.499999999998573
 30
0.0
 10
-22.76232595308282
 20
-3.499999999998573
 30
0.0
 10
-22.31578324440788
 20
-3.462177101472687
 30
0.0
 10
-21.87447048206824
 20
-3.392091795995374
 30
0.0
  0
SPLINE
  5
234B
330
1F
100
AcDbEntity
  8
AM_0
100
AcDbSpline
210
0.0
220
0.0
230
1.0
 70
     8
 71
     3
 72
     8
 73
     4
 74
     0
 42
0.0000000001
 43
0.0000000001
 40
0.0
 40
0.0
 40
0.0
 40
0.0
 40
1.412269715655734
 40
1.412269715655734
 40
1.412269715655734
 40
1.412269715655734
 10
-24.10750000000018
 20
-3.451748122137279
 30
0.0
 10
-24.40760731457702
 20
-3.451748122137279
 30
0.0
 10
-24.70501976272153
 20
-3.435124074403998
 30
0.0
 10
-25.00000000000007
 20
-3.403496244276067
 30
0.0
  0
SPLINE
  5
234C
330
1F
100
AcDbEntity
  8
AM_0
100
AcDbSpline
210
0.0
220
0.0
230
1.0
 70
     8
 71
     3
 72
     8
 73
     4
 74
     0
 42
0.0000000001
 43
0.0000000001
 40
9.094138221207366
 40
9.094138221207366
 40
9.094138221207366
 40
9.094138221207366
 40
14.43901837670146
 40
14.43901837670146
 40
14.43901837670146
 40
14.43901837670146
 10
-25.22621163160716
 20
1.577392222542635
 30
0.0
 10
-24.67585649708428
 20
1.256798002693003
 30
0.0
 10
-23.6390664492814
 20
0.6283990013472476
 30
0.0
 10
-22.60227640147854
 20
0.000000000001459
 30
0.0
  0
SPLINE
  5
234D
330
1F
100
AcDbEntity
  8
AM_0
100
AcDbSpline
210
0.0
220
0.0
230
1.0
 70
     8
 71
     3
 72
     8
 73
     4
 74
     0
 42
0.0000000001
 43
0.0000000001
 40
12.27151369755375
 40
12.27151369755375
 40
12.27151369755375
 40
12.27151369755375
 40
14.48999654934393
 40
14.48999654934393
 40
14.48999654934393
 40
14.48999654934393
 10
-25.00000000000008
 20
0.8772450554822681
 30
0.0
 10
-24.54014937972987
 20
0.5358655507505201
 30
0.0
 10
-24.09429991091116
 20
0.2974519724551131
 30
0.0
 10
-23.71500000000009
 20
0.0000000000015087
 30
0.0
  0
SPLINE
  5
234E
330
1F
100
AcDbEntity
  8
AM_0
100
AcDbSpline
210
0.0
220
0.0
230
1.0
 70
     8
 71
     3
 72
     8
 73
     4
 74
     0
 42
0.0000000001
 43
0.0000000001
 40
0.315552314829147
 40
0.315552314829147
 40
0.315552314829147
 40
0.315552314829147
 40
5.496762683618151
 40
5.496762683618151
 40
5.496762683618151
 40
5.496762683618151
 10
-25.0000000000001
 20
3.500000000001441
 30
0.0
 10
-22.2790413771296
 20
3.29907571684218
 30
0.0
 10
-19.80952068856371
 20
1.649537858421091
 30
0.0
 10
-17.33999999999782
 20
0.0000000000000031
 30
0.0
  0
SPLINE
  5
234F
330
1F
100
AcDbEntity
  8
AM_0
100
AcDbSpline
210
0.0
220
0.0
230
1.0
 70
     8
 71
     3
 72
     8
 73
     4
 74
     0
 42
0.0000000001
 43
0.0000000001
 40
4.48458745047074
 40
4.48458745047074
 40
4.48458745047074
 40
4.48458745047074
 40
14.36247867694493
 40
14.36247867694493
 40
14.36247867694493
 40
14.36247867694493
 10
-26.6958217653159
 20
2.708558397740273
 30
0.0
 10
-25.14604296908837
 20
2.152517538690124
 30
0.0
 10
-23.25288505443103
 20
1.111487470414267
 30
0.0
 10
-21.32098561587834
 20
0.000000000001459
 30
0.0
  0
SPLINE
  5
2350
330
1F
100
AcDbEntity
  8
AM_0
100
AcDbSpline
210
0.0
220
0.0
230
1.0
 70
     8
 71
     3
 72
     8
 73
     4
 74
     0
 42
0.0000000001
 43
0.0000000001
 40
0.0
 40
0.0
 40
0.0
 40
0.0
 40
4.019049797461661
 40
4.019049797461661
 40
4.019049797461661
 40
4.019049797461661
 10
-20.82098561587844
 20
-3.232211152660451
 30
0.0
 10
-19.96693753391784
 20
-3.232211152660451
 30
0.0
 10
-19.1319206389778
 20
-3.105662446429457
 30
0.0
 10
-18.31060943745372
 20
-2.887977135428936
 30
0.0
  0
ELLIPSE
  5
2351
330
1F
100
AcDbEntity
  8
AM_0
100
AcDbEllipse
 10
1.2658666535422
 20
-1.780716115301085
 30
0.0
 11
-0.000000000000003
 21
2.128488680861233
 31
0.0
210
0.0
220
0.0
230
1.0
 40
0.9107142857142857
 41
1.211124581303826
 42
2.069278538290316
  0
ELLIPSE
  5
2352
330
1F
100
AcDbEntity
  8
AM_0
100
AcDbEllipse
 10
-24.98965106255276
 20
-10.87547263747592
 30
0.0
 11
0.0000000000004003
 21
7.471985034149748
 31
0.0
210
0.0
220
0.0
230
1.0
 40
0.9107142857143479
 41
0.0015208199008578
 42
0.1609004017522926
  0
LINE
  5
235C
330
1F
100
AcDbEntity
  8
AM_0
100
AcDbLine
 10
-25.00000000000009
 20
3.500000000001441
 30
0.0
 11
-30.12626129027659
 21
3.500000000001437
 31
0.0
  0
LINE
  5
235D
330
1F
100
AcDbEntity
  8
AM_0
100
AcDbLine
 10
-26.07983492048923
 20
-3.499999999998566
 30
0.0
 11
-30.1262612902766
 21
-3.49999999999857
 31
0.0
  0
LINE
  5
235E
330
1F
100
AcDbEntity
  8
AM_0
100
AcDbLine
 10
-31.49999999999999
 20
4.000000000000013
 30
0.0
 11
-30.12626129027659
 21
3.500000000001437
 31
0.0
  0
LINE
  5
235F
330
1F
100
AcDbEntity
  8
AM_0
100
AcDbLine
 10
-30.12626129027659
 20
3.500000000001437
 30
0.0
 11
-30.12626129027659
 21
-3.500000000000423
 31
0.0
  0
LINE
  5
2360
330
1F
100
AcDbEntity
  8
AM_0
100
AcDbLine
 10
-30.12626129027659
 20
-3.500000000000423
 30
0.0
 11
-31.5
 21
-3.999999999999005
 31
0.0
  0
POLYLINE
  5
2557
330
1F
100
AcDbEntity
  8
AM_0
100
AcDb2dPolyline
 66
     1
 10
0.0
 20
0.0
 30
0.0
 70
     2
  0
VERTEX
  5
255A
330
2557
100
AcDbEntity
  8
AM_0
100
AcDbVertex
100
AcDb2dVertex
 10
-25.00000000000008
 20
0.8772450554822681
 30
0.0
 42
0.031055462535132
  0
VERTEX
  5
2562
330
2557
100
AcDbEntity
  8
AM_0
100
AcDbVertex
100
AcDb2dVertex
 10
-25.5694168500372
 20
1.047656492556514
 30
0.0
 42
0.0360182400871316
 70
     1
  0
VERTEX
  5
255B
330
2557
100
AcDbEntity
  8
AM_0
100
AcDbVertex
100
AcDb2dVertex
 10
-26.07578125000006
 20
1.127656540061346
 30
0.0
 42
0.0355127918376495
  0
VERTEX
  5
2563
330
2557
100
AcDbEntity
  8
AM_0
100
AcDbVertex
100
AcDb2dVertex
 10
-27.1237211187481
 20
1.14200669550067
 30
0.0
 42
0.0941453993193244
 70
     1
  0
VERTEX
  5
255C
330
2557
100
AcDbEntity
  8
AM_0
100
AcDbVertex
100
AcDb2dVertex
 10
-27.51015625000006
 20
1.045372578664828
 30
0.0
 42
0.1218196770935456
  0
VERTEX
  5
2564
330
2557
100
AcDbEntity
  8
AM_0
100
AcDbVertex
100
AcDb2dVertex
 10
-27.77488398295796
 20
0.833381209626733
 30
0.0
 42
0.1524261023191856
 70
     1
  0
VERTEX
  5
255D
330
2557
100
AcDbEntity
  8
AM_0
100
AcDbVertex
100
AcDb2dVertex
 10
-27.86875000000006
 20
0.5767165837715155
 30
0.0
 42
0.1145901666175208
  0
VERTEX
  5
2565
330
2557
100
AcDbEntity
  8
AM_0
100
AcDbVertex
100
AcDb2dVertex
 10
-27.810740318976
 20
0.258115597155836
 30
0.0
 42
0.0620810990818723
 70
     1
  0
VERTEX
  5
255E
330
2557
100
AcDbEntity
  8
AM_0
100
AcDbVertex
100
AcDb2dVertex
 10
-27.51015625000006
 20
-0.2522145610334863
 30
0.0
 42
0.0364791616899859
  0
VERTEX
  5
2567
330
2557
100
AcDbEntity
  8
AM_0
100
AcDbVertex
100
AcDb2dVertex
 10
-26.96508447138203
 20
-0.862245707483197
 30
0.0
 42
0.0229138246247205
 70
     1
  0
VERTEX
  5
255F
330
2557
100
AcDbEntity
  8
AM_0
100
AcDbVertex
100
AcDb2dVertex
 10
-25.98916602476033
 20
-1.723091432288293
 30
0.0
 42
0.0327201839648028
  0
VERTEX
  5
2566
330
2557
100
AcDbEntity
  8
AM_0
100
AcDbVertex
100
AcDb2dVertex
 10
-25.6330654660171
 20
-1.972822450319114
 30
0.0
 42
0.0196397813272823
 70
     1
  0
VERTEX
  5
2560
330
2557
100
AcDbEntity
  8
AM_0
100
AcDbVertex
100
AcDb2dVertex
 10
-25.00000000000007
 20
-2.324362738869048
 30
0.0
  0
SEQEND
  5
2561
330
2557
100
AcDbEntity
  8
AM_0
  0
LINE
  5
261E
330
1F
100
AcDbEntity
  8
AM_0
100
AcDbLine
 10
-1.502314797276597
 20
-0.0000000000000015
 30
0.0
 11
-0.0000000000002784
 21
-0.0000000000000014
 31
0.0
  0
VIEWPORT
  5
110
330
101
100
AcDbEntity
 67
     1
  8
0
100
AcDbViewport
 10
420.5
 20
297.0
 30
0.0
 40
948.9782706766916
 41
628.452
 68
     1
 69
     1
1001
ACAD
1000
MVIEW
1002
{
1070
    16
1010
0.0
1020
0.0
1030
0.0
1010
0.0
1020
0.0
1030
1.0
1040
0.0
1040
628.452
1040
420.5
1040
297.0
1040
50.0
1040
0.0
1040
0.0
1070
     0
1070
   100
1070
     1
1070
     1
1070
     0
1070
     0
1070
     0
1070
     0
1040
0.0
1040
0.0
1040
0.0
1040
10.0
1040
10.0
1040
10.0
1040
10.0
1070
     0
1002
{
1002
}
1002
}
  0
ENDSEC
  0
SECTION
  2
OBJECTS
  0
DICTIONARY
  5
C
330
0
100
AcDbDictionary
  3
ACAD_GROUP
350
D
  3
ACAD_LAYOUT
350
1A
  3
ACAD_MLINESTYLE
350
17
  3
ACAD_PLOTSETTINGS
350
19
  3
ACAD_PLOTSTYLENAME
350
E
  3
ACDBVARIABLEDICTIONARY
350
34
  3
ACMDICTIONARY
350
43
  3
AMG
350
2B
  3
AMGSNAPSETTINGS
350
6E
  3
DWGPROPS
350
262E
  3
ACDBHEADERROUNDTRIPXREC
350
263A
  0
DICTIONARY
  5
74
330
1F
100
AcDbDictionary
280
     1
  3
ACAD_INDEX
360
2630
  3
ACAD_LAYOUTSELFREF
360
265D
  0
DICTIONARY
  5
2662
330
101
100
AcDbDictionary
280
     1
  3
ACAD_LAYOUTSELFREF
360
2663
  0
DICTIONARY
  5
D
102
{ACAD_REACTORS
330
C
102
}
330
C
100
AcDbDictionary
  0
DICTIONARY
  5
1A
102
{ACAD_REACTORS
330
C
102
}
330
C
100
AcDbDictionary
  0
DICTIONARY
  5
17
102
{ACAD_REACTORS
330
C
102
}
330
C
100
AcDbDictionary
  3
STANDARD
350
18
  0
DICTIONARY
  5
19
102
{ACAD_REACTORS
330
C
102
}
330
C
100
AcDbDictionary
  0
ACDBDICTIONARYWDFLT
  5
E
102
{ACAD_REACTORS
330
C
102
}
330
C
100
AcDbDictionary
281
     1
  3
Normal
350
F
100
AcDbDictionaryWithDefault
340
F
  0
DICTIONARY
  5
34
102
{ACAD_REACTORS
330
C
102
}
330
C
100
AcDbDictionary
  3
INDEXCTL
350
35
  3
SORTENTS
350
B5E
  0
DICTIONARY
  5
43
102
{ACAD_REACTORS
330
C
102
}
330
C
100
AcDbDictionary
  3
ACMSTDDICTIONARY
350
260
  0
DICTIONARY
  5
2B
102
{ACAD_REACTORS
330
C
102
}
330
C
100
AcDbDictionary
  3
ACMGSETTINGS
350
2C
  0
DICTIONARY
  5
6E
102
{ACAD_REACTORS
330
C
102
}
330
C
100
AcDbDictionary
  0
XRECORD
  5
262E
102
{ACAD_REACTORS
330
C
102
}
330
C
100
AcDbXrecord
  1
DWGPROPS COOKIE
  2

  3

  4

  6

  7

  8

  9

300
AmdtFileType=82
301
=
302
=
303
=
304
=
305
=
306
=
307
=
308
=
309
=
 40
0.1262970717592593
 41
2452836.771637361
 42
2453041.790469201
  1

 90
        1
  0
DICTIONARY
  5
263A
102
{ACAD_REACTORS
330
C
102
}
330
C
100
AcDbDictionary
  3
TSTACKALIGN
350
263B
  3
TSTACKSIZE
350
263C
  3
HYPERLINKBASE
350
263D
  3
STYLESHEET
350
263E
  3
LAYOUTDICT
350
263F
  3
PLOTSETDICT
350
2640
  3
PLOTSTYLNAMDICT
350
2641
  3
LWETCUNION
350
2642
  3
INSUNITS
350
2643
  3
CEPSNTYPE
350
2644
  3
FINGERPRINTGUID
350
2645
  3
VERSIONGUID
350
2646
  3
PSVPSCALE
350
2647
  3
DIMSTYLEDATA
350
2648
  3
PUCSORTHOREF
350
2649
  3
PUCSORTHOVIEW
350
264A
  3
PUCSBASE
350
264B
  3
PUCSORGTOP
350
264C
  3
PUCSORGBOTTOM
350
264D
  3
PUCSORGLEFT
350
264E
  3
PUCSORGRIGHT
350
264F
  3
PUCSORGFRONT
350
2650
  3
PUCSORGBACK
350
2651
  3
UCSORTHOREF
350
2652
  3
UCSORTHOVIEW
350
2653
  3
UCSBASE
350
2654
  3
UCSORGTOP
350
2655
  3
UCSORGBOTTOM
350
2656
  3
UCSORGLEFT
350
2657
  3
UCSORGRIGHT
350
2658
  3
UCSORGFRONT
350
2659
  3
UCSORGBACK
350
265A
  0
DICTIONARY
  5
2630
102
{ACAD_REACTORS
330
74
102
}
330
74
100
AcDbDictionary
  3
*A1
350
2631
  0
XRECORD
  5
265D
102
{ACAD_REACTORS
330
74
102
}
330
74
100
AcDbXrecord
340
1F
  0
XRECORD
  5
2663
102
{ACAD_REACTORS
330
2662
102
}
330
2662
100
AcDbXrecord
340
101
  0
MLINESTYLE
  5
18
102
{ACAD_REACTORS
330
17
102
}
330
17
100
AcDbMlineStyle
  2
STANDARD
 70
     0
  3

 62
   256
 51
90.0
 52
90.0
 71
     2
 49
0.5
 62
   256
  6
BYLAYER
 49
-0.5
 62
   256
  6
BYLAYER
  0
ACDBPLACEHOLDER
  5
F
102
{ACAD_REACTORS
330
E
102
}
330
E
100
AcDbPlaceHolder
280
     0
  0
DICTIONARYVAR
  5
35
102
{ACAD_REACTORS
330
34
102
}
330
34
100
DictionaryVariables
280
     0
  1
1
  0
DICTIONARYVAR
  5
B5E
102
{ACAD_REACTORS
330
34
102
}
330
34
100
DictionaryVariables
280
     0
  1
96
  0
DICTIONARY
  5
260
102
{ACAD_REACTORS
330
43
102
}
330
43
100
AcDbDictionary
  0
DICTIONARY
  5
2C
102
{ACAD_REACTORS
330
2B
102
}
330
2B
100
AcDbDictionary
  3
DWGSETTINGS
350
2D
  0
XRECORD
  5
263B
102
{ACAD_REACTORS
330
263A
102
}
330
263A
100
AcDbXrecord
 90
        1
  0
XRECORD
  5
263C
102
{ACAD_REACTORS
330
263A
102
}
330
263A
100
AcDbXrecord
 90
       70
  0
XRECORD
  5
263D
102
{ACAD_REACTORS
330
263A
102
}
330
263A
100
AcDbXrecord
  1

  0
XRECORD
  5
263E
102
{ACAD_REACTORS
330
263A
102
}
330
263A
100
AcDbXrecord
  1
ASAMI.ctb
  0
XRECORD
  5
263F
102
{ACAD_REACTORS
330
263A
102
}
330
263A
100
AcDbXrecord
340
1A
  0
XRECORD
  5
2640
102
{ACAD_REACTORS
330
263A
102
}
330
263A
100
AcDbXrecord
340
19
  0
XRECORD
  5
2641
102
{ACAD_REACTORS
330
263A
102
}
330
263A
100
AcDbXrecord
340
E
  0
XRECORD
  5
2642
102
{ACAD_REACTORS
330
263A
102
}
330
263A
100
AcDbXrecord
 90
    10781
  0
XRECORD
  5
2643
102
{ACAD_REACTORS
330
263A
102
}
330
263A
100
AcDbXrecord
 90
        4
  0
XRECORD
  5
2644
102
{ACAD_REACTORS
330
263A
102
}
330
263A
100
AcDbXrecord
 90
        0
  0
XRECORD
  5
2645
102
{ACAD_REACTORS
330
263A
102
}
330
263A
100
AcDbXrecord
  1
{AFB28963-8C59-40AE-9337-C84526B81ACE}
  0
XRECORD
  5
2646
102
{ACAD_REACTORS
330
263A
102
}
330
263A
100
AcDbXrecord
  1
{B1DD2050-80B8-4096-A6E4-3480EDCDF3A2}
  0
XRECORD
  5
2647
102
{ACAD_REACTORS
330
263A
102
}
330
263A
100
AcDbXrecord
 40
0.0
  0
XRECORD
  5
2648
102
{ACAD_REACTORS
330
263A
102
}
330
263A
100
AcDbXrecord
1000
DSTYLE
1002
{
1070
    79
 70
     2
1070
   341
340
59
1070
   342
340
59
1070
   371
 70
    -1
1070
   372
 70
    -1
1002
}
  0
XRECORD
  5
2649
102
{ACAD_REACTORS
330
263A
102
}
330
263A
100
AcDbXrecord
340
0
  0
XRECORD
  5
264A
102
{ACAD_REACTORS
330
263A
102
}
330
263A
100
AcDbXrecord
 70
     0
  0
XRECORD
  5
264B
102
{ACAD_REACTORS
330
263A
102
}
330
263A
100
AcDbXrecord
340
0
  0
XRECORD
  5
264C
102
{ACAD_REACTORS
330
263A
102
}
330
263A
100
AcDbXrecord
 10
0.0
 20
0.0
 30
0.0
  0
XRECORD
  5
264D
102
{ACAD_REACTORS
330
263A
102
}
330
263A
100
AcDbXrecord
 10
0.0
 20
0.0
 30
0.0
  0
XRECORD
  5
264E
102
{ACAD_REACTORS
330
263A
102
}
330
263A
100
AcDbXrecord
 10
0.0
 20
0.0
 30
0.0
  0
XRECORD
  5
264F
102
{ACAD_REACTORS
330
263A
102
}
330
263A
100
AcDbXrecord
 10
0.0
 20
0.0
 30
0.0
  0
XRECORD
  5
2650
102
{ACAD_REACTORS
330
263A
102
}
330
263A
100
AcDbXrecord
 10
0.0
 20
0.0
 30
0.0
  0
XRECORD
  5
2651
102
{ACAD_REACTORS
330
263A
102
}
330
263A
100
AcDbXrecord
 10
0.0
 20
0.0
 30
0.0
  0
XRECORD
  5
2652
102
{ACAD_REACTORS
330
263A
102
}
330
263A
100
AcDbXrecord
340
0
  0
XRECORD
  5
2653
102
{ACAD_REACTORS
330
263A
102
}
330
263A
100
AcDbXrecord
 70
     0
  0
XRECORD
  5
2654
102
{ACAD_REACTORS
330
263A
102
}
330
263A
100
AcDbXrecord
340
0
  0
XRECORD
  5
2655
102
{ACAD_REACTORS
330
263A
102
}
330
263A
100
AcDbXrecord
 10
0.0
 20
0.0
 30
0.0
  0
XRECORD
  5
2656
102
{ACAD_REACTORS
330
263A
102
}
330
263A
100
AcDbXrecord
 10
0.0
 20
0.0
 30
0.0
  0
XRECORD
  5
2657
102
{ACAD_REACTORS
330
263A
102
}
330
263A
100
AcDbXrecord
 10
0.0
 20
0.0
 30
0.0
  0
XRECORD
  5
2658
102
{ACAD_REACTORS
330
263A
102
}
330
263A
100
AcDbXrecord
 10
0.0
 20
0.0
 30
0.0
  0
XRECORD
  5
2659
102
{ACAD_REACTORS
330
263A
102
}
330
263A
100
AcDbXrecord
 10
0.0
 20
0.0
 30
0.0
  0
XRECORD
  5
265A
102
{ACAD_REACTORS
330
263A
102
}
330
263A
100
AcDbXrecord
 10
0.0
 20
0.0
 30
0.0
  0
LAYER_INDEX
  5
2631
102
{ACAD_REACTORS
330
2630
102
}
330
2630
100
AcDbIndex
 40
2453152.441314248
100
AcDbLayerIndex
  8
0
360
2632
 90
        0
  8
AM_0
360
2633
 90
       73
  8
AM_11
360
2634
 90
        3
  8
AM_7
360
2635
 90
        1
  8
AM_5
360
2636
 90
        4
  8
Defpoints
360
2637
 90
        0
  8
AM_6
360
2638
 90
        1
  0
XRECORD
  5
2D
102
{ACAD_REACTORS
330
2C
102
}
330
2C
100
AcDbXrecord
  1
VERSION
140
15.0
  1
PRODUCT
  2
AutoCAD Mechanical 2000
  0
IDBUFFER
  5
2632
330
0
100
AcDbIdBuffer
  0
IDBUFFER
  5
2633
330
0
100
AcDbIdBuffer
330
2341
330
2342
330
2343
330
2344
330
2345
330
2346
330
2347
330
2348
330
2349
330
234A
330
234B
330
234C
330
234D
330
234E
330
234F
330
2350
330
2351
330
2352
330
235C
330
235D
330
235E
330
235F
330
2360
330
2557
330
261E
330
2247
330
224A
330
224B
330
2259
330
2265
330
2268
330
227A
330
22F4
330
22F5
330
22F6
330
22F7
330
22F8
330
22F9
330
22FB
330
22FC
330
22FD
330
22FE
330
22FF
330
2300
330
2301
330
2302
330
2303
330
2305
330
2307
330
230A
330
2319
330
232B
330
232C
330
232D
330
232E
330
232F
330
2330
330
2331
330
2332
330
2333
330
2334
330
2335
330
2336
330
2337
330
2338
330
2339
330
233A
330
233B
330
233C
330
233D
330
233E
330
233F
330
2340
  0
IDBUFFER
  5
2634
330
0
100
AcDbIdBuffer
330
231A
330
231C
330
231D
  0
IDBUFFER
  5
2635
330
0
100
AcDbIdBuffer
330
F47
  0
IDBUFFER
  5
2636
330
0
100
AcDbIdBuffer
330
105F
330
10EF
330
224C
330
231E
  0
IDBUFFER
  5
2637
330
0
100
AcDbIdBuffer
  0
IDBUFFER
  5
2638
330
0
100
AcDbIdBuffer
330
E5A
  0
ENDSEC
  0
EOF
