  0
SECTION
  2
HEADER
  9
$ACADVER
  1
AC1014
  9
$ACADMAINTVER
 70
     9
  9
$DWGCODEPAGE
  3
ANSI_932
  9
$INSBASE
 10
0.0
 20
0.0
 30
0.0
  9
$EXTMIN
 10
-74.34999999999978
 20
-29.2500009999966
 30
-0.00000001
  9
$EXTMAX
 10
7.500000000000227
 20
5.630744283443707
 30
0.00000001
  9
$LIMMIN
 10
-81.06422394279041
 20
-36.06019801338561
  9
$LIMMAX
 10
14.34526935723181
 20
15.38036713799377
  9
$ORTHOMODE
 70
     0
  9
$REGENMODE
 70
     1
  9
$FILLMODE
 70
     1
  9
$QTEXTMODE
 70
     0
  9
$MIRRTEXT
 70
     0
  9
$DRAGMODE
 70
     2
  9
$LTSCALE
 40
1.0
  9
$OSMODE
 70
    55
  9
$ATTMODE
 70
     1
  9
$TEXTSIZE
 40
2.5
  9
$TRACEWID
 40
1.0
  9
$TEXTSTYLE
  7
STANDARD
  9
$CLAYER
  8
AM_0
  9
$CELTYPE
  6
BYLAYER
  9
$CECOLOR
 62
   256
  9
$CELTSCALE
 40
1.0
  9
$DELOBJ
 70
     1
  9
$DISPSILH
 70
     0
  9
$DIMSCALE
 40
0.5
  9
$DIMASZ
 40
2.5
  9
$DIMEXO
 40
1.0
  9
$DIMDLI
 40
12.0
  9
$DIMRND
 40
0.0
  9
$DIMDLE
 40
0.0
  9
$DIMEXE
 40
1.0
  9
$DIMTP
 40
0.1
  9
$DIMTM
 40
0.1
  9
$DIMTXT
 40
3.2
  9
$DIMCEN
 40
0.0
  9
$DIMTSZ
 40
0.0
  9
$DIMTOL
 70
     0
  9
$DIMLIM
 70
     0
  9
$DIMTIH
 70
     0
  9
$DIMTOH
 70
     0
  9
$DIMSE1
 70
     0
  9
$DIMSE2
 70
     0
  9
$DIMTAD
 70
     3
  9
$DIMZIN
 70
     8
  9
$DIMBLK
  1
OPEN30
  9
$DIMASO
 70
     1
  9
$DIMSHO
 70
     1
  9
$DIMPOST
  1

  9
$DIMAPOST
  1
"
  9
$DIMALT
 70
     0
  9
$DIMALTD
 70
     2
  9
$DIMALTF
 40
0.0393701
  9
$DIMLFAC
 40
1.0
  9
$DIMTOFL
 70
     1
  9
$DIMTVP
 40
0.0
  9
$DIMTIX
 70
     0
  9
$DIMSOXD
 70
     0
  9
$DIMSAH
 70
     0
  9
$DIMBLK1
  1

  9
$DIMBLK2
  1

  9
$DIMSTYLE
  2
AM_JIS
  9
$DIMCLRD
 70
   256
  9
$DIMCLRE
 70
   256
  9
$DIMCLRT
 70
     2
  9
$DIMTFAC
 40
0.71
  9
$DIMGAP
 40
1.5
  9
$DIMJUST
 70
     0
  9
$DIMSD1
 70
     0
  9
$DIMSD2
 70
     0
  9
$DIMTOLJ
 70
     0
  9
$DIMTZIN
 70
     0
  9
$DIMALTZ
 70
     0
  9
$DIMALTTZ
 70
     0
  9
$DIMFIT
 70
     3
  9
$DIMUPT
 70
     0
  9
$DIMUNIT
 70
     2
  9
$DIMDEC
 70
     3
  9
$DIMTDEC
 70
     3
  9
$DIMALTU
 70
     2
  9
$DIMALTTD
 70
     2
  9
$DIMTXSTY
  7
ASAMI
  9
$DIMAUNIT
 70
     0
  9
$LUNITS
 70
     2
  9
$LUPREC
 70
     2
  9
$SKETCHINC
 40
1.0
  9
$FILLETRAD
 40
2.5
  9
$AUNITS
 70
     0
  9
$AUPREC
 70
     0
  9
$MENU
  1
.
  9
$ELEVATION
 40
0.0
  9
$PELEVATION
 40
0.0
  9
$THICKNESS
 40
0.0
  9
$LIMCHECK
 70
     0
  9
$BLIPMODE
 70
     0
  9
$CHAMFERA
 40
0.75
  9
$CHAMFERB
 40
0.75
  9
$CHAMFERC
 40
20.0
  9
$CHAMFERD
 40
0.0
  9
$SKPOLY
 70
     0
  9
$TDCREATE
 40
2452836.771637361
  9
$TDUPDATE
 40
2453152.441619514
  9
$TDINDWG
 40
0.0564200000
  9
$TDUSRTIMER
 40
0.0564200000
  9
$USRTIMER
 70
     1
  9
$ANGBASE
 50
0.0
  9
$ANGDIR
 70
     0
  9
$PDMODE
 70
     0
  9
$PDSIZE
 40
0.0
  9
$PLINEWID
 40
0.0
  9
$COORDS
 70
     1
  9
$SPLFRAME
 70
     0
  9
$SPLINETYPE
 70
     6
  9
$SPLINESEGS
 70
     8
  9
$ATTDIA
 70
     1
  9
$ATTREQ
 70
     1
  9
$HANDLING
 70
 12289
  9
$HANDSEED
  5
1B4F
  9
$SURFTAB1
 70
     6
  9
$SURFTAB2
 70
     6
  9
$SURFTYPE
 70
     6
  9
$SURFU
 70
     6
  9
$SURFV
 70
     6
  9
$UCSNAME
  2

  9
$UCSORG
 10
0.0
 20
0.0
 30
0.0
  9
$UCSXDIR
 10
1.0
 20
0.0
 30
0.0
  9
$UCSYDIR
 10
0.0
 20
1.0
 30
0.0
  9
$PUCSNAME
  2

  9
$PUCSORG
 10
0.0
 20
0.0
 30
0.0
  9
$PUCSXDIR
 10
1.0
 20
0.0
 30
0.0
  9
$PUCSYDIR
 10
0.0
 20
1.0
 30
0.0
  9
$USERI1
 70
     0
  9
$USERI2
 70
     0
  9
$USERI3
 70
     0
  9
$USERI4
 70
     0
  9
$USERI5
 70
     0
  9
$USERR1
 40
0.0
  9
$USERR2
 40
0.0
  9
$USERR3
 40
0.0
  9
$USERR4
 40
0.0
  9
$USERR5
 40
0.0
  9
$WORLDVIEW
 70
     1
  9
$SHADEDGE
 70
     3
  9
$SHADEDIF
 70
    70
  9
$TILEMODE
 70
     1
  9
$MAXACTVP
 70
    64
  9
$PINSBASE
 10
0.0
 20
0.0
 30
0.0
  9
$PLIMCHECK
 70
     0
  9
$PEXTMIN
 10
1.000000000000000E+20
 20
1.000000000000000E+20
 30
1.000000000000000E+20
  9
$PEXTMAX
 10
-1.000000000000000E+20
 20
-1.000000000000000E+20
 30
-1.000000000000000E+20
  9
$PLIMMIN
 10
0.0
 20
0.0
  9
$PLIMMAX
 10
841.0
 20
594.0
  9
$UNITMODE
 70
     0
  9
$VISRETAIN
 70
     1
  9
$PLINEGEN
 70
     0
  9
$PSLTSCALE
 70
     0
  9
$TREEDEPTH
 70
  3020
  9
$PICKSTYLE
 70
     0
  9
$CMLSTYLE
  2
STANDARD
  9
$CMLJUST
 70
     0
  9
$CMLSCALE
 40
20.0
  9
$PROXYGRAPHICS
 70
     1
  9
$MEASUREMENT
 70
     1
  0
ENDSEC
  0
SECTION
  2
CLASSES
  0
CLASS
  1
ACDBDICTIONARYWDFLT
  2
AcDbDictionaryWithDefault
  3
AutoCAD 2000
 90
        0
280
     0
281
     0
  0
CLASS
  1
ACDBPLACEHOLDER
  2
AcDbPlaceHolder
  3
AutoCAD 2000
 90
        0
280
     0
281
     0
  0
CLASS
  1
LAYOUT
  2
AcDbLayout
  3
AutoCAD 2000
 90
        0
280
     0
281
     0
  0
CLASS
  1
AMGSETTINGSOBJ
  2
AmgSettingsObj
  3
"AcadM|Product Description: AutoCAD Mechanical 2000|Company: Autodesk"
 90
        0
280
     0
281
     0
  0
CLASS
  1
ACME_DOCUMENT
  2
AcMeDbDoc
  3
AcMeServices
 90
        0
280
     0
281
     0
  0
CLASS
  1
ACMESCOPE
  2
AcMeScope
  3
AcMeServices
 90
        0
280
     0
281
     0
  0
CLASS
  1
ACMECOMMANDHISTORY
  2
AcMeCommandHistory
  3
AcMeServices
 90
        0
280
     0
281
     0
  0
CLASS
  1
DICTIONARYVAR
  2
AcDbDictionaryVar
  3
AutoCAD 2000
 90
        0
280
     0
281
     0
  0
CLASS
  1
ACIMSYSVARMAN
  2
AcImSysVarManager
  3
AcMeServices
 90
        0
280
     0
281
     0
  0
CLASS
  1
ACIMREALSYSVAR
  2
AcImRealSysVar
  3
AcMeServices
 90
        0
280
     0
281
     0
  0
CLASS
  1
ACIMINTSYSVAR
  2
AcImIntSysVar
  3
AcMeServices
 90
        0
280
     0
281
     0
  0
CLASS
  1
ACMEDRAWINGMAN
  2
AcMeDrawingMan
  3
AcMeServices
 90
        0
280
     0
281
     0
  0
CLASS
  1
ACMEVIEW
  2
AcMeView
  3
AcMeServices
 90
        0
280
     0
281
     0
  0
CLASS
  1
ACDBENTITYCACHE
  2
AcMeEntityCache
  3
AcMeServices
 90
        0
280
     0
281
     0
  0
CLASS
  1
GSMANAGER
  2
AcMeGSManager
  3
AcMeServices
 90
        0
280
     0
281
     0
  0
CLASS
  1
AmdtInternalReactor
  2
AmdtInternalReactor
  3
AcMeServices
 90
        0
280
     0
281
     0
  0
CLASS
  1
ACMESTATEMGR
  2
AcMeStateMgr
  3
AcMeServices
 90
        0
280
     0
281
     0
  0
CLASS
  1
ACME_DATABASE
  2
AcMeDbDatabase
  3
AcMeServices
 90
        0
280
     0
281
     0
  0
CLASS
  1
ACRFINSADJUSTERMGR
  2
AcRfInsAdjusterMgr
  3
AcMeServices
 90
        0
280
     0
281
     0
  0
CLASS
  1
ACMDATADICTIONARY
  2
AcmDataDictionary
  3
"AcmSymBB|Product Description: AutoCAD Mechanical 2000|Company: Autodesk"
 90
        0
280
     0
281
     0
  0
CLASS
  1
ACMDATAENTRYBLOCK
  2
AcmDataEntryBlock
  3
"AcmSymBB|Product Description: AutoCAD Mechanical 2000|Company: Autodesk"
 90
        0
280
     0
281
     0
  0
CLASS
  1
AMGOBJPROPCFG
  2
AmgObjPropCfg
  3
"AmgLay|Product Description: AutoCAD Mechanical 2000|Company: Autodesk"
 90
        1
280
     0
281
     0
  0
CLASS
  1
ACAMGFILTERDAT
  2
AcAmgFilterDat
  3
"AcadM|Product Description: AutoCAD Mechanical 2000|Company: Autodesk"
 90
        0
280
     0
281
     0
  0
CLASS
  1
LAYER_INDEX
  2
AcDbLayerIndex
  3
AutoCAD 2000
 90
        0
280
     0
281
     0
  0
CLASS
  1
IDBUFFER
  2
AcDbIdBuffer
  3
AutoCAD 2000
 90
        0
280
     0
281
     0
  0
CLASS
  1
ACIMSTRSYSVAR
  2
AcImStrSysVar
  3
AcMeServices
 90
        0
280
     0
281
     0
  0
CLASS
  1
ACMSTANDARDJIS
  2
AcmStandardJIS
  3
"AcmSymBB|Product Description: AutoCAD Mechanical 2000|Company: Autodesk"
 90
        0
280
     0
281
     0
  0
CLASS
  1
ACMSURFSTANDARDJIS
  2
AcmSurfTextStdJIS
  3
"AcmSymBB|Product Description: AutoCAD Mechanical 2000|Company: Autodesk"
 90
        0
280
     0
281
     0
  0
CLASS
  1
ACMFCFSTANDARDJIS
  2
AcmFCFStdJIS
  3
"AcmSymBB|Product Description: AutoCAD Mechanical 2000|Company: Autodesk"
 90
        0
280
     0
281
     0
  0
CLASS
  1
ACMWELDSTANDARDJIS
  2
AcmWeldingStdJIS
  3
"AcmSymBB|Product Description: AutoCAD Mechanical 2000|Company: Autodesk"
 90
        0
280
     0
281
     0
  0
CLASS
  1
ACMIDSTANDARDJIS
  2
AcmIdStdJIS
  3
"AcmSymBB|Product Description: AutoCAD Mechanical 2000|Company: Autodesk"
 90
        0
280
     0
281
     0
  0
CLASS
  1
ACMDATUMSTANDARDJIS
  2
AcmDatumStdJIS
  3
"AcmSymBB|Product Description: AutoCAD Mechanical 2000|Company: Autodesk"
 90
        0
280
     0
281
     0
  0
CLASS
  1
ACMBOMSTANDARDJIS
  2
AcmBOMStdJIS
  3
"AcmSymBB|Product Description: AutoCAD Mechanical 2000|Company: Autodesk"
 90
        0
280
     0
281
     0
  0
CLASS
  1
ACMSTANDARDANSI
  2
AcmStandardANSI
  3
"AcmSymBB|Product Description: AutoCAD Mechanical 2000|Company: Autodesk"
 90
        0
280
     0
281
     0
  0
CLASS
  1
ACMSURFSTANDARDANSI
  2
AcmSurfTextStdANSI
  3
"AcmSymBB|Product Description: AutoCAD Mechanical 2000|Company: Autodesk"
 90
        0
280
     0
281
     0
  0
CLASS
  1
ACMFCFSTANDARDANSI
  2
AcmFCFStdANSI
  3
"AcmSymBB|Product Description: AutoCAD Mechanical 2000|Company: Autodesk"
 90
        0
280
     0
281
     0
  0
CLASS
  1
ACMWELDSTANDARDANSI
  2
AcmWeldingStdANSI
  3
"AcmSymBB|Product Description: AutoCAD Mechanical 2000|Company: Autodesk"
 90
        0
280
     0
281
     0
  0
CLASS
  1
ACMIDSTANDARDANSI
  2
AcmIdStdANSI
  3
"AcmSymBB|Product Description: AutoCAD Mechanical 2000|Company: Autodesk"
 90
        0
280
     0
281
     0
  0
CLASS
  1
ACMDATUMSTANDARDANSI
  2
AcmDatumStdANSI
  3
"AcmSymBB|Product Description: AutoCAD Mechanical 2000|Company: Autodesk"
 90
        0
280
     0
281
     0
  0
CLASS
  1
ACMBOMSTANDARDANSI
  2
AcmBOMStdANSI
  3
"AcmSymBB|Product Description: AutoCAD Mechanical 2000|Company: Autodesk"
 90
        0
280
     0
281
     0
  0
CLASS
  1
ACMSTANDARDBSI
  2
AcmStandardBSI
  3
"AcmSymBB|Product Description: AutoCAD Mechanical 2000|Company: Autodesk"
 90
        0
280
     0
281
     0
  0
CLASS
  1
ACMSURFSTANDARDBSI
  2
AcmSurfTextStdBSI
  3
"AcmSymBB|Product Description: AutoCAD Mechanical 2000|Company: Autodesk"
 90
        0
280
     0
281
     0
  0
CLASS
  1
ACMFCFSTANDARDBSI
  2
AcmFCFStdBSI
  3
"AcmSymBB|Product Description: AutoCAD Mechanical 2000|Company: Autodesk"
 90
        0
280
     0
281
     0
  0
CLASS
  1
ACMWELDSTANDARDBSI
  2
AcmWeldingStdBSI
  3
"AcmSymBB|Product Description: AutoCAD Mechanical 2000|Company: Autodesk"
 90
        0
280
     0
281
     0
  0
CLASS
  1
ACMIDSTANDARDBSI
  2
AcmIdStdBSI
  3
"AcmSymBB|Product Description: AutoCAD Mechanical 2000|Company: Autodesk"
 90
        0
280
     0
281
     0
  0
CLASS
  1
ACMDATUMSTANDARDBSI
  2
AcmDatumStdBSI
  3
"AcmSymBB|Product Description: AutoCAD Mechanical 2000|Company: Autodesk"
 90
        0
280
     0
281
     0
  0
CLASS
  1
ACMBOMSTANDARDBSI
  2
AcmBOMStdBSI
  3
"AcmSymBB|Product Description: AutoCAD Mechanical 2000|Company: Autodesk"
 90
        0
280
     0
281
     0
  0
CLASS
  1
LONG_TRANSACTION
  2
AcDbLongTransaction
  3
AutoCAD 2000
 90
        0
280
     0
281
     0
  0
CLASS
  1
LWPOLYLINE
  2
AcDbPolyline
  3
AutoCAD 2000
 90
        0
280
     0
281
     1
  0
CLASS
  1
HATCH
  2
AcDbHatch
  3
AutoCAD 2000
 90
        0
280
     0
281
     1
  0
CLASS
  1
XRECORD
  2
AcDbXrecord
  3
AutoCAD 2000
 90
        0
280
     0
281
     0
  0
ENDSEC
  0
SECTION
  2
TABLES
  0
TABLE
  2
VPORT
  5
8
330
0
100
AcDbSymbolTable
 70
     3
  0
VPORT
  5
1B24
330
8
100
AcDbSymbolTableRecord
100
AcDbViewportTableRecord
  2
*ACTIVE
 70
     0
 10
0.0
 20
0.0
 11
1.0
 21
1.0
 12
-33.42498957069017
 22
-11.80967939199411
 13
0.0
 23
0.0
 14
2.5
 24
2.5
 15
10.0
 25
10.0
 16
0.0
 26
0.0
 36
1.0
 17
0.0
 27
0.0
 37
0.0
 40
52.49276384081161
 41
1.56570841889117
 42
50.0
 43
0.0
 44
0.0
 50
0.0
 51
0.0
 71
     0
 72
   100
 73
     1
 74
     3
 75
     0
 76
     0
 77
     0
 78
     0
  0
ENDTAB
  0
TABLE
  2
LTYPE
  5
5
330
0
100
AcDbSymbolTable
 70
    10
  0
LTYPE
  5
14
330
5
100
AcDbSymbolTableRecord
100
AcDbLinetypeTableRecord
  2
BYBLOCK
 70
     0
  3

 72
    65
 73
     0
 40
0.0
  0
LTYPE
  5
15
330
5
100
AcDbSymbolTableRecord
100
AcDbLinetypeTableRecord
  2
BYLAYER
 70
     0
  3

 72
    65
 73
     0
 40
0.0
  0
LTYPE
  5
16
330
5
100
AcDbSymbolTableRecord
100
AcDbLinetypeTableRecord
  2
CONTINUOUS
 70
     0
  3
Solid line
 72
    65
 73
     0
 40
0.0
  0
LTYPE
  5
4B
330
5
100
AcDbSymbolTableRecord
100
AcDbLinetypeTableRecord
  2
AM_ISO02W050
 70
     0
  3
__ __ __ __ __ __ __ __ __ __ __ __ __ __ __
 72
    65
 73
     2
 40
7.5
 49
6.0
 74
     0
 49
-1.5
 74
     0
  0
LTYPE
  5
4C
330
5
100
AcDbSymbolTableRecord
100
AcDbLinetypeTableRecord
  2
AM_ISO08W050
 70
     0
  3
____ . ____ . ____ . ____ . ____ . ____ . ____
 72
    65
 73
     4
 40
18.0
 49
12.0
 74
     0
 49
-1.5
 74
     0
 49
3.0
 74
     0
 49
-1.5
 74
     0
  0
LTYPE
  5
4D
330
5
100
AcDbSymbolTableRecord
100
AcDbLinetypeTableRecord
  2
AM_ISO09W050
 70
     0
  3
_____ . . _____ . . _____ . . ____ .. ____
 72
    65
 73
     6
 40
22.5
 49
12.0
 74
     0
 49
-1.5
 74
     0
 49
3.0
 74
     0
 49
-1.5
 74
     0
 49
3.0
 74
     0
 49
-1.5
 74
     0
  0
LTYPE
  5
4E
330
5
100
AcDbSymbolTableRecord
100
AcDbLinetypeTableRecord
  2
AMCONSTR
 70
     0
  3
_______________________
 72
    65
 73
     2
 40
9999.0
 49
9999.0
 74
     0
 49
0.0
 74
     0
  0
LTYPE
  5
4F
330
5
100
AcDbSymbolTableRecord
100
AcDbLinetypeTableRecord
  2
AM_ISO02W050X2
 70
     0
  3
 _ _ _ _ _ _ _ _ _ _ _ _
 72
    65
 73
     2
 40
3.75
 49
3.0
 74
     0
 49
-0.75
 74
     0
  0
LTYPE
  5
50
330
5
100
AcDbSymbolTableRecord
100
AcDbLinetypeTableRecord
  2
AM_ISO08W050X2
 70
     0
  3
__ . __ . __ . __ . __ . __
 72
    65
 73
     4
 40
9.0
 49
6.0
 74
     0
 49
-0.75
 74
     0
 49
1.5
 74
     0
 49
-0.75
 74
     0
  0
LTYPE
  5
53
330
5
100
AcDbSymbolTableRecord
100
AcDbLinetypeTableRecord
  2
AMZIGZAG
 70
     0
  3
/\/-/\/-/\/-/\/-/\/-/\/
 72
    65
 73
     2
 40
11.00009999999999
 49
0.0001
 74
     4
 75
   135
340
52
 46
0.04
 50
0.0
 44
0.0
 45
0.0
 49
-11.0
 74
     0
  0
LTYPE
  5
166
330
5
100
AcDbSymbolTableRecord
100
AcDbLinetypeTableRecord
  2
ACJISTGL
 70
     0
  3
_ _ _ _ _
 72
    65
 73
     2
 40
3.0
 49
2.0
 74
     0
 49
-1.0
 74
     0
  0
LTYPE
  5
26A
330
5
100
AcDbSymbolTableRecord
100
AcDbLinetypeTableRecord
  2
ACJISTGB
 70
     0
  3
__ . . __ . .
 72
    65
 73
     6
 40
9.0
 49
4.0
 74
     0
 49
-1.0
 74
     0
 49
1.0
 74
     0
 49
-1.0
 74
     0
 49
1.0
 74
     0
 49
-1.0
 74
     0
  0
ENDTAB
  0
TABLE
  2
LAYER
  5
2
330
0
100
AcDbSymbolTable
 70
     7
  0
LAYER
  5
10
330
2
100
AcDbSymbolTableRecord
100
AcDbLayerTableRecord
  2
0
 70
     0
 62
     7
  6
CONTINUOUS
  0
LAYER
  5
3F9
330
2
100
AcDbSymbolTableRecord
100
AcDbLayerTableRecord
  2
AM_0
 70
     0
 62
     7
  6
CONTINUOUS
  0
LAYER
  5
BD4
330
2
100
AcDbSymbolTableRecord
100
AcDbLayerTableRecord
  2
AM_11
 70
     0
 62
     3
  6
AM_ISO09W050
  0
LAYER
  5
BD5
330
2
100
AcDbSymbolTableRecord
100
AcDbLayerTableRecord
  2
AM_7
 70
     0
 62
     4
  6
AM_ISO08W050
  0
LAYER
  5
BD6
330
2
100
AcDbSymbolTableRecord
100
AcDbLayerTableRecord
  2
AM_5
 70
     0
 62
     3
  6
CONTINUOUS
  0
LAYER
  5
BD7
330
2
100
AcDbSymbolTableRecord
100
AcDbLayerTableRecord
  2
DEFPOINTS
 70
     0
 62
     7
  6
CONTINUOUS
  0
LAYER
  5
E59
330
2
100
AcDbSymbolTableRecord
100
AcDbLayerTableRecord
  2
AM_6
 70
     0
 62
     2
  6
CONTINUOUS
  0
ENDTAB
  0
TABLE
  2
STYLE
  5
3
330
0
100
AcDbSymbolTable
 70
     5
  0
STYLE
  5
11
330
3
100
AcDbSymbolTableRecord
100
AcDbTextStyleTableRecord
  2
STANDARD
 70
     0
 40
0.0
 41
1.0
 50
0.0
 71
     0
 42
2.5
  3
simplex.shx
  4
EXTFONT.SHX
  0
STYLE
  5
52
330
3
100
AcDbSymbolTableRecord
100
AcDbTextStyleTableRecord
  2

 70
     1
 40
0.0
 41
1.0
 50
0.0
 71
     0
 42
2.5
  3
ltypeshp.shx
  4

  0
STYLE
  5
6B
330
3
100
AcDbSymbolTableRecord
100
AcDbTextStyleTableRecord
  2
ASAMI
 70
     0
 40
0.0
 41
1.0
 50
0.0
 71
     0
 42
2.5
  3
simplex.shx
  4
EXTFONT.SHX
  0
STYLE
  5
262
330
3
100
AcDbSymbolTableRecord
100
AcDbTextStyleTableRecord
  2
ACJISTS
 70
     0
 40
1.0
 41
1.0
 50
0.0
 71
     0
 42
2.5
  3
simplex.shx
  4
bigfont.shx
  0
STYLE
  5
269
330
3
100
AcDbSymbolTableRecord
100
AcDbTextStyleTableRecord
  2
ACJISGDT
 70
     0
 40
0.0
 41
1.0
 50
0.0
 71
     0
 42
2.5
  3
amgdtans.shx
  4

  0
ENDTAB
  0
TABLE
  2
VIEW
  5
6
330
0
100
AcDbSymbolTable
 70
     0
  0
ENDTAB
  0
TABLE
  2
UCS
  5
7
330
0
100
AcDbSymbolTable
 70
     0
  0
ENDTAB
  0
TABLE
  2
APPID
  5
9
330
0
100
AcDbSymbolTable
 70
    12
  0
APPID
  5
12
330
9
100
AcDbSymbolTableRecord
100
AcDbRegAppTableRecord
  2
ACAD
 70
     0
  0
APPID
  5
30
330
9
100
AcDbSymbolTableRecord
100
AcDbRegAppTableRecord
  2
MCAD_NO_VIS
 70
     0
  0
APPID
  5
31
330
9
100
AcDbSymbolTableRecord
100
AcDbRegAppTableRecord
  2
ACAD_TEMP_GRAPHIC
 70
     0
  0
APPID
  5
2C2
330
9
100
AcDbSymbolTableRecord
100
AcDbRegAppTableRecord
  2
GENIUS_GENDTOL_13
 70
     0
  0
APPID
  5
339
330
9
100
AcDbSymbolTableRecord
100
AcDbRegAppTableRecord
  2
GENIUS_GENODEF_13
 70
     0
  0
APPID
  5
33A
330
9
100
AcDbSymbolTableRecord
100
AcDbRegAppTableRecord
  2
GENIUS_GENOBJ-N-RSBK_13
 70
     0
  0
APPID
  5
33B
330
9
100
AcDbSymbolTableRecord
100
AcDbRegAppTableRecord
  2
GENIUS_GENOBJ-N-LIB_13
 70
     0
  0
APPID
  5
33C
330
9
100
AcDbSymbolTableRecord
100
AcDbRegAppTableRecord
  2
GENIUS_GENSCALE_13
 70
     0
  0
APPID
  5
378
330
9
100
AcDbSymbolTableRecord
100
AcDbRegAppTableRecord
  2
GENIUS_GENDIMSH_14
 70
     0
  0
APPID
  5
BD8
330
9
100
AcDbSymbolTableRecord
100
AcDbRegAppTableRecord
  2
GENIUS_GENOBJ-N-CEN_13
 70
     0
  0
APPID
  5
BD9
330
9
100
AcDbSymbolTableRecord
100
AcDbRegAppTableRecord
  2
GENIUS_GENFIL_13
 70
     0
  0
APPID
  5
BDA
330
9
100
AcDbSymbolTableRecord
100
AcDbRegAppTableRecord
  2
GENIUS_GENOBJ-N-CHA_13
 70
     0
  0
ENDTAB
  0
TABLE
  2
DIMSTYLE
  5
A
330
0
100
AcDbSymbolTable
 70
     8
  0
DIMSTYLE
105
58
102
{ACAD_REACTORS
330
13B0
330
13B3
330
145B
330
14F3
102
}
330
A
100
AcDbSymbolTableRecord
100
AcDbDimStyleTableRecord
  2
AM_JIS
 70
     0
  3

  4
"
  5
OPEN30
  6

  7

 40
0.5
 41
2.5
 42
1.0
 43
12.0
 44
1.0
 45
0.0
 46
0.0
 47
0.1
 48
0.1
140
3.2
141
0.0
142
0.0
143
0.0393701
144
1.0
145
0.0
146
0.71
147
1.5
 71
     0
 72
     0
 73
     0
 74
     0
 75
     0
 76
     0
 77
     3
 78
     8
170
     0
171
     2
172
     1
173
     0
174
     0
175
     0
176
   256
177
   256
178
     2
270
     2
271
     3
272
     3
273
     2
274
     2
340
6B
275
     0
280
     0
281
     0
282
     0
283
     0
284
     0
285
     0
286
     0
287
     3
288
     0
  0
DIMSTYLE
105
5F
330
A
100
AcDbSymbolTableRecord
100
AcDbDimStyleTableRecord
  2
AM_JIS$3
 70
     0
  3

  4
"
  5
OPEN30
  6

  7

 40
0.5
 41
2.5
 42
1.0
 43
10.0
 44
1.0
 45
0.0
 46
0.0
 47
0.1
 48
0.1
140
3.2
141
0.0
142
0.0
143
0.0393701
144
1.0
145
0.0
146
0.71
147
1.5
 71
     0
 72
     0
 73
     0
 74
     1
 75
     0
 76
     0
 77
     3
 78
     8
170
     0
171
     2
172
     0
173
     0
174
     0
175
     0
176
   256
177
   256
178
     2
270
     2
271
     2
272
     3
273
     2
274
     2
340
6B
275
     0
280
     0
281
     0
282
     0
283
     0
284
     0
285
     0
286
     0
287
     0
288
     1
  0
DIMSTYLE
105
60
330
A
100
AcDbSymbolTableRecord
100
AcDbDimStyleTableRecord
  2
AM_JIS$4
 70
     0
  3

  4
"
  5
OPEN30
  6

  7

 40
0.5
 41
2.5
 42
1.0
 43
10.0
 44
1.0
 45
0.0
 46
0.0
 47
0.1
 48
0.1
140
3.2
141
0.0
142
0.0
143
0.0393701
144
1.0
145
0.0
146
0.71
147
1.5
 71
     0
 72
     0
 73
     0
 74
     1
 75
     0
 76
     0
 77
     3
 78
     8
170
     0
171
     2
172
     0
173
     0
174
     0
175
     0
176
   256
177
   256
178
     2
270
     2
271
     2
272
     3
273
     2
274
     2
340
6B
275
     0
280
     0
281
     0
282
     0
283
     0
284
     0
285
     0
286
     0
287
     0
288
     1
  0
DIMSTYLE
105
61
330
A
100
AcDbSymbolTableRecord
100
AcDbDimStyleTableRecord
  2
AM_JIS$6
 70
     0
  3

  4
"
  5
OPEN30
  6

  7

 40
0.5
 41
2.5
 42
1.0
 43
10.0
 44
1.0
 45
0.0
 46
0.0
 47
0.1
 48
0.1
140
3.2
141
0.0
142
0.0
143
0.0393701
144
1.0
145
0.0
146
0.71
147
1.5
 71
     0
 72
     0
 73
     0
 74
     0
 75
     0
 76
     0
 77
     0
 78
     8
170
     0
171
     2
172
     1
173
     0
174
     0
175
     0
176
   256
177
   256
178
     2
270
     2
271
     2
272
     2
273
     2
274
     2
340
6B
275
     0
280
     0
281
     0
282
     0
283
     0
284
     0
285
     0
286
     0
287
     3
288
     0
  0
DIMSTYLE
105
62
330
A
100
AcDbSymbolTableRecord
100
AcDbDimStyleTableRecord
  2
AM_JIS$7
 70
     0
  3

  4
"
  5
OPEN30
  6

  7

 40
0.5
 41
2.5
 42
1.0
 43
10.0
 44
1.0
 45
0.0
 46
0.0
 47
0.1
 48
0.1
140
3.2
141
0.0
142
0.0
143
0.0393701
144
1.0
145
0.0
146
0.71
147
1.5
 71
     0
 72
     0
 73
     0
 74
     0
 75
     0
 76
     0
 77
     3
 78
     8
170
     0
171
     2
172
     1
173
     0
174
     0
175
     0
176
   256
177
   256
178
     2
270
     2
271
     2
272
     3
273
     2
274
     2
340
6B
275
     0
280
     0
281
     0
282
     0
283
     0
284
     0
285
     0
286
     0
287
     3
288
     0
  0
DIMSTYLE
105
63
330
A
100
AcDbSymbolTableRecord
100
AcDbDimStyleTableRecord
  2
AM_JIS$SF
 70
     0
  3

  4
"
  5
OPEN30
  6

  7

 40
0.5
 41
2.5
 42
1.0
 43
10.0
 44
1.0
 45
0.0
 46
0.0
 47
0.1
 48
0.1
140
3.2
141
0.0
142
0.0
143
0.0393701
144
1.0
145
0.0
146
0.71
147
1.5
 71
     0
 72
     0
 73
     0
 74
     0
 75
     1
 76
     1
 77
     3
 78
     8
170
     0
171
     2
172
     1
173
     0
174
     0
175
     0
176
   256
177
   256
178
     2
270
     2
271
     2
272
     2
273
     2
274
     2
340
6B
275
     0
280
     0
281
     0
282
     0
283
     0
284
     0
285
     0
286
     0
287
     3
288
     0
  0
DIMSTYLE
105
68
330
A
100
AcDbSymbolTableRecord
100
AcDbDimStyleTableRecord
  2
AM_JIS$SH
 70
     0
  3

  4
"
  5

  6
GENAXEH
  7
OPEN30
 40
0.5
 41
2.5
 42
1.0
 43
10.0
 44
1.0
 45
0.0
 46
0.0
 47
0.1
 48
0.1
140
3.2
141
0.0
142
0.0
143
0.0393701
144
2.0
145
0.0
146
0.71
147
1.5
 71
     0
 72
     0
 73
     0
 74
     0
 75
     1
 76
     1
 77
     3
 78
     8
170
     0
171
     2
172
     1
173
     1
174
     0
175
     0
176
   256
177
   256
178
     2
270
     2
271
     2
272
     2
273
     2
274
     2
340
6B
275
     0
280
     0
281
     0
282
     0
283
     0
284
     0
285
     0
286
     0
287
     3
288
     0
  0
DIMSTYLE
105
B34
330
A
100
AcDbSymbolTableRecord
100
AcDbDimStyleTableRecord
  2
AM_JIS$2
 70
     0
  3

  4
"
  5
OPEN30
  6

  7

 40
0.5
 41
2.5
 42
1.0
 43
12.0
 44
1.0
 45
0.0
 46
0.0
 47
0.1
 48
0.1
140
3.2
141
0.0
142
0.0
143
0.0393701
144
1.0
145
0.0
146
0.71
147
1.5
 71
     0
 72
     0
 73
     0
 74
     0
 75
     0
 76
     0
 77
     3
 78
     8
170
     0
171
     2
172
     1
173
     0
174
     0
175
     0
176
   256
177
   256
178
     2
270
     2
271
     3
272
     3
273
     2
274
     2
340
6B
275
     0
280
     0
281
     0
282
     0
283
     0
284
     0
285
     0
286
     0
287
     3
288
     0
  0
ENDTAB
  0
TABLE
  2
BLOCK_RECORD
  5
1
330
0
100
AcDbSymbolTable
 70
     9
  0
BLOCK_RECORD
  5
1F
102
{ACAD_XDICTIONARY
360
74
102
}
330
1
100
AcDbSymbolTableRecord
100
AcDbBlockTableRecord
  2
*MODEL_SPACE
  0
BLOCK_RECORD
  5
101
102
{ACAD_XDICTIONARY
360
1B4D
102
}
330
1
100
AcDbSymbolTableRecord
100
AcDbBlockTableRecord
  2
*PAPER_SPACE
  0
BLOCK_RECORD
  5
59
330
1
100
AcDbSymbolTableRecord
100
AcDbBlockTableRecord
  2
_OPEN30
  0
BLOCK_RECORD
  5
64
330
1
100
AcDbSymbolTableRecord
100
AcDbBlockTableRecord
  2
GENAXEH
  0
BLOCK_RECORD
  5
13B4
330
1
100
AcDbSymbolTableRecord
100
AcDbBlockTableRecord
  2
*D5
  0
BLOCK_RECORD
  5
13C0
330
1
100
AcDbSymbolTableRecord
100
AcDbBlockTableRecord
  2
*D6
  0
BLOCK_RECORD
  5
145C
330
1
100
AcDbSymbolTableRecord
100
AcDbBlockTableRecord
  2
*D7
  0
BLOCK_RECORD
  5
14F4
330
1
100
AcDbSymbolTableRecord
100
AcDbBlockTableRecord
  2
*D8
  0
ENDTAB
  0
ENDSEC
  0
SECTION
  2
BLOCKS
  0
BLOCK
  5
20
330
1F
100
AcDbEntity
  8
0
100
AcDbBlockBegin
  2
*MODEL_SPACE
 70
     0
 10
0.0
 20
0.0
 30
0.0
  3
*MODEL_SPACE
  1

  0
ENDBLK
  5
21
330
1F
100
AcDbEntity
  8
0
100
AcDbBlockEnd
  0
BLOCK
  5
103
330
101
100
AcDbEntity
 67
     1
  8
0
100
AcDbBlockBegin
  2
*PAPER_SPACE
 70
     0
 10
0.0
 20
0.0
 30
0.0
  3
*PAPER_SPACE
  1

  0
ENDBLK
  5
104
330
101
100
AcDbEntity
 67
     1
  8
0
100
AcDbBlockEnd
  0
BLOCK
  5
5D
330
59
100
AcDbEntity
  8
0
100
AcDbBlockBegin
  2
_OPEN30
 70
     0
 10
0.0
 20
0.0
 30
0.0
  3
_OPEN30
  1

  0
LINE
  5
5A
330
59
100
AcDbEntity
  8
0
 62
     0
100
AcDbLine
 10
-1.0
 20
0.26794919
 30
0.0
 11
0.0
 21
0.0
 31
0.0
  0
LINE
  5
5B
330
59
100
AcDbEntity
  8
0
 62
     0
100
AcDbLine
 10
0.0
 20
0.0
 30
0.0
 11
-1.0
 21
-0.26794919
 31
0.0
  0
LINE
  5
5C
330
59
100
AcDbEntity
  8
0
 62
     0
100
AcDbLine
 10
0.0
 20
0.0
 30
0.0
 11
-1.0
 21
0.0
 31
0.0
  0
ENDBLK
  5
5E
330
59
100
AcDbEntity
  8
0
100
AcDbBlockEnd
  0
BLOCK
  5
66
330
64
100
AcDbEntity
  8
0
100
AcDbBlockBegin
  2
GENAXEH
 70
     0
 10
0.0
 20
0.0
 30
0.0
  3
GENAXEH
  1

  0
LINE
  5
65
330
64
100
AcDbEntity
  8
0
100
AcDbLine
 10
-1.0
 20
0.0
 30
0.0
 11
1.0
 21
0.0
 31
0.0
  0
ENDBLK
  5
67
330
64
100
AcDbEntity
  8
0
100
AcDbBlockEnd
  0
BLOCK
  5
13BE
330
13B4
100
AcDbEntity
  8
0
100
AcDbBlockBegin
  2
*D5
 70
     1
 10
0.0
 20
0.0
 30
0.0
  3
*D5
  1

  0
LINE
  5
1A74
330
13B4
100
AcDbEntity
  8
AM_5
100
AcDbLine
 10
-64.74999999999977
 20
4.999999999999818
 30
0.0
 11
-72.49999999999978
 21
4.999999999999821
 31
0.0
  0
LINE
  5
1A75
330
13B4
100
AcDbEntity
  8
AM_5
100
AcDbLine
 10
-64.74999999999977
 20
-4.999999999998916
 30
0.0
 11
-72.49999999999978
 21
-4.999999999998913
 31
0.0
  0
LINE
  5
1A76
330
13B4
100
AcDbEntity
  8
AM_5
100
AcDbLine
 10
-71.99999999999978
 20
3.749999999999821
 30
0.0
 11
-71.99999999999978
 21
-3.749999999998913
 31
0.0
  0
INSERT
  5
1A77
330
13B4
100
AcDbEntity
  8
AM_5
100
AcDbBlockReference
  2
_OPEN30
 10
-71.99999999999978
 20
4.999999999999821
 30
0.0
 41
1.25
 42
1.25
 43
1.25
 50
90.0
  0
INSERT
  5
1A78
330
13B4
100
AcDbEntity
  8
AM_5
100
AcDbBlockReference
  2
_OPEN30
 10
-71.99999999999978
 20
-4.999999999998913
 30
0.0
 41
1.25
 42
1.25
 43
1.25
 50
270.0
  0
MTEXT
  5
1A79
330
13B4
100
AcDbEntity
  8
AM_5
 62
     2
100
AcDbMText
 10
-73.54999999999979
 20
0.0000000000004425
 30
0.0
 40
1.6
 41
0.0
 71
     5
 72
     1
  1
%%c10
  7
ASAMI
 11
0.0000000000000001
 21
1.0
 31
0.0
1001
ACAD
1000
MTEXTBEGIN
1070
    73
1070
     1
1070
    44
1040
1.0
1070
    74
1070
     0
1000
MTEXTEND
  0
POINT
  5
1A7A
330
13B4
100
AcDbEntity
  8
DEFPOINTS
 62
     0
100
AcDbPoint
 10
-64.24999999999977
 20
4.999999999999818
 30
0.0
  0
POINT
  5
1A7B
330
13B4
100
AcDbEntity
  8
DEFPOINTS
 62
     0
100
AcDbPoint
 10
-64.24999999999977
 20
-4.999999999998916
 30
0.0
  0
POINT
  5
1A7C
330
13B4
100
AcDbEntity
  8
DEFPOINTS
 62
     0
100
AcDbPoint
 10
-71.99999999999978
 20
-4.999999999998913
 30
0.0
  0
ENDBLK
  5
13BF
330
13B4
100
AcDbEntity
  8
0
100
AcDbBlockEnd
  0
BLOCK
  5
13CA
330
13C0
100
AcDbEntity
  8
0
100
AcDbBlockBegin
  2
*D6
 70
     1
 10
0.0
 20
0.0
 30
0.0
  3
*D6
  1

  0
LINE
  5
1880
330
13C0
100
AcDbEntity
  8
AM_5
100
AcDbLine
 10
-64.99999999999978
 20
-4.749999999998916
 30
0.0
 11
-64.99999999999978
 21
-18.50000099999659
 31
0.0
  0
LINE
  5
1881
330
13C0
100
AcDbEntity
  8
AM_5
100
AcDbLine
 10
0.0000000000002236
 20
-5.000000000000503
 30
0.0
 11
0.0000000000002228
 21
-18.50000099999659
 31
0.0
  0
LINE
  5
1882
330
13C0
100
AcDbEntity
  8
AM_5
100
AcDbLine
 10
-63.74999999999978
 20
-18.00000099999659
 30
0.0
 11
-1.249999999999777
 21
-18.00000099999659
 31
0.0
  0
INSERT
  5
1883
330
13C0
100
AcDbEntity
  8
AM_5
100
AcDbBlockReference
  2
_OPEN30
 10
-64.99999999999978
 20
-18.00000099999659
 30
0.0
 41
1.25
 42
1.25
 43
1.25
 50
180.0
  0
INSERT
  5
1884
330
13C0
100
AcDbEntity
  8
AM_5
100
AcDbBlockReference
  2
_OPEN30
 10
0.0000000000002228
 20
-18.00000099999659
 30
0.0
 41
1.25
 42
1.25
 43
1.25
  0
MTEXT
  5
1885
330
13C0
100
AcDbEntity
  8
AM_5
 62
     2
100
AcDbMText
 10
-32.49999999999978
 20
-16.45000099999659
 30
0.0
 40
1.6
 41
0.0
 71
     5
 72
     1
  1
65
  7
ASAMI
1001
ACAD
1000
MTEXTBEGIN
1070
    73
1070
     1
1070
    44
1040
1.0
1070
    74
1070
     0
1000
MTEXTEND
  0
POINT
  5
1886
330
13C0
100
AcDbEntity
  8
DEFPOINTS
 62
     0
100
AcDbPoint
 10
-64.99999999999978
 20
-4.249999999998916
 30
0.0
  0
POINT
  5
1887
330
13C0
100
AcDbEntity
  8
DEFPOINTS
 62
     0
100
AcDbPoint
 10
0.0000000000002236
 20
-4.500000000000503
 30
0.0
  0
POINT
  5
1888
330
13C0
100
AcDbEntity
  8
DEFPOINTS
 62
     0
100
AcDbPoint
 10
0.0000000000002228
 20
-18.00000099999659
 30
0.0
  0
ENDBLK
  5
13CB
330
13C0
100
AcDbEntity
  8
0
100
AcDbBlockEnd
  0
BLOCK
  5
1466
330
145C
100
AcDbEntity
  8
0
100
AcDbBlockBegin
  2
*D7
 70
     1
 10
0.0
 20
0.0
 30
0.0
  3
*D7
  1

  0
LINE
  5
1A86
330
145C
100
AcDbEntity
  8
AM_5
100
AcDbLine
 10
-25.00000000000023
 20
-5.000000000000031
 30
0.0
 11
-25.00000000000023
 21
-12.50000000000035
 31
0.0
  0
LINE
  5
1A87
330
145C
100
AcDbEntity
  8
AM_5
100
AcDbLine
 10
0.0000000000000246
 20
-5.000000000000503
 30
0.0
 11
0.0000000000000242
 21
-12.50000000000035
 31
0.0
  0
LINE
  5
1A88
330
145C
100
AcDbEntity
  8
AM_5
100
AcDbLine
 10
-23.75000000000023
 20
-12.00000000000035
 30
0.0
 11
-1.249999999999975
 21
-12.00000000000035
 31
0.0
  0
INSERT
  5
1A89
330
145C
100
AcDbEntity
  8
AM_5
100
AcDbBlockReference
  2
_OPEN30
 10
-25.00000000000023
 20
-12.00000000000035
 30
0.0
 41
1.25
 42
1.25
 43
1.25
 50
180.0
  0
INSERT
  5
1A8A
330
145C
100
AcDbEntity
  8
AM_5
100
AcDbBlockReference
  2
_OPEN30
 10
0.0000000000000242
 20
-12.00000000000035
 30
0.0
 41
1.25
 42
1.25
 43
1.25
  0
MTEXT
  5
1A8B
330
145C
100
AcDbEntity
  8
AM_5
 62
     2
100
AcDbMText
 10
-12.5000000000001
 20
-10.45000000000035
 30
0.0
 40
1.6
 41
0.0
 71
     5
 72
     1
  1
25
  7
ASAMI
1001
ACAD
1000
MTEXTBEGIN
1070
    73
1070
     1
1070
    44
1040
1.0
1070
    74
1070
     0
1000
MTEXTEND
  0
POINT
  5
1A8C
330
145C
100
AcDbEntity
  8
DEFPOINTS
 62
     0
100
AcDbPoint
 10
-25.00000000000023
 20
-4.500000000000031
 30
0.0
  0
POINT
  5
1A8D
330
145C
100
AcDbEntity
  8
DEFPOINTS
 62
     0
100
AcDbPoint
 10
0.0000000000000247
 20
-4.500000000000503
 30
0.0
  0
POINT
  5
1A8E
330
145C
100
AcDbEntity
  8
DEFPOINTS
 62
     0
100
AcDbPoint
 10
0.0000000000000242
 20
-12.00000000000035
 30
0.0
  0
ENDBLK
  5
1467
330
145C
100
AcDbEntity
  8
0
100
AcDbBlockEnd
  0
BLOCK
  5
14FE
330
14F4
100
AcDbEntity
  8
0
100
AcDbBlockBegin
  2
*D8
 70
     1
 10
0.0
 20
0.0
 30
0.0
  3
*D8
  1

  0
LINE
  5
1A7D
330
14F4
100
AcDbEntity
  8
AM_5
100
AcDbLine
 10
0.5000000000000096
 20
4.499999999999891
 30
0.0
 11
7.500000000000227
 21
4.499999999999888
 31
0.0
  0
LINE
  5
1A7E
330
14F4
100
AcDbEntity
  8
AM_5
100
AcDbLine
 10
0.500000000000016
 20
-4.500000000000109
 30
0.0
 11
7.500000000000225
 21
-4.500000000000111
 31
0.0
  0
LINE
  5
1A7F
330
14F4
100
AcDbEntity
  8
AM_5
100
AcDbLine
 10
7.000000000000227
 20
3.249999999999889
 30
0.0
 11
7.000000000000225
 21
-3.250000000000111
 31
0.0
  0
INSERT
  5
1A80
330
14F4
100
AcDbEntity
  8
AM_5
100
AcDbBlockReference
  2
_OPEN30
 10
7.000000000000227
 20
4.499999999999889
 30
0.0
 41
1.25
 42
1.25
 43
1.25
 50
90.0
  0
INSERT
  5
1A81
330
14F4
100
AcDbEntity
  8
AM_5
100
AcDbBlockReference
  2
_OPEN30
 10
7.000000000000225
 20
-4.500000000000111
 30
0.0
 41
1.25
 42
1.25
 43
1.25
 50
270.0
  0
MTEXT
  5
1A82
330
14F4
100
AcDbEntity
  8
AM_5
 62
     2
100
AcDbMText
 10
5.450000000000226
 20
-0.000000000000109
 30
0.0
 40
1.6
 41
0.0
 71
     5
 72
     1
  1
%%c9
  7
ASAMI
 11
0.0000000000000001
 21
1.0
 31
0.0
1001
ACAD
1000
MTEXTBEGIN
1070
    73
1070
     1
1070
    44
1040
1.0
1070
    74
1070
     0
1000
MTEXTEND
  0
POINT
  5
1A83
330
14F4
100
AcDbEntity
  8
DEFPOINTS
 62
     0
100
AcDbPoint
 10
0.0000000000000096
 20
4.499999999999891
 30
0.0
  0
POINT
  5
1A84
330
14F4
100
AcDbEntity
  8
DEFPOINTS
 62
     0
100
AcDbPoint
 10
0.000000000000016
 20
-4.500000000000109
 30
0.0
  0
POINT
  5
1A85
330
14F4
100
AcDbEntity
  8
DEFPOINTS
 62
     0
100
AcDbPoint
 10
7.000000000000225
 20
-4.500000000000111
 30
0.0
  0
ENDBLK
  5
14FF
330
14F4
100
AcDbEntity
  8
0
100
AcDbBlockEnd
  0
ENDSEC
  0
SECTION
  2
ENTITIES
  0
TEXT
  5
E5A
330
1F
100
AcDbEntity
  8
AM_6
100
AcDbText
 10
-42.91666666666642
 20
-29.25000099999659
 30
0.0
 40
2.5
  1
LSM4090ZX
 72
     4
 11
-32.49999999999976
 21
-28.00000099999659
 31
0.0
100
AcDbText
  0
LINE
  5
132A
330
1F
100
AcDbEntity
  8
AM_0
100
AcDbLine
 10
-24.99999999999607
 20
4.499999999999974
 30
0.0
 11
-32.12626129027229
 21
4.499999999999893
 31
0.0
  0
LINE
  5
132B
330
1F
100
AcDbEntity
  8
AM_7
  6
AM_ISO08W050X2
100
AcDbLine
 10
4.557768030854969
 20
-0.0000000000001137
 30
0.0
 11
-67.73320485933165
 21
-0.0000000000001457
 31
0.0
1001
GENIUS_GENODEF_13
1002
{
1000
HIER
1070
     0
1002
}
1002
{
1000
MANEDIT
1070
     0
1002
}
1002
{
1000
NOSEL
1070
     0
1002
}
1002
{
1000
BEHIND
1070
     0
1002
}
1002
{
1000
REACTOR
1002
}
1001
GENIUS_GENOBJ-N-CEN_13
1002
{
1000
OWNER
1000
GEN
1002
}
  0
LINE
  5
138D
330
1F
100
AcDbEntity
  8
AM_0
100
AcDbLine
 10
-26.4680108722991
 20
-4.500000000000026
 30
0.0
 11
-32.12626129027229
 21
-4.500000000000107
 31
0.0
  0
LINE
  5
13AC
330
1F
100
AcDbEntity
  8
AM_0
100
AcDbLine
 10
-64.24999999999977
 20
4.999999999999818
 30
0.0
 11
-64.24999999999979
 21
-4.999999999998916
 31
0.0
  0
LINE
  5
13AD
330
1F
100
AcDbEntity
  8
AM_0
100
AcDbLine
 10
-64.99999999999977
 20
4.249999999999818
 30
0.0
 11
-64.99999999999978
 21
-4.249999999998916
 31
0.0
  0
LINE
  5
13AE
330
1F
100
AcDbEntity
  8
AM_0
100
AcDbLine
 10
-64.99999999999978
 20
-4.249999999998916
 30
0.0
 11
-64.24999999999979
 21
-4.999999999998916
 31
0.0
1001
GENIUS_GENFIL_13
1070
     0
1040
0.75
1040
0.75
1040
20.0
1040
0.0
1002
{
1002
}
1001
GENIUS_GENODEF_13
1002
{
1000
HIER
1070
     0
1002
}
1002
{
1000
MANEDIT
1070
     0
1002
}
1002
{
1000
NOSEL
1070
     0
1002
}
1002
{
1000
BEHIND
1070
     0
1002
}
1002
{
1000
REACTOR
1002
}
1001
GENIUS_GENOBJ-N-CHA_13
1002
{
1000
OWNER
1000
GEN
1002
}
  0
LINE
  5
13AF
330
1F
100
AcDbEntity
  8
AM_0
100
AcDbLine
 10
-64.24999999999977
 20
4.999999999999818
 30
0.0
 11
-64.99999999999977
 21
4.249999999999818
 31
0.0
1001
GENIUS_GENFIL_13
1070
     0
1040
0.75
1040
0.75
1040
20.0
1040
0.0
1002
{
1002
}
1001
GENIUS_GENODEF_13
1002
{
1000
HIER
1070
     0
1002
}
1002
{
1000
MANEDIT
1070
     0
1002
}
1002
{
1000
NOSEL
1070
     0
1002
}
1002
{
1000
BEHIND
1070
     0
1002
}
1002
{
1000
REACTOR
1002
}
1001
GENIUS_GENOBJ-N-CHA_13
1002
{
1000
OWNER
1000
GEN
1002
}
  0
DIMENSION
  5
13B0
330
1F
100
AcDbEntity
  8
AM_5
100
AcDbDimension
  2
*D5
 10
-71.99999999999978
 20
-4.999999999998913
 30
0.0
 11
-73.54999999999979
 21
0.0000000000004425
 31
0.0
 70
    32
  1
%%c<>
  3
AM_JIS
100
AcDbAlignedDimension
 13
-64.24999999999977
 23
4.999999999999818
 33
0.0
 14
-64.24999999999977
 24
-4.999999999998916
 34
0.0
 50
270.0
100
AcDbRotatedDimension
1001
GENIUS_GENDTOL_13
1000

1000
h7
1000

1040
0.0
  0
LINE
  5
13B1
330
1F
100
AcDbEntity
  8
AM_0
100
AcDbLine
 10
-33.49999999999979
 20
-4.999999999999948
 30
0.0
 11
-64.24999999999979
 21
-4.999999999998916
 31
0.0
  0
LINE
  5
13B2
330
1F
100
AcDbEntity
  8
AM_0
100
AcDbLine
 10
-33.49999999999977
 20
4.999999999999956
 30
0.0
 11
-64.24999999999977
 21
4.999999999999818
 31
0.0
  0
DIMENSION
  5
13B3
330
1F
100
AcDbEntity
  8
AM_5
100
AcDbDimension
  2
*D6
 10
0.0000000000002228
 20
-18.00000099999659
 30
0.0
 11
-32.49999999999978
 21
-16.45000099999659
 31
0.0
 70
    32
  1
<>
  3
AM_JIS
100
AcDbAlignedDimension
 13
-64.99999999999978
 23
-4.249999999998916
 33
0.0
 14
0.0000000000002236
 24
-4.500000000000503
 34
0.0
100
AcDbRotatedDimension
1001
GENIUS_GENDTOL_13
1000

1000
h7
1000

1040
0.0
  0
DIMENSION
  5
145B
330
1F
100
AcDbEntity
  8
AM_5
100
AcDbDimension
  2
*D7
 10
0.0000000000000242
 20
-12.00000000000035
 30
0.0
 11
-12.5000000000001
 21
-10.45000000000035
 31
0.0
 70
    32
  1
<>
  3
AM_JIS
100
AcDbAlignedDimension
 13
-25.00000000000023
 23
-4.500000000000031
 33
0.0
 14
0.0000000000000247
 24
-4.500000000000503
 34
0.0
 50
359.9999999999967
100
AcDbRotatedDimension
1001
GENIUS_GENDTOL_13
1000

1000
h7
1000

1040
0.0
  0
DIMENSION
  5
14F3
330
1F
100
AcDbEntity
  8
AM_5
100
AcDbDimension
  2
*D8
 10
7.000000000000225
 20
-4.500000000000111
 30
0.0
 11
5.450000000000226
 21
-0.000000000000109
 31
0.0
 70
    32
  1
%%c<>
  3
AM_JIS
100
AcDbAlignedDimension
 13
0.0000000000000096
 23
4.499999999999891
 33
0.0
 14
0.000000000000016
 24
-4.500000000000109
 34
0.0
 50
90.0
100
AcDbRotatedDimension
1001
GENIUS_GENDTOL_13
1000

1000
h7
1000

1040
0.0
  0
LINE
  5
181F
330
1F
100
AcDbEntity
  8
AM_0
100
AcDbLine
 10
-0.0000000000001724
 20
0.0
 30
0.0
 11
-0.0769969279249438
 21
-0.761508078377176
 31
0.0
  0
LINE
  5
1820
330
1F
100
AcDbEntity
  8
AM_0
100
AcDbLine
 10
-0.0000000000001724
 20
0.0
 30
0.0
 11
-0.0910000000001697
 21
0.9000000000001023
 31
0.0
  0
LINE
  5
1821
330
1F
100
AcDbEntity
  8
AM_0
100
AcDbLine
 10
-0.9251876380465853
 20
2.400426732609355
 30
0.0
 11
-2.042362600219146
 21
2.70760808027527
 31
0.0
  0
LINE
  5
1822
330
1F
100
AcDbEntity
  8
AM_0
100
AcDbLine
 10
-2.042362600219139
 20
0.0
 30
0.0
 11
-2.042362600219139
 21
-0.7200000000000104
 31
0.0
  0
LINE
  5
1823
330
1F
100
AcDbEntity
  8
AM_0
100
AcDbLine
 10
-0.0910000000001697
 20
0.9000000000001023
 30
0.0
 11
-0.9251876380465853
 21
2.400426732609355
 31
0.0
  0
LINE
  5
1824
330
1F
100
AcDbEntity
  8
AM_0
100
AcDbLine
 10
-2.042362600219139
 20
-0.7200000000000104
 30
0.0
 11
-0.100074046659707
 21
-0.7200000000000104
 31
0.0
  0
LINE
  5
1825
330
1F
100
AcDbEntity
  8
AM_0
100
AcDbLine
 10
-0.0000000000001724
 20
0.0
 30
0.0
 11
-2.042362600219139
 21
0.0
 31
0.0
  0
LINE
  5
1826
330
1F
100
AcDbEntity
  8
AM_0
100
AcDbLine
 10
-0.0910000000001636
 20
-1.194208069106866
 30
0.0
 11
-0.0000000000001724
 21
-0.9
 31
0.0
  0
LINE
  5
1827
330
1F
100
AcDbEntity
  8
AM_0
100
AcDbLine
 10
-0.0000000000001663
 20
-4.5
 30
0.0
 11
-0.0910000000001574
 21
-4.260097041859643
 31
0.0
  0
LINE
  5
1828
330
1F
100
AcDbEntity
  8
AM_0
100
AcDbLine
 10
-0.0000000000001663
 20
-4.5
 30
0.0
 11
-0.0000000000001724
 21
-0.9
 31
0.0
  0
LINE
  5
1829
330
1F
100
AcDbEntity
  8
AM_0
100
AcDbLine
 10
-0.0910000000001574
 20
-4.260097041859643
 30
0.0
 11
-0.0910000000001636
 21
-1.194208069106866
 31
0.0
  0
ELLIPSE
  5
182A
330
1F
100
AcDbEntity
  8
AM_0
100
AcDbEllipse
 10
1.720916757756733
 20
-2.289492148246114
 30
0.0
 11
-0.0000000000000046
 21
2.736628303964443
 31
0.0
210
0.0
220
0.0
230
1.0
 40
0.9629629629629635
 41
1.211124581303823
 42
2.069278538290319
  0
LINE
  5
182B
330
1F
100
AcDbEntity
  8
AM_0
100
AcDbLine
 10
-0.0910000000001574
 20
-4.260097041859592
 30
0.0
 11
-0.5936666666668349
 21
-3.59785498991572
 31
0.0
  0
LINE
  5
182C
330
1F
100
AcDbEntity
  8
AM_0
100
AcDbLine
 10
-0.7457302542658529
 20
-1.326289288649888
 30
0.0
 11
-0.0910000000001636
 21
-1.194208069106866
 31
0.0
  0
LINE
  5
182D
330
1F
100
AcDbEntity
  8
AM_0
100
AcDbLine
 10
-2.042362600219139
 20
-0.7200000000000104
 30
0.0
 11
-0.7457302542658529
 21
-1.326289288649888
 31
0.0
  0
LINE
  5
182E
330
1F
100
AcDbEntity
  8
AM_0
100
AcDbLine
 10
-0.0000000000001724
 20
-0.9
 30
0.0
 11
-0.50037023329787
 21
0.0000000000000512
 31
0.0
  0
LINE
  5
182F
330
1F
100
AcDbEntity
  8
AM_0
100
AcDbLine
 10
-0.0000000000001724
 20
0.0
 30
0.0
 11
-0.0000000000001786
 21
4.5
 31
0.0
  0
POLYLINE
  5
1830
330
1F
100
AcDbEntity
  8
AM_0
100
AcDb2dPolyline
 66
     1
 10
0.0
 20
0.0
 30
0.0
 70
     2
  0
VERTEX
  5
1831
330
1830
100
AcDbEntity
  8
AM_0
100
AcDbVertex
100
AcDb2dVertex
 10
-26.95445992846782
 20
3.314247766358114
 30
0.0
 42
-0.0088918234710555
  0
VERTEX
  5
1832
330
1830
100
AcDbEntity
  8
AM_0
100
AcDbVertex
100
AcDb2dVertex
 10
-27.40264397829032
 20
3.479247910063694
 30
0.0
 42
-0.0053663032246141
 70
     1
  0
VERTEX
  5
1833
330
1830
100
AcDbEntity
  8
AM_0
100
AcDbVertex
100
AcDb2dVertex
 10
-28.04954343177126
 20
3.746523214114998
 30
0.0
 42
-0.0079051702173673
  0
VERTEX
  5
1834
330
1830
100
AcDbEntity
  8
AM_0
100
AcDbVertex
100
AcDb2dVertex
 10
-29.03624749980976
 20
4.278745283110061
 30
0.0
 42
-0.2726804491113656
 70
     1
  0
VERTEX
  5
1835
330
1830
100
AcDbEntity
  8
AM_0
100
AcDbVertex
100
AcDb2dVertex
 10
-29.05698236393151
 20
4.307673659462052
 30
0.0
 42
-0.4014058829339297
  0
VERTEX
  5
1836
330
1830
100
AcDbEntity
  8
AM_0
100
AcDbVertex
100
AcDb2dVertex
 10
-29.01939299670985
 20
4.358388638358174
 30
0.0
 42
-0.0313656446754737
 70
     1
  0
VERTEX
  5
1837
330
1830
100
AcDbEntity
  8
AM_0
100
AcDbVertex
100
AcDb2dVertex
 10
-28.34215084943552
 20
4.420907842203482
 30
0.0
 42
-0.0039726403541645
  0
VERTEX
  5
1838
330
1830
100
AcDbEntity
  8
AM_0
100
AcDbVertex
100
AcDb2dVertex
 10
-27.72539904799162
 20
4.432441653405775
 30
0.0
 42
0.0019401889352083
 70
     1
  0
VERTEX
  5
1839
330
1830
100
AcDbEntity
  8
AM_0
100
AcDbVertex
100
AcDb2dVertex
 10
-26.4625000000006
 20
4.450726670929485
 30
0.0
 42
0.0036525506412497
  0
VERTEX
  5
183A
330
1830
100
AcDbEntity
  8
AM_0
100
AcDbVertex
100
AcDb2dVertex
 10
-25.96588260121468
 20
4.463687794907882
 30
0.0
 42
0.0018773371428962
 70
     1
  0
VERTEX
  5
183B
330
1830
100
AcDbEntity
  8
AM_0
100
AcDbVertex
100
AcDb2dVertex
 10
-25.0000000000006
 20
4.499999999999964
 30
0.0
  0
SEQEND
  5
183C
330
1830
100
AcDbEntity
  8
AM_0
  0
LINE
  5
183D
330
1F
100
AcDbEntity
  8
AM_0
100
AcDbLine
 10
-25.00000000000017
 20
2.403456003140234
 30
0.0
 11
-25.37487514810336
 21
1.847323025820371
 31
0.0
  0
LINE
  5
183E
330
1F
100
AcDbEntity
  8
AM_0
100
AcDbLine
 10
-25.37487514810336
 20
1.847323025820371
 30
0.0
 11
-25.00000000000019
 21
0.8398141179518647
 31
0.0
  0
LINE
  5
183F
330
1F
100
AcDbEntity
  8
AM_0
100
AcDbLine
 10
-25.00000000000014
 20
-2.988466378547098
 30
0.0
 11
-25.00000000000023
 21
-4.375923742642555
 31
0.0
  0
ELLIPSE
  5
1840
330
1F
100
AcDbEntity
  8
AM_0
100
AcDbEllipse
 10
-24.98593085628092
 20
-13.98275053389949
 30
0.0
 11
0.0000000000000094
 21
9.606837901049681
 31
0.0
210
0.0
220
0.0
230
1.0
 40
0.9629629629629576
 41
0.0015208199008008
 42
0.1609004017522448
  0
LINE
  5
1848
330
1F
100
AcDbEntity
  8
AM_11
100
AcDbLine
 10
-0.0000000000008437
 20
4.5
 30
0.0
 11
-25.00000000000015
 21
4.499999999999968
 31
0.0
  0
LINE
  5
1849
330
1F
100
AcDbEntity
  8
AM_11
100
AcDbLine
 10
-25.00000000000023
 20
-4.50000000000003
 30
0.0
 11
-0.0000000000001663
 21
-4.5
 31
0.0
  0
SPLINE
  5
184B
330
1F
100
AcDbEntity
  8
AM_0
100
AcDbSpline
210
0.0
220
0.0
230
1.0
 70
     8
 71
     3
 72
     8
 73
     4
 74
     0
 42
0.0000000001
 43
0.0000000001
 40
12.67774677716992
 40
12.67774677716992
 40
12.67774677716992
 40
12.67774677716992
 40
14.48999654934393
 40
14.48999654934393
 40
14.48999654934393
 40
14.48999654934393
 10
-25.00000000000675
 20
0.8398141179405714
 30
0.0
 10
-24.52394144387964
 20
0.5628106222808748
 30
0.0
 10
-24.04863738860665
 20
0.2814053111404746
 30
0.0
 10
-23.57333333333366
 20
0.0000000000000767
 30
0.0
  0
SPLINE
  5
184C
330
1F
100
AcDbEntity
  8
AM_0
100
AcDbSpline
210
0.0
220
0.0
230
1.0
 70
     8
 71
     3
 72
     8
 73
     4
 74
     0
 42
0.0000000001
 43
0.0000000001
 40
0.0
 40
0.0
 40
0.0
 40
0.0
 40
1.412269715655931
 40
1.412269715655931
 40
1.412269715655931
 40
1.412269715655931
 10
-22.57333333333366
 20
-4.499999999999925
 30
0.0
 10
-22.98132236230093
 20
-4.499999999999925
 30
0.0
 10
-23.3856477820007
 20
-4.478626224342868
 30
0.0
 10
-23.786666666667
 20
-4.437961871321218
 30
0.0
  0
SPLINE
  5
184D
330
1F
100
AcDbEntity
  8
AM_0
100
AcDbSpline
210
0.0
220
0.0
230
1.0
 70
     8
 71
     3
 72
     8
 73
     4
 74
     0
 42
0.0000000001
 43
0.0000000001
 40
0.0
 40
0.0
 40
0.0
 40
0.0
 40
2.764560748519282
 40
2.764560748519282
 40
2.764560748519282
 40
2.764560748519282
 10
-21.060611055605
 20
-4.365255303301875
 30
0.0
 10
-20.26196017269943
 20
-4.365255303301875
 30
0.0
 10
-19.47663745930604
 20
-4.285243033659075
 30
0.0
 10
-18.70209104289986
 20
-4.140538010858823
 30
0.0
  0
SPLINE
  5
184E
330
1F
100
AcDbEntity
  8
AM_0
100
AcDbSpline
210
0.0
220
0.0
230
1.0
 70
     8
 71
     3
 72
     8
 73
     4
 74
     0
 42
0.0000000001
 43
0.0000000001
 40
0.0
 40
0.0
 40
0.0
 40
0.0
 40
4.451443990518192
 40
4.451443990518192
 40
4.451443990518192
 40
4.451443990518192
 10
-19.31872554315508
 20
-4.155700053422446
 30
0.0
 10
-18.03275283478314
 20
-4.155700053422446
 30
0.0
 10
-16.77851909673902
 20
-3.956101572822715
 30
0.0
 10
-15.89680377009566
 20
-3.821195812614738
 30
0.0
  0
SPLINE
  5
184F
330
1F
100
AcDbEntity
  8
AM_0
100
AcDbSpline
210
0.0
220
0.0
230
1.0
 70
     8
 71
     3
 72
     8
 73
     4
 74
     0
 42
0.0000000001
 43
0.0000000001
 40
0.0
 40
0.0
 40
0.0
 40
0.0
 40
2.130230809022907
 40
2.130230809022907
 40
2.130230809022907
 40
2.130230809022907
 10
-11.786666666667
 20
-4.500000000000013
 30
0.0
 10
-11.17126665517148
 20
-4.500000000000013
 30
0.0
 10
-10.5642020577572
 20
-4.451370559038163
 30
0.0
 10
-9.964247452746436
 20
-4.361260880567319
 30
0.0
  0
SPLINE
  5
1850
330
1F
100
AcDbEntity
  8
AM_0
100
AcDbSpline
210
0.0
220
0.0
230
1.0
 70
     8
 71
     3
 72
     8
 73
     4
 74
     0
 42
0.0000000001
 43
0.0000000001
 40
0.0
 40
0.0
 40
0.0
 40
0.0
 40
5.635889483499305
 40
5.635889483499305
 40
5.635889483499305
 40
5.635889483499305
 10
-11.78666666666701
 20
4.500000000000089
 30
0.0
 10
-13.41481251745571
 20
4.500000000000089
 30
0.0
 10
-14.98461401999174
 20
4.159614626081308
 30
0.0
 10
-16.63789055895122
 20
3.611236894534151
 30
0.0
  0
SPLINE
  5
1851
330
1F
100
AcDbEntity
  8
AM_0
100
AcDbSpline
210
0.0
220
0.0
230
1.0
 70
     8
 71
     3
 72
     8
 73
     4
 74
     0
 42
0.0000000001
 43
0.0000000001
 40
0.3581103616548037
 40
0.3581103616548037
 40
0.3581103616548037
 40
0.3581103616548037
 40
14.43901837670146
 40
14.43901837670146
 40
14.43901837670146
 40
14.43901837670146
 10
-21.92274274991489
 20
4.262055574492491
 30
0.0
 10
-17.70046531627067
 20
4.256990107247882
 30
0.0
 10
-13.98720485260442
 20
2.128495053623957
 30
0.0
 10
-10.27394438893819
 20
0.0000000000000384
 30
0.0
  0
SPLINE
  5
1852
330
1F
100
AcDbEntity
  8
AM_0
100
AcDbSpline
210
0.0
220
0.0
230
1.0
 70
     8
 71
     3
 72
     8
 73
     4
 74
     0
 42
0.0000000001
 43
0.0000000001
 40
0.0
 40
0.0
 40
0.0
 40
0.0
 40
12.99511653903134
 40
12.99511653903134
 40
12.99511653903134
 40
12.99511653903134
 10
-10.27394438893833
 20
-4.365255303301758
 30
0.0
 10
-14.44521636442988
 20
-4.365255303301763
 30
0.0
 10
-18.25291371001745
 20
-2.182627651650817
 30
0.0
 10
-22.06061105560503
 20
0.0000000000001279
 30
0.0
  0
SPLINE
  5
1853
330
1F
100
AcDbEntity
  8
AM_0
100
AcDbSpline
210
0.0
220
0.0
230
1.0
 70
     8
 71
     3
 72
     8
 73
     4
 74
     0
 42
0.0000000001
 43
0.0000000001
 40
0.0
 40
0.0
 40
0.0
 40
0.0
 40
4.451443990518192
 40
4.451443990518192
 40
4.451443990518192
 40
4.451443990518192
 10
-8.53205887648842
 20
-4.155700053422425
 30
0.0
 10
-7.246086168116484
 20
-4.155700053422425
 30
0.0
 10
-5.991852430072365
 20
-3.956101572822701
 30
0.0
 10
-4.75952062434132
 20
-3.618767294031131
 30
0.0
  0
SPLINE
  5
1854
330
1F
100
AcDbEntity
  8
AM_0
100
AcDbSpline
210
0.0
220
0.0
230
1.0
 70
     8
 71
     3
 72
     8
 73
     4
 74
     0
 42
0.0000000001
 43
0.0000000001
 40
0.7142832446738512
 40
0.7142832446738512
 40
0.7142832446738512
 40
0.7142832446738512
 40
9.361146747480315
 40
9.361146747480315
 40
9.361146747480315
 40
9.361146747480315
 10
-7.915424376141754
 20
4.140538010841856
 30
0.0
 10
-5.436735229368448
 20
4.019205095074419
 30
0.0
 10
-3.071849171255137
 20
3.182192894519664
 30
0.0
 10
-0.7486658440128171
 20
2.082922604532853
 30
0.0
  0
SPLINE
  5
1855
330
1F
100
AcDbEntity
  8
AM_0
100
AcDbSpline
210
0.0
220
0.0
230
1.0
 70
     8
 71
     3
 72
     8
 73
     4
 74
     0
 42
0.0000000001
 43
0.0000000001
 40
0.0
 40
0.0
 40
0.0
 40
0.0
 40
2.327908791255042
 40
2.327908791255042
 40
2.327908791255042
 40
2.327908791255042
 10
-0.0000000000001786
 20
3.667232418015566
 30
0.0
 10
-0.4794983964360633
 20
3.072098876535906
 30
0.0
 10
-1.302530237420708
 20
2.816526417231917
 30
0.0
 10
-2.042362600219146
 20
2.70760808027527
 30
0.0
  0
SPLINE
  5
1856
330
1F
100
AcDbEntity
  8
AM_0
100
AcDbSpline
210
0.0
220
0.0
230
1.0
 70
     8
 71
     3
 72
     8
 73
     4
 74
     0
 42
0.0000000001
 43
0.0000000001
 40
0.0
 40
0.0
 40
0.0
 40
0.0
 40
5.635889483499127
 40
5.635889483499127
 40
5.635889483499127
 40
5.635889483499127
 10
-0.0000000000001786
 20
4.5
 30
0.0
 10
-1.628145850788811
 20
4.5
 30
0.0
 10
-3.197947353324812
 20
4.159614626081224
 30
0.0
 10
-4.73209756330483
 20
3.611236894534112
 30
0.0
  0
SPLINE
  5
1857
330
1F
100
AcDbEntity
  8
AM_0
100
AcDbSpline
210
0.0
220
0.0
230
1.0
 70
     8
 71
     3
 72
     8
 73
     4
 74
     0
 42
0.0000000001
 43
0.0000000001
 40
4.542668862435135
 40
4.542668862435135
 40
4.542668862435135
 40
4.542668862435135
 40
14.36247867694493
 40
14.36247867694493
 40
14.36247867694493
 40
14.36247867694493
 10
-0.593666666665628
 20
-3.597854989910962
 30
0.0
 10
-3.31019852527497
 20
-2.841305117915572
 30
0.0
 10
-5.921128700881615
 20
-1.420652558957767
 30
0.0
 10
-8.532058876488253
 20
0.0000000000000448
 30
0.0
  0
SPLINE
  5
1858
330
1F
100
AcDbEntity
  8
AM_0
100
AcDbSpline
210
0.0
220
0.0
230
1.0
 70
     8
 71
     3
 72
     8
 73
     4
 74
     0
 42
0.0000000001
 43
0.0000000001
 40
0.3581103616548037
 40
0.3581103616548037
 40
0.3581103616548037
 40
0.3581103616548037
 40
12.40023413887867
 40
12.40023413887867
 40
12.40023413887867
 40
12.40023413887867
 10
-9.964247452746102
 20
4.361260880567395
 30
0.0
 10
-6.500265883615467
 20
4.272087543356547
 30
0.0
 10
-3.282898127730196
 20
2.7024310156365
 30
0.0
 10
-0.1012377534098888
 20
0.918414320948068
 30
0.0
  0
SPLINE
  5
1859
330
1F
100
AcDbEntity
  8
AM_0
100
AcDbSpline
210
0.0
220
0.0
230
1.0
 70
     8
 71
     3
 72
     8
 73
     4
 74
     0
 42
0.0000000001
 43
0.0000000001
 40
0.0
 40
0.0
 40
0.0
 40
0.0
 40
13.04099689440956
 40
13.04099689440956
 40
13.04099689440956
 40
13.04099689440956
 10
-11.78666666666684
 20
4.500000000000089
 30
0.0
 10
-7.600667663523029
 20
4.500000000000094
 30
0.0
 10
-3.8003338317616
 20
2.250000000000098
 30
0.0
 10
-0.0000000000001724
 20
0.0000000000001023
 30
0.0
  0
SPLINE
  5
185A
330
1F
100
AcDbEntity
  8
AM_0
100
AcDbSpline
210
0.0
220
0.0
230
1.0
 70
     8
 71
     3
 72
     8
 73
     4
 74
     0
 42
0.0000000001
 43
0.0000000001
 40
0.0
 40
0.0
 40
0.0
 40
0.0
 40
13.04099689440956
 40
13.04099689440956
 40
13.04099689440956
 40
13.04099689440956
 10
-0.0000000000001663
 20
-4.5
 30
0.0
 10
-4.185999003143977
 20
-4.500000000000005
 30
0.0
 10
-7.986332834905405
 20
-2.250000000000008
 30
0.0
 10
-11.78666666666683
 20
-0.0000000000000128
 30
0.0
  0
SPLINE
  5
185B
330
1F
100
AcDbEntity
  8
AM_0
100
AcDbSpline
210
0.0
220
0.0
230
1.0
 70
     8
 71
     3
 72
     8
 73
     4
 74
     0
 42
0.0000000001
 43
0.0000000001
 40
0.0
 40
0.0
 40
0.0
 40
0.0
 40
12.92623080925044
 40
12.92623080925044
 40
12.92623080925044
 40
12.92623080925044
 10
-8.53205887648842
 20
-4.155700053422322
 30
0.0
 10
-12.6812193831614
 20
-4.155700053422328
 30
0.0
 10
-16.49997246315824
 20
-2.0778500267111
 30
0.0
 10
-20.31872554315508
 20
0.0000000000001279
 30
0.0
  0
SPLINE
  5
185C
330
1F
100
AcDbEntity
  8
AM_0
100
AcDbSpline
210
0.0
220
0.0
230
1.0
 70
     8
 71
     3
 72
     8
 73
     4
 74
     0
 42
0.0000000001
 43
0.0000000001
 40
0.7142832446738512
 40
0.7142832446738512
 40
0.7142832446738512
 40
0.7142832446738512
 40
14.36247867694493
 40
14.36247867694493
 40
14.36247867694493
 40
14.36247867694493
 10
-19.80002057597348
 20
4.083998368507373
 30
0.0
 10
-15.78973208397537
 20
3.94902633192796
 30
0.0
 10
-12.16089548023181
 20
1.974513165964002
 30
0.0
 10
-8.532058876488253
 20
0.0000000000000448
 30
0.0
  0
SPLINE
  5
185D
330
1F
100
AcDbEntity
  8
AM_0
100
AcDbSpline
210
0.0
220
0.0
230
1.0
 70
     8
 71
     3
 72
     8
 73
     4
 74
     0
 42
0.0000000001
 43
0.0000000001
 40
1.870660592686466
 40
1.870660592686466
 40
1.870660592686466
 40
1.870660592686466
 40
14.43901837670146
 40
14.43901837670146
 40
14.43901837670146
 40
14.43901837670146
 10
-0.0910000000001574
 20
-4.260097041859592
 30
0.0
 10
-3.645169312398476
 20
-3.799710550891337
 30
0.0
 10
-6.959556850668339
 20
-1.899855275445646
 30
0.0
 10
-10.27394438893819
 20
0.0000000000000384
 30
0.0
  0
SPLINE
  5
185E
330
1F
100
AcDbEntity
  8
AM_0
100
AcDbSpline
210
0.0
220
0.0
230
1.0
 70
     8
 71
     3
 72
     8
 73
     4
 74
     0
 42
0.0000000001
 43
0.0000000001
 40
0.0
 40
0.0
 40
0.0
 40
0.0
 40
2.764560748519282
 40
2.764560748519282
 40
2.764560748519282
 40
2.764560748519282
 10
-10.27394438893833
 20
-4.36525530330186
 30
0.0
 10
-9.475293506032778
 20
-4.36525530330186
 30
0.0
 10
-8.68997079263938
 20
-4.285243033659055
 30
0.0
 10
-7.915424376233201
 20
-4.140538010858803
 30
0.0
  0
SPLINE
  5
185F
330
1F
100
AcDbEntity
  8
AM_0
100
AcDbSpline
210
0.0
220
0.0
230
1.0
 70
     8
 71
     3
 72
     8
 73
     4
 74
     0
 42
0.0000000001
 43
0.0000000001
 40
10.38618746379059
 40
10.38618746379059
 40
10.38618746379059
 40
10.38618746379059
 40
14.43901837670146
 40
14.43901837670146
 40
14.43901837670146
 40
14.43901837670146
 10
-25.37487514810336
 20
1.847323025820371
 30
0.0
 10
-24.19814604677957
 20
1.225266231707079
 30
0.0
 10
-23.12937855119228
 20
0.6126331158535545
 30
0.0
 10
-22.06061105560503
 20
0.0000000000000256
 30
0.0
  0
SPLINE
  5
1860
330
1F
100
AcDbEntity
  8
AM_0
100
AcDbSpline
210
0.0
220
0.0
230
1.0
 70
     8
 71
     3
 72
     8
 73
     4
 74
     0
 42
0.0000000001
 43
0.0000000001
 40
4.48458745047074
 40
4.48458745047074
 40
4.48458745047074
 40
4.48458745047074
 40
14.36247867694493
 40
14.36247867694493
 40
14.36247867694493
 40
14.36247867694493
 10
-26.95445992846782
 20
3.314247766358114
 30
0.0
 10
-25.5159781003085
 20
2.667177126097172
 30
0.0
 10
-22.94509863608947
 20
1.429055319102204
 30
0.0
 10
-20.31872554315508
 20
0.0000000000000256
 30
0.0
  0
SPLINE
  5
1861
330
1F
100
AcDbEntity
  8
AM_0
100
AcDbSpline
210
0.0
220
0.0
230
1.0
 70
     8
 71
     3
 72
     8
 73
     4
 74
     0
 42
0.0000000001
 43
0.0000000001
 40
0.0
 40
0.0
 40
0.0
 40
0.0
 40
4.662554012798695
 40
4.662554012798695
 40
4.662554012798695
 40
4.662554012798695
 10
-21.060611055605
 20
-4.365255303301773
 30
0.0
 10
-22.40757110374681
 20
-4.365255303301773
 30
0.0
 10
-23.71662008694269
 20
-4.137665884654941
 30
0.0
 10
-25.00000000000014
 20
-3.755978743922468
 30
0.0
  0
SPLINE
  5
1862
330
1F
100
AcDbEntity
  8
AM_0
100
AcDbSpline
210
0.0
220
0.0
230
1.0
 70
     8
 71
     3
 72
     8
 73
     4
 74
     0
 42
0.0000000001
 43
0.0000000001
 40
0.0
 40
0.0
 40
0.0
 40
0.0
 40
6.769478140335353
 40
6.769478140335353
 40
6.769478140335353
 40
6.769478140335353
 10
-19.31872554315508
 20
-4.155700053422344
 30
0.0
 10
-21.27435256147418
 20
-4.155700053422344
 30
0.0
 10
-23.15657867945288
 20
-3.69410006982874
 30
0.0
 10
-25.00000000000014
 20
-2.988466378547098
 30
0.0
  0
SPLINE
  5
1863
330
1F
100
AcDbEntity
  8
AM_0
100
AcDbSpline
210
0.0
220
0.0
230
1.0
 70
     8
 71
     3
 72
     8
 73
     4
 74
     0
 42
0.0000000001
 43
0.0000000001
 40
0.0
 40
0.0
 40
0.0
 40
0.0
 40
2.130230809022907
 40
2.130230809022907
 40
2.130230809022907
 40
2.130230809022907
 10
-22.57333333333366
 20
-4.500000000000027
 30
0.0
 10
-21.95793332183814
 20
-4.500000000000027
 30
0.0
 10
-21.35086872442387
 20
-4.451370559038178
 30
0.0
 10
-20.75091411941309
 20
-4.361260880567333
 30
0.0
  0
SPLINE
  5
1864
330
1F
100
AcDbEntity
  8
AM_0
100
AcDbSpline
210
0.0
220
0.0
230
1.0
 70
     8
 71
     3
 72
     8
 73
     4
 74
     0
 42
0.0000000001
 43
0.0000000001
 40
0.0
 40
0.0
 40
0.0
 40
0.0
 40
13.04099689440956
 40
13.04099689440956
 40
13.04099689440956
 40
13.04099689440956
 10
-24.99999999999736
 20
4.500000000000076
 30
0.0
 10
-19.38733433018969
 20
4.500000000000081
 30
0.0
 10
-15.58700049842826
 20
2.250000000000085
 30
0.0
 10
-11.78666666666683
 20
0.0000000000000895
 30
0.0
  0
SPLINE
  5
1865
330
1F
100
AcDbEntity
  8
AM_0
100
AcDbSpline
210
0.0
220
0.0
230
1.0
 70
     8
 71
     3
 72
     8
 73
     4
 74
     0
 42
0.0000000001
 43
0.0000000001
 40
0.0
 40
0.0
 40
0.0
 40
0.0
 40
13.04099689440956
 40
13.04099689440956
 40
13.04099689440956
 40
13.04099689440956
 10
-11.786666666667
 20
-4.49999999999991
 30
0.0
 10
-15.97266566981081
 20
-4.499999999999915
 30
0.0
 10
-19.77299950157224
 20
-2.249999999999919
 30
0.0
 10
-23.57333333333366
 20
0.0000000000000767
 30
0.0
  0
SPLINE
  5
1866
330
1F
100
AcDbEntity
  8
AM_0
100
AcDbSpline
210
0.0
220
0.0
230
1.0
 70
     8
 71
     3
 72
     8
 73
     4
 74
     0
 42
0.0000000001
 43
0.0000000001
 40
0.0
 40
0.0
 40
0.0
 40
0.0
 40
1.412269715655734
 40
1.412269715655734
 40
1.412269715655734
 40
1.412269715655734
 10
-23.78666666666697
 20
-4.437961871321218
 30
0.0
 10
-24.1946556956342
 20
-4.437961871321218
 30
0.0
 10
-24.59898111533392
 20
-4.416588095664155
 30
0.0
 10
-25.00000000000014
 20
-4.375923742642529
 30
0.0
  0
LINE
  5
1870
330
1F
100
AcDbEntity
  8
AM_11
100
AcDbLine
 10
-25.00000000000023
 20
-4.500000000000031
 30
0.0
 11
-25.00000000000015
 21
4.499999999999968
 31
0.0
  0
LINE
  5
1899
330
1F
100
AcDbEntity
  8
AM_0
100
AcDbLine
 10
-33.49999999999977
 20
4.999999999999956
 30
0.0
 11
-33.49999999999979
 21
-4.999999999999948
 31
0.0
  0
LINE
  5
18B1
330
1F
100
AcDbEntity
  8
AM_0
100
AcDbLine
 10
-32.12626129027229
 20
4.499999999999894
 30
0.0
 11
-32.12626129027229
 21
-4.499999999999876
 31
0.0
  0
LINE
  5
18B2
330
1F
100
AcDbEntity
  8
AM_0
100
AcDbLine
 10
-33.49999999999977
 20
4.999999999999956
 30
0.0
 11
-32.12626129027229
 21
4.499999999999894
 31
0.0
  0
LINE
  5
18B3
330
1F
100
AcDbEntity
  8
AM_0
100
AcDbLine
 10
-33.49999999999979
 20
-4.999999999999948
 30
0.0
 11
-32.12626129027229
 21
-4.500000000000107
 31
0.0
  0
POLYLINE
  5
1A3E
330
1F
100
AcDbEntity
  8
AM_0
100
AcDb2dPolyline
 66
     1
 10
0.0
 20
0.0
 30
0.0
 70
     2
  0
VERTEX
  5
1A40
330
1A3E
100
AcDbEntity
  8
AM_0
100
AcDbVertex
100
AcDb2dVertex
 10
-24.99999999999407
 20
0.8398141179354215
 30
0.0
 42
0.0290640361129574
  0
VERTEX
  5
1A48
330
1A3E
100
AcDbEntity
  8
AM_0
100
AcDbVertex
100
AcDb2dVertex
 10
-25.77935122181884
 20
1.057212134760656
 30
0.0
 42
0.034068200418627
 70
     1
  0
VERTEX
  5
1A41
330
1A3E
100
AcDbEntity
  8
AM_0
100
AcDbVertex
100
AcDb2dVertex
 10
-26.46250000000016
 20
1.157534461921832
 30
0.0
 42
0.0329871020769936
  0
VERTEX
  5
1A49
330
1A3E
100
AcDbEntity
  8
AM_0
100
AcDbVertex
100
AcDb2dVertex
 10
-27.89117257399565
 20
1.174322514994943
 30
0.0
 42
0.0886001323054051
 70
     1
  0
VERTEX
  5
1A42
330
1A3E
100
AcDbEntity
  8
AM_0
100
AcDbVertex
100
AcDb2dVertex
 10
-28.41250000000016
 20
1.051740797269177
 30
0.0
 42
0.1213106708945864
  0
VERTEX
  5
1A4A
330
1A3E
100
AcDbEntity
  8
AM_0
100
AcDbVertex
100
AcDb2dVertex
 10
-28.76613387167436
 20
0.7833979700402232
 30
0.0
 42
0.1507591296344841
 70
     1
  0
VERTEX
  5
1A43
330
1A3E
100
AcDbEntity
  8
AM_0
100
AcDbVertex
100
AcDb2dVertex
 10
-28.90000000000016
 20
0.4491830895491996
 30
0.0
 42
0.1283760080190622
  0
VERTEX
  5
1A4B
330
1A3E
100
AcDbEntity
  8
AM_0
100
AcDbVertex
100
AcDb2dVertex
 10
-28.83250902077453
 20
0.0644340733498154
 30
0.0
 42
0.0618938791878569
 70
     1
  0
VERTEX
  5
1A44
330
1A3E
100
AcDbEntity
  8
AM_0
100
AcDbVertex
100
AcDb2dVertex
 10
-28.41250000000016
 20
-0.6165855252000974
 30
0.0
 42
0.0481929539699784
  0
VERTEX
  5
1A4D
330
1A3E
100
AcDbEntity
  8
AM_0
100
AcDbVertex
100
AcDb2dVertex
 10
-27.58179728036768
 20
-1.468869427133469
 30
0.0
 42
0.0345529008108404
 70
     1
  0
VERTEX
  5
1A45
330
1A3E
100
AcDbEntity
  8
AM_0
100
AcDbVertex
100
AcDb2dVertex
 10
-26.24477647425547
 20
-2.449520081772436
 30
0.0
 42
0.038807908460745
  0
VERTEX
  5
1A4C
330
1A3E
100
AcDbEntity
  8
AM_0
100
AcDbVertex
100
AcDb2dVertex
 10
-25.78978807800821
 20
-2.689974980932021
 30
0.0
 42
0.0236315572634417
 70
     1
  0
VERTEX
  5
1A46
330
1A3E
100
AcDbEntity
  8
AM_0
100
AcDbVertex
100
AcDb2dVertex
 10
-25.00000000001361
 20
-2.988466378541946
 30
0.0
  0
SEQEND
  5
1A47
330
1A3E
100
AcDbEntity
  8
AM_0
  0
VIEWPORT
  5
110
330
101
100
AcDbEntity
 67
     1
  8
0
100
AcDbViewport
 10
420.5
 20
297.0
 30
0.0
 40
948.9782706766916
 41
628.452
 68
     1
 69
     1
1001
ACAD
1000
MVIEW
1002
{
1070
    16
1010
0.0
1020
0.0
1030
0.0
1010
0.0
1020
0.0
1030
1.0
1040
0.0
1040
628.452
1040
420.5
1040
297.0
1040
50.0
1040
0.0
1040
0.0
1070
     0
1070
   100
1070
     1
1070
     1
1070
     0
1070
     0
1070
     0
1070
     0
1040
0.0
1040
0.0
1040
0.0
1040
10.0
1040
10.0
1040
10.0
1040
10.0
1070
     0
1002
{
1002
}
1002
}
  0
ENDSEC
  0
SECTION
  2
OBJECTS
  0
DICTIONARY
  5
C
330
0
100
AcDbDictionary
  3
ACAD_GROUP
350
D
  3
ACAD_LAYOUT
350
1A
  3
ACAD_MLINESTYLE
350
17
  3
ACAD_PLOTSETTINGS
350
19
  3
ACAD_PLOTSTYLENAME
350
E
  3
ACDBVARIABLEDICTIONARY
350
34
  3
ACMDICTIONARY
350
43
  3
AMG
350
2B
  3
AMGSNAPSETTINGS
350
6E
  3
DWGPROPS
350
1B19
  3
ACDBHEADERROUNDTRIPXREC
350
1B25
  0
DICTIONARY
  5
74
330
1F
100
AcDbDictionary
280
     1
  3
ACAD_INDEX
360
1B1B
  3
ACAD_LAYOUTSELFREF
360
1B48
  0
DICTIONARY
  5
1B4D
330
101
100
AcDbDictionary
280
     1
  3
ACAD_LAYOUTSELFREF
360
1B4E
  0
DICTIONARY
  5
D
102
{ACAD_REACTORS
330
C
102
}
330
C
100
AcDbDictionary
  0
DICTIONARY
  5
1A
102
{ACAD_REACTORS
330
C
102
}
330
C
100
AcDbDictionary
  0
DICTIONARY
  5
17
102
{ACAD_REACTORS
330
C
102
}
330
C
100
AcDbDictionary
  3
STANDARD
350
18
  0
DICTIONARY
  5
19
102
{ACAD_REACTORS
330
C
102
}
330
C
100
AcDbDictionary
  0
ACDBDICTIONARYWDFLT
  5
E
102
{ACAD_REACTORS
330
C
102
}
330
C
100
AcDbDictionary
281
     1
  3
Normal
350
F
100
AcDbDictionaryWithDefault
340
F
  0
DICTIONARY
  5
34
102
{ACAD_REACTORS
330
C
102
}
330
C
100
AcDbDictionary
  3
INDEXCTL
350
35
  3
SORTENTS
350
B5E
  0
DICTIONARY
  5
43
102
{ACAD_REACTORS
330
C
102
}
330
C
100
AcDbDictionary
  3
ACMSTDDICTIONARY
350
260
  0
DICTIONARY
  5
2B
102
{ACAD_REACTORS
330
C
102
}
330
C
100
AcDbDictionary
  3
ACMGSETTINGS
350
2C
  0
DICTIONARY
  5
6E
102
{ACAD_REACTORS
330
C
102
}
330
C
100
AcDbDictionary
  0
XRECORD
  5
1B19
102
{ACAD_REACTORS
330
C
102
}
330
C
100
AcDbXrecord
  1
DWGPROPS COOKIE
  2

  3

  4

  6

  7

  8

  9

300
AmdtFileType=82
301
=
302
=
303
=
304
=
305
=
306
=
307
=
308
=
309
=
 40
0.0562991898148148
 41
2452836.771637361
 42
2452901.584837407
  1

 90
        1
  0
DICTIONARY
  5
1B25
102
{ACAD_REACTORS
330
C
102
}
330
C
100
AcDbDictionary
  3
TSTACKALIGN
350
1B26
  3
TSTACKSIZE
350
1B27
  3
HYPERLINKBASE
350
1B28
  3
STYLESHEET
350
1B29
  3
LAYOUTDICT
350
1B2A
  3
PLOTSETDICT
350
1B2B
  3
PLOTSTYLNAMDICT
350
1B2C
  3
LWETCUNION
350
1B2D
  3
INSUNITS
350
1B2E
  3
CEPSNTYPE
350
1B2F
  3
FINGERPRINTGUID
350
1B30
  3
VERSIONGUID
350
1B31
  3
PSVPSCALE
350
1B32
  3
DIMSTYLEDATA
350
1B33
  3
PUCSORTHOREF
350
1B34
  3
PUCSORTHOVIEW
350
1B35
  3
PUCSBASE
350
1B36
  3
PUCSORGTOP
350
1B37
  3
PUCSORGBOTTOM
350
1B38
  3
PUCSORGLEFT
350
1B39
  3
PUCSORGRIGHT
350
1B3A
  3
PUCSORGFRONT
350
1B3B
  3
PUCSORGBACK
350
1B3C
  3
UCSORTHOREF
350
1B3D
  3
UCSORTHOVIEW
350
1B3E
  3
UCSBASE
350
1B3F
  3
UCSORGTOP
350
1B40
  3
UCSORGBOTTOM
350
1B41
  3
UCSORGLEFT
350
1B42
  3
UCSORGRIGHT
350
1B43
  3
UCSORGFRONT
350
1B44
  3
UCSORGBACK
350
1B45
  0
DICTIONARY
  5
1B1B
102
{ACAD_REACTORS
330
74
102
}
330
74
100
AcDbDictionary
  3
*A1
350
1B1C
  0
XRECORD
  5
1B48
102
{ACAD_REACTORS
330
74
102
}
330
74
100
AcDbXrecord
340
1F
  0
XRECORD
  5
1B4E
102
{ACAD_REACTORS
330
1B4D
102
}
330
1B4D
100
AcDbXrecord
340
101
  0
MLINESTYLE
  5
18
102
{ACAD_REACTORS
330
17
102
}
330
17
100
AcDbMlineStyle
  2
STANDARD
 70
     0
  3

 62
   256
 51
90.0
 52
90.0
 71
     2
 49
0.5
 62
   256
  6
BYLAYER
 49
-0.5
 62
   256
  6
BYLAYER
  0
ACDBPLACEHOLDER
  5
F
102
{ACAD_REACTORS
330
E
102
}
330
E
100
AcDbPlaceHolder
280
     0
  0
DICTIONARYVAR
  5
35
102
{ACAD_REACTORS
330
34
102
}
330
34
100
DictionaryVariables
280
     0
  1
1
  0
DICTIONARYVAR
  5
B5E
102
{ACAD_REACTORS
330
34
102
}
330
34
100
DictionaryVariables
280
     0
  1
96
  0
DICTIONARY
  5
260
102
{ACAD_REACTORS
330
43
102
}
330
43
100
AcDbDictionary
  0
DICTIONARY
  5
2C
102
{ACAD_REACTORS
330
2B
102
}
330
2B
100
AcDbDictionary
  3
DWGSETTINGS
350
2D
  0
XRECORD
  5
1B26
102
{ACAD_REACTORS
330
1B25
102
}
330
1B25
100
AcDbXrecord
 90
        1
  0
XRECORD
  5
1B27
102
{ACAD_REACTORS
330
1B25
102
}
330
1B25
100
AcDbXrecord
 90
       70
  0
XRECORD
  5
1B28
102
{ACAD_REACTORS
330
1B25
102
}
330
1B25
100
AcDbXrecord
  1

  0
XRECORD
  5
1B29
102
{ACAD_REACTORS
330
1B25
102
}
330
1B25
100
AcDbXrecord
  1
ASAMI.ctb
  0
XRECORD
  5
1B2A
102
{ACAD_REACTORS
330
1B25
102
}
330
1B25
100
AcDbXrecord
340
1A
  0
XRECORD
  5
1B2B
102
{ACAD_REACTORS
330
1B25
102
}
330
1B25
100
AcDbXrecord
340
19
  0
XRECORD
  5
1B2C
102
{ACAD_REACTORS
330
1B25
102
}
330
1B25
100
AcDbXrecord
340
E
  0
XRECORD
  5
1B2D
102
{ACAD_REACTORS
330
1B25
102
}
330
1B25
100
AcDbXrecord
 90
    10781
  0
XRECORD
  5
1B2E
102
{ACAD_REACTORS
330
1B25
102
}
330
1B25
100
AcDbXrecord
 90
        4
  0
XRECORD
  5
1B2F
102
{ACAD_REACTORS
330
1B25
102
}
330
1B25
100
AcDbXrecord
 90
        0
  0
XRECORD
  5
1B30
102
{ACAD_REACTORS
330
1B25
102
}
330
1B25
100
AcDbXrecord
  1
{AFB28963-8C59-40AE-9337-C84526B81ACE}
  0
XRECORD
  5
1B31
102
{ACAD_REACTORS
330
1B25
102
}
330
1B25
100
AcDbXrecord
  1
{93B1EFDE-BF11-4F4A-AA16-8BFB84E1CF52}
  0
XRECORD
  5
1B32
102
{ACAD_REACTORS
330
1B25
102
}
330
1B25
100
AcDbXrecord
 40
0.0
  0
XRECORD
  5
1B33
102
{ACAD_REACTORS
330
1B25
102
}
330
1B25
100
AcDbXrecord
1000
DSTYLE
1002
{
1070
    79
 70
     2
1070
   341
340
59
1070
   342
340
59
1070
   371
 70
    -1
1070
   372
 70
    -1
1002
}
  0
XRECORD
  5
1B34
102
{ACAD_REACTORS
330
1B25
102
}
330
1B25
100
AcDbXrecord
340
0
  0
XRECORD
  5
1B35
102
{ACAD_REACTORS
330
1B25
102
}
330
1B25
100
AcDbXrecord
 70
     0
  0
XRECORD
  5
1B36
102
{ACAD_REACTORS
330
1B25
102
}
330
1B25
100
AcDbXrecord
340
0
  0
XRECORD
  5
1B37
102
{ACAD_REACTORS
330
1B25
102
}
330
1B25
100
AcDbXrecord
 10
0.0
 20
0.0
 30
0.0
  0
XRECORD
  5
1B38
102
{ACAD_REACTORS
330
1B25
102
}
330
1B25
100
AcDbXrecord
 10
0.0
 20
0.0
 30
0.0
  0
XRECORD
  5
1B39
102
{ACAD_REACTORS
330
1B25
102
}
330
1B25
100
AcDbXrecord
 10
0.0
 20
0.0
 30
0.0
  0
XRECORD
  5
1B3A
102
{ACAD_REACTORS
330
1B25
102
}
330
1B25
100
AcDbXrecord
 10
0.0
 20
0.0
 30
0.0
  0
XRECORD
  5
1B3B
102
{ACAD_REACTORS
330
1B25
102
}
330
1B25
100
AcDbXrecord
 10
0.0
 20
0.0
 30
0.0
  0
XRECORD
  5
1B3C
102
{ACAD_REACTORS
330
1B25
102
}
330
1B25
100
AcDbXrecord
 10
0.0
 20
0.0
 30
0.0
  0
XRECORD
  5
1B3D
102
{ACAD_REACTORS
330
1B25
102
}
330
1B25
100
AcDbXrecord
340
0
  0
XRECORD
  5
1B3E
102
{ACAD_REACTORS
330
1B25
102
}
330
1B25
100
AcDbXrecord
 70
     0
  0
XRECORD
  5
1B3F
102
{ACAD_REACTORS
330
1B25
102
}
330
1B25
100
AcDbXrecord
340
0
  0
XRECORD
  5
1B40
102
{ACAD_REACTORS
330
1B25
102
}
330
1B25
100
AcDbXrecord
 10
0.0
 20
0.0
 30
0.0
  0
XRECORD
  5
1B41
102
{ACAD_REACTORS
330
1B25
102
}
330
1B25
100
AcDbXrecord
 10
0.0
 20
0.0
 30
0.0
  0
XRECORD
  5
1B42
102
{ACAD_REACTORS
330
1B25
102
}
330
1B25
100
AcDbXrecord
 10
0.0
 20
0.0
 30
0.0
  0
XRECORD
  5
1B43
102
{ACAD_REACTORS
330
1B25
102
}
330
1B25
100
AcDbXrecord
 10
0.0
 20
0.0
 30
0.0
  0
XRECORD
  5
1B44
102
{ACAD_REACTORS
330
1B25
102
}
330
1B25
100
AcDbXrecord
 10
0.0
 20
0.0
 30
0.0
  0
XRECORD
  5
1B45
102
{ACAD_REACTORS
330
1B25
102
}
330
1B25
100
AcDbXrecord
 10
0.0
 20
0.0
 30
0.0
  0
LAYER_INDEX
  5
1B1C
102
{ACAD_REACTORS
330
1B1B
102
}
330
1B1B
100
AcDbIndex
 40
2453152.441619514
100
AcDbLayerIndex
  8
0
360
1B1D
 90
        0
  8
AM_0
360
1B1E
 90
       63
  8
AM_11
360
1B1F
 90
        3
  8
AM_7
360
1B20
 90
        1
  8
AM_5
360
1B21
 90
        4
  8
Defpoints
360
1B22
 90
        0
  8
AM_6
360
1B23
 90
        1
  0
XRECORD
  5
2D
102
{ACAD_REACTORS
330
2C
102
}
330
2C
100
AcDbXrecord
  1
VERSION
140
15.0
  1
PRODUCT
  2
AutoCAD Mechanical 2000
  0
IDBUFFER
  5
1B1D
330
0
100
AcDbIdBuffer
  0
IDBUFFER
  5
1B1E
330
0
100
AcDbIdBuffer
330
185D
330
185E
330
185F
330
1860
330
1861
330
1862
330
1863
330
1864
330
1865
330
1866
330
1899
330
18B1
330
18B2
330
18B3
330
1A3E
330
132A
330
138D
330
13AC
330
13AD
330
13AE
330
13AF
330
13B1
330
13B2
330
181F
330
1820
330
1821
330
1822
330
1823
330
1824
330
1825
330
1826
330
1827
330
1828
330
1829
330
182A
330
182B
330
182C
330
182D
330
182E
330
182F
330
1830
330
183D
330
183E
330
183F
330
1840
330
184B
330
184C
330
184D
330
184E
330
184F
330
1850
330
1851
330
1852
330
1853
330
1854
330
1855
330
1856
330
1857
330
1858
330
1859
330
185A
330
185B
330
185C
  0
IDBUFFER
  5
1B1F
330
0
100
AcDbIdBuffer
330
1848
330
1849
330
1870
  0
IDBUFFER
  5
1B20
330
0
100
AcDbIdBuffer
330
132B
  0
IDBUFFER
  5
1B21
330
0
100
AcDbIdBuffer
330
13B0
330
13B3
330
145B
330
14F3
  0
IDBUFFER
  5
1B22
330
0
100
AcDbIdBuffer
  0
IDBUFFER
  5
1B23
330
0
100
AcDbIdBuffer
330
E5A
  0
ENDSEC
  0
EOF
